osu file format v14

[General]
AudioFilename: Flowering Night Fever.mp3
AudioLeadIn: 2000
PreviewTime: 62049
Countdown: 0
SampleSet: None
StackLeniency: 0.2
Mode: 0
LetterboxInBreaks: 0
WidescreenStoryboard: 1

[Editor]
Bookmarks: 1687,3342,21549,35618,48859,62100,75342,95204,118376,131618,144859
DistanceSpacing: 1
BeatDivisor: 2
GridSize: 4
TimelineZoom: 1.3

[Metadata]
Title:Flowering Night Fever
TitleUnicode:Flowering Night Fever
Artist:UNDEAD CORPORATION
ArtistUnicode:UNDEAD CORPORATION
Creator:Alheak
Version:Easy
Source:東方花映塚 ~ Phantasmagoria of Flower View.
Tags:dtm9 nowa ekoro pishifat GoldenWolf zun team shanghai alice 上海アリス幻樂団 瞬殺 touhou project Kaeidzuka 花映塚 Phantasmagoria of Flower View sakuya izayoi 十六夜 咲夜 フラワリングナイト 瞬殺 shunsatsu reitaisai 12 instrumental speed metal guitar woof
BeatmapID:2028599
BeatmapSetID:393663

[Difficulty]
HPDrainRate:2
CircleSize:2
OverallDifficulty:2
ApproachRate:3
SliderMultiplier:0.500000005960464
SliderTickRate:1

[Events]
//Background and Video events
0,0,"bg.jpg",0,0
//Break Periods
2,75542,80522
//Storyboard Layer 0 (Background)
//Storyboard Layer 1 (Fail)
//Storyboard Layer 2 (Pass)
//Storyboard Layer 3 (Foreground)
//Storyboard Sound Samples

[TimingPoints]
32,206.896551724138,4,3,1,70,1,0
1273,-100,4,3,2,70,0,0
1480,-100,4,3,3,70,0,0
1687,-100,4,3,1,70,0,0
21549,206.896551724138,3,3,1,70,1,0
25066,206.896551724138,3,3,1,70,1,0
28584,206.896551724138,3,3,1,70,1,0
32101,206.896551724138,3,3,1,70,1,0
35618,206.896551724138,4,3,1,70,1,0
62100,-100,4,3,1,85,0,1
75342,-100,4,3,1,70,0,0
144859,-100,4,3,1,85,0,1
158049,-100,4,3,1,85,0,0
158100,-100,4,3,1,85,0,1
169997,-100,4,3,2,85,0,1
170307,-100,4,3,3,85,0,1
170514,-100,4,3,1,85,0,1
171342,-100,4,3,1,70,0,0
172169,-100,4,3,1,60,0,0
172997,-100,4,3,1,50,0,0
173824,-100,4,3,1,40,0,0
174652,-100,4,3,1,25,0,0
175480,-100,4,3,1,10,0,0
176307,-100,4,3,1,5,0,0

[Colours]
Combo1 : 154,3,49
Combo2 : 190,180,200
Combo3 : 130,120,160
Combo4 : 247,21,61

[HitObjects]
116,58,32,5,0,0:0:0:0:
197,118,445,2,0,L|181:223,1,100.000001192093,2|8,0:0|0:0,0:0:0:0:
262,276,1273,1,8,0:0:0:0:
343,336,1687,5,4,0:0:0:0:
343,336,3342,37,4,0:0:0:0:
399,144,4169,1,0,0:0:0:0:
207,88,4997,1,4,0:0:0:0:
151,280,5825,1,0,0:0:0:0:
346,233,6652,6,0,B|322:163|322:163|330:83,1,150.000001788139,0|0,0:0|0:0,0:0:0:0:
467,147,7894,1,0,0:0:0:0:
455,246,8307,37,4,0:0:0:0:
265,308,9135,1,0,0:0:0:0:
307,112,9963,1,4,0:0:0:0:
365,302,10790,1,0,0:0:0:0:
175,360,11618,1,4,0:0:0:0:
117,170,12445,1,0,0:0:0:0:
312,211,13273,6,0,B|386:202|386:202|463:237,1,150.000001788139,0|0,0:0|0:0,0:0:0:0:
365,354,14514,1,0,0:0:0:0:
265,339,14928,37,4,0:0:0:0:
178,158,15756,1,0,0:0:0:0:
65,324,16583,1,4,0:0:0:0:
244,235,17411,1,0,0:0:0:0:
78,125,18238,1,4,0:0:0:0:
257,36,19066,1,0,0:0:0:0:
418,154,19894,6,0,P|425:234|337:312,1,200.000002384186,4|0,0:0|0:0,0:0:0:0:
218,154,21549,2,0,L|313:199,1,100.000001192093,0|4,0:0|0:0,0:0:0:0:
308,196,25066,37,0,0:0:0:0:
214,161,25479,1,0,0:0:0:0:
124,40,26100,1,0,0:0:0:0:
272,18,26721,1,0,0:0:0:0:
372,128,27341,2,0,L|352:288,1,150.000001788139,2|2,0:0|0:0,0:0:0:0:
217,342,28584,5,4,0:0:0:0:
120,316,28997,1,0,0:0:0:0:
86,169,29618,1,0,0:0:0:0:
53,22,30239,1,0,0:0:0:0:
196,64,30859,2,0,L|363:46,1,150.000001788139,0|0,0:0|0:0,0:0:0:0:
284,185,32101,37,4,0:0:0:0:
185,167,32514,1,0,0:0:0:0:
222,312,33135,1,0,0:0:0:0:
371,296,33756,1,0,0:0:0:0:
450,168,34376,2,0,P|431:79|370:44,1,150.000001788139,0|0,0:0|0:0,0:0:0:0:
256,124,35618,5,4,0:0:0:0:
352,298,36445,1,0,0:0:0:0:
151,300,37273,1,4,0:0:0:0:
95,108,38100,1,0,0:0:0:0:
287,52,38928,1,4,0:0:0:0:
343,244,39756,1,0,0:0:0:0:
148,197,40583,38,0,B|172:127|172:127|164:47,1,150.000001788139,0|0,0:0|0:0,0:0:0:0:
27,111,41825,1,8,0:0:0:0:
39,210,42238,5,4,0:0:0:0:
229,272,43066,1,0,0:0:0:0:
187,76,43894,1,4,0:0:0:0:
129,266,44721,1,0,0:0:0:0:
319,324,45549,1,4,0:0:0:0:
377,134,46376,1,0,0:0:0:0:
182,175,47204,38,0,B|108:166|108:166|31:201,1,150.000001788139,4|4,0:0|0:0,0:0:0:0:
129,318,48445,1,0,0:0:0:0:
229,303,48859,5,8,0:0:0:0:
316,122,49687,1,8,0:0:0:0:
429,288,50514,2,0,L|219:304,1,200.000002384186,12|0,0:0|0:0,0:0:0:0:
316,122,52169,37,12,0:0:0:0:
229,303,52997,1,8,0:0:0:0:
116,137,53824,2,0,L|326:121,1,200.000002384186,12|0,0:0|0:0,0:0:0:0:
429,288,55480,5,12,0:0:0:0:
232,252,56307,1,8,0:0:0:0:
74,375,57135,2,0,B|59:243|59:243|98:185,1,200.000002384186,12|0,0:0|0:0,0:0:0:0:
222,31,58790,37,0,0:0:0:0:
292,218,59618,2,0,P|371:249|372:164,1,200.000002384186,8|4,0:0|0:0,0:0:0:0:
172,154,61273,5,12,0:0:0:0:
55,316,62100,5,0,0:0:0:0:
153,296,62514,1,0,0:0:0:0:
87,220,62928,1,4,0:0:0:0:
151,28,63755,5,4,0:0:0:0:
119,124,64169,1,0,0:0:0:0:
217,104,64583,1,4,0:0:0:0:
352,255,65411,37,4,0:0:0:0:
285,179,65825,1,0,0:0:0:0:
253,274,66239,1,4,0:0:0:0:
451,236,67066,5,4,0:0:0:0:
384,160,67480,1,0,0:0:0:0:
317,84,67893,1,4,0:0:0:0:
116,78,68721,37,4,0:0:0:0:
217,104,69135,1,0,0:0:0:0:
148,174,69549,1,4,0:0:0:0:
212,366,70376,5,4,0:0:0:0:
180,270,70790,1,0,0:0:0:0:
278,290,71204,1,4,0:0:0:0:
413,139,72032,37,4,0:0:0:0:
346,215,72446,1,0,0:0:0:0:
314,120,72860,1,4,0:0:0:0:
512,158,73687,5,4,0:0:0:0:
445,234,74101,1,8,0:0:0:0:
378,310,74514,1,8,0:0:0:0:
314,120,75342,5,4,0:0:0:0:
124,68,81962,5,4,0:0:0:0:
316,30,82790,1,0,0:0:0:0:
446,178,83618,37,0,0:0:0:0:
382,365,84445,2,0,L|264:348,1,100.000001192093,0|8,0:0|0:0,0:0:0:0:
183,336,85273,5,4,0:0:0:0:
336,207,86100,1,0,0:0:0:0:
300,9,86928,1,0,0:0:0:0:
146,137,87755,2,0,L|131:255,1,100.000001192093,0|8,0:0|0:0,0:0:0:0:
119,335,88583,37,4,0:0:0:0:
252,186,89411,1,0,0:0:0:0:
447,226,90238,1,0,0:0:0:0:
388,34,91066,2,0,L|275:47,1,100.000001192093,0|8,0:0|0:0,0:0:0:0:
189,59,91893,5,4,0:0:0:0:
313,215,92721,1,0,0:0:0:0:
115,244,93549,2,0,P|65:200|54:158,1,100.000001192093,0|8,0:0|0:0,0:0:0:0:
154,152,94376,1,0,0:0:0:0:
198,347,95204,37,4,0:0:0:0:
294,321,95618,1,0,0:0:0:0:
390,295,96031,5,0,0:0:0:0:
320,223,96445,1,0,0:0:0:0:
249,152,96859,37,4,0:0:0:0:
345,126,97273,1,0,0:0:0:0:
441,100,97686,5,4,0:0:0:0:
371,28,98100,1,0,0:0:0:0:
274,54,98514,38,0,B|197:76|197:76|72:53,1,200.000002384186,4|0,0:0|0:0,0:0:0:0:
166,234,100169,1,4,0:0:0:0:
348,151,100997,1,4,0:0:0:0:
238,330,101824,6,0,B|315:308|315:308|440:331,1,200.000002384186,4|0,0:0|0:0,0:0:0:0:
348,151,103480,1,4,0:0:0:0:
166,234,104308,1,4,0:0:0:0:
185,34,105135,37,4,0:0:0:0:
283,51,105549,1,8,0:0:0:0:
297,150,105962,1,0,0:0:0:0:
207,193,106376,1,8,0:0:0:0:
138,121,106790,5,8,0:0:0:0:
87,314,107618,1,12,0:0:0:0:
280,262,108445,38,0,B|397:231|397:231|489:250,1,200.000002384186,0|0,0:0|0:0,0:0:0:0:
303,142,110100,2,0,B|186:173|186:173|94:154,1,200.000002384186,4|4,0:0|0:0,0:0:0:0:
271,40,111755,5,4,0:0:0:0:
398,194,112583,1,0,0:0:0:0:
244,321,113411,1,4,0:0:0:0:
117,167,114238,1,4,0:0:0:0:
313,134,115066,37,4,0:0:0:0:
346,330,115893,1,0,0:0:0:0:
150,363,116721,1,4,0:0:0:0:
117,167,117549,6,0,P|182:112|213:192,1,200.000002384186,8|12,0:0|0:0,0:0:0:0:
213,192,120031,37,4,0:0:0:0:
118,16,120858,1,0,0:0:0:0:
317,27,121686,5,4,0:0:0:0:
373,219,122514,1,0,0:0:0:0:
178,172,123341,38,0,B|202:102|202:102|194:22,1,150.000001788139,4|12,0:0|0:0,0:0:0:0:
57,86,124583,1,8,0:0:0:0:
69,185,124996,5,4,0:0:0:0:
259,247,125824,1,0,0:0:0:0:
217,51,126652,1,12,0:0:0:0:
159,241,127479,1,12,0:0:0:0:
349,299,128307,1,4,0:0:0:0:
407,109,129134,1,8,0:0:0:0:
212,150,129962,38,0,B|138:141|138:141|61:176,1,150.000001788139,4|4,0:0|0:0,0:0:0:0:
159,293,131203,1,0,0:0:0:0:
258,306,131618,5,12,0:0:0:0:
345,125,132446,1,8,0:0:0:0:
458,291,133273,2,0,L|248:307,1,200.000002384186,12|0,0:0|0:0,0:0:0:0:
345,125,134928,37,12,0:0:0:0:
258,306,135756,1,8,0:0:0:0:
145,140,136583,2,0,L|355:124,1,200.000002384186,4|0,0:0|0:0,0:0:0:0:
458,291,138239,5,12,0:0:0:0:
261,255,139066,1,8,0:0:0:0:
103,378,139894,2,0,B|88:246|88:246|127:188,1,200.000002384186,4|0,0:0|0:0,0:0:0:0:
251,34,141549,37,4,0:0:0:0:
321,221,142377,2,0,P|400:252|401:167,1,200.000002384186,8|4,0:0|0:0,0:0:0:0:
103,209,144445,5,0,0:0:0:0:
9,250,144859,5,4,0:0:0:0:
91,308,145273,1,0,0:0:0:0:
1,352,145686,1,4,0:0:0:0:
183,268,146514,5,4,0:0:0:0:
193,168,146928,1,0,0:0:0:0:
274,227,147341,1,4,0:0:0:0:
110,113,148169,37,4,0:0:0:0:
20,154,148583,1,0,0:0:0:0:
29,54,148996,1,4,0:0:0:0:
193,168,149824,5,4,0:0:0:0:
103,209,150238,1,0,0:0:0:0:
12,252,150652,1,8,0:0:0:0:
173,370,151480,37,12,0:0:0:0:
263,328,151893,1,0,0:0:0:0:
183,268,152307,1,4,0:0:0:0:
202,69,153135,5,4,0:0:0:0:
193,168,153549,1,0,0:0:0:0:
284,125,153962,1,4,0:0:0:0:
447,239,154790,37,4,0:0:0:0:
364,182,155204,1,0,0:0:0:0:
353,281,155617,1,4,0:0:0:0:
173,370,156445,5,4,0:0:0:0:
183,268,156859,1,4,0:0:0:0:
193,168,157273,1,4,0:0:0:0:
374,84,158100,37,4,0:0:0:0:
456,140,158514,1,12,0:0:0:0:
450,240,158928,2,0,L|442:342,1,100.000001192093,4|12,0:0|0:0,0:0:0:0:
351,380,159755,5,4,0:0:0:0:
269,324,160169,1,12,0:0:0:0:
278,224,160583,2,0,L|285:121,1,100.000001192093,4|12,0:0|0:0,0:0:0:0:
202,68,161411,37,0,0:0:0:0:
110,111,161824,1,12,0:0:0:0:
105,210,162238,2,0,L|98:309,1,100.000001192093,4|12,0:0|0:0,0:0:0:0:
179,368,163066,5,4,0:0:0:0:
269,324,163480,1,12,0:0:0:0:
278,224,163893,2,0,L|285:121,1,100.000001192093,8|0,0:0|0:0,0:0:0:0:
374,84,164721,37,12,0:0:0:0:
456,140,165135,1,8,0:0:0:0:
400,222,165549,1,8,0:0:0:0:
318,166,165962,1,8,0:0:0:0:
236,110,166376,5,8,0:0:0:0:
154,54,166790,1,8,0:0:0:0:
98,136,167204,1,8,0:0:0:0:
180,192,167617,1,8,0:0:0:0:
262,248,168031,5,12,0:0:0:0:
235,344,168445,1,12,3:0:0:0:
136,348,168859,1,12,0:0:0:0:
102,256,169273,1,12,0:0:0:0:
180,192,169686,5,8,0:0:0:0:
377,222,170514,2,0,B|363:102|363:102|399:22,1,200.000002384186,0|4,0:0|0:0,0:0:0:0:
256,192,171549,12,0,176307,0:0:0:0:
