osu file format v14

[General]
AudioFilename: audio.mp3
AudioLeadIn: 0
PreviewTime: -1
Countdown: 1
SampleSet: None
StackLeniency: 0.7
Mode: 0
LetterboxInBreaks: 0
WidescreenStoryboard: 0

[Editor]
Bookmarks: 23633,25690,26376,28433,31175,33746,33918,35289,35975,37346,38031,42145,44888
DistanceSpacing: 3.3
BeatDivisor: 8
GridSize: 4
TimelineZoom: 1

[Metadata]
Title:Fairy Dance
TitleUnicode:Fairy Dance
Artist:UNDEAD CORPORATION
ArtistUnicode:UNDEAD CORPORATION
Creator:Oxia
Version:Extreme
Source:
Tags:
BeatmapID:1015753
BeatmapSetID:475418

[Difficulty]
HPDrainRate:4
CircleSize:4
OverallDifficulty:8
ApproachRate:10
SliderMultiplier:1.4
SliderTickRate:1

[Events]
//Background and Video events
//Break Periods
//Storyboard Layer 0 (Background)
//Storyboard Layer 1 (Fail)
//Storyboard Layer 2 (Pass)
//Storyboard Layer 3 (Foreground)
//Storyboard Sound Samples

[TimingPoints]
22948,685.635927322592,4,1,0,100,1,0
35975,-66.6666666666667,4,1,0,100,0,0

[HitObjects]
96,92,22948,5,0,0:0:0:0:
113,89,23033,1,0,0:0:0:0:
130,89,23119,1,0,0:0:0:0:
147,94,23205,1,0,0:0:0:0:
163,102,23290,1,0,0:0:0:0:
176,113,23376,1,0,0:0:0:0:
187,126,23462,1,0,0:0:0:0:
195,142,23547,1,0,0:0:0:0:
199,159,23633,1,0,0:0:0:0:
276,244,23805,5,0,0:0:0:0:
344,120,23976,1,0,0:0:0:0:
420,236,24147,1,0,0:0:0:0:
32,204,24490,1,0,0:0:0:0:
50,100,24661,1,0,0:0:0:0:
153,118,24833,1,0,0:0:0:0:
140,224,25004,1,0,0:0:0:0:
304,156,25176,5,0,0:0:0:0:
304,296,25347,1,0,0:0:0:0:
436,244,25519,1,0,0:0:0:0:
432,76,25690,5,0,0:0:0:0:
415,70,25775,1,0,0:0:0:0:
398,66,25861,1,0,0:0:0:0:
381,62,25947,1,0,0:0:0:0:
363,60,26032,1,0,0:0:0:0:
346,59,26118,1,0,0:0:0:0:
328,58,26204,1,0,0:0:0:0:
311,59,26289,1,0,0:0:0:0:
294,61,26375,1,0,0:0:0:0:
132,60,26547,5,0,0:0:0:0:
196,200,26718,1,0,0:0:0:0:
316,100,26890,1,0,0:0:0:0:
144,320,27233,1,0,0:0:0:0:
316,260,27404,1,0,0:0:0:0:
148,184,27576,1,0,0:0:0:0:
316,120,27747,1,0,0:0:0:0:
92,56,27918,1,0,0:0:0:0:
240,232,28090,5,0,0:0:0:0:
324,40,28261,1,0,0:0:0:0:
424,224,28433,5,0,0:0:0:0:
411,211,28518,1,0,0:0:0:0:
397,201,28604,1,0,0:0:0:0:
382,192,28690,1,0,0:0:0:0:
365,186,28775,1,0,0:0:0:0:
348,182,28861,1,0,0:0:0:0:
331,181,28947,1,0,0:0:0:0:
314,182,29032,1,0,0:0:0:0:
296,186,29118,1,0,0:0:0:0:
184,88,29290,5,0,0:0:0:0:
284,240,29461,1,0,0:0:0:0:
388,88,29632,1,0,0:0:0:0:
168,212,29975,1,0,0:0:0:0:
328,76,30147,1,0,0:0:0:0:
144,208,30318,1,0,0:0:0:0:
328,76,30489,1,0,0:0:0:0:
264,268,30661,1,0,0:0:0:0:
328,76,30832,5,0,0:0:0:0:
345,73,30917,1,0,0:0:0:0:
362,75,31003,1,0,0:0:0:0:
379,79,31089,1,0,0:0:0:0:
395,86,31174,1,0,0:0:0:0:
409,96,31260,1,0,0:0:0:0:
422,109,31346,1,0,0:0:0:0:
431,123,31431,1,0,0:0:0:0:
438,139,31517,1,0,0:0:0:0:
442,156,31603,1,0,0:0:0:0:
443,174,31689,1,0,0:0:0:0:
441,191,31774,1,0,0:0:0:0:
435,207,31860,1,0,0:0:0:0:
308,168,32032,5,0,0:0:0:0:
176,292,32204,1,0,0:0:0:0:
128,112,32375,1,0,0:0:0:0:
183,206,32718,1,0,0:0:0:0:
241,119,32890,1,0,0:0:0:0:
328,177,33060,1,0,0:0:0:0:
270,264,33232,1,0,0:0:0:0:
188,88,33403,5,0,0:0:0:0:
328,244,33575,1,0,0:0:0:0:
96,128,33746,1,0,0:0:0:0:
95,145,33831,1,0,0:0:0:0:
98,162,33917,1,0,0:0:0:0:
107,177,34003,1,0,0:0:0:0:
119,190,34088,1,0,0:0:0:0:
134,199,34174,1,0,0:0:0:0:
150,206,34260,1,0,0:0:0:0:
167,211,34345,1,0,0:0:0:0:
184,213,34431,1,0,0:0:0:0:
201,214,34517,1,0,0:0:0:0:
219,213,34603,1,0,0:0:0:0:
236,210,34688,1,0,0:0:0:0:
253,206,34774,1,0,0:0:0:0:
270,200,34860,1,0,0:0:0:0:
286,193,34945,1,0,0:0:0:0:
301,185,35031,1,0,0:0:0:0:
316,175,35117,1,0,0:0:0:0:
330,165,35202,1,0,0:0:0:0:
348,140,35289,6,0,L|376:148,3,17.5
356,92,35632,2,0,L|324:88,3,17.5
300,84,35975,1,0,0:0:0:0:
273,84,36060,1,0,0:0:0:0:
249,92,36146,1,0,0:0:0:0:
227,108,36232,1,0,0:0:0:0:
212,129,36317,1,0,0:0:0:0:
209,154,36403,1,0,0:0:0:0:
220,178,36489,1,0,0:0:0:0:
241,194,36574,1,0,0:0:0:0:
264,205,36660,1,0,0:0:0:0:
289,213,36746,1,0,0:0:0:0:
315,220,36832,1,0,0:0:0:0:
340,225,36917,1,0,0:0:0:0:
366,231,37003,1,0,0:0:0:0:
391,239,37089,1,0,0:0:0:0:
415,249,37174,1,0,0:0:0:0:
437,263,37260,1,0,0:0:0:0:
455,283,37346,1,0,0:0:0:0:
466,306,37431,1,0,0:0:0:0:
471,332,37517,1,0,0:0:0:0:
452,348,37603,1,0,0:0:0:0:
430,342,37688,1,0,0:0:0:0:
407,338,37774,1,0,0:0:0:0:
385,336,37860,1,0,0:0:0:0:
362,334,37945,1,0,0:0:0:0:
340,334,38031,1,0,0:0:0:0:
304,332,38117,6,0,L|308:288,4,26.2500010013581
256,336,38546,2,0,L|252:304,5,26.2500010013581
216,348,39060,5,0,0:0:0:0:
190,340,39145,1,0,0:0:0:0:
167,328,39231,1,0,0:0:0:0:
146,313,39317,1,0,0:0:0:0:
128,294,39402,1,0,0:0:0:0:
113,272,39488,1,0,0:0:0:0:
103,248,39574,1,0,0:0:0:0:
96,223,39659,1,0,0:0:0:0:
94,196,39745,1,0,0:0:0:0:
97,170,39831,1,0,0:0:0:0:
104,145,39917,1,0,0:0:0:0:
116,122,40002,1,0,0:0:0:0:
131,100,40088,1,0,0:0:0:0:
150,82,40174,1,0,0:0:0:0:
172,67,40259,1,0,0:0:0:0:
195,56,40345,1,0,0:0:0:0:
221,50,40431,1,0,0:0:0:0:
247,48,40516,1,0,0:0:0:0:
272,52,40603,1,0,0:0:0:0:
297,59,40688,1,0,0:0:0:0:
320,71,40774,1,0,0:0:0:0:
341,87,40860,1,0,0:0:0:0:
358,107,40945,1,0,0:0:0:0:
372,129,41031,1,0,0:0:0:0:
381,154,41117,1,0,0:0:0:0:
386,179,41202,1,0,0:0:0:0:
387,205,41288,1,0,0:0:0:0:
382,231,41374,1,0,0:0:0:0:
373,256,41460,1,0,0:0:0:0:
360,279,41545,1,0,0:0:0:0:
343,298,41631,1,0,0:0:0:0:
322,315,41717,1,0,0:0:0:0:
299,327,41802,1,0,0:0:0:0:
275,336,41888,1,0,0:0:0:0:
249,339,41974,1,0,0:0:0:0:
132,212,42145,5,0,0:0:0:0:
292,64,42317,1,0,0:0:0:0:
292,64,42374,1,0,0:0:0:0:
292,64,42431,1,0,0:0:0:0:
292,64,42488,1,0,0:0:0:0:
332,232,42660,5,0,0:0:0:0:
116,96,42831,1,0,0:0:0:0:
116,96,42888,1,0,0:0:0:0:
116,96,42945,1,0,0:0:0:0:
116,96,43002,1,0,0:0:0:0:
116,96,43088,1,0,0:0:0:0:
128,118,43173,1,0,0:0:0:0:
144,140,43259,1,0,0:0:0:0:
162,159,43345,1,0,0:0:0:0:
182,176,43430,1,0,0:0:0:0:
204,190,43516,1,0,0:0:0:0:
227,202,43602,1,0,0:0:0:0:
252,210,43687,1,0,0:0:0:0:
278,216,43773,1,0,0:0:0:0:
304,218,43859,1,0,0:0:0:0:
330,217,43945,1,0,0:0:0:0:
356,213,44030,1,0,0:0:0:0:
381,206,44116,1,0,0:0:0:0:
405,196,44202,1,0,0:0:0:0:
428,183,44287,1,0,0:0:0:0:
449,168,44373,1,0,0:0:0:0:
468,149,44459,1,0,0:0:0:0:
485,129,44544,1,0,0:0:0:0:
108,100,44888,5,0,0:0:0:0:
