osu file format v14

[General]
AudioFilename: audio.mp3
AudioLeadIn: 0
PreviewTime: 50162
Countdown: 0
SampleSet: Drum
StackLeniency: 0.7
Mode: 2
LetterboxInBreaks: 0
WidescreenStoryboard: 1

[Editor]
DistanceSpacing: 1
BeatDivisor: 4
GridSize: 8
TimelineZoom: 1

[Metadata]
Title:Everything will freeze Guitar Inst-hen
TitleUnicode:Everything will freeze ギターインスト編
Artist:UNDEAD CORPORATION
ArtistUnicode:UNDEAD CORPORATION
Creator:Du5t
Version:Sanyi's Cup
Source:東方花映塚 ~ Phantasmagoria of Flower View.
Tags:パインツリー 暴君 boukun tyrant c84 comiket 84 フラワリングナイト 朱美 kouta zun sakuya izayoi stage theme Flowering Night video game instrumental sanyi crystal clsw minato yukina featured artist
BeatmapID:2439933
BeatmapSetID:981773

[Difficulty]
HPDrainRate:3
CircleSize:2.5
OverallDifficulty:6.3
ApproachRate:6.3
SliderMultiplier:1
SliderTickRate:1

[Events]
//Background and Video events
0,0,"bg.jpg",0,0
//Break Periods
//Storyboard Layer 0 (Background)
//Storyboard Layer 1 (Fail)
//Storyboard Layer 2 (Pass)
//Storyboard Layer 3 (Foreground)
//Storyboard Layer 4 (Overlay)
//Storyboard Sound Samples

[TimingPoints]
225,250,4,3,0,80,1,0
6225,-100,4,3,0,80,0,0
8225,-100,4,3,0,80,0,0
10225,-100,4,3,0,80,0,0
24225,-100,4,3,0,80,0,0
26225,-100,4,3,0,80,0,0
40225,-100,4,3,0,80,0,0
42225,-100,4,3,0,80,0,0
44225,-100,4,3,0,80,0,0
45225,-100,4,3,0,80,0,0
46225,-100,4,3,0,80,0,0
47225,-100,4,3,0,80,0,0
48225,-100,4,3,0,80,0,0
50225,-100,4,3,0,80,0,1
56225,-100,4,3,0,80,0,0
58225,-100,4,3,0,80,0,1
64225,-100,4,3,0,80,0,0
66225,-100,4,3,0,80,0,0
80225,-100,4,3,0,80,0,0
82225,-100,4,3,0,80,0,0
96225,-100,4,3,0,80,0,0
98225,-100,4,3,0,80,0,0
100225,-100,4,3,0,80,0,0
101225,-100,4,3,0,80,0,0
102225,-100,4,3,0,80,0,0
103225,-100,4,3,0,80,0,0
104225,-100,4,3,0,80,0,0
105225,-100,4,3,0,80,0,0
106225,-100,4,3,0,80,0,1
112225,-100,4,3,0,80,0,0
114225,-100,4,3,0,80,0,1
120225,-100,4,3,0,80,0,0
122225,-100,4,3,0,80,0,0
124225,-100,4,3,0,80,0,0
140225,-100,4,3,0,80,0,1
158225,-100,4,3,0,80,0,0
159225,-100,4,3,0,80,0,0
160225,-100,4,3,0,80,0,0
161225,-100,4,3,0,80,0,0
162225,-100,4,3,0,80,0,0
164225,-100,4,3,0,80,0,0
164725,-100,4,3,0,80,0,0
165225,-100,4,3,0,80,0,0
165725,-100,4,3,0,80,0,0
166225,-100,4,3,0,80,0,0
167725,-100,4,3,0,80,0,0
168225,-100,4,3,0,80,0,1
174225,-100,4,3,0,80,0,0
176225,-100,4,3,0,80,0,1
182225,-100,4,3,0,80,0,0
184225,-100,4,3,0,80,0,0
188225,-100,4,3,0,80,0,0
190225,-100,4,3,0,80,0,0

[Colours]
Combo1 : 191,0,0
Combo2 : 106,106,106
Combo3 : 192,192,192

[HitObjects]
256,192,225,12,0,1975,0:0:0:0:
256,192,2225,5,0,0:0:0:0:
408,296,3225,5,0,0:0:0:0:
304,296,3475,2,0,P|216:160|312:112,1,300
176,224,5225,2,0,P|112:144|176:104,1,200
272,112,5975,1,0,0:0:0:0:
384,280,6225,6,0,L|384:72,1,200
192,280,7225,2,0,L|192:80,1,200
424,144,8225,6,0,L|264:144,1,150
456,336,8975,2,0,L|456:224,1,100
352,216,9475,2,0,L|232:216,1,100
160,216,9975,2,0,L|224:216,1,50
280,344,10225,6,0,L|480:344,1,200
288,232,11225,2,0,L|80:232,1,200
280,160,12225,6,0,L|496:160,1,200
248,344,13225,2,0,P|184:264|256:224,1,200
344,224,13975,1,0,0:0:0:0:
232,224,14225,6,0,L|16:224,1,200
216,64,15225,2,0,L|432:64,1,200
184,352,16225,6,0,L|184:248,1,100
72,352,16725,2,0,L|72:248,1,100
184,192,17225,1,0,0:0:0:0:
376,192,17725,1,0,0:0:0:0:
376,80,17975,2,0,L|320:80,1,50
256,344,18225,6,0,L|40:344,1,200
248,240,19225,2,0,L|456:240,1,200
248,160,20225,6,0,L|448:160,1,200
216,344,21225,2,0,P|168:240|216:224,1,200
312,216,21975,1,0,0:0:0:0:
424,352,22225,6,0,L|424:144,1,200
232,352,23225,2,0,L|232:144,1,200
464,112,24225,6,0,L|304:112,1,150
128,248,24975,2,0,L|240:248,1,100
344,248,25475,2,0,L|344:144,1,100
248,120,25975,2,0,L|184:120,1,50
128,304,26225,5,0,0:0:0:0:
272,272,26600,2,0,L|376:272,1,100
200,192,27225,2,0,L|200:88,1,100
312,192,27725,2,0,L|312:88,1,100
200,304,28225,5,0,0:0:0:0:
56,296,28600,2,0,L|56:192,1,100
232,112,29225,2,0,L|336:112,1,100
216,48,29725,2,0,L|112:48,1,100
232,176,30225,5,0,0:0:0:0:
376,304,30600,2,0,L|376:200,1,100
192,208,31225,2,0,L|88:208,1,100
216,88,31725,2,0,L|316:88,1,100
184,360,32225,6,0,P|144:280|184:256,1,150
344,360,32975,2,0,P|384:280|344:256,1,150
168,192,33725,2,0,L|272:192,1,100
384,192,34225,5,0,0:0:0:0:
240,88,34600,2,0,L|136:88,1,100
312,296,35225,2,0,L|312:184,1,100
200,296,35725,2,0,L|200:192,1,100
312,144,36225,5,0,0:0:0:0:
456,312,36600,2,0,L|456:208,1,100
280,232,37225,2,0,L|176:232,1,100
296,136,37725,2,0,L|400:136,1,100
280,304,38225,5,0,0:0:0:0:
136,304,38600,2,0,L|136:200,1,100
328,200,39225,2,0,L|432:200,1,100
296,104,39725,2,0,L|192:104,1,100
328,336,40225,6,0,P|352:280|328:264,1,100
280,264,40600,1,0,0:0:0:0:
136,176,40975,2,0,L|288:176,2,150
232,296,41975,1,0,0:0:0:0:
360,296,42225,5,0,0:0:0:0:
464,200,42475,2,0,L|352:200,1,100
248,200,42975,2,0,L|144:200,1,100
368,328,43725,6,0,L|368:224,1,100
240,112,44225,6,0,L|40:112,1,200
256,240,45225,2,0,L|464:240,1,200
256,96,46225,6,0,L|464:96,1,200
224,304,47225,2,0,L|24:304,1,200
256,264,48225,6,0,L|256:152,3,100
376,80,49225,1,0,0:0:0:0:
96,192,50225,6,0,L|96:88,1,100
216,296,50725,2,0,L|328:296,1,100
184,192,51225,6,0,L|184:88,1,100
304,88,51725,2,0,L|416:88,1,100
272,344,52225,6,0,L|272:240,1,100
392,200,52725,2,0,L|496:200,1,100
360,104,53225,6,0,L|248:104,1,100
160,104,53725,1,0,0:0:0:0:
408,192,54225,6,0,L|408:88,1,100
288,296,54725,2,0,L|176:296,1,100
320,192,55225,6,0,L|320:88,1,100
200,88,55725,2,0,L|88:88,1,100
232,304,56225,6,0,L|336:304,2,100
16,192,57225,1,0,0:0:0:0:
272,192,57725,2,0,L|384:192,1,100
232,320,58225,5,0,0:0:0:0:
128,232,58475,1,0,0:0:0:0:
128,136,58725,1,0,0:0:0:0:
232,64,58975,1,0,0:0:0:0:
360,192,59225,5,0,0:0:0:0:
248,192,59475,1,0,0:0:0:0:
136,192,59725,1,0,0:0:0:0:
24,192,59975,1,0,0:0:0:0:
152,320,60225,5,0,0:0:0:0:
256,320,60475,1,0,0:0:0:0:
256,224,60725,1,0,0:0:0:0:
152,224,60975,1,0,0:0:0:0:
280,96,61225,6,0,L|176:96,1,100
72,96,61725,1,0,0:0:0:0:
312,320,62225,5,0,0:0:0:0:
416,232,62475,1,0,0:0:0:0:
416,136,62725,1,0,0:0:0:0:
312,64,62975,1,0,0:0:0:0:
184,304,63225,5,0,0:0:0:0:
296,304,63475,1,0,0:0:0:0:
408,304,63725,1,0,0:0:0:0:
296,216,63975,1,0,0:0:0:0:
168,120,64225,6,0,L|64:120,2,100
392,128,65225,1,0,0:0:0:0:
168,280,65725,1,0,0:0:0:0:
416,280,66225,6,0,L|416:80,1,200
216,72,67225,2,0,L|16:72,1,200
216,240,68225,6,0,L|416:240,1,200
184,344,69225,2,0,L|184:240,1,100
288,240,69725,2,0,L|392:240,1,100
272,144,70225,6,0,L|64:144,1,200
272,64,71225,2,0,L|72:64,1,200
304,328,72225,5,0,0:0:0:0:
408,328,72475,1,0,0:0:0:0:
304,232,72725,1,0,0:0:0:0:
200,232,72975,1,0,0:0:0:0:
320,160,73225,2,0,P|376:136|312:48,1,200
88,320,74225,5,0,0:0:0:0:
368,248,75225,2,0,L|152:248,1,200
368,272,76225,2,0,L|368:64,1,200
136,200,77225,6,0,L|32:200,1,100
136,104,77725,2,0,L|240:104,1,100
352,344,78225,6,0,L|352:144,1,200
152,336,79225,2,0,L|152:136,1,200
384,272,80225,6,0,P|424:200|376:176,1,150
192,160,80975,2,0,L|80:160,1,100
208,312,81475,2,0,L|320:312,1,100
408,232,81975,2,0,L|408:176,1,50
344,160,82225,5,0,0:0:0:0:
184,160,82600,2,0,L|80:160,2,100
256,88,83225,2,0,L|456:88,1,200
232,304,84225,5,0,0:0:0:0:
384,304,84600,2,0,L|488:304,2,100
312,184,85225,2,0,L|112:184,1,200
336,96,86225,5,0,0:0:0:0:
184,96,86600,2,0,L|80:96,2,100
256,96,87225,1,0,0:0:0:0:
56,336,87725,2,0,L|56:232,1,100
184,224,88225,6,0,L|352:224,1,150
168,144,88975,2,0,P|128:64|168:40,1,150
344,336,89725,2,0,L|448:336,1,100
320,240,90225,5,0,0:0:0:0:
168,144,90600,1,0,0:0:0:0:
272,144,90850,1,0,0:0:0:0:
376,144,91100,1,0,0:0:0:0:
304,56,91225,2,0,L|96:56,1,200
328,352,92225,5,0,0:0:0:0:
176,272,92600,1,0,0:0:0:0:
176,176,92850,1,0,0:0:0:0:
280,176,93100,1,0,0:0:0:0:
352,80,93225,2,0,L|144:80,1,200
376,304,94225,5,0,0:0:0:0:
224,224,94600,1,0,0:0:0:0:
120,224,94850,1,0,0:0:0:0:
16,224,95100,1,0,0:0:0:0:
88,136,95225,1,0,0:0:0:0:
312,136,95725,2,0,L|312:24,1,100
184,336,96225,6,0,P|160:280|184:264,1,100
232,264,96600,1,0,0:0:0:0:
376,176,96975,2,0,L|224:176,2,150
280,296,97975,1,0,0:0:0:0:
152,216,98225,6,0,L|152:112,1,100
264,216,98725,2,0,L|264:96,1,100
136,216,99225,6,0,L|32:216,1,100
168,128,99725,1,0,0:0:0:0:
392,344,100225,6,0,L|392:128,1,200
192,336,101225,2,0,L|192:136,1,200
408,336,102225,6,0,L|408:136,1,200
192,144,103225,2,0,L|72:144,2,100
304,144,103975,1,0,0:0:0:0:
176,328,104225,6,0,L|176:224,1,100
288,328,104725,2,0,L|288:208,1,100
160,256,105225,2,0,P|72:128|168:48,1,300
296,264,106225,6,0,L|296:152,1,100
176,144,106725,2,0,L|64:144,1,100
208,320,107225,6,0,L|208:216,1,100
328,224,107725,2,0,L|432:224,1,100
296,176,108225,6,0,L|296:64,1,100
176,80,108725,2,0,L|72:80,1,100
192,296,109225,6,0,L|304:296,1,100
392,296,109725,1,0,0:0:0:0:
144,208,110225,6,0,L|144:96,1,100
264,104,110725,2,0,L|368:104,1,100
496,256,111225,6,0,L|496:152,1,100
376,136,111725,2,0,L|264:136,1,100
152,136,112225,5,0,0:0:0:0:
376,320,112725,2,0,L|376:208,1,100
248,176,113225,1,0,0:0:0:0:
16,352,113725,2,0,L|16:240,1,100
160,208,114225,5,0,0:0:0:0:
272,208,114475,1,0,0:0:0:0:
384,208,114725,1,0,0:0:0:0:
496,208,114975,1,0,0:0:0:0:
368,344,115225,5,0,0:0:0:0:
368,240,115475,1,0,0:0:0:0:
480,344,115725,1,0,0:0:0:0:
480,240,115975,1,0,0:0:0:0:
352,120,116225,5,0,0:0:0:0:
240,120,116475,1,0,0:0:0:0:
128,120,116725,1,0,0:0:0:0:
16,120,116975,1,0,0:0:0:0:
144,272,117225,6,0,L|256:272,2,100
368,248,118225,5,0,0:0:0:0:
472,168,118475,1,0,0:0:0:0:
472,80,118725,1,0,0:0:0:0:
368,24,118975,1,0,0:0:0:0:
240,160,119225,5,0,0:0:0:0:
128,160,119475,1,0,0:0:0:0:
240,64,119725,1,0,0:0:0:0:
352,64,119975,1,0,0:0:0:0:
224,288,120225,5,0,0:0:0:0:
16,176,120725,2,0,L|128:176,1,100
256,104,121225,5,0,0:0:0:0:
56,104,121725,1,0,0:0:0:0:
280,320,122225,5,0,0:0:0:0:
480,248,122725,2,0,L|272:248,1,200
168,248,123475,2,0,P|104:176|168:128,1,200
296,248,124225,6,0,L|296:32,1,200
96,256,125225,2,0,L|96:56,1,200
296,272,126225,6,0,L|496:272,1,200
264,216,127225,2,0,P|200:136|272:96,1,200
360,96,127975,1,0,0:0:0:0:
248,312,128225,6,0,L|40:312,1,200
248,248,129225,2,0,L|448:248,1,200
216,304,130225,5,0,0:0:0:0:
112,216,130475,1,0,0:0:0:0:
112,112,130725,1,0,0:0:0:0:
216,32,130975,1,0,0:0:0:0:
336,232,131225,2,0,L|336:112,1,100
224,232,131725,2,0,L|224:112,1,100
352,320,132225,5,0,0:0:0:0:
152,240,133225,1,0,0:0:0:0:
328,240,133975,2,0,L|328:136,1,100
144,96,134725,5,0,0:0:0:0:
344,312,135225,1,0,0:0:0:0:
448,312,135475,2,0,L|448:208,2,100
328,160,136225,5,0,0:0:0:0:
128,160,136725,1,0,0:0:0:0:
32,72,136975,2,0,L|144:72,1,100
328,288,137850,1,0,0:0:0:0:
160,288,138225,6,0,P|120:216|160:200,1,150
328,200,138975,2,0,L|432:200,1,100
312,96,139475,2,0,L|200:96,1,100
96,240,139975,2,0,L|96:184,1,50
168,312,140225,6,0,P|232:256|160:192,1,200
56,184,140975,1,0,0:0:0:0:
168,112,141225,1,0,0:0:0:0:
296,112,141475,2,0,L|400:112,1,100
192,328,142225,6,0,P|128:272|200:208,1,200
304,208,142975,1,0,0:0:0:0:
432,144,143225,1,0,0:0:0:0:
216,144,143725,2,0,L|112:144,1,100
248,344,144225,6,0,L|248:144,1,200
144,96,144975,1,0,0:0:0:0:
264,56,145225,2,0,L|368:56,1,100
248,192,145725,2,0,L|144:192,1,100
280,304,146225,5,0,0:0:0:0:
392,304,146475,2,0,P|456:224|384:184,1,200
288,192,147225,2,0,L|88:192,1,200
312,344,148225,6,0,P|400:312|424:248,2,150
184,200,149225,1,0,0:0:0:0:
360,200,149600,2,0,L|360:48,1,150
232,320,150225,6,0,L|128:320,1,100
248,224,150725,2,0,L|352:224,1,100
232,160,151225,2,0,P|168:80|240:40,1,200
464,264,152225,6,0,L|464:160,1,100
352,264,152725,2,0,L|248:264,1,100
136,176,153225,2,0,L|248:176,1,100
120,88,153725,2,0,L|16:88,1,100
152,344,154225,6,0,P|192:248|160:232,1,150
56,168,154850,2,0,L|112:168,1,50
240,280,155225,2,0,P|328:160|232:88,1,300
104,280,156225,5,0,0:0:0:0:
216,280,156475,2,0,L|328:280,1,100
424,280,156975,2,0,L|424:224,1,50
352,144,157225,2,0,L|232:144,2,100
480,144,157975,1,0,0:0:0:0:
360,264,158225,6,0,L|160:264,1,200
376,256,159225,2,0,L|376:56,1,200
160,56,160225,6,0,L|360:56,1,200
136,232,161225,2,0,L|16:232,2,100
248,232,161975,1,0,0:0:0:0:
368,232,162225,6,0,L|368:112,1,100
256,160,162725,2,0,L|256:48,1,100
376,352,163225,2,0,P|440:280|368:232,1,200
144,168,164225,6,0,L|344:168,3,200
112,320,166225,6,0,L|0:320,3,100
136,240,167225,1,0,0:0:0:0:
360,240,167725,2,0,L|360:128,1,100
224,128,168225,6,0,L|104:128,1,100
248,224,168725,2,0,L|352:224,1,100
216,336,169225,6,0,L|216:232,1,100
96,336,169725,2,0,L|96:232,1,100
232,160,170225,6,0,L|344:160,1,100
208,64,170725,2,0,L|96:64,1,100
240,264,171225,5,0,0:0:0:0:
464,192,171725,2,0,L|352:192,1,100
232,192,172225,6,0,L|232:88,1,100
352,96,172725,2,0,L|464:96,1,100
320,328,173225,6,0,L|320:216,1,100
200,208,173725,2,0,L|96:208,1,100
232,104,174225,6,0,L|336:104,2,100
16,312,175225,1,0,0:0:0:0:
240,312,175725,2,0,L|344:312,1,100
200,320,176225,5,0,0:0:0:0:
96,232,176475,1,0,0:0:0:0:
96,136,176725,1,0,0:0:0:0:
200,64,176975,1,0,0:0:0:0:
328,176,177225,5,0,0:0:0:0:
216,176,177475,1,0,0:0:0:0:
104,176,177725,1,0,0:0:0:0:
216,80,177975,1,0,0:0:0:0:
344,296,178225,5,0,0:0:0:0:
232,296,178475,1,0,0:0:0:0:
344,192,178725,1,0,0:0:0:0:
456,192,178975,1,0,0:0:0:0:
328,80,179225,6,0,L|216:80,1,100
128,80,179725,1,0,0:0:0:0:
368,320,180225,5,0,0:0:0:0:
472,232,180475,1,0,0:0:0:0:
472,136,180725,1,0,0:0:0:0:
368,64,180975,1,0,0:0:0:0:
240,184,181225,5,0,0:0:0:0:
352,184,181475,1,0,0:0:0:0:
464,184,181725,1,0,0:0:0:0:
352,88,181975,1,0,0:0:0:0:
224,344,182225,6,0,P|136:216|232:152,1,300
352,176,183225,1,0,0:0:0:0:
120,112,183725,1,0,0:0:0:0:
320,336,184225,6,0,L|320:128,1,200
120,328,185225,2,0,L|120:120,1,200
320,96,186225,6,0,L|112:96,1,200
344,344,187225,2,0,L|448:344,1,100
328,224,187725,2,0,L|224:224,1,100
352,128,188225,5,0,0:0:0:0:
472,56,188475,2,0,L|360:56,1,100
264,144,188975,2,0,L|368:144,1,100
256,264,189475,2,0,L|144:264,1,100
384,336,190225,6,0,P|432:272|376:240,1,150
216,184,190975,1,0,0:0:0:0:
336,240,191225,6,0,P|384:176|376:160,1,100
336,144,191600,1,0,0:0:0:0:
160,64,191975,2,0,L|312:64,1,150
488,192,192725,2,0,L|384:192,1,100
256,192,193225,5,0,0:0:0:0:
