osu file format v14

[General]
AudioFilename: audio.mp3
AudioLeadIn: 0
PreviewTime: 50162
Countdown: 0
SampleSet: Drum
StackLeniency: 0.7
Mode: 2
LetterboxInBreaks: 0
WidescreenStoryboard: 1

[Editor]
DistanceSpacing: 1
BeatDivisor: 4
GridSize: 8
TimelineZoom: 1

[Metadata]
Title:Everything will freeze Guitar Inst-hen
TitleUnicode:Everything will freeze ギターインスト編
Artist:UNDEAD CORPORATION
ArtistUnicode:UNDEAD CORPORATION
Creator:Du5t
Version:Rain
Source:東方花映塚 ~ Phantasmagoria of Flower View.
Tags:パインツリー 暴君 boukun tyrant c84 comiket 84 フラワリングナイト 朱美 kouta zun sakuya izayoi stage theme Flowering Night video game instrumental sanyi crystal clsw minato yukina featured artist
BeatmapID:2054797
BeatmapSetID:981773

[Difficulty]
HPDrainRate:6
CircleSize:3.6
OverallDifficulty:9.1
ApproachRate:9.1
SliderMultiplier:1.6
SliderTickRate:2

[Events]
//Background and Video events
0,0,"bg.jpg",0,0
//Break Periods
//Storyboard Layer 0 (Background)
//Storyboard Layer 1 (Fail)
//Storyboard Layer 2 (Pass)
//Storyboard Layer 3 (Foreground)
//Storyboard Layer 4 (Overlay)
//Storyboard Sound Samples

[TimingPoints]
225,250,4,3,0,80,1,0
6225,-100,4,3,0,80,0,0
8225,-100,4,3,0,80,0,0
10225,-100,4,3,0,80,0,0
24225,-100,4,3,0,80,0,0
26225,-100,4,3,0,80,0,0
40225,-100,4,3,0,80,0,0
42225,-100,4,3,0,80,0,0
44225,-100,4,3,0,80,0,0
45225,-100,4,3,0,80,0,0
46225,-100,4,3,0,80,0,0
47225,-100,4,3,0,80,0,0
48225,-100,4,3,0,80,0,0
50225,-100,4,3,0,80,0,1
56225,-100,4,3,0,80,0,0
58225,-100,4,3,0,80,0,1
64225,-100,4,3,0,80,0,0
66225,-100,4,3,0,80,0,0
80225,-100,4,3,0,80,0,0
82225,-100,4,3,0,80,0,0
96225,-100,4,3,0,80,0,0
98225,-100,4,3,0,80,0,0
100225,-100,4,3,0,80,0,0
101225,-100,4,3,0,80,0,0
102225,-100,4,3,0,80,0,0
103225,-100,4,3,0,80,0,0
104225,-100,4,3,0,80,0,0
105225,-100,4,3,0,80,0,0
106225,-100,4,3,0,80,0,1
112225,-100,4,3,0,80,0,0
114225,-100,4,3,0,80,0,1
120225,-100,4,3,0,80,0,0
122225,-100,4,3,0,80,0,0
124225,-100,4,3,0,80,0,0
140225,-100,4,3,0,80,0,1
158225,-100,4,3,0,80,0,0
159225,-100,4,3,0,80,0,0
160225,-100,4,3,0,80,0,0
161225,-100,4,3,0,80,0,0
162225,-100,4,3,0,80,0,0
164225,-100,4,3,0,80,0,0
164725,-100,4,3,0,80,0,0
165225,-100,4,3,0,80,0,0
165725,-100,4,3,0,80,0,0
166225,-100,4,3,0,80,0,0
167725,-100,4,3,0,80,0,0
168225,-100,4,3,0,80,0,1
174225,-100,4,3,0,80,0,0
176225,-100,4,3,0,80,0,1
182225,-100,4,3,0,80,0,0
184225,-100,4,3,0,80,0,0
188225,-100,4,3,0,80,0,0
190225,-100,4,3,0,80,0,0

[Colours]
Combo1 : 191,0,0
Combo2 : 106,106,106
Combo3 : 192,192,192

[HitObjects]
272,269,225,6,0,B|179:266,2,80
127,193,600,2,0,P|81:193|81:193,1,40
87,136,725,2,0,L|146:137,1,40
175,133,850,2,0,L|258:130,1,80
173,301,1100,1,0,0:0:0:0:
213,299,1162,1,0,0:0:0:0:
253,295,1225,1,0,0:0:0:0:
109,233,1350,6,0,B|61:232|61:232|61:233,1,40
69,191,1475,2,0,P|117:191|117:191,1,40
149,187,1600,2,0,P|234:186|234:186,1,80
148,102,1850,1,0,0:0:0:0:
145,62,1912,1,0,0:0:0:0:
142,21,1975,1,0,0:0:0:0:
468,275,2225,5,0,0:0:0:0:
177,271,3100,1,0,0:0:0:0:
328,273,3225,6,0,P|373:254|309:181,1,160
295,172,3537,1,0,0:0:0:0:
254,171,3600,1,0,0:0:0:0:
333,100,3725,2,0,P|329:50|329:50,1,40
289,56,3850,1,0,0:0:0:0:
208,90,3975,1,0,0:0:0:0:
247,88,4037,1,0,0:0:0:0:
287,85,4100,1,0,0:0:0:0:
431,81,4225,5,0,0:0:0:0:
178,288,5225,6,0,P|175:192|175:192,1,80
321,135,5475,1,0,0:0:0:0:
282,131,5537,1,0,0:0:0:0:
242,128,5600,1,0,0:0:0:0:
385,305,5725,2,0,L|390:218,1,80
246,139,5975,2,0,P|194:141|194:141,1,40
246,139,6100,2,0,P|297:144|297:144,1,40
116,284,6225,6,0,L|25:288,1,80
36,206,6475,2,0,P|136:203|136:203,1,80
262,178,6725,2,0,P|266:93|266:93,1,80
124,98,6975,2,0,P|115:12|115:12,1,80
260,280,7225,6,0,P|356:284|356:284,1,80
260,280,7475,2,0,L|176:275,1,80
327,163,7725,2,0,P|334:76|334:76,1,80
185,101,7975,2,0,P|178:14|178:14,1,80
369,270,8225,6,0,P|454:274|454:274,2,80
221,186,8600,2,0,P|132:181|132:181,2,80
366,110,8975,2,0,L|276:104,1,80
91,292,9225,6,0,P|35:227|91:208,1,160
114,202,9537,1,0,0:0:0:0:
154,200,9600,1,0,0:0:0:0:
193,199,9662,1,0,0:0:0:0:
233,201,9725,2,0,P|291:176|230:116,1,160
209,110,10037,1,0,0:0:0:0:
168,106,10100,1,0,0:0:0:0:
128,104,10162,1,0,0:0:0:0:
302,282,10225,5,0,0:0:0:0:
363,230,10350,1,0,0:0:0:0:
335,154,10475,1,0,0:0:0:0:
259,127,10600,1,0,0:0:0:0:
111,43,10725,2,0,P|200:38|200:38,1,80
337,19,10975,2,0,P|341:110|341:110,1,80
196,267,11225,6,0,L|106:271,1,80
116,190,11475,2,0,B|213:186|213:186|212:187,1,80
340,159,11725,2,0,P|349:72|349:72,1,80
204,63,11975,2,0,P|113:59|113:59,1,80
266,266,12225,5,0,0:0:0:0:
292,190,12350,1,0,0:0:0:0:
247,123,12475,1,0,0:0:0:0:
168,107,12600,1,0,0:0:0:0:
305,50,12725,2,0,P|403:47|403:47,1,80
241,217,12975,2,0,L|140:211,1,80
357,277,13225,6,0,L|408:278,1,40
400,237,13350,2,0,P|344:234|344:234,1,40
320,227,13475,2,0,B|235:221|235:221|235:222,1,80
432,131,13725,2,0,P|493:134|493:134,1,40
432,131,13850,2,0,B|376:133,1,40
351,135,13975,2,0,P|439:131|439:131,1,80
221,280,14225,6,0,P|135:275|135:275,1,80
143,195,14475,2,0,P|228:189|228:189,1,80
368,171,14725,2,0,P|357:83|357:83,1,80
215,105,14975,2,0,L|205:11,1,80
350,273,15225,5,0,0:0:0:0:
278,237,15350,1,0,0:0:0:0:
255,160,15475,1,0,0:0:0:0:
316,108,15600,1,0,0:0:0:0:
460,148,15725,2,0,P|466:56|466:56,1,80
321,33,15975,2,0,L|408:32,1,80
205,339,16225,6,0,L|202:250,1,80
395,269,16475,2,0,P|400:177|400:177,1,80
207,206,16725,2,0,P|204:121|204:121,1,80
398,131,16975,2,0,L|403:37,1,80
195,257,17225,6,0,L|355:248,1,160
315,256,17537,1,0,0:0:0:0:
274,259,17600,1,0,0:0:0:0:
234,261,17662,1,0,0:0:0:0:
193,263,17725,2,0,P|155:231|235:175,1,160
173,158,18037,1,0,0:0:0:0:
133,152,18100,1,0,0:0:0:0:
326,180,18225,5,0,0:0:0:0:
394,138,18350,1,0,0:0:0:0:
361,64,18475,1,0,0:0:0:0:
283,45,18600,1,0,0:0:0:0:
138,290,18725,2,0,P|134:195|134:195,1,80
281,213,18975,2,0,P|296:132|296:132,1,80
150,122,19225,5,0,0:0:0:0:
119,48,19350,1,0,0:0:0:0:
167,112,19475,1,0,0:0:0:0:
250,139,19600,1,0,0:0:0:0:
395,285,19725,2,0,P|405:187|405:187,1,80
256,190,19975,2,0,L|172:183,1,80
368,104,20225,6,0,P|458:109|458:109,1,80
368,104,20475,2,0,L|282:109,1,80
144,284,20725,2,0,P|156:194|156:194,1,80
298,209,20975,2,0,L|308:123,1,80
112,112,21225,6,0,L|66:111,1,40
71,66,21350,2,0,L|117:67,1,40
155,67,21475,2,0,L|239:66,1,80
46,254,21725,2,0,B|37:189|37:189|37:190,1,40
62,176,21850,2,0,L|101:148,1,40
138,145,21975,2,0,L|52:137,1,80
256,249,22225,5,0,0:0:0:0:
340,223,22350,1,0,0:0:0:0:
401,160,22475,1,0,0:0:0:0:
415,73,22600,1,0,0:0:0:0:
271,73,22725,2,0,L|175:71,1,80
335,262,22975,2,0,L|429:263,1,80
274,198,23225,5,0,0:0:0:0:
238,126,23350,1,0,0:0:0:0:
280,58,23475,1,0,0:0:0:0:
357,38,23600,1,0,0:0:0:0:
213,275,23725,2,0,L|207:183,1,80
353,193,23975,2,0,L|362:106,1,80
166,282,24225,6,0,L|85:278,2,80
310,247,24600,2,0,L|313:154,1,80
231,166,24850,1,0,0:0:0:0:
377,113,24975,2,0,L|382:23,1,80
192,293,25225,6,0,P|161:254|239:204,1,160
270,209,25537,1,0,0:0:0:0:
308,219,25600,1,0,0:0:0:0:
346,227,25662,1,0,0:0:0:0:
385,234,25725,2,0,L|218:200,1,160
267,195,26037,1,0,0:0:0:0:
306,188,26100,1,0,0:0:0:0:
345,181,26162,1,0,0:0:0:0:
167,125,26225,6,0,L|72:122,2,80
311,128,26600,2,0,L|318:40,1,80
174,255,26850,2,0,L|181:160,1,80
324,190,27100,1,0,0:0:0:0:
181,94,27225,6,0,L|99:91,1,80
181,27,27475,2,0,L|89:26,1,80
246,249,27725,2,0,L|334:244,1,80
246,176,27975,2,0,L|331:171,1,80
129,149,28225,6,0,L|31:145,2,80
271,122,28600,2,0,L|266:35,1,80
412,91,28850,2,0,L|418:-8,1,80
273,13,29100,1,0,0:0:0:0:
419,273,29225,6,0,L|331:268,1,80
421,226,29475,2,0,L|427:142,1,80
279,121,29725,2,0,L|365:116,1,80
279,75,29975,2,0,L|275:-13,1,80
470,313,30225,6,0,P|478:224|478:224,1,80
393,228,30475,1,0,0:0:0:0:
248,157,30600,2,0,L|158:151,1,80
312,87,30850,2,0,L|305:176,1,80
168,151,31100,1,0,0:0:0:0:
362,298,31225,6,0,L|369:208,1,80
176,212,31475,2,0,L|121:139,1,80
328,98,31725,2,0,P|376:96|376:96,1,40
367,56,31850,2,0,L|311:54,1,40
286,51,31975,2,0,L|368:47,1,80
172,288,32225,6,0,B|122:268|122:268|122:269,1,40
107,243,32350,2,0,L|125:182,1,40
157,196,32475,1,0,0:0:0:0:
301,198,32600,2,0,L|356:192,1,40
373,169,32725,2,0,L|355:116,1,40
320,125,32850,1,0,0:0:0:0:
176,52,32975,6,0,P|163:103|163:103,1,40
189,123,33100,2,0,L|220:149,1,40
259,154,33225,1,0,0:0:0:0:
408,307,33350,2,0,L|400:247,1,40
372,240,33475,2,0,L|315:215,1,40
296,214,33600,1,0,0:0:0:0:
106,167,33725,6,0,L|119:75,1,80
309,94,33975,2,0,L|412:102,1,80
191,261,34225,6,0,L|104:258,2,80
336,227,34600,2,0,L|342:140,1,80
197,148,34850,2,0,L|188:63,1,80
327,55,35100,1,0,0:0:0:0:
179,277,35225,6,0,P|186:194|186:194,1,80
266,149,35475,2,0,L|180:143,1,80
333,283,35725,2,0,L|328:185,1,80
249,153,35975,2,0,L|352:147,1,80
139,245,36225,6,0,P|134:156|134:156,1,80
214,163,36475,1,0,0:0:0:0:
357,139,36600,2,0,L|446:142,1,80
292,42,36850,2,0,L|237:114,1,80
388,120,37100,1,0,0:0:0:0:
240,269,37225,6,0,L|233:180,1,80
151,145,37475,2,0,L|238:140,1,80
375,225,37725,2,0,L|381:140,1,80
466,103,37975,2,0,L|376:96,1,80
199,244,38225,6,0,L|113:239,2,80
341,164,38600,2,0,L|242:159,1,80
116,152,38850,2,0,L|110:70,1,80
253,68,39100,1,0,0:0:0:0:
59,298,39225,6,0,P|74:208|74:208,1,80
267,218,39475,2,0,L|337:170,1,80
139,90,39725,2,0,L|84:89,1,40
139,90,39850,2,0,L|189:90,1,40
219,90,39975,2,0,L|131:89,1,80
340,262,40225,5,0,0:0:0:0:
260,258,40350,1,0,0:0:0:0:
180,253,40475,1,0,0:0:0:0:
326,181,40600,2,0,L|415:184,2,80
182,150,40975,2,0,L|239:133,1,40
251,97,41100,2,0,L|223:51,1,40
190,54,41225,1,0,0:0:0:0:
339,290,41350,6,0,L|423:282,1,80
378,282,41537,1,0,0:0:0:0:
337,282,41600,1,0,0:0:0:0:
192,206,41725,2,0,L|251:203,1,40
272,200,41850,2,0,L|338:195,1,40
271,198,41975,2,0,L|178:207,1,80
386,162,42225,6,0,P|435:142|369:73,1,160
356,62,42537,1,0,0:0:0:0:
315,60,42600,1,0,0:0:0:0:
275,56,42662,1,0,0:0:0:0:
230,52,42725,2,0,L|391:55,1,160
433,57,43037,1,0,0:0:0:0:
389,54,43100,1,0,0:0:0:0:
193,260,43225,6,0,L|138:259,1,40
153,214,43350,2,0,L|204:212,1,40
237,210,43475,2,0,L|291:209,2,40
155,121,43725,2,0,L|251:120,1,80
379,121,43975,1,0,0:0:0:0:
58,301,44225,6,0,L|55:215,1,80
134,219,44475,2,0,L|144:134,1,80
289,147,44725,2,0,B|287:66|287:68,1,80
363,84,44975,2,0,L|371:2,1,80
228,282,45225,6,0,B|222:192,1,80
300,185,45475,2,0,L|381:181,1,80
236,127,45725,2,0,L|232:42,1,80
309,38,45975,2,0,L|391:37,1,80
246,267,46225,6,0,L|158:261,1,80
247,190,46475,2,0,L|146:181,1,80
311,139,46725,2,0,L|398:137,1,80
309,64,46975,2,0,L|390:62,1,80
241,266,47225,6,0,L|158:260,1,80
306,207,47475,2,0,L|389:212,1,80
237,142,47725,2,0,L|232:59,1,80
377,73,47975,2,0,L|427:76,1,40
417,31,48100,2,0,L|366:27,1,40
206,253,48225,6,0,L|106:247,1,80
318,178,48475,2,0,L|405:172,1,80
206,107,48725,2,0,L|117:100,1,80
321,62,48975,2,0,L|406:57,1,80
131,18,49225,1,0,0:0:0:0:
366,298,50225,6,0,L|371:201,1,80
227,210,50475,2,0,L|216:127,1,80
361,58,50725,1,0,0:0:0:0:
289,52,50850,1,0,0:0:0:0:
217,44,50975,1,0,0:0:0:0:
145,38,51100,1,0,0:0:0:0:
286,272,51225,6,0,L|292:181,1,80
145,217,51475,2,0,L|136:134,1,80
284,115,51725,1,0,0:0:0:0:
212,105,51850,1,0,0:0:0:0:
140,97,51975,1,0,0:0:0:0:
68,87,52100,1,0,0:0:0:0:
267,231,52225,6,0,L|361:223,1,80
203,158,52475,2,0,L|197:69,1,80
343,42,52725,2,0,L|259:40,1,80
116,277,52975,2,0,L|210:276,1,80
392,258,53225,6,0,L|399:159,1,80
206,146,53475,2,0,L|115:141,1,80
314,73,53725,2,0,L|136:62,1,160
470,311,54225,6,0,L|478:211,1,80
328,214,54475,2,0,L|243:206,1,80
395,134,54725,1,0,0:0:0:0:
320,106,54850,1,0,0:0:0:0:
334,27,54975,1,0,0:0:0:0:
411,7,55100,1,0,0:0:0:0:
267,306,55225,6,0,L|174:299,1,80
331,240,55475,2,0,L|420:245,1,80
266,175,55725,1,0,0:0:0:0:
319,115,55850,1,0,0:0:0:0:
273,49,55975,1,0,0:0:0:0:
193,37,56100,1,0,0:0:0:0:
384,300,56225,6,0,L|436:300,2,40
239,253,56475,2,0,L|236:154,1,80
380,113,56725,2,0,L|296:106,1,80
155,93,56975,2,0,L|102:91,2,40
350,295,57225,6,0,L|357:205,1,80
212,186,57475,2,0,L|165:185,2,40
408,91,57725,2,0,L|356:90,1,40
327,88,57850,2,0,L|275:87,1,40
246,87,57975,2,0,L|350:91,1,80
133,265,58225,6,0,L|83:265,1,40
133,265,58350,2,0,L|191:263,1,40
215,197,58475,1,0,0:0:0:0:
175,196,58537,1,0,0:0:0:0:
134,193,58600,1,0,0:0:0:0:
277,124,58725,2,0,L|329:124,2,40
132,58,58975,2,0,L|86:56,2,40
333,288,59225,6,0,L|381:288,1,40
375,247,59350,2,0,L|314:243,1,40
294,187,59475,1,0,0:0:0:0:
333,187,59537,1,0,0:0:0:0:
373,186,59600,1,0,0:0:0:0:
228,103,59725,2,0,P|174:100|174:100,1,40
192,60,59850,1,0,0:0:0:0:
340,106,59975,2,0,P|396:107|396:107,1,40
375,66,60100,1,0,0:0:0:0:
176,266,60225,6,0,L|167:217,1,40
205,209,60350,2,0,L|264:192,1,40
204,187,60475,1,0,0:0:0:0:
165,177,60537,1,0,0:0:0:0:
125,171,60600,1,0,0:0:0:0:
270,106,60725,1,0,0:0:0:0:
309,103,60787,1,0,0:0:0:0:
349,101,60850,1,0,0:0:0:0:
205,53,60975,1,0,0:0:0:0:
165,51,61037,1,0,0:0:0:0:
124,48,61100,1,0,0:0:0:0:
319,269,61225,6,0,L|363:271,1,40
359,227,61350,2,0,L|311:223,1,40
165,177,61475,2,0,L|111:179,1,40
122,138,61600,2,0,L|166:136,1,40
326,136,61725,2,0,P|371:137|371:137,1,40
326,136,61850,2,0,L|273:136,1,40
327,94,61975,2,0,P|335:49|335:49,1,40
375,51,62100,2,0,L|383:4,1,40
211,282,62225,6,0,P|157:279|157:279,1,40
174,240,62350,2,0,B|230:236|230:236|229:236,1,40
256,180,62475,1,0,0:0:0:0:
216,176,62537,1,0,0:0:0:0:
176,170,62600,1,0,0:0:0:0:
321,108,62725,2,0,L|363:108,2,40
179,62,62975,2,0,L|127:59,2,40
376,282,63225,6,0,P|423:283|423:283,1,40
376,282,63350,2,0,L|310:282,1,40
294,215,63475,1,0,0:0:0:0:
333,212,63537,1,0,0:0:0:0:
373,209,63600,1,0,0:0:0:0:
230,109,63725,1,0,0:0:0:0:
269,106,63787,1,0,0:0:0:0:
309,102,63850,1,0,0:0:0:0:
453,57,63975,1,0,0:0:0:0:
413,54,64037,1,0,0:0:0:0:
372,52,64100,1,0,0:0:0:0:
179,292,64225,5,0,0:0:0:0:
280,253,64350,1,0,0:0:0:0:
286,213,64412,1,0,0:0:0:0:
292,173,64475,1,0,0:0:0:0:
209,157,64600,1,0,0:0:0:0:
353,105,64725,2,0,L|437:99,1,80
288,41,64975,2,0,L|205:34,1,80
405,304,65225,6,0,P|471:283|399:171,1,240
224,76,65725,2,0,L|470:65,1,240
264,276,66225,5,0,0:0:0:0:
194,236,66350,1,0,0:0:0:0:
162,162,66475,1,0,0:0:0:0:
215,102,66600,1,0,0:0:0:0:
359,152,66725,2,0,L|368:57,1,80
222,277,66975,2,0,L|231:186,1,80
373,227,67225,5,0,0:0:0:0:
412,157,67350,1,0,0:0:0:0:
365,92,67475,1,0,0:0:0:0:
286,75,67600,1,0,0:0:0:0:
144,263,67725,2,0,L|153:169,1,80
293,167,67975,2,0,L|301:77,1,80
154,62,68225,6,0,L|62:59,1,80
75,139,68475,2,0,L|166:142,1,80
301,252,68725,2,0,L|391:256,1,80
236,320,68975,2,0,L|143:316,1,80
350,175,69225,6,0,L|401:176,1,40
350,175,69350,2,0,L|287:175,1,40
269,175,69475,2,0,L|183:172,1,80
379,94,69725,2,0,L|425:93,1,40
420,52,69850,2,0,L|366:53,1,40
339,51,69975,2,0,L|431:47,1,80
221,285,70225,5,0,0:0:0:0:
151,245,70350,1,0,0:0:0:0:
119,171,70475,1,0,0:0:0:0:
179,118,70600,1,0,0:0:0:0:
325,126,70725,2,0,L|322:206,1,80
180,49,70975,2,0,L|99:47,1,80
294,302,71225,5,0,0:0:0:0:
381,302,71350,1,0,0:0:0:0:
294,302,71475,1,0,0:0:0:0:
206,298,71600,1,0,0:0:0:0:
350,222,71725,2,0,L|359:138,1,80
216,77,71975,2,0,L|315:72,1,80
100,242,72225,6,0,L|53:242,2,40
293,191,72475,2,0,L|344:191,2,40
100,242,72725,6,0,L|53:242,2,40
293,191,72975,2,0,L|344:191,2,40
88,130,73225,6,0,P|49:94|136:49,1,160
149,31,73537,1,0,0:0:0:0:
189,33,73600,1,0,0:0:0:0:
380,248,73725,2,0,L|421:248,1,40
380,248,73850,2,0,L|325:252,1,40
299,252,73975,1,0,0:0:0:0:
340,250,74037,1,0,0:0:0:0:
380,248,74100,1,0,0:0:0:0:
160,158,74225,5,0,0:0:0:0:
316,246,75225,6,0,L|415:234,1,80
202,171,75475,2,0,L|117:166,1,80
317,137,75725,2,0,L|313:52,1,80
166,93,75975,2,0,L|159:3,1,80
353,283,76225,6,0,L|441:286,1,80
433,205,76475,2,0,L|338:202,1,80
211,186,76725,2,0,L|122:181,1,80
275,117,76975,2,0,L|356:115,1,80
163,293,77225,6,0,L|149:239,1,40
178,223,77350,2,0,L|220:198,1,40
251,191,77475,2,0,L|336:182,1,80
128,115,77725,2,0,L|81:115,1,40
128,115,77850,2,0,L|197:115,1,40
208,113,77975,2,0,L|126:114,1,80
320,294,78225,5,0,0:0:0:0:
397,272,78350,1,0,0:0:0:0:
421,195,78475,1,0,0:0:0:0:
363,138,78600,1,0,0:0:0:0:
218,152,78725,2,0,L|207:68|207:68,1,80
351,80,78975,2,0,L|342:-6,1,80
198,261,79225,6,0,L|101:258,1,80
38,253,79475,2,0,L|127:255,1,80
261,196,79725,2,0,L|265:111,1,80
121,68,79975,2,0,L|211:63,1,80
390,274,80225,6,0,L|475:273,2,80
244,184,80600,1,0,0:0:0:0:
323,180,80725,1,0,0:0:0:0:
402,174,80850,1,0,0:0:0:0:
258,89,80975,2,0,L|347:84,1,80
148,282,81225,6,0,P|96:264|122:168,1,160
147,173,81537,1,0,0:0:0:0:
187,173,81600,1,0,0:0:0:0:
226,173,81662,1,0,0:0:0:0:
266,173,81725,2,0,P|285:137|201:70,1,160
171,63,82037,1,0,0:0:0:0:
130,63,82100,1,0,0:0:0:0:
90,60,82162,1,0,0:0:0:0:
266,266,82225,6,0,L|357:268,2,80
121,145,82600,2,0,L|209:145,1,80
347,151,82850,2,0,L|351:61,1,80
203,63,83100,1,0,0:0:0:0:
348,298,83225,6,0,L|352:197,1,80
270,113,83475,2,0,L|366:117,1,80
206,279,83725,2,0,L|200:186,1,80
281,123,83975,2,0,L|185:116,1,80
395,256,84225,6,0,L|404:164,1,80
323,172,84475,1,0,0:0:0:0:
181,147,84600,2,0,L|168:58,1,80
312,46,84850,2,0,L|322:128,1,80
178,113,85100,1,0,0:0:0:0:
323,276,85225,6,0,L|229:270,1,80
162,252,85475,2,0,L|156:166,1,80
305,109,85725,2,0,L|209:105,1,80
144,101,85975,2,0,P|135:11|135:11,1,80
328,275,86225,6,0,L|410:274,2,80
184,177,86600,2,0,L|266:173,1,80
410,105,86850,2,0,L|321:101,1,80
184,90,87100,1,0,0:0:0:0:
373,295,87225,6,0,L|378:208,1,80
189,224,87475,2,0,L|172:133,1,80
361,107,87725,2,0,L|408:106,1,40
400,65,87850,2,0,L|346:62,1,40
319,62,87975,2,0,L|403:59,1,80
206,285,88225,6,0,L|163:264,1,40
141,239,88350,2,0,L|124:177,1,40
160,173,88475,1,0,0:0:0:0:
308,152,88600,2,0,L|352:144,1,40
375,115,88725,2,0,L|347:76,1,40
311,81,88850,1,0,0:0:0:0:
166,303,88975,6,0,L|176:257,1,40
207,241,89100,2,0,L|249:216,1,40
281,216,89225,1,0,0:0:0:0:
137,161,89350,6,0,L|82:159,1,40
137,161,89475,2,0,L|195:162,1,40
217,165,89600,1,0,0:0:0:0:
410,149,89725,2,0,L|456:150,1,40
450,109,89850,2,0,L|385:107,1,40
245,93,89975,2,0,L|147:85,1,80
361,295,90225,6,0,L|366:197,1,80
285,215,90475,1,0,0:0:0:0:
429,154,90600,2,0,P|438:73|438:73,1,80
293,102,90850,2,0,L|303:16,1,80
445,23,91100,1,0,0:0:0:0:
306,273,91225,5,0,0:0:0:0:
365,219,91350,1,0,0:0:0:0:
332,145,91475,1,0,0:0:0:0:
257,116,91600,1,0,0:0:0:0:
404,198,91725,1,0,0:0:0:0:
349,139,91850,1,0,0:0:0:0:
370,61,91975,1,0,0:0:0:0:
444,31,92100,1,0,0:0:0:0:
241,264,92225,6,0,L|153:258,2,80
384,213,92600,2,0,L|386:123,1,80
242,110,92850,2,0,L|156:104,1,80
310,44,93100,1,0,0:0:0:0:
165,297,93225,6,0,L|263:289,1,80
161,238,93475,2,0,L|153:157,1,80
298,157,93725,2,0,L|212:150,1,80
300,102,93975,2,0,L|310:7,1,80
115,312,94225,6,0,L|107:221,1,80
188,225,94475,1,0,0:0:0:0:
331,197,94600,2,0,L|326:105,1,80
182,68,94850,2,0,L|189:164,1,80
326,117,95100,1,0,0:0:0:0:
178,303,95225,6,0,L|88:299,1,80
307,254,95475,2,0,L|396:257,1,80
196,165,95725,2,0,L|193:85,1,80
337,76,95975,1,0,0:0:0:0:
20,302,96225,5,0,0:0:0:0:
99,299,96350,1,0,0:0:0:0:
178,295,96475,1,0,0:0:0:0:
316,233,96600,2,0,L|401:228,2,80
176,168,96975,2,0,L|127:167,1,40
139,127,97100,2,0,L|190:127,1,40
219,127,97225,1,0,0:0:0:0:
364,123,97350,6,0,L|372:41,1,80
332,40,97537,1,0,0:0:0:0:
291,39,97600,1,0,0:0:0:0:
148,228,97725,2,0,L|219:231,1,40
228,230,97850,2,0,L|284:231,1,40
308,230,97975,2,0,L|225:229,1,80
425,206,98225,6,0,L|417:122,1,80
276,144,98475,2,0,L|268:64,1,80
125,74,98725,2,0,L|114:-7,1,80
261,12,98975,2,0,L|356:5,1,80
147,288,99225,6,0,L|143:188,1,80
291,195,99475,2,0,L|383:188,1,80
227,94,99725,2,0,L|180:94,1,40
227,94,99850,2,0,L|271:94,1,40
227,94,99975,1,0,0:0:0:0:
187,93,100037,1,0,0:0:0:0:
146,91,100100,1,0,0:0:0:0:
345,315,100225,6,0,L|351:232,1,80
268,223,100475,2,0,L|274:139,1,80
130,152,100725,2,0,L|121:60,1,80
204,66,100975,2,0,L|196:-18,1,80
340,279,101225,6,0,L|345:197,1,80
266,189,101475,2,0,L|181:184,1,80
333,127,101725,2,0,L|339:45,1,80
258,43,101975,2,0,L|179:40,1,80
321,277,102225,6,0,L|229:270,1,80
325,218,102475,2,0,L|332:134,1,80
186,133,102725,2,0,L|275:130,1,80
184,70,102975,1,0,0:0:0:0:
180,109,103037,1,0,0:0:0:0:
176,149,103100,1,0,0:0:0:0:
321,290,103225,6,0,L|371:293,2,40
244,205,103475,1,0,0:0:0:0:
283,203,103537,1,0,0:0:0:0:
323,201,103600,1,0,0:0:0:0:
244,124,103725,1,0,0:0:0:0:
204,123,103787,1,0,0:0:0:0:
163,120,103850,1,0,0:0:0:0:
308,60,103975,2,0,L|396:58,1,80
191,295,104225,6,0,L|188:200,1,80
384,212,104475,2,0,L|380:116,1,80
188,216,104725,2,0,L|185:120,1,80
381,132,104975,2,0,L|379:32,1,80
185,263,105225,6,0,L|90:253,1,80
248,191,105475,2,0,L|324:194,1,40
248,191,105600,2,0,L|194:189,1,40
372,125,105725,2,0,L|418:127,1,40
411,86,105850,2,0,L|357:84,1,40
206,89,105975,2,0,L|123:85,1,80
319,327,106225,6,0,L|326:234,1,80
180,226,106475,2,0,L|185:145,1,80
329,56,106725,1,0,0:0:0:0:
249,52,106850,1,0,0:0:0:0:
169,46,106975,1,0,0:0:0:0:
249,52,107100,1,0,0:0:0:0:
385,286,107225,6,0,L|390:204,1,80
250,204,107475,2,0,L|144:194,1,80
307,87,107725,1,0,0:0:0:0:
386,78,107850,1,0,0:0:0:0:
465,67,107975,1,0,0:0:0:0:
386,78,108100,1,0,0:0:0:0:
171,67,108225,6,0,L|163:169,1,80
312,268,108475,2,0,L|318:178,1,80
171,251,108725,2,0,L|257:257,1,80
396,110,108975,2,0,L|298:107,1,80
121,55,109225,6,0,L|116:160,1,80
309,192,109475,2,0,L|410:196,1,80
193,72,109725,2,0,L|356:77,1,160
31,295,110225,6,0,L|28:196,1,80
176,194,110475,2,0,L|267:188,1,80
111,76,110725,1,0,0:0:0:0:
179,117,110850,1,0,0:0:0:0:
157,202,110975,1,0,0:0:0:0:
75,234,111100,1,0,0:0:0:0:
219,244,111225,6,0,L|311:252,1,80
155,147,111475,2,0,L|67:137,1,80
221,48,111725,1,0,0:0:0:0:
141,43,111850,1,0,0:0:0:0:
61,35,111975,1,0,0:0:0:0:
141,43,112100,1,0,0:0:0:0:
335,249,112225,6,0,L|391:252,2,40
198,132,112475,2,0,L|192:232,1,80
335,125,112725,2,0,L|342:35,1,80
203,31,112975,1,0,0:0:0:0:
163,28,113037,1,0,0:0:0:0:
122,24,113100,1,0,0:0:0:0:
315,293,113225,6,0,L|320:197,1,80
182,191,113475,2,0,L|179:250,1,40
219,237,113600,1,0,0:0:0:0:
411,106,113725,2,0,L|353:104,1,40
331,100,113850,2,0,L|276:97,1,40
250,94,113975,2,0,L|137:86,1,80
363,280,114225,6,0,L|416:281,1,40
404,240,114350,2,0,L|354:237,1,40
316,177,114475,1,0,0:0:0:0:
355,173,114537,1,0,0:0:0:0:
395,168,114600,1,0,0:0:0:0:
257,60,114725,2,0,L|251:122,1,40
293,105,114850,1,0,0:0:0:0:
430,92,114975,2,0,L|434:40,1,40
393,47,115100,1,0,0:0:0:0:
200,260,115225,6,0,L|179:216,1,40
214,177,115350,2,0,L|261:152,1,40
199,99,115475,1,0,0:0:0:0:
159,93,115537,1,0,0:0:0:0:
118,89,115600,1,0,0:0:0:0:
261,44,115725,2,0,L|310:49,2,40
120,309,115975,2,0,L|66:304,2,40
315,220,116225,6,0,L|368:224,1,40
315,220,116350,2,0,L|259:215,1,40
327,165,116475,2,0,L|330:117,1,40
369,125,116600,1,0,0:0:0:0:
231,56,116725,1,0,0:0:0:0:
191,53,116787,1,0,0:0:0:0:
150,49,116850,1,0,0:0:0:0:
292,315,116975,1,0,0:0:0:0:
331,319,117037,1,0,0:0:0:0:
371,322,117100,1,0,0:0:0:0:
177,213,117225,6,0,L|126:209,1,40
100,193,117350,2,0,L|74:154,1,40
225,136,117475,2,0,L|275:133,1,40
304,123,117600,2,0,L|332:77,1,40
165,37,117725,2,0,L|154:93,1,40
201,107,117850,2,0,L|257:120,1,40
188,149,117975,2,0,L|176:193,1,40
127,241,118100,2,0,L|114:296,1,40
286,261,118225,6,0,L|339:262,1,40
326,221,118350,2,0,L|273:218,1,40
241,172,118475,1,0,0:0:0:0:
280,170,118537,1,0,0:0:0:0:
320,167,118600,1,0,0:0:0:0:
183,85,118725,1,0,0:0:0:0:
143,84,118787,2,0,L|139:32,1,40
277,22,118975,1,0,0:0:0:0:
316,22,119037,2,0,L|318:76,1,40
122,263,119225,6,0,L|71:261,1,40
122,263,119350,2,0,L|185:265,1,40
116,210,119475,2,0,L|110:167,1,40
70,169,119600,1,0,0:0:0:0:
210,125,119725,2,0,L|255:131,2,40
73,36,119975,1,0,0:0:0:0:
112,39,120037,1,0,0:0:0:0:
152,43,120100,1,0,0:0:0:0:
347,253,120225,6,0,L|410:258,2,53.3333333333333
290,195,120475,2,0,L|456:186,1,160
393,127,120808,1,0,0:0:0:0:
340,119,120891,1,0,0:0:0:0:
287,43,120975,1,0,0:0:0:0:
340,40,121058,1,0,0:0:0:0:
393,38,121141,1,0,0:0:0:0:
196,298,121225,6,0,P|141:280|184:131,1,240
358,57,121725,2,0,L|105:46,1,240
317,245,122225,6,0,L|367:246,2,40
234,158,122475,1,0,0:0:0:0:
368,127,122600,2,0,L|424:118,1,40
367,64,122725,2,0,L|317:58,2,40
453,303,122975,1,0,0:0:0:0:
316,239,123100,5,0,0:0:0:0:
276,239,123162,2,0,L|268:193,1,40
353,159,123350,1,0,0:0:0:0:
216,128,123475,1,0,0:0:0:0:
176,130,123537,2,0,L|166:85,1,40
253,29,123725,2,0,L|190:26,1,40
172,25,123850,2,0,L|124:30,1,40
134,75,123975,1,0,0:0:0:0:
455,290,124225,5,0,0:0:0:0:
489,217,124350,1,0,0:0:0:0:
459,142,124475,1,0,0:0:0:0:
389,102,124600,1,0,0:0:0:0:
296,54,124725,1,0,0:0:0:0:
375,46,124850,1,0,0:0:0:0:
454,36,124975,1,0,0:0:0:0:
375,46,125100,1,0,0:0:0:0:
238,276,125225,5,0,0:0:0:0:
163,246,125350,1,0,0:0:0:0:
126,174,125475,1,0,0:0:0:0:
171,107,125600,1,0,0:0:0:0:
85,97,125725,1,0,0:0:0:0:
49,168,125850,1,0,0:0:0:0:
66,246,125975,1,0,0:0:0:0:
91,276,126037,1,0,0:0:0:0:
124,300,126100,1,0,0:0:0:0:
269,226,126225,5,0,0:0:0:0:
348,232,126350,1,0,0:0:0:0:
269,226,126475,1,0,0:0:0:0:
189,218,126600,1,0,0:0:0:0:
272,161,126725,1,0,0:0:0:0:
346,130,126850,1,0,0:0:0:0:
365,52,126975,1,0,0:0:0:0:
346,21,127037,1,0,0:0:0:0:
313,17,127100,1,0,0:0:0:0:
176,277,127225,5,0,0:0:0:0:
255,277,127350,1,0,0:0:0:0:
335,277,127475,1,0,0:0:0:0:
414,274,127600,1,0,0:0:0:0:
278,173,127725,1,0,0:0:0:0:
232,145,127808,1,0,0:0:0:0:
214,94,127891,1,0,0:0:0:0:
242,48,127975,1,0,0:0:0:0:
292,30,128058,1,0,0:0:0:0:
344,35,128141,1,0,0:0:0:0:
151,284,128225,5,0,0:0:0:0:
83,241,128350,1,0,0:0:0:0:
80,161,128475,1,0,0:0:0:0:
142,111,128600,1,0,0:0:0:0:
225,73,128725,1,0,0:0:0:0:
146,60,128850,1,0,0:0:0:0:
67,46,128975,1,0,0:0:0:0:
105,53,129037,1,0,0:0:0:0:
146,60,129100,1,0,0:0:0:0:
283,287,129225,5,0,0:0:0:0:
319,215,129350,1,0,0:0:0:0:
278,145,129475,1,0,0:0:0:0:
201,122,129600,1,0,0:0:0:0:
285,46,129725,1,0,0:0:0:0:
364,49,129850,1,0,0:0:0:0:
285,46,129975,1,0,0:0:0:0:
205,43,130100,1,0,0:0:0:0:
399,308,130225,6,0,L|405:208,1,80
267,170,130475,2,0,L|212:166,2,40
350,93,130725,2,0,L|263:88,1,80
187,32,130975,2,0,L|280:40,1,80
405,299,131225,6,0,L|458:299,2,40
260,188,131475,2,0,L|211:183,1,40
220,143,131600,1,0,0:0:0:0:
356,66,131725,2,0,L|359:172,1,80
225,48,131975,2,0,L|138:49,1,80
342,323,132225,6,0,P|386:296|323:222,1,160
214,123,132725,2,0,L|383:115,1,160
145,278,133225,6,0,P|91:261|107:163,1,160
223,49,133725,2,0,L|215:219,1,160
445,291,134225,6,0,P|483:244|410:186,1,160
294,143,134725,2,0,P|303:93|403:63,1,160
67,264,135225,5,0,0:0:0:0:
197,199,135475,2,0,L|266:201,2,53.3333333333333
143,116,135725,1,0,0:0:0:0:
196,118,135808,1,0,0:0:0:0:
249,120,135891,1,0,0:0:0:0:
195,51,135975,2,0,L|132:48,2,53.3333333333333
376,299,136225,6,0,P|426:263|361:197,1,160
248,195,136725,2,0,P|192:173|233:101,1,160
454,39,137225,6,0,L|273:33,1,160
159,45,137725,2,0,L|145:222,1,160
469,297,138225,6,0,L|474:205,1,80
393,209,138475,1,0,0:0:0:0:
258,178,138600,2,0,L|263:83,1,80
342,101,138850,1,0,0:0:0:0:
206,35,138975,2,0,L|108:28,1,80
320,297,139225,6,0,P|368:285|320:201,1,160
303,194,139537,1,0,0:0:0:0:
263,188,139600,1,0,0:0:0:0:
223,182,139662,1,0,0:0:0:0:
185,97,139725,2,0,L|349:88,1,160
385,86,140037,1,0,0:0:0:0:
345,89,140100,1,0,0:0:0:0:
149,270,140225,6,0,L|92:251,1,40
76,234,140350,2,0,L|53:197,1,40
47,149,140475,2,0,L|79:97,1,40
102,99,140600,1,0,0:0:0:0:
238,94,140725,2,0,L|288:96,2,40
101,308,140975,1,0,0:0:0:0:
140,311,141037,1,0,0:0:0:0:
180,313,141100,1,0,0:0:0:0:
374,221,141225,6,0,L|380:172,1,40
383,141,141350,1,0,0:0:0:0:
154,99,141475,2,0,L|105:96,2,40
291,36,141725,2,0,L|300:132,1,80
162,270,141975,2,0,L|156:174,1,80
350,201,142225,6,0,L|417:202,1,40
389,148,142350,2,0,L|336:147,1,40
304,87,142475,2,0,L|250:85,2,40
441,324,142725,2,0,L|451:232,1,80
316,187,142975,1,0,0:0:0:0:
355,184,143037,1,0,0:0:0:0:
395,181,143100,1,0,0:0:0:0:
201,120,143225,6,0,L|108:109,1,80
201,34,143475,1,0,0:0:0:0:
212,72,143537,1,0,0:0:0:0:
223,110,143600,1,0,0:0:0:0:
35,288,143725,2,0,L|46:200,1,80
125,166,143975,1,0,0:0:0:0:
85,161,144037,1,0,0:0:0:0:
45,151,144100,1,0,0:0:0:0:
246,294,144225,6,0,P|293:284|249:205,1,160
222,201,144537,1,0,0:0:0:0:
181,196,144600,1,0,0:0:0:0:
314,127,144725,2,0,L|401:122,1,80
311,45,144975,2,0,L|405:42,1,80
251,284,145225,6,0,L|156:275,1,80
315,221,145475,2,0,L|411:231,1,80
257,122,145725,2,0,L|358:131,1,80
145,59,145975,1,0,0:0:0:0:
105,54,146037,1,0,0:0:0:0:
65,48,146100,1,0,0:0:0:0:
257,282,146225,6,0,L|346:274,1,80
297,279,146412,1,0,0:0:0:0:
256,276,146475,1,0,0:0:0:0:
397,189,146600,2,0,L|485:184,1,80
437,191,146787,1,0,0:0:0:0:
396,191,146850,1,0,0:0:0:0:
260,120,146975,6,0,L|172:125,1,80
219,120,147162,1,0,0:0:0:0:
259,117,147225,1,0,0:0:0:0:
402,291,147350,2,0,L|496:286,1,80
442,289,147537,1,0,0:0:0:0:
402,291,147600,1,0,0:0:0:0:
207,205,147725,2,0,L|145:203,1,40
167,163,147850,2,0,L|216:163,1,40
361,155,147975,2,0,L|451:154,1,80
219,314,148225,6,0,P|166:296|217:215,1,160
334,95,148600,2,0,L|164:83,1,160
258,26,148975,2,0,L|306:28,2,40
117,260,149225,6,0,L|36:256,2,80
309,152,149600,2,0,L|131:142,1,160
187,131,149912,1,0,0:0:0:0:
215,102,149975,1,0,0:0:0:0:
208,62,150037,1,0,0:0:0:0:
173,41,150100,1,0,0:0:0:0:
366,273,150225,6,0,L|416:263,1,40
435,238,150350,2,0,L|453:187,1,40
434,162,150475,2,0,L|410:113,1,40
377,114,150600,1,0,0:0:0:0:
238,219,150725,2,0,L|215:168,1,40
232,141,150850,2,0,L|255:94,1,40
273,72,150975,2,0,L|325:46,1,40
348,48,151100,1,0,0:0:0:0:
485,50,151225,1,0,0:0:0:0:
284,279,151350,6,0,L|240:263,1,40
220,234,151475,2,0,L|217:179,1,40
252,163,151600,1,0,0:0:0:0:
388,141,151725,1,0,0:0:0:0:
201,71,151850,2,0,L|114:64,2,80
397,319,152225,6,0,P|446:289|375:220,1,160
324,210,152600,1,0,0:0:0:0:
191,171,152725,2,0,L|95:158,1,80
248,96,152975,2,0,L|340:93,1,80
139,286,153225,6,0,L|53:278,1,80
194,218,153475,2,0,L|294:206,1,80
137,119,153725,2,0,L|88:114,2,40
175,127,153912,1,0,0:0:0:0:
311,107,153975,2,0,L|405:114,1,80
188,298,154225,6,0,L|97:293,2,80
325,232,154600,2,0,L|413:237,1,80
325,232,154850,1,0,0:0:0:0:
287,209,154912,1,0,0:0:0:0:
284,164,154975,1,0,0:0:0:0:
307,127,155037,1,0,0:0:0:0:
347,109,155100,1,0,0:0:0:0:
155,212,155225,6,0,L|98:209,1,40
91,172,155350,2,0,L|94:125,1,40
137,127,155475,1,0,0:0:0:0:
274,60,155600,2,0,L|217:56,1,40
193,53,155725,2,0,L|140:47,1,40
113,43,155850,1,0,0:0:0:0:
316,239,155975,2,0,L|411:232,1,80
197,280,156225,6,0,P|138:255|191:192,1,160
219,189,156537,1,0,0:0:0:0:
259,188,156600,1,0,0:0:0:0:
72,115,156725,2,0,L|22:112,1,40
30,72,156850,2,0,L|89:74,1,40
218,48,156975,2,0,L|269:50,1,40
218,48,157100,2,0,L|162:46,1,40
320,278,157225,5,0,0:0:0:0:
359,274,157287,1,0,0:0:0:0:
399,271,157350,1,0,0:0:0:0:
257,197,157475,1,0,0:0:0:0:
217,194,157537,1,0,0:0:0:0:
176,189,157600,1,0,0:0:0:0:
371,155,157725,2,0,L|379:101,1,40
349,86,157850,2,0,L|299:61,1,40
166,92,157975,2,0,L|83:82,1,80
293,313,158225,6,0,L|304:221,1,80
217,213,158475,2,0,L|230:126,1,80
369,34,158725,2,0,L|359:137,1,80
273,137,158975,2,0,L|262:229,1,80
119,311,159225,6,0,L|23:306,1,80
121,245,159475,2,0,L|125:165,1,80
268,101,159725,2,0,L|356:103,1,80
265,177,159975,2,0,L|261:271,1,80
406,65,160225,6,0,L|305:62,1,80
242,62,160475,2,0,L|234:159,1,80
376,244,160725,2,0,L|284:238,1,80
206,232,160975,1,0,0:0:0:0:
202,271,161037,1,0,0:0:0:0:
198,311,161100,1,0,0:0:0:0:
335,143,161225,6,0,L|379:147,2,40
196,82,161475,2,0,L|134:77,2,40
340,45,161725,1,0,0:0:0:0:
379,48,161787,1,0,0:0:0:0:
419,51,161850,1,0,0:0:0:0:
276,274,161975,2,0,L|180:265,1,80
389,232,162225,6,0,L|396:131,1,80
205,164,162475,2,0,L|211:63,1,80
402,16,162725,2,0,L|395:123,1,80
201,228,162975,2,0,L|195:314,1,80
390,212,163225,6,0,L|440:216,2,40
248,129,163475,1,0,0:0:0:0:
208,127,163537,1,0,0:0:0:0:
167,124,163600,1,0,0:0:0:0:
246,52,163725,1,0,0:0:0:0:
102,37,163850,2,0,L|95:135,1,80
425,294,164225,5,0,0:0:0:0:
269,237,164475,1,0,0:0:0:0:
258,198,164537,1,0,0:0:0:0:
247,157,164600,1,0,0:0:0:0:
386,148,164725,1,0,0:0:0:0:
395,109,164787,1,0,0:0:0:0:
403,69,164850,1,0,0:0:0:0:
324,27,164975,1,0,0:0:0:0:
363,25,165037,1,0,0:0:0:0:
403,22,165100,1,0,0:0:0:0:
258,285,165225,5,0,0:0:0:0:
218,280,165287,1,0,0:0:0:0:
178,274,165350,1,0,0:0:0:0:
315,203,165475,1,0,0:0:0:0:
354,198,165537,1,0,0:0:0:0:
394,193,165600,1,0,0:0:0:0:
197,142,165725,2,0,L|139:137,1,40
158,98,165850,2,0,L|221:106,1,40
352,89,165975,2,0,L|435:84,1,80
229,288,166225,6,0,L|168:283,1,40
190,230,166350,2,0,L|244:229,1,40
270,180,166475,2,0,L|320:182,1,40
270,180,166600,2,0,L|206:177,1,40
378,281,166725,2,0,L|425:278,1,40
417,238,166850,2,0,L|369:237,1,40
335,189,166975,2,0,L|288:192,1,40
335,189,167100,2,0,L|391:183,1,40
202,110,167225,5,0,0:0:0:0:
389,313,167725,1,0,0:0:0:0:
434,299,167787,1,0,0:0:0:0:
472,269,167850,1,0,0:0:0:0:
493,226,167912,1,0,0:0:0:0:
492,177,167975,1,0,0:0:0:0:
466,136,168037,1,0,0:0:0:0:
424,110,168100,1,0,0:0:0:0:
194,239,168225,6,0,L|105:234,1,80
247,165,168475,2,0,L|339:171,1,80
189,47,168725,1,0,0:0:0:0:
113,74,168850,1,0,0:0:0:0:
87,149,168975,1,0,0:0:0:0:
124,219,169100,1,0,0:0:0:0:
263,282,169225,6,0,L|270:196,1,80
133,177,169475,2,0,L|139:93,1,80
273,32,169725,1,0,0:0:0:0:
193,29,169850,1,0,0:0:0:0:
113,23,169975,1,0,0:0:0:0:
193,29,170100,1,0,0:0:0:0:
385,300,170225,6,0,L|474:294,1,80
325,232,170475,2,0,L|318:141,1,80
455,49,170725,2,0,L|366:44,1,80
231,104,170975,2,0,L|136:96,1,80
346,247,171225,6,0,L|340:337,1,80
151,231,171475,2,0,L|56:227,1,80
260,135,171725,2,0,L|90:129,1,160
430,314,172225,6,0,L|436:210,1,80
295,205,172475,2,0,L|206:197,1,80
359,192,172725,1,0,0:0:0:0:
421,141,172850,1,0,0:0:0:0:
403,62,172975,1,0,0:0:0:0:
329,29,173100,1,0,0:0:0:0:
191,275,173225,6,0,L|104:268,1,80
256,220,173475,2,0,L|344:226,1,80
191,102,173725,1,0,0:0:0:0:
118,136,173850,1,0,0:0:0:0:
84,208,173975,1,0,0:0:0:0:
118,280,174100,1,0,0:0:0:0:
314,283,174225,6,0,L|376:286,2,40
172,157,174475,2,0,L|166:257,1,80
310,87,174725,2,0,L|303:182,1,80
163,65,174975,1,0,0:0:0:0:
123,62,175037,1,0,0:0:0:0:
82,58,175100,1,0,0:0:0:0:
279,288,175225,6,0,L|336:274,1,40
345,249,175350,2,0,L|356:202,1,40
333,175,175475,2,0,L|293:139,1,40
263,141,175600,1,0,0:0:0:0:
71,77,175725,1,0,0:0:0:0:
110,76,175787,1,0,0:0:0:0:
150,75,175850,1,0,0:0:0:0:
189,73,175912,1,0,0:0:0:0:
229,70,175975,2,0,L|139:74,1,80
341,299,176225,6,0,L|390:300,1,40
341,299,176350,2,0,L|286:298,1,40
260,231,176475,1,0,0:0:0:0:
299,232,176537,1,0,0:0:0:0:
339,234,176600,1,0,0:0:0:0:
199,128,176725,2,0,L|143:126,2,40
331,83,176975,1,0,0:0:0:0:
370,86,177037,1,0,0:0:0:0:
410,88,177100,1,0,0:0:0:0:
213,269,177225,6,0,L|163:268,1,40
173,222,177350,2,0,L|229:224,1,40
256,167,177475,1,0,0:0:0:0:
216,164,177537,1,0,0:0:0:0:
175,161,177600,1,0,0:0:0:0:
316,100,177725,1,0,0:0:0:0:
355,102,177787,2,0,L|358:54,1,40
219,81,177975,1,0,0:0:0:0:
179,78,178037,2,0,L|169:25,1,40
366,318,178225,6,0,L|377:262,1,40
340,256,178350,2,0,L|296:233,1,40
346,183,178475,1,0,0:0:0:0:
385,183,178537,1,0,0:0:0:0:
425,183,178600,1,0,0:0:0:0:
282,99,178725,1,0,0:0:0:0:
242,106,178787,1,0,0:0:0:0:
202,112,178850,1,0,0:0:0:0:
341,42,178975,1,0,0:0:0:0:
379,49,179037,1,0,0:0:0:0:
418,55,179100,1,0,0:0:0:0:
218,274,179225,6,0,L|155:268,1,40
218,274,179350,2,0,L|274:279,1,40
404,158,179475,2,0,L|452:152,1,40
404,158,179600,2,0,L|329:165,1,40
219,134,179725,2,0,L|166:127,1,40
181,88,179850,2,0,L|234:90,1,40
266,166,179975,2,0,L|255:208,1,40
211,203,180100,2,0,L|196:254,1,40
368,293,180225,6,0,L|427:294,1,40
407,253,180350,2,0,L|351:250,1,40
322,195,180475,1,0,0:0:0:0:
361,194,180537,1,0,0:0:0:0:
401,192,180600,1,0,0:0:0:0:
262,47,180725,2,0,L|253:99,1,40
295,92,180850,1,0,0:0:0:0:
435,34,180975,2,0,L|441:86,1,40
399,77,181100,1,0,0:0:0:0:
206,273,181225,6,0,L|147:270,1,40
206,273,181350,2,0,L|256:275,1,40
201,227,181475,2,0,L|196:177,1,40
156,188,181600,1,0,0:0:0:0:
295,150,181725,1,0,0:0:0:0:
334,149,181787,1,0,0:0:0:0:
374,150,181850,1,0,0:0:0:0:
239,65,181975,1,0,0:0:0:0:
199,65,182037,1,0,0:0:0:0:
158,66,182100,1,0,0:0:0:0:
354,263,182225,6,0,L|406:265,2,40
223,174,182475,1,0,0:0:0:0:
183,173,182537,1,0,0:0:0:0:
142,169,182600,1,0,0:0:0:0:
223,85,182725,1,0,0:0:0:0:
80,272,182850,2,0,L|40:255,1,40
19,223,182975,2,0,L|26:163,1,40
61,169,183100,1,0,0:0:0:0:
262,231,183225,6,0,P|412:217|476:148,1,240
232,131,183725,2,0,P|277:81|447:35,1,240
184,301,184225,6,0,L|174:211,1,80
313,209,184475,2,0,L|306:113,1,80
162,52,184725,1,0,0:0:0:0:
241,44,184850,1,0,0:0:0:0:
320,38,184975,1,0,0:0:0:0:
399,31,185100,1,0,0:0:0:0:
256,284,185225,6,0,L|163:278,1,80
312,207,185475,2,0,L|412:214,1,80
252,108,185725,1,0,0:0:0:0:
172,103,185850,1,0,0:0:0:0:
252,108,185975,1,0,0:0:0:0:
331,111,186100,1,0,0:0:0:0:
118,315,186225,6,0,L|114:217,1,80
250,192,186475,2,0,L|253:293,1,80
112,145,186725,1,0,0:0:0:0:
66,79,186850,1,0,0:0:0:0:
93,3,186975,1,0,0:0:0:0:
172,1,187100,1,0,0:0:0:0:
366,223,187225,6,0,L|410:217,1,40
405,166,187350,2,0,L|343:159,1,40
325,158,187475,2,0,L|417:147,1,80
212,158,187725,2,0,L|143:151,1,40
173,110,187850,2,0,L|226:105,1,40
253,104,187975,2,0,L|164:97,1,80
369,292,188225,5,0,0:0:0:0:
213,233,188475,2,0,L|145:229,2,40
358,159,188725,2,0,L|414:161,2,40
216,60,188975,1,0,0:0:0:0:
255,62,189037,1,0,0:0:0:0:
295,64,189100,1,0,0:0:0:0:
102,281,189225,6,0,L|54:279,2,40
245,226,189475,1,0,0:0:0:0:
284,229,189537,2,0,L|291:178,1,40
144,158,189725,1,0,0:0:0:0:
104,158,189787,2,0,L|96:103,1,40
244,50,189975,2,0,L|147:44,1,80
359,283,190225,5,0,0:0:0:0:
319,280,190287,1,0,0:0:0:0:
278,276,190350,1,0,0:0:0:0:
238,273,190412,1,0,0:0:0:0:
197,269,190475,1,0,0:0:0:0:
340,167,190600,1,0,0:0:0:0:
300,164,190662,1,0,0:0:0:0:
259,160,190725,1,0,0:0:0:0:
219,157,190787,1,0,0:0:0:0:
178,153,190850,1,0,0:0:0:0:
377,44,190975,2,0,L|378:137,1,80
176,269,191225,5,0,0:0:0:0:
255,259,191350,1,0,0:0:0:0:
334,247,191475,1,0,0:0:0:0:
138,174,191600,2,0,L|132:90,1,80
171,92,191787,1,0,0:0:0:0:
211,89,191850,1,0,0:0:0:0:
401,167,191975,2,0,L|315:162,1,80
281,157,192162,1,0,0:0:0:0:
240,153,192225,1,0,0:0:0:0:
432,327,192350,6,0,L|441:241,1,80
401,241,192537,1,0,0:0:0:0:
360,238,192600,1,0,0:0:0:0:
165,190,192725,2,0,L|116:185,2,40
356,77,192975,2,0,L|289:72,1,40
276,69,193100,2,0,L|222:64,1,40
439,215,193225,1,0,0:0:0:0:
