osu file format v14

[General]
AudioFilename: audio.mp3
AudioLeadIn: 0
PreviewTime: 106378
Countdown: 0
SampleSet: Normal
StackLeniency: 0.6
Mode: 0
LetterboxInBreaks: 0
WidescreenStoryboard: 0

[Editor]
Bookmarks: 10003
DistanceSpacing: 0.4
BeatDivisor: 4
GridSize: 16
TimelineZoom: 2.5

[Metadata]
Title:Everything will freeze
TitleUnicode:Everything will freeze
Artist:UNDEAD CORPORATION
ArtistUnicode:UNDEAD CORPORATION
Creator:deymdaniel
Version:Freeze
Source:東方project
Tags:touhou project
BeatmapID:1414756
BeatmapSetID:668795

[Difficulty]
HPDrainRate:6
CircleSize:4
OverallDifficulty:9
ApproachRate:9.6
SliderMultiplier:1.9
SliderTickRate:1

[Events]
//Background and Video events
0,0,"bg.jpg",0,0
//Break Periods
2,24453,49869
2,54328,105869
2,108203,167369
//Storyboard Layer 0 (Background)
//Storyboard Layer 1 (Fail)
//Storyboard Layer 2 (Pass)
//Storyboard Layer 3 (Foreground)
//Storyboard Sound Samples

[TimingPoints]
378,250,4,1,1,100,1,0
50378,-100,4,1,1,100,0,1
66378,-100,4,1,1,100,0,0
106378,-100,4,1,1,100,0,1
122378,-100,4,1,1,100,0,0
168378,-100,4,1,1,100,0,1
184378,-100,4,1,1,100,0,0

[HitObjects]
64,105,378,5,0,0:0:0:0:
301,69,503,2,0,P|276:69|243:78,2,47.5,0|8|0,0:0|0:0|0:0,0:0:0:0:
349,73,690,1,0,0:0:0:0:
400,89,753,1,0,0:0:0:0:
427,132,815,1,0,0:0:0:0:
419,185,878,1,0,0:0:0:0:
387,225,940,1,0,0:0:0:0:
334,231,1003,1,0,0:0:0:0:
284,199,1065,6,0,L|298:270,1,47.5,0|8,0:0|0:0,0:0:0:0:
291,296,1190,1,0,0:0:0:0:
259,334,1253,1,0,0:0:0:0:
211,353,1315,1,0,0:0:0:0:
158,348,1378,6,0,P|132:340|113:322,2,47.5,0|8|0,0:0|0:0|0:0,0:0:0:0:
211,345,1565,1,0,0:0:0:0:
254,325,1628,1,0,0:0:0:0:
287,288,1690,1,0,0:0:0:0:
305,260,1753,1,0,0:0:0:0:
305,260,1815,1,0,0:0:0:0:
305,260,1878,1,0,0:0:0:0:
305,260,1940,1,0,0:0:0:0:
305,260,2003,1,0,0:0:0:0:
185,141,2128,5,8,0:0:0:0:
343,63,2378,1,0,0:0:0:0:
343,63,2628,1,0,0:0:0:0:
343,63,2878,1,0,0:0:0:0:
343,63,3128,1,0,0:0:0:0:
453,110,3253,6,0,L|457:163,1,47.5,0|8,0:0|0:0,0:0:0:0:
425,194,3378,1,0,0:0:0:0:
381,175,3440,1,0,0:0:0:0:
336,172,3503,5,0,0:0:0:0:
295,188,3565,1,0,0:0:0:0:
266,222,3628,1,0,0:0:0:0:
256,266,3690,5,0,0:0:0:0:
269,314,3753,1,0,0:0:0:0:
310,342,3815,1,0,0:0:0:0:
358,355,3878,5,0,0:0:0:0:
404,341,3940,1,0,0:0:0:0:
437,303,4003,1,0,0:0:0:0:
442,262,4065,5,0,0:0:0:0:
424,223,4128,1,0,0:0:0:0:
386,203,4190,1,0,0:0:0:0:
339,205,4253,5,0,0:0:0:0:
302,238,4315,1,0,0:0:0:0:
302,285,4378,1,8,0:0:0:0:
88,87,4628,5,0,0:0:0:0:
88,87,4878,1,0,0:0:0:0:
88,87,5128,1,0,0:0:0:0:
100,219,5378,5,8,0:0:0:0:
103,212,5440,1,0,0:0:0:0:
105,204,5503,1,0,0:0:0:0:
106,196,5565,1,0,0:0:0:0:
107,186,5628,1,0,0:0:0:0:
120,163,5690,5,0,0:0:0:0:
158,136,5753,1,0,0:0:0:0:
203,153,5815,1,0,0:0:0:0:
233,191,5878,5,0,0:0:0:0:
252,234,5940,1,0,0:0:0:0:
289,203,6003,1,0,0:0:0:0:
337,197,6065,5,0,0:0:0:0:
384,216,6128,1,0,0:0:0:0:
415,255,6190,1,0,0:0:0:0:
408,303,6253,5,0,0:0:0:0:
380,346,6315,1,0,0:0:0:0:
335,361,6378,2,0,L|253:342,1,47.5,8|0,0:0|0:0,0:0:0:0:
70,307,6628,6,0,L|181:291,1,95
389,248,6878,2,0,L|278:232,1,95
134,176,7128,5,0,0:0:0:0:
185,166,7190,1,0,0:0:0:0:
231,155,7253,1,0,0:0:0:0:
369,58,7378,6,0,L|379:174,1,95
353,189,7628,2,0,P|319:155|254:151,1,95
155,79,7878,5,0,0:0:0:0:
145,130,7940,1,0,0:0:0:0:
134,176,8003,1,0,0:0:0:0:
53,280,8128,2,0,P|99:309|155:296,1,95
236,228,8378,6,0,L|299:240,4,47.5
323,242,8690,1,0,0:0:0:0:
366,237,8753,1,0,0:0:0:0:
406,215,8815,5,0,0:0:0:0:
435,179,8878,1,0,0:0:0:0:
449,135,8940,1,0,0:0:0:0:
438,90,9003,5,0,0:0:0:0:
413,53,9065,1,0,0:0:0:0:
378,37,9128,2,0,L|281:29,2,95
490,41,9503,5,0,0:0:0:0:
449,135,9628,1,0,0:0:0:0:
449,135,9690,1,0,0:0:0:0:
449,135,9753,1,0,0:0:0:0:
449,135,9815,2,4,L|440:198,1,47.5,4|8,0:0|0:0,0:0:0:0:
68,110,10128,5,0,0:0:0:0:
79,151,10190,1,0,0:0:0:0:
112,174,10253,1,0,0:0:0:0:
152,175,10315,1,0,0:0:0:0:
190,158,10378,6,0,P|189:215|224:245,1,95,8|0,0:0|0:0,0:0:0:0:
365,308,10628,2,0,L|354:194,1,95
224,34,10878,2,0,L|213:148,1,95,8|0,0:0|0:0,0:0:0:0:
263,275,11128,5,0,0:0:0:0:
439,175,11253,1,0,0:0:0:0:
420,76,11378,2,0,P|372:89|343:134,1,95,8|0,0:0|0:0,0:0:0:0:
267,267,11628,2,0,L|397:256,1,95
499,180,11878,2,0,L|369:169,1,95,8|0,0:0|0:0,0:0:0:0:
244,78,12128,6,0,L|252:185,1,95
268,328,12378,1,8,0:0:0:0:
46,259,12503,1,0,0:0:0:0:
162,87,12628,1,0,0:0:0:0:
162,366,12753,1,0,0:0:0:0:
53,148,12878,2,0,L|150:158,1,95,8|0,0:0|0:0,0:0:0:0:
410,225,13128,2,0,L|404:122,1,95
268,49,13378,5,0,0:0:0:0:
228,67,13440,1,0,0:0:0:0:
199,104,13503,1,0,0:0:0:0:
191,151,13565,5,0,0:0:0:0:
206,195,13628,1,0,0:0:0:0:
242,221,13690,1,0,0:0:0:0:
286,232,13753,5,0,0:0:0:0:
329,228,13815,1,0,0:0:0:0:
367,205,13878,1,0,0:0:0:0:
365,249,13940,5,0,0:0:0:0:
395,304,14003,1,0,0:0:0:0:
395,304,14065,1,0,0:0:0:0:
395,304,14128,5,0,0:0:0:0:
395,304,14190,1,0,0:0:0:0:
395,304,14253,2,0,L|449:312,1,47.5
427,82,14378,6,0,L|307:95,1,95,8|0,0:0|0:0,0:0:0:0:
104,168,14628,2,0,L|224:181,1,95
367,205,14878,2,0,L|359:95,1,95
282,249,15128,2,0,L|274:359,1,95
263,349,15378,5,0,0:0:0:0:
192,73,15503,1,0,0:0:0:0:
82,266,15628,1,0,0:0:0:0:
351,243,15753,1,0,0:0:0:0:
86,127,15878,1,0,0:0:0:0:
158,336,16003,1,0,0:0:0:0:
401,196,16128,2,0,L|391:306,1,95
286,317,16378,5,8,0:0:0:0:
245,312,16440,1,0,0:0:0:0:
207,289,16503,1,8,0:0:0:0:
180,254,16565,5,0,0:0:0:0:
173,209,16628,1,8,0:0:0:0:
189,164,16690,1,0,0:0:0:0:
219,131,16753,5,0,0:0:0:0:
262,117,16815,1,0,0:0:0:0:
303,125,16878,1,0,0:0:0:0:
342,146,16940,5,0,0:0:0:0:
382,152,17003,1,0,0:0:0:0:
425,143,17065,1,0,0:0:0:0:
455,111,17128,5,0,0:0:0:0:
472,68,17190,1,0,0:0:0:0:
457,28,17253,1,0,0:0:0:0:
423,4,17315,5,0,0:0:0:0:
420,46,17378,1,0,0:0:0:0:
420,90,17440,1,0,0:0:0:0:
421,135,17503,6,0,L|422:187,5,47.5
348,67,17878,2,0,P|330:51|279:50,4,47.5
209,12,18190,2,0,L|211:86,2,47.5
62,105,18378,6,0,L|170:116,1,95,8|0,0:0|0:0,0:0:0:0:
351,185,18628,2,0,L|242:197,1,95
59,287,18878,1,0,0:0:0:0:
156,114,19003,1,0,0:0:0:0:
224,286,19128,1,0,0:0:0:0:
260,301,19190,1,0,0:0:0:0:
301,295,19253,1,0,0:0:0:0:
441,311,19378,6,0,L|437:214,1,95,8|0,0:0|0:0,0:0:0:0:
348,41,19628,2,0,L|344:138,1,95
334,259,19878,1,0,0:0:0:0:
187,145,20003,1,0,0:0:0:0:
375,67,20128,1,0,0:0:0:0:
396,108,20191,1,0,0:0:0:0:
394,155,20253,1,0,0:0:0:0:
165,251,20378,6,0,L|283:263,1,95,8|0,0:0|0:0,0:0:0:0:
291,145,20628,2,0,L|173:157,1,95
52,175,20878,1,0,0:0:0:0:
171,320,21003,1,0,0:0:0:0:
291,145,21128,2,0,L|173:133,1,95
53,124,21378,5,8,0:0:0:0:
53,124,21440,1,0,0:0:0:0:
53,124,21503,1,0,0:0:0:0:
53,124,21565,1,0,0:0:0:0:
53,124,21628,1,8,0:0:0:0:
79,139,21690,5,0,0:0:0:0:
119,156,21753,1,0,0:0:0:0:
159,156,21815,1,0,0:0:0:0:
197,139,21878,5,8,0:0:0:0:
235,123,21940,1,0,0:0:0:0:
279,126,22003,1,0,0:0:0:0:
316,152,22065,5,0,0:0:0:0:
339,191,22128,1,8,0:0:0:0:
327,237,22190,1,0,0:0:0:0:
295,268,22253,5,0,0:0:0:0:
254,273,22315,1,0,0:0:0:0:
215,250,22378,1,8,0:0:0:0:
119,156,22503,5,0,0:0:0:0:
97,331,22628,1,0,0:0:0:0:
277,119,22753,1,0,0:0:0:0:
46,163,22878,2,0,L|157:174,1,95
355,183,23128,5,0,0:0:0:0:
355,183,23190,1,0,0:0:0:0:
355,183,23253,1,0,0:0:0:0:
394,74,23378,2,0,P|344:70|277:105,1,95
160,173,23628,6,0,P|210:169|277:204,1,95
361,265,23878,1,0,0:0:0:0:
361,265,23940,1,0,0:0:0:0:
361,265,24003,1,0,0:0:0:0:
455,369,24128,2,0,L|452:259,1,95
115,320,50378,6,0,L|114:211,1,95
237,264,50628,2,0,L|221:138,1,95
342,212,50878,2,0,L|356:115,3,95
226,49,51378,2,0,L|105:122,1,95
137,287,51628,2,0,L|275:260,1,95
347,206,51878,1,0,0:0:0:0:
172,66,52003,1,0,0:0:0:0:
219,298,52128,1,0,0:0:0:0:
294,46,52253,1,0,0:0:0:0:
110,200,52378,1,0,0:0:0:0:
373,141,52503,1,0,0:0:0:0:
175,58,52628,1,0,0:0:0:0:
219,298,52753,1,0,0:0:0:0:
290,55,52878,1,0,0:0:0:0:
104,196,53003,1,0,0:0:0:0:
363,227,53128,1,0,0:0:0:0:
175,58,53253,1,0,0:0:0:0:
219,298,53378,1,0,0:0:0:0:
228,214,53440,1,0,0:0:0:0:
294,64,53503,1,0,0:0:0:0:
113,187,53628,1,0,0:0:0:0:
254,149,53690,1,0,0:0:0:0:
344,226,53753,1,0,0:0:0:0:
183,75,53878,1,0,0:0:0:0:
190,76,53940,1,0,0:0:0:0:
190,76,54003,1,0,0:0:0:0:
190,76,54065,1,0,0:0:0:0:
190,76,54128,1,0,0:0:0:0:
180,266,106378,6,0,L|165:138,2,95
288,215,106753,1,0,0:0:0:0:
362,140,106878,2,0,L|248:86,1,95
197,88,107128,2,0,L|212:185,1,95
110,240,107378,1,0,0:0:0:0:
130,126,107503,1,0,0:0:0:0:
229,190,107628,1,0,0:0:0:0:
341,148,107753,1,0,0:0:0:0:
390,237,107878,2,0,L|277:242,1,95
109,221,167878,6,0,L|113:205,28,11.875
261,80,168378,6,0,L|328:148,1,95
433,218,168628,2,0,L|303:246,1,95
162,212,168878,1,0,0:0:0:0:
172,120,169003,1,0,0:0:0:0:
272,256,169128,1,0,0:0:0:0:
274,164,169253,1,0,0:0:0:0:
64,123,169378,2,0,L|30:239,1,95
