osu file format v14

[General]
AudioFilename: audio.mp3
AudioLeadIn: 0
PreviewTime: 167829
Countdown: 0
SampleSet: Drum
StackLeniency: 0.7
Mode: 2
LetterboxInBreaks: 0
WidescreenStoryboard: 1

[Editor]
DistanceSpacing: 1.3
BeatDivisor: 4
GridSize: 8
TimelineZoom: 0.9999998

[Metadata]
Title:Everything will freeze
TitleUnicode:Everything will freeze
Artist:UNDEAD CORPORATION
ArtistUnicode:UNDEAD CORPORATION
Creator:NyalettOwO x3
Version:Cup
Source:東方花映塚 ~ Phantasmagoria of Flower View.
Tags:osu! mappers guild english metal melodeath Featured Artist FA UC Touhou 東方Project Team Shanghai Alice ZUN フラワリングナイト Flowering Night TH9 十六夜 咲夜 Sakuya Izayoi PoFV パインツリー Kaeizuka 窪田道元 Flower Reflecting Mound 朱美 TOHO Complete Box GOLD Pinetree KOUTA 暴君 Tyrant RoBeats! roblox melodic death ewf video game majamari male vocal scream rew0825 rew kukkai [_-kukkai-_] -Hex- Hex idu5t du5t idust dust Daletto
BeatmapID:2685021
BeatmapSetID:1293905

[Difficulty]
HPDrainRate:2
CircleSize:2.5
OverallDifficulty:6
ApproachRate:6
SliderMultiplier:1
SliderTickRate:1

[Events]
//Background and Video events
0,0,"sakuya.jpg",0,0
//Break Periods
//Storyboard Layer 0 (Background)
//Storyboard Layer 1 (Fail)
//Storyboard Layer 2 (Pass)
//Storyboard Layer 3 (Foreground)
//Storyboard Layer 4 (Overlay)
//Storyboard Sound Samples

[TimingPoints]
399,250,4,3,1,70,1,0
399,-133.333333333333,4,3,1,70,0,0
2336,-100,4,3,1,5,0,0
2399,-100,4,3,1,75,0,0
3274,-100,4,3,1,50,0,0
3399,-100,4,3,1,70,0,0
4399,-100,4,3,1,75,0,0
5399,-100,4,3,1,60,0,0
5649,-100,4,3,1,65,0,0
5899,-100,4,3,1,60,0,0
6149,-100,4,3,1,65,0,0
6399,-100,4,3,1,75,0,0
8399,-100,4,3,1,70,0,0
9399,-100,4,3,1,75,0,0
9586,-100,4,3,1,5,0,0
9649,-100,4,3,1,70,0,0
9899,-100,4,3,1,75,0,0
10086,-100,4,3,1,5,0,0
10149,-100,4,3,1,70,0,0
10399,-100,4,3,1,75,0,0
13399,-100,4,3,1,65,0,0
13899,-100,4,3,1,70,0,0
14399,-100,4,3,1,75,0,0
16399,-100,4,3,1,65,0,0
16899,-100,4,3,1,70,0,0
17399,-100,4,3,1,75,0,0
17586,-100,4,3,1,5,0,0
17649,-100,4,3,1,70,0,0
17899,-100,4,3,1,75,0,0
18086,-100,4,3,1,5,0,0
18149,-100,4,3,1,70,0,0
18399,-100,4,3,1,75,0,0
21399,-100,4,3,1,65,0,0
21899,-100,4,3,1,70,0,0
22399,-100,4,3,1,75,0,0
24399,-100,4,3,1,65,0,0
24774,-100,4,3,1,70,0,0
25149,-100,4,3,1,75,0,0
25399,-100,4,3,1,80,0,0
25586,-100,4,3,1,5,0,0
25649,-100,4,3,1,70,0,0
25899,-100,4,3,1,80,0,0
26086,-100,4,3,1,5,0,0
26149,-100,4,3,1,70,0,0
26399,-100,4,3,1,75,0,0
31899,-100,4,3,1,60,0,0
32399,-100,4,3,1,65,0,0
33899,-100,4,3,1,70,0,0
34399,-100,4,3,1,75,0,0
39899,-100,4,3,1,60,0,0
40399,-100,4,3,1,70,0,0
41149,-100,4,3,1,65,0,0
42149,-100,4,3,1,70,0,0
42336,-100,4,3,1,5,0,0
42399,-100,4,3,1,80,0,0
42586,-100,4,3,1,5,0,0
42649,-100,4,3,1,75,0,0
42899,-100,4,3,1,65,0,0
44399,-100,4,3,1,60,0,0
45399,-100,4,3,1,65,0,0
46399,-100,4,3,1,70,0,0
47399,-100,4,3,1,75,0,0
48399,-100,4,3,1,80,0,0
50399,-90.9090909090909,4,3,2,85,0,1
50461,-90.9090909090909,4,3,1,85,0,1
56399,-90.9090909090909,4,3,1,80,0,1
58149,-100,4,3,1,75,0,0
58399,-90.9090909090909,4,3,2,85,0,1
58461,-90.9090909090909,4,3,1,85,0,1
64399,-90.9090909090909,4,3,1,80,0,1
65399,-100,4,3,1,85,0,0
65836,-100,4,3,1,5,0,0
65899,-100,4,3,1,85,0,0
66336,-100,4,3,1,5,0,0
66399,-100,4,3,2,75,0,0
66461,-100,4,3,1,75,0,0
69399,-100,4,3,1,65,0,0
69899,-100,4,3,1,70,0,0
70399,-100,4,3,1,75,0,0
72399,-100,4,3,1,70,0,0
73399,-100,4,3,1,75,0,0
73586,-100,4,3,1,5,0,0
73649,-100,4,3,1,75,0,0
75399,-100,4,3,1,70,0,0
76399,-100,4,3,1,75,0,0
77399,-100,4,3,1,65,0,0
77899,-100,4,3,1,70,0,0
78399,-100,4,3,1,75,0,0
80399,-100,4,3,1,65,0,0
80774,-100,4,3,1,70,0,0
81149,-100,4,3,1,75,0,0
81399,-100,4,3,1,80,0,0
81586,-100,4,3,1,5,0,0
81649,-100,4,3,1,70,0,0
81899,-100,4,3,1,80,0,0
82086,-100,4,3,1,5,0,0
82149,-100,4,3,1,70,0,0
82399,-100,4,3,1,75,0,0
87899,-100,4,3,1,60,0,0
88399,-100,4,3,1,65,0,0
89899,-100,4,3,1,70,0,0
90399,-100,4,3,1,75,0,0
95899,-100,4,3,1,65,0,0
96149,-100,4,3,1,70,0,0
96336,-100,4,3,1,5,0,0
96399,-100,4,3,1,80,0,0
97149,-100,4,3,1,70,0,0
98149,-100,4,3,1,75,0,0
98336,-100,4,3,1,5,0,0
98399,-100,4,3,1,80,0,0
99899,-100,4,3,1,70,0,0
100399,-100,4,3,1,60,0,0
101399,-100,4,3,1,65,0,0
102399,-100,4,3,1,70,0,0
103149,-100,4,3,1,65,0,0
104149,-100,4,3,1,70,0,0
104399,-100,4,3,1,80,0,0
105399,-100,4,3,1,70,0,0
106149,-100,4,3,1,75,0,0
106336,-100,4,3,1,5,0,0
106399,-90.9090909090909,4,3,2,85,0,1
106461,-90.9090909090909,4,3,1,85,0,1
112399,-90.9090909090909,4,3,1,80,0,1
114149,-90.9090909090909,4,3,1,75,0,0
114399,-90.9090909090909,4,3,2,85,0,1
114461,-90.9090909090909,4,3,1,85,0,1
120399,-90.9090909090909,4,3,1,80,0,1
121399,-100,4,3,1,85,0,0
121836,-100,4,3,1,5,0,0
121899,-100,4,3,1,85,0,0
122336,-100,4,3,1,5,0,0
122399,-100,4,3,1,75,0,0
123274,-100,4,3,1,70,0,0
124149,-100,4,3,1,75,0,0
124336,-100,4,3,1,5,0,0
124399,-100,4,3,1,70,0,0
130586,-100,4,3,1,5,0,0
130649,-100,4,3,1,70,0,0
132399,-100,4,3,1,60,0,0
135399,-100,4,3,1,65,0,0
136399,-100,4,3,1,60,0,0
138399,-100,4,3,1,65,0,0
138774,-100,4,3,1,70,0,0
139149,-100,4,3,1,75,0,0
139399,-100,4,3,1,80,0,0
139586,-100,4,3,1,5,0,0
139649,-100,4,3,1,70,0,0
139899,-100,4,3,1,80,0,0
140086,-100,4,3,1,5,0,0
140149,-100,4,3,1,70,0,0
140399,-90.9090909090909,4,3,2,80,0,1
140461,-90.9090909090909,4,3,1,80,0,1
148336,-90.9090909090909,4,3,1,5,0,1
148399,-90.9090909090909,4,3,1,80,0,1
152336,-90.9090909090909,4,3,1,5,0,1
152399,-90.9090909090909,4,3,1,80,0,1
154336,-90.9090909090909,4,3,1,5,0,1
154399,-90.9090909090909,4,3,1,80,0,1
156336,-90.9090909090909,4,3,1,5,0,1
156399,-90.9090909090909,4,3,1,85,0,1
158336,-90.9090909090909,4,3,1,5,0,1
158399,-100,4,3,1,60,0,0
159399,-100,4,3,1,65,0,0
160399,-100,4,3,1,70,0,0
161399,-100,4,3,1,75,0,0
162336,-100,4,3,1,5,0,0
162399,-100,4,3,1,75,0,0
163399,-100,4,3,1,70,0,0
164149,-100,4,3,1,75,0,0
164336,-100,4,3,1,5,0,0
164399,-90.9090909090909,4,3,2,85,0,1
164461,-90.9090909090909,4,3,1,85,0,1
166149,-90.9090909090909,4,3,1,80,0,1
166336,-90.9090909090909,4,3,1,5,0,0
166399,-90.9090909090909,4,3,1,85,0,1
167399,-100,4,3,1,85,0,0
167899,-100,4,3,1,70,0,0
168399,-90.9090909090909,4,3,2,85,0,1
168461,-90.9090909090909,4,3,1,85,0,1
174399,-90.9090909090909,4,3,1,80,0,1
176149,-100,4,3,1,75,0,0
176399,-90.9090909090909,4,3,2,85,0,1
176461,-90.9090909090909,4,3,1,85,0,1
182399,-90.9090909090909,4,3,1,80,0,1
183399,-100,4,3,1,85,0,0
183836,-100,4,3,1,5,0,0
183899,-100,4,3,1,85,0,0
184336,-100,4,3,1,5,0,0
184399,-90.9090909090909,4,3,2,85,0,1
184461,-90.9090909090909,4,3,1,85,0,1
188336,-100,4,3,1,85,0,0
188399,-90.9090909090909,4,3,2,90,0,1
188461,-90.9090909090909,4,3,1,90,0,1
190399,-100,4,3,1,70,0,0
191399,-100,4,3,1,75,0,0
192899,-100,4,3,1,80,0,0
193149,-100,4,3,1,85,0,0
193399,-25,4,3,3,90,0,1
193461,-25,4,3,3,5,0,0
193649,-1000,4,3,1,50,0,0
194399,-1000,4,3,1,40,0,0
194649,-1000,4,3,1,30,0,0
194899,-1000,4,3,1,20,0,0
195149,-1000,4,3,1,10,0,0
195399,-1000,4,3,1,5,0,0

[Colours]
Combo1 : 85,85,85
Combo2 : 170,85,85
Combo3 : 201,201,201
Combo4 : 0,191,96
Combo5 : 0,96,191

[HitObjects]
304,296,399,6,0,P|384:296|240:152,1,525.000020027161,4|10,0:0|0:0,0:0:0:0:
344,192,2399,5,4,0:0:0:0:
184,240,3399,2,0,P|128:184|256:56,1,300,6|2,0:0|0:0,0:0:0:0:
352,120,4399,5,4,0:0:0:0:
192,256,5399,2,0,L|184:152,1,100,6|8,0:0|0:0,0:0:0:0:
256,200,5899,2,0,L|264:96,1,100,2|8,0:0|0:0,0:0:0:0:
160,176,6399,6,0,P|120:176|120:48,1,200,4|0,0:0|0:0,0:0:0:0:
192,80,7149,1,0,0:0:0:0:
272,176,7399,2,0,P|312:176|312:48,1,200,0|0,0:0|0:0,0:0:0:0:
136,208,8399,6,0,L|24:96,2,150,10|10|10,0:0|0:0|0:0,0:0:0:0:
240,240,9399,2,0,L|248:40,1,200,4|4,0:0|0:0,0:0:0:0:
128,224,10399,6,0,P|128:200|248:80,1,200,4|0,0:0|0:0,0:0:0:0:
320,96,11149,1,0,0:0:0:0:
400,112,11399,2,0,L|256:256,1,200,0|0,0:0|0:0,0:0:0:0:
112,248,12399,6,0,P|40:176|96:120,1,200,0|0,0:0|0:0,0:0:0:0:
176,120,13149,1,0,0:0:0:0:
256,120,13399,2,0,L|264:224,1,100,2|2,0:0|0:0,0:0:0:0:
176,224,13899,2,0,L|96:144,1,100,2|2,0:0|0:0,0:0:0:0:
208,208,14399,6,0,P|264:208|264:88,1,200,4|0,0:0|0:0,0:0:0:0:
192,120,15149,1,0,0:0:0:0:
112,240,15399,2,0,L|104:40,1,200,0|0,0:0|0:0,0:0:0:0:
248,184,16399,5,10,0:0:0:0:
328,184,16649,1,10,0:0:0:0:
368,184,16899,1,10,0:0:0:0:
328,184,17149,1,10,0:0:0:0:
224,256,17399,6,0,P|160:256|160:144,1,200,4|4,0:0|0:0,0:0:0:0:
240,128,18149,1,8,0:0:0:0:
344,216,18399,6,0,L|352:16,1,200,4|0,0:0|0:0,0:0:0:0:
272,144,19149,1,0,0:0:0:0:
192,216,19399,2,0,L|184:16,1,200,0|0,0:0|0:0,0:0:0:0:
328,216,20399,6,0,L|472:72,1,200,0|0,0:0|0:0,0:0:0:0:
384,80,21149,1,0,0:0:0:0:
304,128,21399,2,0,L|296:232,1,100,2|2,0:0|0:0,0:0:0:0:
376,232,21899,2,0,L|296:152,1,100,2|2,0:0|0:0,0:0:0:0:
200,232,22399,6,0,P|128:160|184:104,1,200,4|0,0:0|0:0,0:0:0:0:
264,112,23149,1,0,0:0:0:0:
344,232,23399,2,0,P|416:160|360:104,1,200,0|0,0:0|0:0,0:0:0:0:
176,240,24399,6,0,P|152:240|64:152,2,150,10|10|10,0:0|0:0|0:0,0:0:0:0:
280,240,25399,2,0,P|304:216|216:128,1,200,4|4,0:0|0:0,0:0:0:0:
48,248,26399,6,0,P|48:192|120:120,1,150,4|8,0:0|0:0,0:0:0:0:
200,128,27024,1,8,0:0:0:0:
56,160,27399,2,0,L|48:264,1,100,0|0,0:0|0:0,0:0:0:0:
128,256,27899,2,0,L|208:176,1,100,0|0,0:0|0:0,0:0:0:0:
304,240,28399,6,0,L|192:128,1,150,4|8,0:0|0:0,0:0:0:0:
288,120,29024,1,8,0:0:0:0:
152,192,29399,2,0,L|144:88,1,100,0|0,0:0|0:0,0:0:0:0:
224,152,29899,2,0,L|296:80,1,100,0|0,0:0|0:0,0:0:0:0:
192,224,30399,6,0,P|152:224|152:128,1,150,4|8,0:0|0:0,0:0:0:0:
232,136,31024,1,8,0:0:0:0:
368,168,31399,2,0,L|440:96,1,100,0|0,0:0|0:0,0:0:0:0:
360,144,31899,2,0,L|288:72,1,100,0|8,0:0|0:0,0:0:0:0:
392,232,32399,6,0,L|504:120,2,150,10|2|2,0:0|0:0|0:0,0:0:0:0:
256,248,33524,2,0,P|216:208|280:144,1,150,2|8,0:0|0:0,0:0:0:0:
344,144,34149,1,8,0:0:0:0:
448,144,34399,6,0,P|448:168|328:288,1,200,4|0,0:0|0:0,0:0:0:0:
248,152,35149,2,0,P|248:176|368:296,1,200,0|0,0:0|0:0,0:0:0:0:
440,200,35899,2,0,L|448:96,1,100,0|0,0:0|0:0,0:0:0:0:
344,168,36399,6,0,L|200:312,1,200,4|0,0:0|0:0,0:0:0:0:
120,232,37149,2,0,L|264:88,1,200,0|0,0:0|0:0,0:0:0:0:
344,160,37899,2,0,L|336:56,1,100,0|0,0:0|0:0,0:0:0:0:
232,224,38399,6,0,P|160:152|216:96,1,200,4|0,0:0|0:0,0:0:0:0:
296,88,39149,1,0,0:0:0:0:
376,64,39399,2,0,L|384:264,1,200,0|0,0:0|0:0,0:0:0:0:
200,216,40399,6,0,L|120:136,1,100,10|8,0:0|0:0,0:0:0:0:
176,136,40774,1,10,0:0:0:0:
288,224,41149,2,0,P|344:224|408:160,2,150,2|2|2,0:0|0:0|0:0,0:0:0:0:
208,240,42149,1,8,0:0:0:0:
104,240,42399,6,0,L|96:136,1,100,4|8,0:0|0:0,0:0:0:0:
184,120,42899,1,2,0:0:0:0:
192,112,43024,1,0,0:0:0:0:
200,104,43149,1,8,0:0:0:0:
288,232,43399,2,0,L|296:32,1,200,2|2,0:0|0:0,0:0:0:0:
136,272,44399,6,0,P|80:216|152:144,1,200,4|8,0:0|0:0,0:0:0:0:
296,232,45399,2,0,L|152:88,1,200,2|8,0:0|0:0,0:0:0:0:
296,264,46399,6,0,P|352:208|280:136,1,200,4|8,0:0|0:0,0:0:0:0:
136,224,47399,2,0,L|280:80,1,200,2|8,0:0|0:0,0:0:0:0:
136,184,48399,6,0,L|64:112,1,100,10|10,0:0|0:0,0:0:0:0:
152,160,48899,2,0,L|224:88,1,100,10|10,0:0|0:0,0:0:0:0:
120,128,49399,1,4,0:0:0:0:
240,240,50399,6,0,P|296:240|296:112,1,220.000006713867,6|8,0:0|0:0,0:0:0:0:
200,112,51149,1,8,0:0:0:0:
104,192,51399,6,0,L|96:80,1,110.000003356934,10|8,0:0|0:0,0:0:0:0:
192,168,51899,2,0,L|200:56,1,110.000003356934,8|8,0:0|0:0,0:0:0:0:
88,216,52399,6,0,P|88:184|216:56,1,220.000006713867,12|8,0:0|0:0,0:0:0:0:
304,72,53149,1,8,0:0:0:0:
400,80,53399,6,0,L|312:168,1,110.000003356934,10|8,0:0|0:0,0:0:0:0:
224,176,53899,1,8,0:0:0:0:
216,168,54024,1,0,0:0:0:0:
208,160,54149,1,8,0:0:0:0:
328,256,54399,6,0,P|360:256|360:120,1,220.000006713867,12|8,0:0|0:0,0:0:0:0:
264,120,55149,1,8,0:0:0:0:
168,152,55399,6,0,L|248:72,1,110.000003356934,10|8,0:0|0:0,0:0:0:0:
344,144,55899,2,0,L|264:64,1,110.000003356934,8|8,0:0|0:0,0:0:0:0:
144,200,56399,6,0,P|64:120|128:56,1,220.000006713867,12|2,0:0|0:0,0:0:0:0:
224,104,57149,1,8,0:0:0:0:
328,320,57399,6,0,L|336:96,1,220.000006713867,4|2,0:0|0:0,0:0:0:0:
240,152,58149,2,0,L|232:96,1,50,8|8,0:0|0:0,0:0:0:0:
304,184,58399,6,0,P|344:184|344:48,1,220.000006713867,4|10,0:0|0:0,0:0:0:0:
256,72,59149,1,8,0:0:0:0:
160,88,59399,5,10,0:0:0:0:
152,80,59524,1,0,0:0:0:0:
160,88,59649,1,8,0:0:0:0:
264,88,59899,1,10,0:0:0:0:
272,80,60024,1,8,0:0:0:0:
264,88,60149,1,8,0:0:0:0:
144,216,60399,6,0,P|104:176|200:80,1,220.000006713867,12|10,0:0|0:0,0:0:0:0:
280,96,61149,1,8,0:0:0:0:
376,96,61399,5,10,0:0:0:0:
368,88,61524,1,0,0:0:0:0:
360,80,61649,1,8,0:0:0:0:
256,104,61899,1,10,0:0:0:0:
264,96,62024,1,0,0:0:0:0:
272,88,62149,1,8,0:0:0:0:
392,224,62399,6,0,L|224:56,1,220.000006713867,12|10,0:0|0:0,0:0:0:0:
144,112,63149,1,8,0:0:0:0:
48,136,63399,5,10,0:0:0:0:
56,128,63524,1,0,0:0:0:0:
64,120,63649,1,8,0:0:0:0:
168,144,63899,1,10,0:0:0:0:
176,136,64024,1,8,0:0:0:0:
184,128,64149,1,8,0:0:0:0:
304,184,64399,6,0,P|344:144|248:48,1,220.000006713867,4|8,0:0|0:0,0:0:0:0:
160,80,65149,1,8,0:0:0:0:
72,248,65399,6,0,L|216:104,1,200,4|4,0:0|0:0,0:0:0:0:
40,192,66399,6,0,P|40:136|160:136,1,200,6|0,0:0|0:0,0:0:0:0:
240,136,67149,1,0,0:0:0:0:
320,184,67399,2,0,P|344:184|344:56,1,200,2|2,0:0|0:0,0:0:0:0:
192,232,68399,6,0,L|48:88,1,200,2|0,0:0|0:0,0:0:0:0:
136,112,69149,1,0,0:0:0:0:
216,120,69399,2,0,L|288:48,1,100,2|2,0:0|0:0,0:0:0:0:
200,120,69899,2,0,L|192:224,1,100,2|2,0:0|0:0,0:0:0:0:
296,240,70399,6,0,L|440:96,1,200,6|0,0:0|0:0,0:0:0:0:
352,104,71149,1,0,0:0:0:0:
264,192,71399,2,0,P|192:120|248:64,1,200,2|2,0:0|0:0,0:0:0:0:
400,184,72399,6,0,L|480:104,1,100,10|10,0:0|0:0,0:0:0:0:
376,128,72899,1,10,0:0:0:0:
368,120,73024,1,0,0:0:0:0:
376,128,73149,1,10,0:0:0:0:
472,184,73399,2,0,L|320:32,1,200,4|4,0:0|0:0,0:0:0:0:
176,176,74399,5,4,0:0:0:0:
176,176,75399,5,8,0:0:0:0:
248,176,75649,1,8,0:0:0:0:
320,176,75899,1,8,0:0:0:0:
392,176,76149,1,8,0:0:0:0:
288,192,76399,6,0,P|232:192|232:72,1,200,4|0,0:0|0:0,0:0:0:0:
312,96,77149,1,0,0:0:0:0:
400,120,77399,2,0,L|408:224,1,100,2|2,0:0|0:0,0:0:0:0:
320,152,77899,1,2,0:0:0:0:
312,144,78024,1,8,0:0:0:0:
304,136,78149,1,2,0:0:0:0:
408,192,78399,6,0,P|432:168|344:80,1,200,4|0,0:0|0:0,0:0:0:0:
264,120,79149,1,0,0:0:0:0:
176,224,79399,2,0,L|168:24,1,200,0|0,0:0|0:0,0:0:0:0:
320,256,80399,6,0,L|432:144,2,150,10|10|10,0:0|0:0|0:0,0:0:0:0:
232,272,81399,2,0,P|208:272|208:144,1,200,4|4,0:0|0:0,0:0:0:0:
360,224,82399,6,0,P|432:152|376:96,1,200,4|0,0:0|0:0,0:0:0:0:
296,144,83149,1,0,0:0:0:0:
208,200,83399,2,0,P|136:128|192:72,1,200,0|0,0:0|0:0,0:0:0:0:
344,224,84399,6,0,L|200:80,1,200,4|0,0:0|0:0,0:0:0:0:
288,104,85149,1,0,0:0:0:0:
376,184,85399,2,0,P|400:160|312:72,1,200,0|0,0:0|0:0,0:0:0:0:
168,224,86399,6,0,P|96:152|160:88,1,200,4|0,0:0|0:0,0:0:0:0:
232,136,87149,1,0,0:0:0:0:
312,184,87399,2,0,L|160:32,1,200,0|0,0:0|0:0,0:0:0:0:
328,216,88399,6,0,P|352:216|440:128,2,150,10|10|2,0:0|0:0|0:0,0:0:0:0:
192,208,89524,2,0,L|184:56,1,150,10|10,0:0|0:0,0:0:0:0:
264,96,90149,1,8,0:0:0:0:
368,144,90399,6,0,L|216:296,1,200,4|0,0:0|0:0,0:0:0:0:
144,288,91149,2,0,P|72:216|128:160,1,200,0|0,0:0|0:0,0:0:0:0:
208,176,91899,2,0,L|216:72,1,100,0|0,0:0|0:0,0:0:0:0:
112,144,92399,6,0,P|112:168|232:288,1,200,4|0,0:0|0:0,0:0:0:0:
312,128,93149,2,0,P|312:152|192:272,1,200,0|0,0:0|0:0,0:0:0:0:
112,216,93899,2,0,L|120:112,1,100,0|0,0:0|0:0,0:0:0:0:
232,280,94399,6,0,L|376:136,1,200,4|0,0:0|0:0,0:0:0:0:
288,144,95149,1,0,0:0:0:0:
200,256,95399,2,0,L|192:56,1,200,0|0,0:0|0:0,0:0:0:0:
272,96,96149,1,8,0:0:0:0:
376,192,96399,6,0,L|488:80,2,150,10|10|14,0:0|0:0|0:0,0:0:0:0:
240,256,97524,2,0,P|216:256|216:160,1,150,2|2,0:0|0:0,0:0:0:0:
296,168,98149,1,8,0:0:0:0:
408,192,98399,6,0,P|408:216|288:336,1,200,12|10,0:0|0:0,0:0:0:0:
208,248,99149,1,10,0:0:0:0:
120,264,99399,2,0,L|48:192,1,100,10|10,0:0|0:0,0:0:0:0:
144,192,99899,1,2,0:0:0:0:
152,184,100024,1,0,0:0:0:0:
144,192,100149,1,0,0:0:0:0:
48,288,100399,6,0,L|56:88,1,200,4|8,0:0|0:0,0:0:0:0:
192,304,101399,2,0,L|184:104,1,200,2|8,0:0|0:0,0:0:0:0:
320,304,102399,6,0,L|328:104,1,200,4|8,0:0|0:0,0:0:0:0:
464,320,103399,2,0,L|456:120,1,200,2|2,0:0|0:0,0:0:0:0:
312,232,104399,6,0,L|304:128,1,100,10|10,0:0|0:0,0:0:0:0:
392,184,104899,2,0,L|400:80,1,100,10|10,0:0|0:0,0:0:0:0:
288,256,105399,2,0,P|184:256|184:96,1,300,4|8,0:0|0:0,0:0:0:0:
312,200,106399,6,0,P|368:200|296:128,1,220.000006713867,4|8,0:0|0:0,0:0:0:0:
224,120,107149,1,8,0:0:0:0:
128,120,107399,6,0,L|136:232,1,110.000003356934,10|8,0:0|0:0,0:0:0:0:
232,232,107899,2,0,L|224:120,1,110.000003356934,8|8,0:0|0:0,0:0:0:0:
112,184,108399,6,0,L|272:24,1,220.000006713867,12|8,0:0|0:0,0:0:0:0:
176,64,109149,1,8,0:0:0:0:
80,152,109399,6,0,L|72:264,1,110.000003356934,10|8,0:0|0:0,0:0:0:0:
176,200,109899,1,8,0:0:0:0:
184,192,110024,1,0,0:0:0:0:
176,200,110149,1,8,0:0:0:0:
64,232,110399,6,0,P|64:200|192:72,1,220.000006713867,12|8,0:0|0:0,0:0:0:0:
280,64,111149,1,8,0:0:0:0:
376,64,111399,6,0,L|288:152,1,110.000003356934,10|8,0:0|0:0,0:0:0:0:
200,176,111899,2,0,L|288:88,1,110.000003356934,8|8,0:0|0:0,0:0:0:0:
392,232,112399,6,0,P|392:200|264:72,1,220.000006713867,12|2,0:0|0:0,0:0:0:0:
168,64,113149,1,8,0:0:0:0:
64,192,113399,6,0,P|64:160|192:32,1,220.000006713867,4|2,0:0|0:0,0:0:0:0:
288,216,114149,2,0,L|296:160,1,55.0000016784668,8|8,0:0|0:0,0:0:0:0:
223,192,114399,6,0,P|167:192|167:64,1,220.000006713867,4|10,0:0|0:0,0:0:0:0:
264,80,115149,1,8,0:0:0:0:
360,80,115399,5,10,0:0:0:0:
368,72,115524,1,0,0:0:0:0:
376,64,115649,1,8,0:0:0:0:
272,96,115899,1,10,0:0:0:0:
264,88,116024,1,8,0:0:0:0:
256,80,116149,1,8,0:0:0:0:
376,240,116399,6,0,P|416:200|320:104,1,220.000006713867,12|10,0:0|0:0,0:0:0:0:
232,112,117149,1,8,0:0:0:0:
128,128,117399,5,10,0:0:0:0:
120,120,117524,1,0,0:0:0:0:
128,128,117649,1,8,0:0:0:0:
232,144,117899,1,10,0:0:0:0:
240,136,118024,1,0,0:0:0:0:
248,128,118149,1,8,0:0:0:0:
368,192,118399,6,0,L|208:32,1,220.000006713867,12|10,0:0|0:0,0:0:0:0:
304,64,119149,1,8,0:0:0:0:
400,64,119399,5,10,0:0:0:0:
408,56,119524,1,0,0:0:0:0:
400,64,119649,1,8,0:0:0:0:
296,64,119899,1,10,0:0:0:0:
288,56,120024,1,8,0:0:0:0:
296,64,120149,1,8,0:0:0:0:
408,208,120399,6,0,P|408:176|280:48,1,220.000006713867,4|8,0:0|0:0,0:0:0:0:
184,56,121149,1,8,0:0:0:0:
88,192,121399,6,0,L|288:192,1,200,4|4,0:0|0:0,0:0:0:0:
472,336,122399,6,0,P|472:312|40:336,1,700,12|8,0:0|0:0,0:0:0:0:
152,320,124399,6,0,L|296:176,1,200,6|2,0:0|0:0,0:0:0:0:
144,248,125399,2,0,P|72:176|128:120,1,200,10|2,0:0|0:0,0:0:0:0:
216,128,126149,1,0,0:0:0:0:
312,248,126399,6,0,L|320:48,1,200,6|2,0:0|0:0,0:0:0:0:
168,208,127399,2,0,L|160:104,1,100,10|2,0:0|0:0,0:0:0:0:
232,120,127899,1,10,0:0:0:0:
304,120,128149,1,2,0:0:0:0:
200,216,128399,6,0,L|56:72,1,200,6|2,0:0|0:0,0:0:0:0:
208,208,129399,2,0,L|352:64,1,200,10|2,0:0|0:0,0:0:0:0:
256,88,130149,1,0,0:0:0:0:
160,192,130399,6,0,L|152:88,1,100,6|8,0:0|0:0,0:0:0:0:
232,184,130899,2,0,L|240:80,1,100,0|0,0:0|0:0,0:0:0:0:
144,224,131399,2,0,P|120:200|216:104,1,200,0|0,0:0|0:0,0:0:0:0:
280,160,132149,2,0,L|288:104,1,50,0|0,0:0|0:0,0:0:0:0:
232,136,132399,6,0,L|88:280,1,200,6|2,0:0|0:0,0:0:0:0:
240,264,133399,2,0,L|384:120,1,200,10|2,0:0|0:0,0:0:0:0:
296,128,134149,1,0,0:0:0:0:
208,200,134399,6,0,P|136:128|192:72,1,200,2|2,0:0|0:0,0:0:0:0:
344,224,135399,2,0,L|352:120,1,100,10|10,0:0|0:0,0:0:0:0:
264,192,135899,2,0,L|184:112,1,100,10|10,0:0|0:0,0:0:0:0:
296,184,136399,6,0,P|320:160|224:64,1,200,6|2,0:0|0:0,0:0:0:0:
88,192,137399,2,0,P|64:168|160:72,1,200,10|2,0:0|0:0,0:0:0:0:
232,96,138149,1,0,0:0:0:0:
328,200,138399,6,0,L|440:88,2,150,10|10|10,0:0|0:0|0:0,0:0:0:0:
232,240,139399,2,0,P|232:216|352:96,1,200,4|4,0:0|0:0,0:0:0:0:
176,176,140399,6,0,P|144:176|144:40,1,220.000006713867,4|2,0:0|0:0,0:0:0:0:
248,88,141149,1,2,0:0:0:0:
352,208,141399,6,0,L|360:96,1,110.000003356934,2|2,0:0|0:0,0:0:0:0:
320,112,141774,1,8,0:0:0:0:
280,112,141899,2,0,L|272:224,1,110.000003356934,2|2,0:0|0:0,0:0:0:0:
384,256,142399,6,0,P|384:224|256:96,1,220.000006713867,4|2,0:0|0:0,0:0:0:0:
168,112,143149,1,2,0:0:0:0:
72,296,143399,6,0,P|48:272|168:272,1,330.000010070801,2|0,0:0|0:0,0:0:0:0:
56,248,144399,6,0,L|216:88,1,220.000006713867,4|2,0:0|0:0,0:0:0:0:
304,96,145149,1,2,0:0:0:0:
400,112,145399,6,0,L|392:224,1,110.000003356934,2|2,0:0|0:0,0:0:0:0:
296,224,145899,1,2,0:0:0:0:
392,224,146149,1,10,0:0:0:0:
280,224,146399,6,0,P|248:224|160:136,2,165.000005035401,4|4|12,0:0|0:0|0:0,0:0:0:0:
448,216,147524,2,0,L|328:96,1,165.000005035401,4|4,0:0|0:0,0:0:0:0:
232,80,148149,1,8,0:0:0:0:
128,208,148399,6,0,L|120:40,1,165.000005035401,4|8,0:0|0:0,0:0:0:0:
248,128,149149,1,2,0:0:0:0:
152,192,149399,6,0,L|280:64,1,165.000005035401,2|8,0:0|0:0,0:0:0:0:
144,120,150149,1,2,0:0:0:0:
256,144,150399,6,0,L|336:64,1,110.000003356934,6|2,0:0|0:0,0:0:0:0:
224,120,150899,2,0,L|216:8,1,110.000003356934,2|2,0:0|0:0,0:0:0:0:
344,96,151399,5,2,0:0:0:0:
336,88,151524,1,8,0:0:0:0:
328,80,151649,1,0,0:0:0:0:
224,88,151899,1,2,0:0:0:0:
232,80,152024,1,8,0:0:0:0:
240,72,152149,1,0,0:0:0:0:
368,216,152399,6,0,P|408:176|312:80,1,220.000006713867,4|2,0:0|0:0,0:0:0:0:
216,96,153149,1,2,0:0:0:0:
112,184,153399,6,0,L|200:96,1,110.000003356934,2|2,0:0|0:0,0:0:0:0:
296,80,153899,1,2,0:0:0:0:
304,72,154024,1,8,0:0:0:0:
296,80,154149,1,8,0:0:0:0:
184,208,154399,6,0,P|152:208|64:120,2,165.000005035401,4|4|0,0:0|0:0|0:0,0:0:0:0:
304,280,155399,2,0,P|328:256|176:104,1,330.000010070801,4|10,0:0|0:0,0:0:0:0:
72,160,156399,6,0,L|64:48,1,110.000003356934,4|8,0:0|0:0,0:0:0:0:
112,56,156774,1,8,0:0:0:0:
160,56,156899,1,2,0:0:0:0:
264,56,157149,1,8,0:0:0:0:
160,256,157399,6,0,P|80:176|144:112,1,220.000006713867,6|2,0:0|0:0,0:0:0:0:
232,72,158149,1,8,0:0:0:0:
336,240,158399,6,0,L|344:40,1,200,4|8,0:0|0:0,0:0:0:0:
200,224,159399,2,0,P|176:200|264:112,1,200,2|8,0:0|0:0,0:0:0:0:
408,208,160399,6,0,L|264:64,1,200,4|8,0:0|0:0,0:0:0:0:
424,216,161399,2,0,P|448:192|360:104,1,200,10|0,0:0|0:0,0:0:0:0:
216,184,162399,6,0,L|208:80,1,100,12|8,0:0|0:0,0:0:0:0:
296,144,162899,2,0,L|216:64,1,100,8|8,0:0|0:0,0:0:0:0:
136,240,163399,2,0,L|288:88,1,200,8|8,0:0|0:0,0:0:0:0:
192,112,164149,1,8,0:0:0:0:
104,192,164399,5,6,0:0:0:0:
112,184,164524,1,8,0:0:0:0:
120,176,164649,1,8,0:0:0:0:
224,176,164899,1,8,0:0:0:0:
216,168,165024,1,8,0:0:0:0:
208,160,165149,1,8,0:0:0:0:
312,184,165399,5,8,0:0:0:0:
320,176,165524,1,8,0:0:0:0:
328,168,165649,1,8,0:0:0:0:
432,168,165899,1,8,0:0:0:0:
424,160,166024,1,8,0:0:0:0:
416,152,166149,1,8,0:0:0:0:
304,160,166399,6,0,L|208:64,1,110.000003356934,14|10,0:0|0:0,0:0:0:0:
328,144,166899,2,0,L|336:32,1,110.000003356934,10|10,0:0|0:0,0:0:0:0:
232,128,167399,5,14,0:0:0:0:
352,200,168399,6,0,P|392:160|296:64,1,220.000006713867,4|8,0:0|0:0,0:0:0:0:
216,48,169149,1,8,0:0:0:0:
120,64,169399,6,0,L|112:176,1,110.000003356934,10|8,0:0|0:0,0:0:0:0:
208,144,169899,2,0,L|288:64,1,110.000003356934,8|8,0:0|0:0,0:0:0:0:
168,208,170399,6,0,P|136:208|136:72,1,220.000006713867,12|8,0:0|0:0,0:0:0:0:
232,80,171149,1,8,0:0:0:0:
328,96,171399,6,0,L|408:16,1,110.000003356934,10|8,0:0|0:0,0:0:0:0:
304,120,171899,1,8,0:0:0:0:
296,112,172024,1,0,0:0:0:0:
288,104,172149,1,8,0:0:0:0:
400,216,172399,6,0,P|400:184|272:56,1,220.000006713867,12|8,0:0|0:0,0:0:0:0:
184,56,173149,1,8,0:0:0:0:
88,120,173399,6,0,L|176:32,1,110.000003356934,10|8,0:0|0:0,0:0:0:0:
264,128,173899,2,0,L|272:240,1,110.000003356934,8|8,0:0|0:0,0:0:0:0:
160,272,174399,6,0,P|80:192|144:128,1,220.000006713867,4|2,0:0|0:0,0:0:0:0:
248,192,175149,1,8,0:0:0:0:
360,272,175399,6,0,L|368:48,1,220.000006713867,4|2,0:0|0:0,0:0:0:0:
264,120,176149,1,8,0:0:0:0:
136,232,176399,6,0,P|136:200|272:72,1,220.000006713867,4|10,0:0|0:0,0:0:0:0:
352,80,177149,1,8,0:0:0:0:
448,80,177399,5,10,0:0:0:0:
456,72,177524,1,0,0:0:0:0:
448,80,177649,1,8,0:0:0:0:
344,112,177899,1,10,0:0:0:0:
336,104,178024,1,8,0:0:0:0:
344,96,178149,1,8,0:0:0:0:
456,224,178399,6,0,L|296:64,1,220.000006713867,12|10,0:0|0:0,0:0:0:0:
208,80,179149,1,8,0:0:0:0:
104,112,179399,5,10,0:0:0:0:
112,104,179524,1,0,0:0:0:0:
120,96,179649,1,8,0:0:0:0:
224,120,179899,1,10,0:0:0:0:
232,112,180024,1,0,0:0:0:0:
224,120,180149,1,8,0:0:0:0:
112,240,180399,6,0,P|88:216|192:112,1,220.000006713867,12|10,0:0|0:0,0:0:0:0:
280,112,181149,1,8,0:0:0:0:
384,112,181399,5,10,0:0:0:0:
376,104,181524,1,0,0:0:0:0:
368,96,181649,1,8,0:0:0:0:
264,112,181899,1,10,0:0:0:0:
272,104,182024,1,8,0:0:0:0:
280,96,182149,1,8,0:0:0:0:
168,224,182399,6,0,P|88:144|152:80,1,220.000006713867,4|0,0:0|0:0,0:0:0:0:
192,80,183024,1,8,0:0:0:0:
240,80,183149,1,8,0:0:0:0:
136,264,183399,6,0,L|128:64,1,200,4|4,0:0|0:0,0:0:0:0:
296,256,184399,6,0,P|376:176|304:104,1,220.000006713867,4|10,0:0|0:0,0:0:0:0:
280,112,185024,1,0,0:0:0:0:
240,112,185149,1,8,0:0:0:0:
136,168,185399,6,0,L|128:56,1,110.000003356934,10|8,0:0|0:0,0:0:0:0:
168,88,185774,1,0,0:0:0:0:
208,88,185899,1,10,0:0:0:0:
304,88,186149,1,8,0:0:0:0:
176,208,186399,6,0,L|336:48,1,220.000006713867,12|10,0:0|0:0,0:0:0:0:
288,56,187024,1,0,0:0:0:0:
240,56,187149,1,8,0:0:0:0:
112,152,187399,6,0,L|104:40,1,110.000003356934,12|0,0:0|0:0,0:0:0:0:
152,152,187774,2,0,L|232:72,1,110.000003356934,12|0,0:0|0:0,0:0:0:0:
280,56,188149,1,12,0:0:0:0:
400,168,188399,6,0,L|304:72,1,110.000003356934,4|8,0:0|0:0,0:0:0:0:
416,136,188899,2,0,L|424:24,1,110.000003356934,10|8,0:0|0:0,0:0:0:0:
328,88,189399,6,0,L|416:176,1,110.000003356934,10|8,0:0|0:0,0:0:0:0:
312,184,189899,1,10,0:0:0:0:
304,176,190024,1,8,0:0:0:0:
296,168,190149,1,8,0:0:0:0:
184,256,190399,6,0,P|160:256|72:168,2,150,12|12|8,0:0|0:0|0:0,0:0:0:0:
296,256,191399,6,0,L|416:136,1,150,12|10,0:0|0:0,0:0:0:0:
256,256,192149,2,0,L|136:136,1,150,10|10,0:0|0:0,0:0:0:0:
296,176,192899,2,0,L|304:72,1,100,10|10,0:0|0:0,0:0:0:0:
280,88,193274,1,8,0:0:0:0:
208,88,193399,5,14,0:3:0:0:
256,192,193649,12,0,195399,0:0:0:0:
