osu file format v14

[General]
AudioFilename: audio.mp3
AudioLeadIn: 0
PreviewTime: 50352
Countdown: 0
SampleSet: Normal
StackLeniency: 0.7
Mode: 0
LetterboxInBreaks: 0
WidescreenStoryboard: 1

[Editor]
Bookmarks: 352,26352,44352,50352,58352,66352,74352,77602,82352,90352,92352,100352,104352,106352,113352,114352,124352,132352,140352,146102,146352,148352,149977,150289,158352,167352,168352,176352,184352,192477,193352
DistanceSpacing: 3.5
BeatDivisor: 4
GridSize: 4
TimelineZoom: 2.299999

[Metadata]
Title:Everything will freeze
TitleUnicode:Everything will freeze
Artist:UNDEAD CORPORATION
ArtistUnicode:UNDEAD CORPORATION
Creator:- wickEd -
Version:Jump AR10
Source:東方Project
Tags:Touhou sakuya izayoi flowering night jump
BeatmapID:971015
BeatmapSetID:452706

[Difficulty]
HPDrainRate:2
CircleSize:4
OverallDifficulty:9
ApproachRate:10
SliderMultiplier:1.6
SliderTickRate:1

[Events]
//Background and Video events
0,0,"bg.jpg",0,0
//Break Periods
2,66552,73902
2,124552,131902
//Storyboard Layer 0 (Background)
//Storyboard Layer 1 (Fail)
//Storyboard Layer 2 (Pass)
//Storyboard Layer 3 (Foreground)
//Storyboard Sound Samples

[TimingPoints]
-648,250,4,1,0,100,1,0
50352,-100,4,1,0,100,0,1
53852,500,4,1,0,100,1,0
53852,-200,4,1,0,100,0,0
54352,250,4,1,0,100,1,0
54352,-100,4,1,0,100,0,1
57352,-133.333333333333,4,1,0,100,0,0
58352,-100,4,1,0,100,0,1
61852,500,4,1,0,100,1,0
61852,-200,4,1,0,100,0,0
62352,250,4,1,0,100,1,1
66352,-100,4,1,0,100,0,0
97852,-200,4,1,0,100,0,0
98352,-100,4,1,0,100,0,0
106352,-100,4,1,0,100,0,1
109852,500,4,1,0,100,1,0
109852,-200,4,1,0,100,0,0
110352,250,4,1,0,100,1,0
110352,-100,4,1,0,100,0,1
117852,500,4,1,0,100,1,0
117852,-200,4,1,0,100,0,0
118352,250,4,1,0,100,1,0
118352,-100,4,1,0,100,0,1
122352,-100,4,1,0,100,0,0
133352,-200,4,1,0,100,0,0
137852,-133.333333333333,4,1,0,100,0,0
139852,-100,4,1,0,100,0,0
167852,-66.6666666666667,4,1,0,100,0,0
168352,-100,4,1,0,100,0,1
171852,-66.6666666666667,4,1,0,100,0,1
172352,-100,4,1,0,100,0,1
179852,-66.6666666666667,4,1,0,100,0,1
181352,-100,4,1,0,100,0,1
190352,-100,4,1,0,100,0,0

[Colours]
Combo1 : 0,0,0
Combo2 : 236,0,0

[HitObjects]
95,89,352,6,8,L|63:162,1,80
376,104,602,6,0,L|416:86,3,40,2|0|0|0,0:0|0:0|0:0|0:0,0:0:0:0:
160,180,852,6,0,L|120:198,3,40,2|0|0|0,0:0|0:0|0:0|0:0,0:0:0:0:
376,256,1102,6,0,L|416:274,3,40,2|0|0|0,0:0|0:0|0:0|0:0,0:0:0:0:
160,332,1352,6,0,L|120:314,3,40,2|0|0|0,0:0|0:0|0:0|0:0,0:0:0:0:
376,256,1602,6,0,L|416:238,3,40,2|0|0|0,0:0|0:0|0:0|0:0,0:0:0:0:
160,180,1852,6,0,L|120:162,4,40,2|0|0|0|0,0:0|0:0|0:0|0:0|0:0,0:0:0:0:
376,104,2352,5,4,2:0:0:0:
43,40,3227,5,0,0:0:0:0:
43,40,3289,1,0,0:0:0:0:
43,40,3352,2,0,P|51:80|43:120,1,80,8|0,0:0|0:0,0:0:0:0:
469,344,3602,2,0,P|461:304|469:264,1,80,8|0,0:0|0:0,0:0:0:0:
469,40,3852,6,0,P|477:80|469:120,1,80,8|0,0:0|0:0,0:0:0:0:
43,344,4102,2,0,P|35:304|43:264,1,80,8|0,0:0|0:0,0:0:0:0:
469,344,4352,5,4,2:0:0:0:
400,116,5352,6,0,L|400:156,3,40,2|0|0|0,0:0|0:0|0:0|0:0,0:0:0:0:
332,336,5602,6,0,L|352:371,3,40,2|0|0|0,0:0|0:0|0:0|0:0,0:0:0:0:
112,268,5852,6,0,L|132:234,3,40,2|0|0|0,0:0|0:0|0:0|0:0,0:0:0:0:
180,48,6102,6,0,L|180:8,3,40,2|0|0|0,0:0|0:0|0:0|0:0,0:0:0:0:
217,237,6352,6,0,L|144:270,1,80,2|0,0:0|0:0,0:0:0:0:
424,44,6602,2,0,L|509:5,1,80,2|0,0:0|0:0,0:0:0:0:
216,44,6852,6,0,L|131:5,1,80,2|0,0:0|0:0,0:0:0:0:
424,240,7102,2,0,L|512:273,1,80,2|0,0:0|0:0,0:0:0:0:
210,152,7352,5,2,0:0:0:0:
403,95,7477,1,2,0:0:0:0:
458,288,7602,2,0,L|392:351,1,80,2|0,0:0|0:0,0:0:0:0:
179,139,7852,5,2,0:0:0:0:
421,70,7977,1,2,0:0:0:0:
488,312,8102,2,0,L|405:391,1,80,2|0,0:0|0:0,0:0:0:0:
76,296,8352,5,8,0:0:0:0:
316,28,8477,1,4,2:0:0:0:
104,324,8727,5,8,0:0:0:0:
344,56,8852,1,4,2:0:0:0:
372,84,9102,5,8,0:0:0:0:
132,352,9227,1,8,0:0:0:0:
112,4,9352,1,8,0:0:0:0:
96,28,9602,5,0,0:0:0:0:
96,28,9664,1,0,0:0:0:0:
96,28,9727,1,0,0:0:0:0:
96,28,9789,1,0,0:0:0:0:
96,28,9852,2,0,L|64:120,1,80,8|0,0:0|0:0,0:0:0:0:
442,280,10102,2,0,L|477:352,1,80,8|0,0:0|0:0,0:0:0:0:
144,132,10352,6,0,L|178:59,1,80,2|0,0:0|0:0,0:0:0:0:
368,252,10602,2,0,L|334:325,1,80,2|0,0:0|0:0,0:0:0:0:
93,105,10852,2,0,L|127:32,1,80,2|0,0:0|0:0,0:0:0:0:
418,278,11102,2,0,L|384:351,1,80,2|0,0:0|0:0,0:0:0:0:
40,80,11352,5,2,0:0:0:0:
320,80,11477,1,2,0:0:0:0:
180,324,11602,2,0,L|180:244,1,80,2|0,0:0|0:0,0:0:0:0:
184,0,11852,5,2,0:0:0:0:
324,242,11977,1,2,0:0:0:0:
42,243,12102,2,0,L|111:203,1,80,2|0,0:0|0:0,0:0:0:0:
184,0,12352,5,2,0:0:0:0:
42,243,12477,1,2,0:0:0:0:
332,72,12602,2,0,L|424:84,1,80,2|0,0:0|0:0,0:0:0:0:
176,80,12852,5,2,0:0:0:0:
34,323,12977,1,2,0:0:0:0:
324,152,13102,2,0,L|416:164,1,80,2|0,0:0|0:0,0:0:0:0:
103,295,13352,6,0,L|131:266,3,40,8|0|0|0,0:0|0:0|0:0|0:0,0:0:0:0:
158,24,13602,6,0,L|193:44,3,40,8|0|0|0,0:0|0:0|0:0|0:0,0:0:0:0:
320,341,13852,6,0,L|359:345,3,40,8|0|0|0,0:0|0:0|0:0|0:0,0:0:0:0:
372,103,14102,6,0,L|409:89,3,40,8|0|0|0,0:0|0:0|0:0|0:0,0:0:0:0:
148,16,14352,6,0,L|216:55,1,80,2|0,0:0|0:0,0:0:0:0:
388,328,14602,2,0,L|308:328,1,80,2|0,0:0|0:0,0:0:0:0:
208,0,14852,2,0,L|276:39,1,80,2|0,0:0|0:0,0:0:0:0:
348,328,15102,2,0,L|268:328,1,80,2|0,0:0|0:0,0:0:0:0:
196,56,15352,5,2,0:0:0:0:
196,376,15477,1,2,0:0:0:0:
473,216,15602,2,0,L|472:176,2,40,8|0|0,0:0|0:0|0:0,0:0:0:0:
147,90,15852,5,2,0:0:0:0:
272,384,15977,1,2,0:0:0:0:
465,129,16102,2,0,L|448:92,2,40,8|0|0,0:0|0:0|0:0,0:0:0:0:
116,140,16352,5,8,0:0:0:0:
396,244,16477,1,8,0:0:0:0:
121,254,16602,1,8,0:0:0:0:
391,129,16727,1,8,0:0:0:0:
204,331,16852,1,8,0:0:0:0:
308,52,16977,1,8,0:0:0:0:
318,326,17102,1,8,0:0:0:0:
193,56,17227,1,8,0:0:0:0:
396,244,17352,6,0,L|426:271,7,40
474,211,17852,6,0,L|438:196,7,40,0|0|0|0|0|0|0|0,0:0|0:0|0:0|0:0|0:0|0:0|0:0|0:0,0:0:0:0:
461,136,18352,6,0,P|456:97|436:63,1,80,2|0,0:0|0:0,0:0:0:0:
116,224,18602,2,0,P|154:228|195:216,1,80,2|0,0:0|0:0,0:0:0:0:
446,97,18852,6,0,P|434:60|408:31,1,80,2|0,0:0|0:0,0:0:0:0:
124,250,19102,2,0,P|163:246|201:227,1,80,2|0,0:0|0:0,0:0:0:0:
425,63,19352,5,2,0:0:0:0:
152,228,19477,1,2,0:0:0:0:
432,383,19602,2,0,L|432:344,2,40,2|0|0,0:0|0:0|0:0,0:0:0:0:
397,33,19852,5,2,0:0:0:0:
160,247,19977,1,2,0:0:0:0:
465,345,20102,2,0,L|457:307,2,40,2|0|0,0:0|0:0|0:0,0:0:0:0:
364,9,20352,6,0,L|296:88,1,80,2|0,0:0|0:0,0:0:0:0:
56,264,20602,2,0,L|-12:342,1,80,8|0,0:0|0:0,0:0:0:0:
408,40,20852,2,0,L|339:118,1,80,2|0,0:0|0:0,0:0:0:0:
99,294,21102,2,0,L|30:372,1,80,8|0,0:0|0:0,0:0:0:0:
452,68,21352,6,0,L|492:67,3,40,8|0|0|0,0:0|0:0|0:0|0:0,0:0:0:0:
220,128,21602,6,0,L|185:107,3,40,8|0|0|0,0:0|0:0|0:0|0:0,0:0:0:0:
388,299,21852,6,0,L|407:333,3,40,8|0|0|0,0:0|0:0|0:0|0:0,0:0:0:0:
328,67,22102,6,0,L|328:27,3,40,8|0|0|0,0:0|0:0|0:0|0:0,0:0:0:0:
305,214,22352,6,0,L|236:148,1,80,8|0,0:0|0:0,0:0:0:0:
484,28,22602,2,0,L|484:120,1,80,8|0,0:0|0:0,0:0:0:0:
276,184,22852,6,0,L|207:118,1,80,8|0,0:0|0:0,0:0:0:0:
484,68,23102,2,0,L|484:160,1,80,8|0,0:0|0:0,0:0:0:0:
247,154,23352,5,8,0:0:0:0:
64,352,23477,1,8,0:0:0:0:
424,352,23602,2,0,L|424:312,2,40,8|0|0,0:0|0:0|0:0,0:0:0:0:
248,88,23852,5,8,0:0:0:0:
65,286,23977,1,8,0:0:0:0:
425,286,24102,2,0,L|425:246,2,40,8|0|0,0:0|0:0|0:0,0:0:0:0:
249,22,24352,5,8,0:0:0:0:
287,339,24477,1,4,2:0:0:0:
248,0,24727,5,8,0:0:0:0:
290,357,24852,1,4,2:0:0:0:
425,58,25102,5,0,0:0:0:0:
73,58,25227,1,0,0:0:0:0:
248,372,25352,1,8,0:0:0:0:
249,22,25602,5,0,0:0:0:0:
249,22,25664,1,0,0:0:0:0:
249,22,25727,1,0,0:0:0:0:
249,22,25789,1,0,0:0:0:0:
249,22,25852,2,0,L|204:112,1,80,2|0,0:0|0:0,0:0:0:0:
444,372,26102,2,0,L|479:300,1,80,2|0,0:0|0:0,0:0:0:0:
334,39,26352,5,2,0:0:0:0:
158,135,26477,1,2,0:0:0:0:
62,310,26602,1,2,0:0:0:0:
237,214,26727,2,0,L|294:155,1,80,8|0,0:0|0:0,0:0:0:0:
248,372,26977,2,0,L|190:313,1,80,8|0,0:0|0:0,0:0:0:0:
406,270,27227,5,2,0:0:0:0:
106,270,27352,2,0,P|96:230|93:191,1,80,2|0,0:0|0:0,0:0:0:0:
406,114,27602,2,0,P|415:153|418:193,1,80,2|0,0:0|0:0,0:0:0:0:
68,289,27852,2,0,P|57:240|53:190,1,80,2|0,0:0|0:0,0:0:0:0:
443,94,28102,2,0,P|454:143|458:193,1,80,2|0,0:0|0:0,0:0:0:0:
256,376,28352,5,2,0:0:0:0:
256,192,28477,1,2,0:0:0:0:
256,8,28602,1,2,0:0:0:0:
443,94,28727,2,0,P|454:143|458:193,1,80,8|0,0:0|0:0,0:0:0:0:
68,289,28977,2,0,P|57:240|53:190,1,80,8|0,0:0|0:0,0:0:0:0:
256,8,29227,5,2,0:0:0:0:
456,284,29352,2,0,L|515:343,1,80,2|0,0:0|0:0,0:0:0:0:
56,284,29602,2,0,L|-3:343,1,80,2|0,0:0|0:0,0:0:0:0:
456,100,29852,2,0,L|515:40,1,80,2|0,0:0|0:0,0:0:0:0:
56,100,30102,2,0,L|-3:40,1,80,2|0,0:0|0:0,0:0:0:0:
56,284,30352,5,2,0:0:0:0:
328,348,30477,1,2,0:0:0:0:
392,76,30602,1,2,0:0:0:0:
120,12,30727,2,0,L|120:96,1,80,8|0,0:0|0:0,0:0:0:0:
392,372,30977,2,0,L|392:288,1,80,8|0,0:0|0:0,0:0:0:0:
120,12,31227,5,8,0:0:0:0:
40,280,31352,1,8,0:0:0:0:
180,36,31477,1,8,0:0:0:0:
100,304,31602,1,8,0:0:0:0:
240,60,31727,1,8,0:0:0:0:
160,328,31852,1,8,0:0:0:0:
300,84,31977,1,8,0:0:0:0:
220,352,32102,1,8,0:0:0:0:
360,108,32227,1,8,0:0:0:0:
280,376,32352,6,0,L|251:348,5,40,8|0|0|0|0|0,0:0|0:0|0:0|0:0|0:0|0:0,0:0:0:0:
108,208,32727,6,0,L|69:197,5,40,8|0|0|0|0|0,0:0|0:0|0:0|0:0|0:0|0:0,0:0:0:0:
452,208,33102,6,0,L|490:198,5,40,8|0|0|0|0|0,0:0|0:0|0:0|0:0|0:0|0:0,0:0:0:0:
280,40,33477,6,0,L|309:11,5,40,8|0|0|0|0|0,0:0|0:0|0:0|0:0|0:0|0:0,0:0:0:0:
294,129,33852,6,0,P|256:144|216:144,1,80,2|0,0:0|0:0,0:0:0:0:
12,336,34102,2,0,P|50:351|90:351,1,80,2|0,0:0|0:0,0:0:0:0:
293,159,34352,5,8,0:0:0:0:
480,229,34477,1,8,0:0:0:0:
448,32,34602,1,8,0:0:0:0:
293,159,34727,2,0,P|276:196|273:251,1,80,2|0,0:0|0:0,0:0:0:0:
48,140,34977,2,0,P|52:100|69:64,1,80,2|0,0:0|0:0,0:0:0:0:
312,56,35227,5,2,0:0:0:0:
305,296,35352,1,2,0:0:0:0:
160,104,35477,1,2,0:0:0:0:
381,198,35602,1,2,0:0:0:0:
143,227,35727,1,2,0:0:0:0:
358,119,35852,2,0,P|360:160|348:212,1,80,8|0,0:0|0:0,0:0:0:0:
48,300,36102,2,0,P|46:259|58:207,1,80,8|0,0:0|0:0,0:0:0:0:
203,165,36352,5,8,0:0:0:0:
353,110,36477,1,8,0:0:0:0:
503,55,36602,1,8,0:0:0:0:
225,14,36727,2,0,P|207:50|197:103,1,80,8|0,0:0|0:0,0:0:0:0:
440,302,36977,2,0,P|457:265|467:212,1,80,8|0,0:0|0:0,0:0:0:0:
225,14,37227,5,2,0:0:0:0:
230,254,37352,1,2,0:0:0:0:
375,63,37477,1,2,0:0:0:0:
153,156,37602,1,2,0:0:0:0:
392,185,37727,1,2,0:0:0:0:
179,81,37852,2,0,P|161:116|152:155,1,80,2|0,0:0|0:0,0:0:0:0:
394,369,38102,2,0,P|411:333|420:294,1,80,2|0,0:0|0:0,0:0:0:0:
420,56,38352,5,8,0:0:0:0:
220,192,38477,1,8,0:0:0:0:
20,56,38602,1,8,0:0:0:0:
20,328,38727,6,0,L|93:296,1,80,8|0,0:0|0:0,0:0:0:0:
400,204,38977,2,0,L|326:172,1,80,8|0,0:0|0:0,0:0:0:0:
20,80,39227,5,8,0:0:0:0:
336,20,39352,1,8,0:0:0:0:
36,128,39477,1,8,0:0:0:0:
352,68,39602,1,8,0:0:0:0:
52,176,39727,1,8,0:0:0:0:
368,116,39852,2,8,P|384:156|384:192,3,80
256,336,40352,5,2,0:0:0:0:
116,92,40477,1,2,0:0:0:0:
396,92,40602,1,2,0:0:0:0:
116,284,40727,1,2,0:0:0:0:
256,40,40852,1,2,0:0:0:0:
396,284,40977,1,2,0:0:0:0:
116,332,41102,5,8,0:0:0:0:
116,52,41227,1,8,0:0:0:0:
236,332,41352,5,8,0:0:0:0:
236,52,41477,1,8,0:0:0:0:
356,332,41602,5,8,0:0:0:0:
356,52,41727,1,8,0:0:0:0:
116,292,41852,6,0,L|108:376,1,80,8|0,0:0|0:0,0:0:0:0:
396,100,42102,2,0,L|404:16,1,80,8|0,0:0|0:0,0:0:0:0:
44,48,42352,6,0,L|16:77,15,40,8|0|0|0|0|0|0|0|0|0|0|0|0|0|0|0,0:0|0:0|0:0|0:0|0:0|0:0|0:0|0:0|0:0|0:0|0:0|0:0|0:0|0:0|0:0|0:0,0:0:0:0:
415,98,43352,6,0,L|443:127,14,40,8|0|0|0|0|0|0|0|0|0|0|0|0|0|0,0:0|0:0|0:0|0:0|0:0|0:0|0:0|0:0|0:0|0:0|0:0|0:0|0:0|0:0|0:0,0:0:0:0:
148,150,44352,5,6,2:0:0:0:
365,162,44477,1,0,0:0:0:0:
148,174,44602,5,2,0:0:0:0:
365,186,44727,1,0,0:0:0:0:
148,198,44852,5,2,0:0:0:0:
365,209,44977,1,0,0:0:0:0:
148,221,45102,5,2,0:0:0:0:
365,233,45227,1,0,0:0:0:0:
112,248,45352,5,6,2:0:0:0:
401,232,45477,1,0,0:0:0:0:
112,216,45602,5,2,0:0:0:0:
401,201,45727,1,0,0:0:0:0:
112,185,45852,5,2,0:0:0:0:
401,169,45977,1,0,0:0:0:0:
112,153,46102,5,2,0:0:0:0:
401,138,46227,1,0,0:0:0:0:
64,118,46352,5,6,2:0:0:0:
449,138,46477,1,0,0:0:0:0:
64,160,46602,5,2,0:0:0:0:
449,180,46727,1,0,0:0:0:0:
64,201,46852,5,2,0:0:0:0:
449,222,46977,1,0,0:0:0:0:
64,243,47102,5,2,0:0:0:0:
449,265,47227,1,0,0:0:0:0:
0,292,47352,5,6,2:0:0:0:
512,264,47477,1,0,0:0:0:0:
0,236,47602,5,2,0:0:0:0:
512,208,47727,1,0,0:0:0:0:
0,180,47852,5,2,0:0:0:0:
512,152,47977,1,0,0:0:0:0:
0,124,48102,5,2,0:0:0:0:
512,96,48227,1,0,0:0:0:0:
0,68,48352,6,0,L|0:148,1,80,6|0,2:0|0:0,0:0:0:0:
512,316,48602,2,0,L|512:236,1,80,6|0,2:0|0:0,0:0:0:0:
57,12,48852,6,0,L|1:69,1,80,6|0,2:0|0:0,0:0:0:0:
455,372,49102,2,0,L|512:316,1,80,6|0,2:0|0:0,0:0:0:0:
256,192,49352,5,6,2:0:0:0:
120,68,50352,6,0,P|112:120|96:160,1,80,2|0,0:0|0:0,0:0:0:0:
392,316,50602,2,0,P|400:264|416:224,1,80,2|0,0:0|0:0,0:0:0:0:
120,68,50852,5,2,0:0:0:0:
392,68,50977,1,0,0:0:0:0:
103,52,51102,1,2,0:0:0:0:
409,52,51227,1,0,0:0:0:0:
83,35,51352,6,0,P|52:88|32:112,1,80,2|0,0:0|0:0,0:0:0:0:
83,348,51602,2,0,P|114:295|134:271,1,80,2|0,0:0|0:0,0:0:0:0:
296,72,51852,5,2,0:0:0:0:
429,348,51977,1,0,0:0:0:0:
452,43,52102,5,2,0:0:0:0:
273,319,52227,1,0,0:0:0:0:
140,101,52352,6,0,P|208:72|220:72,1,80,2|0,0:0|0:0,0:0:0:0:
320,372,52602,2,0,P|291:344|273:308,1,80,2|0,0:0|0:0,0:0:0:0:
347,76,52852,5,2,0:0:0:0:
62,180,52977,1,0,0:0:0:0:
365,70,53102,1,2,0:0:0:0:
44,187,53227,1,0,0:0:0:0:
385,63,53352,6,0,L|435:140,1,80,2|0,0:0|0:0,0:0:0:0:
127,321,53602,2,0,L|77:244,1,80,2|0,0:0|0:0,0:0:0:0:
385,321,53852,6,8,L|406:287,1,40
385,63,54352,6,0,L|353:136,1,80,2|0,0:0|0:0,0:0:0:0:
158,247,54602,2,0,L|127:321,1,80,2|0,0:0|0:0,0:0:0:0:
127,63,54852,5,2,0:0:0:0:
308,316,54977,1,0,0:0:0:0:
308,40,55102,5,2,0:0:0:0:
489,293,55227,1,0,0:0:0:0:
489,17,55352,6,0,L|408:32,1,80,2|0,0:0|0:0,0:0:0:0:
96,88,55602,2,0,L|177:103,1,80,2|0,0:0|0:0,0:0:0:0:
489,159,55852,5,2,0:0:0:0:
101,210,55977,1,0,0:0:0:0:
410,173,56102,5,2,0:0:0:0:
23,225,56227,1,0,0:0:0:0:
331,187,56352,6,0,L|316:288,1,80,2|0,0:0|0:0,0:0:0:0:
472,80,56602,2,0,L|487:-21,1,80,2|0,0:0|0:0,0:0:0:0:
191,79,56852,5,2,0:0:0:0:
471,295,56977,1,0,0:0:0:0:
160,80,57102,5,2,0:0:0:0:
440,294,57227,1,0,0:0:0:0:
216,140,57352,6,8,P|199:199|215:259,1,120.000004577637
420,140,57852,2,8,P|437:199|421:259,1,120.000004577637
336,200,58352,5,2,0:0:0:0:
1,188,58477,1,0,0:0:0:0:
395,52,58602,5,2,0:0:0:0:
60,40,58727,1,0,0:0:0:0:
336,200,58852,6,0,L|368:277,1,80,2|0,0:0|0:0,0:0:0:0:
84,148,59102,2,0,L|51:70,1,80,2|0,0:0|0:0,0:0:0:0:
336,96,59352,5,2,0:0:0:0:
58,376,59477,1,0,0:0:0:0:
58,96,59602,5,2,0:0:0:0:
336,376,59727,1,0,0:0:0:0:
336,96,59852,5,2,0:0:0:0:
476,338,59977,1,0,0:0:0:0:
324,76,60102,1,2,0:0:0:0:
488,358,60227,1,0,0:0:0:0:
161,359,60352,6,0,L|256:340,1,80,2|0,0:0|0:0,0:0:0:0:
402,91,60602,2,0,L|324:76,1,80,2|0,0:0|0:0,0:0:0:0:
4,76,60852,5,2,0:0:0:0:
356,144,60977,1,0,0:0:0:0:
4,136,61102,5,2,0:0:0:0:
356,204,61227,1,0,0:0:0:0:
4,196,61352,6,0,P|4:236|16:288,1,80,2|0,0:0|0:0,0:0:0:0:
356,204,61602,2,0,P|356:164|344:112,1,80,2|0,0:0|0:0,0:0:0:0:
74,16,61852,6,8,L|66:59,1,40
452,152,62352,6,0,P|460:192|452:232,1,80,2|0,0:0|0:0,0:0:0:0:
60,232,62602,2,0,P|52:192|60:152,1,80,2|0,0:0|0:0,0:0:0:0:
452,152,62852,5,2,0:0:0:0:
60,232,62977,1,0,0:0:0:0:
452,230,63102,5,2,0:0:0:0:
59,153,63227,1,0,0:0:0:0:
217,47,63352,6,0,P|257:40|296:48,1,80,2|0,0:0|0:0,0:0:0:0:
296,336,63602,2,0,P|256:344|216:336,1,80,2|0,0:0|0:0,0:0:0:0:
217,47,63852,5,2,0:0:0:0:
296,336,63977,1,0,0:0:0:0:
295,47,64102,5,2,0:0:0:0:
217,336,64227,1,0,0:0:0:0:
373,47,64352,6,0,P|405:69|427:102,1,80,2|0,0:0|0:0,0:0:0:0:
139,337,64602,2,0,P|106:314|84:281,1,80,2|0,0:0|0:0,0:0:0:0:
88,44,64852,5,2,0:0:0:0:
367,162,64977,1,0,0:0:0:0:
67,35,65102,1,2,0:0:0:0:
388,171,65227,1,0,0:0:0:0:
109,380,65352,6,0,B|100:314|172:308|216:336|216:336|216:336|216:336|259:263|206:219,1,280,4|0,2:0|0:0,0:0:0:0:
136,252,65852,2,0,P|99:225|136:318,1,320,4|4,2:0|2:0,0:0:0:0:
256,192,74352,5,4,2:0:0:0:
120,0,75352,6,0,L|63:56,1,80,2|0,0:0|0:0,0:0:0:0:
392,328,75602,2,0,L|447:272,1,80,2|0,0:0|0:0,0:0:0:0:
392,0,75852,6,0,L|448:56,1,80,2|0,0:0|0:0,0:0:0:0:
120,328,76102,2,0,L|64:271,1,80,2|0,0:0|0:0,0:0:0:0:
456,160,76352,6,0,L|456:80,1,80,2|0,0:0|0:0,0:0:0:0:
56,248,76602,2,0,L|56:288,2,40,8|0|0,0:0|0:0|0:0,0:0:0:0:
485,155,76852,6,0,L|485:63,1,80,2|0,0:0|0:0,0:0:0:0:
26,256,77102,2,0,L|26:302,2,40,8|0|0,0:0|0:0|0:0,0:0:0:0:
256,56,77352,6,0,L|284:84,3,40,8|0|0|0,0:0|0:0|0:0|0:0,0:0:0:0:
120,192,77602,6,0,L|120:152,3,40,8|0|0|0,0:0|0:0|0:0|0:0,0:0:0:0:
392,192,77852,6,0,L|392:232,3,40,8|0|0|0,0:0|0:0|0:0|0:0,0:0:0:0:
256,328,78102,6,0,L|228:300,3,40,8|0|0|0,0:0|0:0|0:0|0:0,0:0:0:0:
436,243,78352,6,0,P|408:272|392:308,1,80,2|0,0:0|0:0,0:0:0:0:
76,141,78602,2,0,P|92:104|119:76,1,80,2|0,0:0|0:0,0:0:0:0:
462,250,78852,6,0,P|430:283|412:325,1,80,2|0,0:0|0:0,0:0:0:0:
49,133,79102,2,0,P|67:91|99:58,1,80,2|0,0:0|0:0,0:0:0:0:
493,259,79352,5,8,0:0:0:0:
256,384,79477,1,8,0:0:0:0:
19,259,79602,1,8,0:0:0:0:
255,135,79727,1,8,0:0:0:0:
112,52,79852,6,8,P|84:80|84:124,1,80
430,265,80102,2,8,P|458:293|458:337,1,80
111,184,80352,5,8,0:0:0:0:
459,37,80477,1,4,2:0:0:0:
96,184,80727,5,8,0:0:0:0:
469,26,80852,1,4,2:0:0:0:
479,15,81102,5,2,0:0:0:0:
81,184,81227,1,2,0:0:0:0:
479,353,81352,1,4,2:0:0:0:
479,353,81602,5,0,0:0:0:0:
479,353,81664,1,0,0:0:0:0:
479,353,81727,1,0,0:0:0:0:
479,353,81789,1,0,0:0:0:0:
479,353,81852,2,0,P|487:313|479:273,1,80,2|0,0:0|0:0,0:0:0:0:
256,12,82102,2,0,P|248:52|256:92,1,80,2|0,0:0|0:0,0:0:0:0:
364,180,82352,5,2,0:0:0:0:
184,260,82477,1,2,0:0:0:0:
4,180,82602,1,2,0:0:0:0:
320,312,82727,6,0,L|360:381,1,80,2|0,0:0|0:0,0:0:0:0:
192,72,82977,2,0,L|152:2,1,80,2|0,0:0|0:0,0:0:0:0:
463,81,83227,5,2,0:0:0:0:
330,365,83352,1,2,0:0:0:0:
277,64,83477,1,2,0:0:0:0:
506,274,83602,1,2,0:0:0:0:
198,234,83727,1,2,0:0:0:0:
384,0,83852,6,0,P|424:0|460:20,1,80,2|0,0:0|0:0,0:0:0:0:
128,384,84102,2,0,P|88:384|52:364,1,80,2|0,0:0|0:0,0:0:0:0:
76,80,84352,5,8,0:0:0:0:
256,0,84477,1,8,0:0:0:0:
436,80,84602,1,8,0:0:0:0:
168,40,84727,6,0,L|128:109,1,80,8|0,0:0|0:0,0:0:0:0:
384,274,84977,2,0,L|424:343,1,80,8|0,0:0|0:0,0:0:0:0:
463,81,85227,1,8,0:0:0:0:
198,234,85352,1,8,0:0:0:0:
506,274,85477,1,8,0:0:0:0:
277,64,85602,1,8,0:0:0:0:
330,365,85727,1,8,0:0:0:0:
252,64,85852,6,0,L|172:58,1,80,8|0,0:0|0:0,0:0:0:0:
355,365,86102,2,0,L|434:359,1,80,8|0,0:0|0:0,0:0:0:0:
148,384,86352,5,2,0:0:0:0:
64,192,86477,1,2,0:0:0:0:
148,0,86602,1,2,0:0:0:0:
64,192,86727,6,0,L|48:270,1,80,2|0,0:0|0:0,0:0:0:0:
496,80,86977,2,0,L|511:1,1,80,2|0,0:0|0:0,0:0:0:0:
216,80,87227,5,2,0:0:0:0:
363,142,87352,1,2,0:0:0:0:
179,64,87477,1,2,0:0:0:0:
400,158,87602,1,2,0:0:0:0:
142,48,87727,1,2,0:0:0:0:
436,173,87852,6,0,P|436:212|444:252,1,80,2|0,0:0|0:0,0:0:0:0:
101,31,88102,2,0,P|101:70|93:110,1,80,2|0,0:0|0:0,0:0:0:0:
436,47,88352,6,0,L|407:75,5,40,8|0|0|0|0|0,0:0|0:0|0:0|0:0|0:0|0:0,0:0:0:0:
350,316,88727,6,0,L|339:277,5,40,8|0|0|0|0|0,0:0|0:0|0:0|0:0|0:0|0:0,0:0:0:0:
160,108,89102,6,0,L|198:118,5,40,8|0|0|0|0|0,0:0|0:0|0:0|0:0|0:0|0:0,0:0:0:0:
74,377,89477,6,0,L|46:348,5,40,8|0|0|0|0|0,0:0|0:0|0:0|0:0|0:0|0:0,0:0:0:0:
221,104,89852,2,0,L|260:32,1,80,8|0,0:0|0:0,0:0:0:0:
416,331,90102,2,0,L|377:259,1,80,8|0,0:0|0:0,0:0:0:0:
436,47,90352,5,8,0:0:0:0:
221,104,90477,1,8,0:0:0:0:
278,319,90602,1,8,0:0:0:0:
493,262,90727,6,0,L|473:185,1,80,8|0,0:0|0:0,0:0:0:0:
221,104,90977,2,0,L|201:180,1,80,8|0,0:0|0:0,0:0:0:0:
436,47,91227,5,8,0:0:0:0:
278,319,91352,1,8,0:0:0:0:
360,48,91477,1,8,0:0:0:0:
202,320,91602,1,8,0:0:0:0:
284,49,91727,1,8,0:0:0:0:
126,321,91852,1,8,0:0:0:0:
208,50,91977,1,8,0:0:0:0:
50,322,92102,2,0,L|52:240,1,80,8|0,0:0|0:0,0:0:0:0:
76,47,92352,5,2,0:0:0:0:
291,104,92477,1,2,0:0:0:0:
234,319,92602,1,2,0:0:0:0:
19,262,92727,6,0,L|38:185,1,80,2|0,0:0|0:0,0:0:0:0:
291,104,92977,2,0,L|310:180,1,80,2|0,0:0|0:0,0:0:0:0:
76,47,93227,5,2,0:0:0:0:
234,319,93352,1,2,0:0:0:0:
152,48,93477,1,2,0:0:0:0:
310,320,93602,1,2,0:0:0:0:
228,49,93727,1,2,0:0:0:0:
386,321,93852,1,2,0:0:0:0:
304,50,93977,1,2,0:0:0:0:
462,322,94102,2,0,L|460:240,1,80,2|0,0:0|0:0,0:0:0:0:
304,50,94352,5,2,0:0:0:0:
80,146,94477,1,2,0:0:0:0:
305,143,94602,1,2,0:0:0:0:
78,52,94727,6,0,P|72:92|80:136,1,80,2|0,0:0|0:0,0:0:0:0:
434,332,94977,2,0,P|440:292|432:248,1,80,2|0,0:0|0:0,0:0:0:0:
256,44,95227,5,2,0:0:0:0:
156,373,95352,1,2,0:0:0:0:
426,163,95477,1,2,0:0:0:0:
86,163,95602,1,2,0:0:0:0:
356,373,95727,1,2,0:0:0:0:
180,108,95852,6,0,P|126:89|94:89,1,80,2|0,0:0|0:0,0:0:0:0:
332,276,96102,2,0,P|386:295|418:295,1,80,2|0,0:0|0:0,0:0:0:0:
256,44,96352,5,8,0:0:0:0:
408,295,96477,1,8,0:0:0:0:
479,11,96602,1,8,0:0:0:0:
148,152,96727,2,0,P|140:192|148:232,1,80,8|0,0:0|0:0,0:0:0:0:
480,40,96977,5,8,0:0:0:0:
141,177,97102,2,0,P|142:218|159:255,1,80,8|0,0:0|0:0,0:0:0:0:
481,69,97352,5,8,0:0:0:0:
141,203,97477,2,0,P|151:242|176:275,2,80,8|0|8,0:0|0:0|0:0,0:0:0:0:
480,96,97852,2,8,L|480:176,1,80
160,325,98352,6,0,L|188:296,15,40,8|0|0|0|8|0|0|0|8|0|0|0|8|0|0|0,0:0|0:0|0:0|0:0|0:0|0:0|0:0|0:0|0:0|0:0|0:0|0:0|0:0|0:0|0:0|0:0,0:0:0:0:
352,325,99352,6,0,L|324:296,15,40,8|0|0|0|8|0|0|0|8|0|0|0|8|0|0|0,0:0|0:0|0:0|0:0|0:0|0:0|0:0|0:0|0:0|0:0|0:0|0:0|0:0|0:0|0:0|0:0,0:0:0:0:
208,144,100352,5,12,2:0:0:0:
304,240,100477,1,0,0:0:0:0:
304,144,100602,1,8,0:0:0:0:
208,240,100727,1,0,0:0:0:0:
202,138,100852,5,8,0:0:0:0:
310,246,100977,1,0,0:0:0:0:
310,138,101102,1,8,0:0:0:0:
202,246,101227,1,0,0:0:0:0:
184,119,101352,5,12,2:0:0:0:
328,264,101477,1,0,0:0:0:0:
328,119,101602,1,8,0:0:0:0:
184,264,101727,1,0,0:0:0:0:
175,110,101852,5,8,0:0:0:0:
337,273,101977,1,0,0:0:0:0:
337,110,102102,1,8,0:0:0:0:
175,273,102227,1,0,0:0:0:0:
147,83,102352,5,12,2:0:0:0:
364,300,102477,1,0,0:0:0:0:
364,83,102602,1,8,0:0:0:0:
147,300,102727,1,0,0:0:0:0:
134,70,102852,5,8,0:0:0:0:
377,313,102977,1,0,0:0:0:0:
377,70,103102,1,8,0:0:0:0:
134,313,103227,1,0,0:0:0:0:
93,29,103352,5,12,2:0:0:0:
418,354,103477,1,0,0:0:0:0:
418,29,103602,1,8,0:0:0:0:
93,354,103727,1,0,0:0:0:0:
73,9,103852,5,8,0:0:0:0:
438,374,103977,1,0,0:0:0:0:
438,9,104102,1,8,0:0:0:0:
73,374,104227,1,0,0:0:0:0:
40,56,104352,6,0,L|55:134,1,80,4|0,2:0|0:0,0:0:0:0:
472,328,104602,2,0,L|456:249,1,80,4|0,2:0|0:0,0:0:0:0:
69,17,104852,6,0,L|69:97,1,80,4|0,2:0|0:0,0:0:0:0:
442,366,105102,2,0,L|442:286,1,80,4|0,2:0|0:0,0:0:0:0:
256,16,105352,1,4,2:0:0:0:
256,176,105602,5,2,0:0:0:0:
256,176,105664,1,2,0:0:0:0:
256,176,105727,1,2,0:0:0:0:
256,176,105789,1,2,0:0:0:0:
256,176,105852,2,2,L|256:16,1,160
256,304,106352,6,0,L|256:384,1,80,2|0,0:0|0:0,0:0:0:0:
256,80,106602,2,0,L|256:0,1,80,2|0,0:0|0:0,0:0:0:0:
64,192,106852,5,2,0:0:0:0:
448,192,106977,1,0,0:0:0:0:
36,168,107102,1,2,0:0:0:0:
475,215,107227,1,0,0:0:0:0:
87,164,107352,6,0,P|88:124|108:88,1,80,2|0,0:0|0:0,0:0:0:0:
425,220,107602,2,0,P|424:260|404:296,1,80,2|0,0:0|0:0,0:0:0:0:
256,0,107852,5,2,0:0:0:0:
256,384,107977,1,0,0:0:0:0:
120,56,108102,5,2,0:0:0:0:
391,327,108227,1,0,0:0:0:0:
391,56,108352,6,0,L|336:120,1,80,2|0,0:0|0:0,0:0:0:0:
0,116,108602,2,0,L|0:36,1,80,2|0,0:0|0:0,0:0:0:0:
391,56,108852,5,2,0:0:0:0:
282,357,108977,1,0,0:0:0:0:
320,36,109102,1,2,0:0:0:0:
210,336,109227,1,0,0:0:0:0:
248,15,109352,6,0,P|208:16|164:28,1,80,2|0,0:0|0:0,0:0:0:0:
376,172,109602,2,0,P|416:171|460:159,1,80,2|0,0:0|0:0,0:0:0:0:
248,329,109852,2,8,P|228:328|206:322,1,40
432,284,110352,6,0,P|444:244|432:200,1,80,2|0,0:0|0:0,0:0:0:0:
80,100,110602,2,0,P|68:140|80:184,1,80,2|0,0:0|0:0,0:0:0:0:
376,12,110852,5,2,0:0:0:0:
60,100,110977,1,0,0:0:0:0:
376,184,111102,1,2,0:0:0:0:
40,100,111227,1,0,0:0:0:0:
472,100,111352,6,0,L|472:180,1,80,2|0,0:0|0:0,0:0:0:0:
40,100,111602,2,0,L|40:20,1,80,2|0,0:0|0:0,0:0:0:0:
376,100,111852,5,2,0:0:0:0:
74,234,111977,1,0,0:0:0:0:
395,300,112102,1,2,0:0:0:0:
176,53,112227,1,0,0:0:0:0:
355,367,112352,6,0,L|399:300,1,80,2|0,0:0|0:0,0:0:0:0:
176,53,112602,2,0,L|130:118,1,80,2|0,0:0|0:0,0:0:0:0:
355,367,112852,5,2,0:0:0:0:
176,53,112977,1,0,0:0:0:0:
157,367,113102,1,2,0:0:0:0:
336,53,113227,1,0,0:0:0:0:
256,236,113352,6,0,B|244:268|244:268|276:344|276:344|260:384,1,160,8|4,0:0|2:0,0:0:0:0:
326,22,113852,2,8,P|251:0|176:23,1,160,8|12,0:0|2:0,0:0:0:0:
259,384,114352,5,2,0:0:0:0:
500,172,114477,1,0,0:0:0:0:
196,70,114602,1,2,0:0:0:0:
408,311,114727,1,0,0:0:0:0:
511,7,114852,5,2,0:0:0:0:
366,347,114977,1,0,0:0:0:0:
221,7,115102,1,2,0:0:0:0:
76,347,115227,1,0,0:0:0:0:
212,31,115352,6,0,P|249:20|287:31,1,80,2|0,0:0|0:0,0:0:0:0:
287,352,115602,2,0,P|249:363|212:352,1,80,2|0,0:0|0:0,0:0:0:0:
64,64,115852,5,2,0:0:0:0:
448,320,115977,1,0,0:0:0:0:
448,64,116102,1,2,0:0:0:0:
64,320,116227,1,0,0:0:0:0:
64,64,116352,6,0,L|64:160,1,80,2|0,0:0|0:0,0:0:0:0:
448,320,116602,2,0,L|448:224,1,80,2|0,0:0|0:0,0:0:0:0:
416,64,116852,5,2,0:0:0:0:
96,320,116977,1,0,0:0:0:0:
448,64,117102,1,2,0:0:0:0:
64,320,117227,1,0,0:0:0:0:
480,64,117352,6,0,L|480:144,1,80,2|0,0:0|0:0,0:0:0:0:
32,320,117602,2,0,L|32:240,1,80,2|0,0:0|0:0,0:0:0:0:
480,64,117852,6,8,L|480:104,1,40
240,368,118352,5,2,0:0:0:0:
161,119,118477,1,0,0:0:0:0:
480,268,118602,1,2,0:0:0:0:
402,19,118727,1,0,0:0:0:0:
240,368,118852,5,2,0:0:0:0:
78,19,118977,1,0,0:0:0:0:
240,384,119102,1,2,0:0:0:0:
402,19,119227,1,0,0:0:0:0:
402,365,119352,6,0,L|323:380,1,80,2|0,0:0|0:0,0:0:0:0:
110,19,119602,2,0,L|31:34,1,80,2|0,0:0|0:0,0:0:0:0:
402,47,119852,5,2,0:0:0:0:
402,319,119977,1,0,0:0:0:0:
402,19,120102,1,2,0:0:0:0:
402,347,120227,1,0,0:0:0:0:
117,184,120352,6,0,P|108:144|112:104,1,80,2|0,0:0|0:0,0:0:0:0:
492,232,120602,2,0,P|501:272|497:312,1,80,2|0,0:0|0:0,0:0:0:0:
96,312,120852,5,2,0:0:0:0:
416,72,120977,1,0,0:0:0:0:
124,312,121102,1,2,0:0:0:0:
388,72,121227,1,0,0:0:0:0:
152,312,121352,6,8,P|236:313|292:266,1,160
284,23,121852,6,0,P|127:14|6:113,1,320,8|4,0:0|2:0,0:0:0:0:
256,192,122414,12,4,124352,2:0:0:0:
384,320,132352,5,4,2:0:0:0:
128,64,132602,1,0,0:0:0:0:
384,64,132852,1,2,0:0:0:0:
128,320,133102,1,0,0:0:0:0:
460,56,133352,6,0,P|468:96|460:136,1,80,4|0,2:0|0:0,0:0:0:0:
51,249,133852,2,0,P|44:289|52:328,1,80,2|0,0:0|0:0,0:0:0:0:
460,249,134352,5,4,2:0:0:0:
51,134,134602,1,0,0:0:0:0:
461,19,134852,1,2,0:0:0:0:
156,316,135102,1,0,0:0:0:0:
461,19,135352,5,4,2:0:0:0:
51,19,135602,5,2,0:0:0:0:
256,80,135727,1,2,0:0:0:0:
461,19,135852,1,2,0:0:0:0:
256,384,136102,5,0,0:0:0:0:
416,64,136352,5,4,2:0:0:0:
96,320,136602,1,0,0:0:0:0:
459,214,136852,1,2,0:0:0:0:
77,64,137102,1,0,0:0:0:0:
360,369,137352,5,8,0:0:0:0:
416,64,137477,1,8,0:0:0:0:
360,369,137602,1,8,0:0:0:0:
123,167,137852,6,8,P|128:108|172:68,1,120.000004577637
360,369,138352,5,8,0:0:0:0:
170,68,138477,1,8,0:0:0:0:
360,369,138727,5,8,0:0:0:0:
4,383,138852,1,8,0:0:0:0:
4,383,139102,5,8,0:0:0:0:
256,192,139227,1,8,0:0:0:0:
508,1,139352,1,4,2:0:0:0:
508,1,139602,5,2,0:0:0:0:
508,1,139664,1,2,0:0:0:0:
508,1,139727,1,2,0:0:0:0:
508,1,139789,1,2,0:0:0:0:
508,1,139852,2,0,P|486:34|478:73,1,80,2|0,0:0|0:0,0:0:0:0:
256,336,140102,2,0,L|256:256,1,80,2|0,0:0|0:0,0:0:0:0:
32,72,140352,5,8,0:0:0:0:
324,24,140477,1,0,0:0:0:0:
84,184,140602,1,8,0:0:0:0:
376,136,140727,1,0,0:0:0:0:
136,296,140852,6,0,L|214:280,1,80,8|0,0:0|0:0,0:0:0:0:
408,20,141102,2,0,L|329:35,1,80,8|0,0:0|0:0,0:0:0:0:
32,72,141352,5,8,0:0:0:0:
52,348,141477,1,0,0:0:0:0:
168,36,141602,1,8,0:0:0:0:
188,312,141727,1,0,0:0:0:0:
304,0,141852,2,0,L|312:80,1,80,8|0,0:0|0:0,0:0:0:0:
488,360,142102,2,0,L|480:280,1,80,8|0,0:0|0:0,0:0:0:0:
376,52,142352,5,8,0:0:0:0:
332,324,142477,1,8,0:0:0:0:
60,280,142602,1,8,0:0:0:0:
104,8,142727,1,8,0:0:0:0:
240,68,142852,5,8,0:0:0:0:
196,340,142977,1,8,0:0:0:0:
468,384,143102,1,8,0:0:0:0:
512,112,143227,1,8,0:0:0:0:
240,68,143352,6,2,B|188:111|188:111|150:122|150:122|198:168|144:204|144:204|128:240,1,240,10|2,0:0|0:0,0:0:0:0:
130,233,143852,5,0,0:0:0:0:
130,233,143914,1,0,0:0:0:0:
130,233,143977,1,0,0:0:0:0:
130,233,144039,1,0,0:0:0:0:
130,233,144102,1,0,0:0:0:0:
130,233,144164,1,0,0:0:0:0:
129,237,144227,6,2,P|193:277|256:236,1,160,2|0,0:0|0:0,0:0:0:0:
92,100,144602,1,2,0:0:0:0:
420,100,144727,1,2,0:0:0:0:
256,384,144852,1,2,0:0:0:0:
256,0,144977,1,2,0:0:0:0:
420,284,145102,1,2,0:0:0:0:
92,284,145227,1,2,0:0:0:0:
92,100,145352,5,2,0:0:0:0:
205,10,145477,1,2,0:0:0:0:
348,27,145602,1,2,0:0:0:0:
437,140,145727,1,2,0:0:0:0:
420,283,145852,1,2,0:0:0:0:
307,372,145977,1,2,0:0:0:0:
286,229,146102,5,0,0:0:0:0:
286,229,146164,1,0,0:0:0:0:
286,229,146227,1,0,0:0:0:0:
286,229,146289,1,0,0:0:0:0:
286,229,146352,2,0,L|208:216,1,80,4|0,2:0|0:0,0:0:0:0:
92,64,146727,5,4,2:0:0:0:
416,336,146852,1,4,2:0:0:0:
416,48,147102,5,4,2:0:0:0:
92,320,147227,1,4,2:0:0:0:
256,352,147477,5,4,2:0:0:0:
256,32,147602,1,4,2:0:0:0:
84,192,147852,5,2,0:0:0:0:
428,192,147977,1,0,0:0:0:0:
84,192,148102,2,0,L|164:192,1,80,2|0,0:0|0:0,0:0:0:0:
408,64,148352,5,2,0:0:0:0:
116,136,148477,1,0,0:0:0:0:
325,353,148602,5,2,0:0:0:0:
253,61,148727,1,0,0:0:0:0:
37,270,148852,5,2,0:0:0:0:
329,198,148977,1,0,0:0:0:0:
56,104,149102,5,2,0:0:0:0:
263,320,149227,1,0,0:0:0:0:
347,33,149352,1,8,0:0:0:0:
131,240,149477,5,8,0:0:0:0:
419,324,149602,1,8,0:0:0:0:
347,33,149727,2,0,P|309:102|240:139,1,160,8|0,0:0|0:0,0:0:0:0:
207,162,150039,1,0,0:0:0:0:
192,198,150102,1,0,0:0:0:0:
199,237,150164,1,0,0:0:0:0:
226,266,150227,1,0,0:0:0:0:
264,277,150289,1,0,0:0:0:0:
360,252,150352,6,0,L|400:248,7,40,8|0|0|0|0|0|0|0,0:0|0:0|0:0|0:0|0:0|0:0|0:0|0:0,0:0:0:0:
152,132,150852,6,0,L|112:136,7,40,8|0|0|0|0|0|0|0,0:0|0:0|0:0|0:0|0:0|0:0|0:0|0:0,0:0:0:0:
344,68,151352,6,0,P|344:48|340:28,3,40,8|0|0|0,0:0|0:0|0:0|0:0,0:0:0:0:
172,204,151602,6,0,P|172:224|176:244,3,40,8|0|0|0,0:0|0:0|0:0|0:0,0:0:0:0:
376,285,151852,6,0,L|416:280,7,40,8|0|0|0|0|0|0|0,0:0|0:0|0:0|0:0|0:0|0:0|0:0|0:0,0:0:0:0:
248,300,152352,2,0,P|195:349|143:300,1,160,2|2,0:0|0:0,0:0:0:0:
96,136,152727,1,2,0:0:0:0:
307,339,152852,1,2,0:0:0:0:
176,104,152977,1,2,0:0:0:0:
387,307,153102,1,2,0:0:0:0:
256,72,153227,1,2,0:0:0:0:
467,275,153352,1,8,0:0:0:0:
336,40,153477,5,8,0:0:0:0:
101,171,153602,1,8,0:0:0:0:
332,310,153727,5,8,0:0:0:0:
201,75,153852,1,8,0:0:0:0:
128,334,153977,5,8,0:0:0:0:
363,203,154102,1,8,0:0:0:0:
133,65,154227,1,8,0:0:0:0:
128,334,154352,5,8,0:0:0:0:
363,273,154477,1,0,0:0:0:0:
187,97,154602,1,0,0:0:0:0:
104,356,154727,5,8,0:0:0:0:
401,279,154852,1,0,0:0:0:0:
181,59,154977,1,0,0:0:0:0:
77,383,155102,5,8,0:0:0:0:
447,287,155227,1,0,0:0:0:0:
173,13,155352,1,8,0:0:0:0:
256,192,155477,12,0,156227,0:0:0:0:
152,92,156352,6,0,P|229:76|306:92,1,160,2|8,0:0|0:0,0:0:0:0:
324,128,156664,2,0,L|344:168,6,40
100,232,157102,6,0,L|80:272,3,40,8|0|0|0,0:0|0:0|0:0|0:0,0:0:0:0:
324,128,157352,6,0,L|344:168,3,40,8|0|0|0,0:0|0:0|0:0|0:0,0:0:0:0:
100,24,157602,6,0,L|80:64,3,40,8|0|0|0,0:0|0:0|0:0|0:0,0:0:0:0:
256,112,157852,2,2,L|112:183,1,160
256,112,158352,5,4,2:0:0:0:
256,272,158477,1,0,0:0:0:0:
312,135,158602,1,0,0:0:0:0:
199,248,158727,1,0,0:0:0:0:
336,191,158852,1,8,0:0:0:0:
176,192,158977,1,0,0:0:0:0:
312,248,159102,1,0,0:0:0:0:
199,135,159227,1,0,0:0:0:0:
256,302,159352,5,4,2:0:0:0:
256,82,159477,1,0,0:0:0:0:
178,269,159602,1,0,0:0:0:0:
333,114,159727,1,0,0:0:0:0:
146,192,159852,1,8,0:0:0:0:
366,192,159977,1,0,0:0:0:0:
178,114,160102,1,0,0:0:0:0:
333,269,160227,1,0,0:0:0:0:
256,40,160352,5,4,2:0:0:0:
256,343,160477,1,0,0:0:0:0:
362,85,160602,1,0,0:0:0:0:
149,298,160727,1,0,0:0:0:0:
407,191,160852,1,8,0:0:0:0:
104,192,160977,1,0,0:0:0:0:
362,298,161102,1,0,0:0:0:0:
149,85,161227,1,0,0:0:0:0:
256,383,161352,5,4,2:0:0:0:
256,0,161477,1,0,0:0:0:0:
120,327,161602,1,0,0:0:0:0:
391,56,161727,1,0,0:0:0:0:
64,192,161852,1,8,0:0:0:0:
447,192,161977,1,0,0:0:0:0:
120,56,162102,1,0,0:0:0:0:
391,327,162227,1,0,0:0:0:0:
88,48,162352,6,0,L|88:128,1,80,4|0,2:0|0:0,0:0:0:0:
424,336,162602,2,0,L|424:256,1,80,4|0,2:0|0:0,0:0:0:0:
424,48,162852,6,0,L|424:128,1,80,4|0,2:0|0:0,0:0:0:0:
88,336,163102,2,0,L|88:256,1,80,4|0,2:0|0:0,0:0:0:0:
512,0,163352,5,8,0:0:0:0:
0,384,163602,1,8,0:0:0:0:
512,0,163852,5,8,0:0:0:0:
256,192,163977,1,8,0:0:0:0:
0,384,164102,1,8,0:0:0:0:
172,112,164352,5,2,0:0:0:0:
340,112,164477,1,2,0:0:0:0:
340,272,164602,1,2,0:0:0:0:
172,272,164727,1,2,0:0:0:0:
151,92,164852,5,2,0:0:0:0:
361,92,164977,1,2,0:0:0:0:
361,292,165102,1,2,0:0:0:0:
151,292,165227,1,2,0:0:0:0:
124,67,165352,5,2,0:0:0:0:
387,67,165477,1,2,0:0:0:0:
387,317,165602,1,2,0:0:0:0:
124,317,165727,1,2,0:0:0:0:
91,35,165852,5,2,0:0:0:0:
420,35,165977,1,2,0:0:0:0:
420,348,166102,1,2,0:0:0:0:
91,348,166227,1,2,0:0:0:0:
256,176,166352,6,2,L|256:216,16,40,2|2|2|2|2|2|2|2|2|2|2|2|2|2|2|2|0,0:0|0:0|0:0|0:0|0:0|0:0|0:0|0:0|0:0|0:0|0:0|0:0|0:0|0:0|0:0|0:0|0:0,0:0:0:0:
256,320,167852,6,0,B|230:257|307:252|235:221|235:221|256:180|256:180|256:97,1,240.000009155274
68,32,168352,5,10,0:0:0:0:
444,352,168602,5,2,0:0:0:0:
68,80,168852,5,10,0:0:0:0:
444,304,168977,1,0,0:0:0:0:
117,22,169102,1,2,0:0:0:0:
394,361,169227,1,0,0:0:0:0:
40,227,169352,5,10,0:0:0:0:
472,157,169602,1,2,0:0:0:0:
70,308,169852,5,10,0:0:0:0:
441,75,169977,1,0,0:0:0:0:
131,371,170102,1,2,0:0:0:0:
376,12,170227,1,0,0:0:0:0:
72,128,170352,6,0,P|32:193|71:258,1,160,10|0,0:0|0:0,0:0:0:0:
412,192,170852,5,10,0:0:0:0:
60,116,170977,1,0,0:0:0:0:
428,192,171102,1,2,0:0:0:0:
60,268,171227,1,0,0:0:0:0:
456,256,171352,6,8,P|495:190|456:125,1,160
140,192,171852,6,8,B|195:224|253:192|253:192|312:159|367:192,1,240.000009155274
196,136,172352,6,2,L|182:295,1,160,10|2,0:0|0:0,0:0:0:0:
416,48,172852,5,10,0:0:0:0:
468,375,172977,1,0,0:0:0:0:
414,40,173102,1,2,0:0:0:0:
470,383,173227,1,0,0:0:0:0:
182,295,173352,6,2,L|196:136,1,160,10|2,0:0|0:0,0:0:0:0:
451,321,173852,5,10,0:0:0:0:
52,286,173977,1,0,0:0:0:0:
490,324,174102,1,2,0:0:0:0:
12,282,174227,1,0,0:0:0:0:
125,121,174352,5,10,0:0:0:0:
298,21,174477,1,0,0:0:0:0:
398,194,174602,1,2,0:0:0:0:
225,294,174727,1,0,0:0:0:0:
169,17,174852,5,10,0:0:0:0:
396,78,174977,1,0,0:0:0:0:
335,305,175102,1,2,0:0:0:0:
108,244,175227,1,0,0:0:0:0:
256,148,175352,6,8,P|331:129|379:67,1,160
256,236,175852,6,8,P|180:254|132:316,1,160
384,284,176352,6,0,L|384:324,3,40,8|0|0|0,0:0|0:0|0:0|0:0,0:0:0:0:
128,284,176602,6,0,L|128:324,3,40,8|0|0|0,0:0|0:0|0:0|0:0,0:0:0:0:
128,100,176852,6,0,L|128:20,1,80,8|0,0:0|0:0,0:0:0:0:
384,284,177102,2,0,L|384:364,1,80,8|0,0:0|0:0,0:0:0:0:
128,284,177352,6,0,L|88:284,3,40,8|0|0|0,0:0|0:0|0:0|0:0,0:0:0:0:
128,100,177602,6,0,L|168:100,3,40,8|0|0|0,0:0|0:0|0:0|0:0,0:0:0:0:
384,100,177852,6,0,L|464:100,1,80,8|0,0:0|0:0,0:0:0:0:
128,284,178102,2,0,L|48:284,1,80,8|0,0:0|0:0,0:0:0:0:
128,100,178352,5,8,0:0:0:0:
512,192,178477,1,0,0:0:0:0:
128,284,178602,1,8,0:0:0:0:
512,376,178727,1,0,0:0:0:0:
128,284,178852,5,8,0:0:0:0:
512,192,178977,1,0,0:0:0:0:
128,100,179102,1,8,0:0:0:0:
512,8,179227,1,0,0:0:0:0:
120,44,179352,6,0,L|80:64,3,40,8|0|0|0,0:0|0:0|0:0|0:0,0:0:0:0:
136,348,179602,6,0,L|176:328,3,40,8|0|0|0,0:0|0:0|0:0|0:0,0:0:0:0:
177,192,179852,6,8,P|256:117|334:192,1,240.000009155274
80,192,180352,5,2,0:0:0:0:
201,307,180477,1,0,0:0:0:0:
432,192,180602,5,2,0:0:0:0:
311,307,180727,1,0,0:0:0:0:
40,354,180852,5,2,0:0:0:0:
472,355,180977,1,0,0:0:0:0:
80,192,181102,5,2,0:0:0:0:
432,192,181227,1,0,0:0:0:0:
120,30,181352,6,0,P|80:22|41:30,1,80,2|0,0:0|0:0,0:0:0:0:
392,30,181602,2,0,P|431:22|470:30,1,80,2|0,0:0|0:0,0:0:0:0:
120,354,181852,5,2,0:0:0:0:
120,30,181977,1,0,0:0:0:0:
392,354,182102,1,2,0:0:0:0:
392,30,182227,1,0,0:0:0:0:
120,192,182352,6,0,P|81:184|42:192,1,80,2|0,0:0|0:0,0:0:0:0:
392,56,182602,2,0,P|430:48|469:56,1,80,2|0,0:0|0:0,0:0:0:0:
42,192,182852,5,2,0:0:0:0:
469,56,182977,1,0,0:0:0:0:
15,192,183102,5,2,0:0:0:0:
495,38,183227,1,0,0:0:0:0:
512,384,183352,5,4,2:0:0:0:
0,0,183852,5,4,2:0:0:0:
104,280,184352,6,0,L|92:360,1,80,2|0,0:0|0:0,0:0:0:0:
472,176,184602,2,0,L|484:256,1,80,8|0,0:0|0:0,0:0:0:0:
104,72,184852,2,0,L|92:152,1,80,2|0,0:0|0:0,0:0:0:0:
495,334,185102,2,0,L|483:254,1,80,8|0,0:0|0:0,0:0:0:0:
256,336,185352,5,2,0:0:0:0:
104,72,185477,1,0,0:0:0:0:
408,72,185602,2,0,L|436:43,2,40,8|0|0,0:0|0:0|0:0,0:0:0:0:
408,312,185852,5,2,0:0:0:0:
256,48,185977,5,0,0:0:0:0:
104,312,186102,2,0,L|75:340,2,40,8|0|0,0:0|0:0|0:0,0:0:0:0:
84,120,186352,5,2,0:0:0:0:
84,328,186477,1,0,0:0:0:0:
428,120,186602,5,8,0:0:0:0:
428,328,186727,1,0,0:0:0:0:
84,224,186852,6,0,P|44:227|5:224,1,80,2|0,0:0|0:0,0:0:0:0:
428,160,187102,2,0,P|467:156|506:160,1,80,8|0,0:0|0:0,0:0:0:0:
340,332,187352,6,0,L|324:295,3,40,8|0|0|0,0:0|0:0|0:0|0:0,0:0:0:0:
95,220,187602,6,0,L|135:218,3,40,8|0|0|0,0:0|0:0|0:0|0:0,0:0:0:0:
287,31,187852,6,0,L|274:69,3,40,8|0|0|0,0:0|0:0|0:0|0:0,0:0:0:0:
183,279,188102,6,0,L|169:316,3,40,8|0|0|0,0:0|0:0|0:0|0:0,0:0:0:0:
340,332,188352,6,0,P|372:310|394:277,1,80,2|0,0:0|0:0,0:0:0:0:
172,52,188602,2,0,P|139:73|117:106,1,80,8|0,0:0|0:0,0:0:0:0:
394,278,188852,6,0,P|413:244|418:205,1,80,2|0,0:0|0:0,0:0:0:0:
117,105,189102,2,0,P|98:139|93:178,1,80,8|0,0:0|0:0,0:0:0:0:
418,204,189352,5,2,0:0:0:0:
122,204,189477,1,2,0:0:0:0:
374,99,189602,1,2,0:0:0:0:
165,308,189727,1,2,0:0:0:0:
269,56,189852,6,0,B|307:48|307:48|346:56,1,80,8|0,0:0|0:0,0:0:0:0:
142,256,190102,2,0,B|103:248|103:248|64:256,1,80,8|0,0:0|0:0,0:0:0:0:
432,320,190352,5,2,0:0:0:0:
80,64,190477,1,4,2:0:0:0:
476,352,190727,5,2,0:0:0:0:
35,31,190852,1,4,2:0:0:0:
218,311,191102,6,0,P|256:322|293:311,1,80,8|0,0:0|0:0,0:0:0:0:
256,44,191352,5,2,0:0:0:0:
72,312,191477,1,2,0:0:0:0:
440,312,191602,1,2,0:0:0:0:
72,116,191727,6,0,L|40:189,1,80,2|0,0:0|0:0,0:0:0:0:
472,189,191977,1,2,0:0:0:0:
129,60,192102,6,0,L|71:115,1,80,2|0,0:0|0:0,0:0:0:0:
468,283,192352,1,2,0:0:0:0:
180,0,192477,5,0,0:0:0:0:
332,384,192602,1,2,0:0:0:0:
338,2,192727,1,0,0:0:0:0:
173,381,192852,1,2,0:0:0:0:
448,116,192977,1,0,0:0:0:0:
63,268,193102,1,2,0:0:0:0:
445,274,193227,1,0,0:0:0:0:
66,109,193352,5,4,2:0:0:0:
