osu file format v14

[General]
AudioFilename: audio.mp3
AudioLeadIn: 0
PreviewTime: 165867
Countdown: 0
SampleSet: Drum
StackLeniency: 0.7
Mode: 0
LetterboxInBreaks: 0
WidescreenStoryboard: 0

[Editor]
DistanceSpacing: 1
BeatDivisor: 4
GridSize: 8
TimelineZoom: 2.2

[Metadata]
Title:Everything Will Freeze II
TitleUnicode:Everything Will Freeze II
Artist:UNDEAD CORPORATION
ArtistUnicode:UNDEAD CORPORATION
Creator:Seni
Version:Time Freeze II
Source:東方花映塚 ~ Phantasmagoria of Flower View.
Tags:東方 touhou project rock metal screamo video game english featured artist osu zun sakuya izayoi フラワリングナイト flowering night actiol fujinn
BeatmapID:2791432
BeatmapSetID:1347975

[Difficulty]
HPDrainRate:5
CircleSize:4
OverallDifficulty:9.5
ApproachRate:9.8
SliderMultiplier:2
SliderTickRate:1

[Events]
//Background and Video events
0,0,"2222.jpg",0,0
//Break Periods
2,115907,119591
2,166476,168661
2,214067,215297
//Storyboard Layer 0 (Background)
//Storyboard Layer 1 (Fail)
//Storyboard Layer 2 (Pass)
//Storyboard Layer 3 (Foreground)
//Storyboard Layer 4 (Overlay)
//Storyboard Sound Samples

[TimingPoints]
2246,272.727272727273,4,3,1,70,1,0
2518,-142.857142857143,4,3,1,45,0,0
3336,-142.857142857143,4,3,1,70,0,0
4155,-100,4,3,1,70,0,0
4223,-100,4,3,2,70,0,0
4700,-100,4,3,3,70,0,0
5246,-90.9090909090909,4,3,3,70,0,0
7700,-83.3333333333333,4,3,1,70,0,0
8041,-83.3333333333333,4,3,2,70,0,0
8246,-83.3333333333333,4,3,1,70,0,0
8791,-83.3333333333333,4,3,4,70,0,0
8927,-100,4,3,4,70,0,0
9336,-100,4,3,5,70,0,0
10973,-100,4,3,1,70,0,0
11246,-100,4,3,6,70,0,0
11382,-100,4,3,2,70,0,0
11518,-100,4,3,6,70,0,0
11655,-100,4,3,2,70,0,0
11791,-100,4,3,6,70,0,0
11927,-100,4,3,2,70,0,0
12064,-100,4,3,6,70,0,0
12200,-100,4,3,2,70,0,0
12336,-100,4,3,6,70,0,0
12473,-100,4,3,2,70,0,0
12609,-100,4,3,6,70,0,0
12746,-100,4,3,2,70,0,0
12882,-90.9090909090909,4,3,6,70,0,0
13018,-90.9090909090909,4,3,2,70,0,0
13155,-90.9090909090909,4,3,6,70,0,0
13291,-90.9090909090909,4,3,2,70,0,0
13427,-90.9090909090909,4,3,6,70,0,0
13564,-90.9090909090909,4,3,2,70,0,0
13700,-90.9090909090909,4,3,6,70,0,0
13836,-90.9090909090909,4,3,2,70,0,0
13973,-90.9090909090909,4,3,6,70,0,0
14109,-90.9090909090909,4,3,2,70,0,0
14246,-90.9090909090909,4,3,6,70,0,0
14382,-90.9090909090909,4,3,2,70,0,0
14518,-90.9090909090909,4,3,6,70,0,0
14655,-90.9090909090909,4,3,2,70,0,0
14791,-90.9090909090909,4,3,6,70,0,0
14927,-90.9090909090909,4,3,2,70,0,0
15064,-90.9090909090909,4,3,6,70,0,0
15200,-90.9090909090909,4,3,2,70,0,0
15336,-90.9090909090909,4,3,6,70,0,0
15473,-90.9090909090909,4,3,2,70,0,0
15609,-90.9090909090909,4,3,6,70,0,0
15746,-90.9090909090909,4,3,2,70,0,0
15882,-90.9090909090909,4,3,6,70,0,0
16018,-90.9090909090909,4,3,2,70,0,0
16155,-90.9090909090909,4,3,6,70,0,0
16291,-90.9090909090909,4,3,2,70,0,0
16427,-90.9090909090909,4,3,5,70,0,0
16973,-90.9090909090909,4,3,1,70,0,0
17246,-90.9090909090909,4,3,7,70,0,0
17518,-90.9090909090909,4,3,5,70,0,0
17655,-100,4,3,5,70,0,0
19155,-100,4,3,1,70,0,0
19700,-125,4,3,2,40,0,0
21609,-125,4,3,5,70,0,0
22155,-125,4,3,5,40,0,0
22973,-125,4,3,4,70,0,0
23109,-125,4,3,2,70,0,0
24064,-100,4,3,5,70,0,0
28427,-100,4,3,4,70,0,0
28973,-100,4,3,5,70,0,0
30540,-100,4,3,5,5,0,0
30609,-100,4,3,5,70,0,0
32791,-100,4,3,4,70,0,0
33336,-100,4,3,5,70,0,0
35382,-100,4,3,1,70,0,0
35518,-100,4,3,5,70,0,0
37155,-100,4,3,4,70,0,0
37700,-100,4,3,5,70,0,0
39405,-100,4,3,2,70,0,0
39473,-100,4,3,1,70,0,0
39814,-100,4,3,2,70,0,0
39882,-100,4,3,1,70,0,0
40155,-100,4,3,8,70,0,0
40427,-100,4,3,4,70,0,0
40564,-100,4,3,2,70,0,0
41518,-100,4,3,2,85,0,1
41791,-100,4,3,3,85,0,1
42064,-83.3333333333333,4,3,3,85,0,1
42336,-83.3333333333333,4,3,9,85,0,1
42609,-83.3333333333333,4,3,3,85,0,1
42813,-83.3333333333333,4,3,3,5,0,1
42882,-83.3333333333333,4,3,9,85,0,1
43155,-83.3333333333333,4,3,3,85,0,1
43699,-83.3333333333333,4,3,9,85,0,1
43973,-83.3333333333333,4,3,3,85,0,1
44246,-83.3333333333333,4,3,9,85,0,1
44518,-83.3333333333333,4,3,3,85,0,1
45064,-83.3333333333333,4,3,9,85,0,1
45200,-83.3333333333333,4,3,1,85,0,1
45336,-83.3333333333333,4,3,9,85,0,1
45609,-83.3333333333333,4,3,3,85,0,1
45882,-83.3333333333333,4,3,1,85,0,1
46155,-83.3333333333333,4,3,9,85,0,1
46427,-83.3333333333333,4,3,3,85,0,1
46699,-83.3333333333333,4,3,9,85,0,1
46973,-83.3333333333333,4,3,3,85,0,1
47177,-83.3333333333333,4,3,3,5,0,1
47246,-83.3333333333333,4,3,9,85,0,1
47518,-83.3333333333333,4,3,3,85,0,1
48064,-83.3333333333333,4,3,9,85,0,1
48268,-83.3333333333333,4,3,9,5,0,1
48336,-83.3333333333333,4,3,3,85,0,1
48609,-83.3333333333333,4,3,9,85,0,1
48882,-83.3333333333333,4,3,3,85,0,1
49155,-83.3333333333333,4,3,2,85,0,1
50109,-83.3333333333333,4,3,1,85,0,1
50177,-83.3333333333333,4,3,1,85,0,0
50246,-83.3333333333333,4,3,5,80,0,1
52427,-76.9230769230769,4,3,5,80,0,1
54064,-100,4,3,5,80,0,1
55155,-83.3333333333333,4,3,5,80,0,1
56927,-83.3333333333333,4,3,8,80,0,1
57745,-83.3333333333333,4,3,9,80,0,1
57882,-83.3333333333333,4,3,1,80,0,1
58564,-83.3333333333333,4,3,2,80,0,1
58700,-100,4,3,1,80,0,1
58973,-100,4,3,1,70,0,0
59246,-100,4,3,6,70,0,0
59382,-100,4,3,2,70,0,0
59518,-100,4,3,6,70,0,0
59655,-100,4,3,2,70,0,0
59791,-100,4,3,6,70,0,0
59927,-100,4,3,2,70,0,0
60064,-100,4,3,6,70,0,0
60200,-100,4,3,2,70,0,0
60336,-100,4,3,6,70,0,0
60473,-100,4,3,2,70,0,0
60609,-100,4,3,6,70,0,0
60746,-100,4,3,2,70,0,0
60882,-100,4,3,6,70,0,0
61018,-100,4,3,2,70,0,0
61155,-100,4,3,6,70,0,0
61291,-100,4,3,2,70,0,0
61427,-100,4,3,6,70,0,0
61564,-100,4,3,2,70,0,0
61700,-100,4,3,6,70,0,0
61836,-100,4,3,2,70,0,0
61973,-100,4,3,6,70,0,0
62109,-100,4,3,2,70,0,0
62246,-100,4,3,6,70,0,0
62382,-100,4,3,2,70,0,0
62518,-100,4,3,6,70,0,0
62655,-100,4,3,2,70,0,0
62791,-100,4,3,6,70,0,0
62927,-100,4,3,2,70,0,0
63064,-83.3333333333333,4,3,6,70,0,0
63200,-83.3333333333333,4,3,2,70,0,0
63336,-83.3333333333333,4,3,6,70,0,0
63473,-83.3333333333333,4,3,2,70,0,0
63609,-83.3333333333333,4,3,6,70,0,0
63746,-83.3333333333333,4,3,2,70,0,0
63882,-83.3333333333333,4,3,6,70,0,0
64018,-83.3333333333333,4,3,2,70,0,0
64155,-100,4,3,6,70,0,0
64291,-100,4,3,2,70,0,0
64836,-100,4,3,1,70,0,0
65041,-100,4,3,1,5,0,0
65109,-100,4,3,1,70,0,0
65177,-100,4,3,1,5,0,0
65246,-100,4,3,1,70,0,0
65518,-100,4,3,5,70,0,0
66950,-100,4,3,3,70,0,0
67018,-100,4,3,1,70,0,0
72064,-100,4,3,10,70,0,0
72609,-100,4,3,1,70,0,0
76427,-100,4,3,10,70,0,0
76973,-100,4,3,1,70,0,0
80791,-100,4,3,10,70,0,0
81336,-100,4,3,1,70,0,0
81813,-100,4,3,1,5,0,0
81882,-100,4,3,1,70,0,0
84473,-100,4,3,2,70,0,0
84609,-100,4,3,1,70,0,0
84746,-100,4,3,2,70,0,0
84882,-125,4,3,1,70,0,0
85155,-125,4,3,6,70,0,0
85427,-125,4,3,1,70,0,0
85700,-200,4,3,8,70,0,0
85768,-200,4,3,8,5,0,0
85836,-200,4,3,8,70,0,0
85904,-200,4,3,8,5,0,0
85973,-200,4,3,1,70,0,0
86041,-200,4,3,1,5,0,0
86109,-200,4,3,1,70,0,0
86177,-200,4,3,1,5,0,0
86246,-200,4,3,6,70,0,0
86518,-200,4,3,1,70,0,0
86791,-200,4,3,8,70,0,0
86859,-200,4,3,8,5,0,0
86927,-200,4,3,8,70,0,0
86995,-200,4,3,8,5,0,0
87064,-200,4,3,1,70,0,0
87200,-200,4,3,2,70,0,0
87336,-200,4,3,6,70,0,0
87609,-200,4,3,1,70,0,0
87882,-200,4,3,8,70,0,0
87950,-200,4,3,8,5,0,0
88018,-200,4,3,8,70,0,0
88086,-200,4,3,8,5,0,0
88155,-200,4,3,1,70,0,0
88223,-200,4,3,1,5,0,0
88291,-200,4,3,1,70,0,0
88359,-200,4,3,1,5,0,0
88427,-100,4,3,8,70,0,0
88700,-100,4,3,1,70,0,0
88973,-100,4,3,6,70,0,0
89246,-100,4,3,1,70,0,0
89518,-100,4,3,6,70,0,0
89791,-100,4,3,1,70,0,0
90064,-200,4,3,8,70,0,0
90132,-200,4,3,8,5,0,0
90200,-200,4,3,8,70,0,0
90268,-200,4,3,8,5,0,0
90336,-200,4,3,1,70,0,0
90609,-200,4,3,6,70,0,0
90882,-200,4,3,1,70,0,0
91155,-200,4,3,8,70,0,0
91223,-200,4,3,8,5,0,0
91291,-200,4,3,8,70,0,0
91359,-200,4,3,8,5,0,0
91427,-200,4,3,1,70,0,0
91495,-200,4,3,1,5,0,0
91564,-200,4,3,1,70,0,0
91632,-200,4,3,1,5,0,0
91700,-200,4,3,6,70,0,0
91973,-200,4,3,1,70,0,0
92314,-200,4,3,2,70,0,0
92518,-200,4,3,1,70,0,0
92791,-100,4,3,8,70,0,0
93064,250,4,3,8,70,1,0
93564,272.727272727273,4,3,8,70,1,0
94980,272.727272727273,4,3,2,70,1,0
98252,-83.3333333333333,4,3,2,85,0,1
98525,-83.3333333333333,4,3,3,85,0,1
99070,-83.3333333333333,4,3,9,85,0,1
99343,-83.3333333333333,4,3,3,85,0,1
99547,-83.3333333333333,4,3,3,5,0,1
99616,-83.3333333333333,4,3,9,85,0,1
99889,-83.3333333333333,4,3,3,85,0,1
100433,-83.3333333333333,4,3,9,85,0,1
100707,-83.3333333333333,4,3,3,85,0,1
100980,-83.3333333333333,4,3,9,85,0,1
101252,-83.3333333333333,4,3,3,85,0,1
101798,-83.3333333333333,4,3,9,85,0,1
101934,-83.3333333333333,4,3,1,85,0,1
102070,-83.3333333333333,4,3,9,85,0,1
102343,-83.3333333333333,4,3,3,85,0,1
102616,-83.3333333333333,4,3,1,85,0,1
102889,-83.3333333333333,4,3,9,85,0,1
103161,-83.3333333333333,4,3,3,85,0,1
103433,-83.3333333333333,4,3,9,85,0,1
103707,-83.3333333333333,4,3,3,85,0,1
103911,-83.3333333333333,4,3,3,5,0,1
103980,-83.3333333333333,4,3,9,85,0,1
104252,-83.3333333333333,4,3,3,85,0,1
104798,-83.3333333333333,4,3,9,85,0,1
105002,-83.3333333333333,4,3,9,5,0,1
105070,-83.3333333333333,4,3,3,85,0,1
105343,-83.3333333333333,4,3,9,85,0,1
105616,-83.3333333333333,4,3,3,85,0,1
105889,-83.3333333333333,4,3,2,80,0,1
106434,-100,4,3,2,80,0,1
106843,-100,4,3,1,80,0,1
106980,-100,4,3,5,80,0,1
109161,-71.4285714285714,4,3,5,80,0,1
111889,-83.3333333333333,4,3,5,80,0,1
113661,-83.3333333333333,4,3,8,80,0,1
114480,-83.3333333333333,4,3,2,80,0,1
115434,-83.3333333333333,4,3,1,80,0,1
115707,-83.3333333333333,4,3,2,50,0,0
120070,-100,4,3,6,60,0,0
120206,-100,4,3,2,60,0,0
120343,-100,4,3,1,60,0,0
120616,-100,4,3,11,60,0,0
120888,-100,4,3,1,60,0,0
121025,-100,4,3,2,60,0,0
121161,-100,4,3,6,60,0,0
121297,-100,4,3,2,60,0,0
121434,-100,4,3,1,60,0,0
121707,-100,4,3,11,60,0,0
121980,-100,4,3,2,60,0,0
122231,272.727272727273,4,3,5,70,1,0
123321,-100,4,3,1,70,0,0
123731,-100,4,3,2,70,0,0
124140,-100,4,3,1,70,0,0
124412,-90.9090909090909,4,3,11,70,0,0
124684,-90.9090909090909,4,3,5,70,0,0
128707,-90.9090909090909,4,3,5,5,0,0
128776,-90.9090909090909,4,3,4,70,0,0
129321,-90.9090909090909,4,3,5,70,0,0
130889,-90.9090909090909,4,3,5,5,0,0
130958,-90.9090909090909,4,3,5,70,0,0
133140,-90.9090909090909,4,3,4,70,0,0
133685,-90.9090909090909,4,3,5,70,0,0
133889,-90.9090909090909,4,3,5,5,0,0
133958,-90.9090909090909,4,3,5,70,0,0
134435,-90.9090909090909,4,3,5,5,0,0
134503,-90.9090909090909,4,3,5,70,0,0
136889,-90.9090909090909,4,3,5,5,0,0
136958,-90.9090909090909,4,3,5,70,0,0
137503,-90.9090909090909,4,3,4,70,0,0
138049,-90.9090909090909,4,3,5,70,0,0
139344,-90.9090909090909,4,3,5,5,0,0
139412,-90.9090909090909,4,3,5,70,0,0
144049,-100,4,3,1,65,0,0
144594,-100,4,3,11,65,0,0
144866,-100,4,3,2,65,0,0
145685,-100,4,3,6,65,0,0
146776,-100,4,3,11,65,0,0
147049,-100,4,3,2,65,0,0
147525,-100,4,3,2,5,0,0
147594,-100,4,3,2,65,0,0
147798,-100,4,3,2,5,0,0
147867,-100,4,3,5,65,0,0
148412,-100,4,3,8,70,0,0
148685,-100,4,3,1,70,0,0
148958,-100,4,3,8,70,0,0
149026,-100,4,3,8,5,0,0
149094,-100,4,3,8,70,0,0
149162,-100,4,3,8,5,0,0
149231,-100,4,3,1,70,0,0
149299,-100,4,3,1,5,0,0
149367,-100,4,3,1,70,0,0
149435,-100,4,3,1,5,0,0
149503,-100,4,3,8,70,0,0
149776,-100,4,3,1,70,0,0
150049,-100,4,3,8,70,0,0
150117,-100,4,3,8,5,0,0
150185,-100,4,3,8,70,0,0
150253,-100,4,3,8,5,0,0
150321,-100,4,3,1,70,0,0
150594,-100,4,3,8,70,0,0
150867,-100,4,3,1,70,0,0
151140,-100,4,3,8,70,0,0
151208,-100,4,3,8,5,0,0
151276,-100,4,3,8,70,0,0
151344,-100,4,3,8,5,0,0
151412,-100,4,3,1,70,0,0
151480,-100,4,3,1,5,0,0
151549,-100,4,3,1,70,0,0
151617,-100,4,3,1,5,0,0
151685,-100,4,3,8,70,0,0
151958,-100,4,3,1,70,0,0
152231,-100,4,3,6,70,0,0
152503,-100,4,3,1,70,0,0
152776,-100,4,3,8,70,0,0
153049,-100,4,3,1,70,0,0
153321,-100,4,3,8,70,0,0
153389,-100,4,3,8,5,0,0
153458,-100,4,3,8,70,0,0
153526,-100,4,3,8,5,0,0
153594,-100,4,3,1,70,0,0
153867,-100,4,3,8,70,0,0
154140,-100,4,3,1,70,0,0
154412,-100,4,3,8,70,0,0
154480,-100,4,3,8,5,0,0
154549,-100,4,3,8,70,0,0
154617,-100,4,3,8,5,0,0
154685,-100,4,3,1,70,0,0
154753,-100,4,3,1,5,0,0
154821,-100,4,3,1,70,0,0
154889,-100,4,3,1,5,0,0
154958,-100,4,3,8,70,0,0
155231,-100,4,3,1,70,0,0
155571,-100,4,3,2,70,0,0
155776,-100,4,3,1,70,0,0
156867,-100,4,3,2,70,0,0
157003,-100,4,3,2,5,0,0
157140,-100,4,3,1,70,0,0
157685,-142.857142857143,4,3,1,70,0,0
158094,-142.857142857143,4,3,1,5,0,0
158231,-142.857142857143,4,3,1,70,0,0
159185,-142.857142857143,4,3,1,5,0,0
159321,-142.857142857143,4,3,1,70,0,0
160276,-142.857142857143,4,3,1,5,0,0
160412,-142.857142857143,4,3,1,70,0,0
160958,-90.9090909090909,4,3,1,70,0,0
161026,-90.9090909090909,4,3,1,5,0,0
161094,-90.9090909090909,4,3,1,70,0,0
161162,-90.9090909090909,4,3,1,5,0,0
161231,-90.9090909090909,4,3,1,70,0,0
161299,-90.9090909090909,4,3,1,5,0,0
161367,-90.9090909090909,4,3,3,70,0,0
161435,-90.9090909090909,4,3,3,5,0,0
161503,-90.9090909090909,4,3,1,70,0,0
162049,-142.857142857143,4,3,1,70,0,0
162458,-142.857142857143,4,3,1,5,0,0
162594,-142.857142857143,4,3,1,70,0,0
163549,-142.857142857143,4,3,1,5,0,0
163685,-90.9090909090909,4,3,1,70,0,0
164299,-90.9090909090909,4,3,2,70,0,0
164503,-90.9090909090909,4,3,1,70,0,0
165594,-71.4285714285714,4,3,8,70,0,0
165798,-71.4285714285714,4,3,8,5,0,0
165867,-71.4285714285714,4,3,8,80,0,0
169140,-71.4285714285714,4,3,8,70,0,0
169208,-71.4285714285714,4,3,1,70,0,0
170026,-71.4285714285714,4,3,2,70,0,0
170231,-71.4285714285714,4,3,2,85,0,1
170503,-71.4285714285714,4,3,3,85,0,1
170776,-100,4,3,3,85,0,1
170980,-100,4,3,3,5,0,1
171049,-100,4,3,9,85,0,1
171321,-100,4,3,3,85,0,1
171593,-100,4,3,9,85,0,1
171867,-100,4,3,3,85,0,1
172412,-100,4,3,9,85,0,1
172685,-100,4,3,3,85,0,1
172958,-100,4,3,9,85,0,1
173231,-100,4,3,3,85,0,1
173503,-100,4,3,1,80,0,1
174049,-100,4,3,12,80,0,1
174321,-100,4,3,1,80,0,1
174594,-100,4,3,5,80,0,1
178003,-83.3333333333333,4,3,5,80,0,1
181276,-83.3333333333333,4,3,8,80,0,1
182093,-83.3333333333333,4,3,1,80,0,1
183049,-142.857142857143,4,3,1,80,0,1
183253,-142.857142857143,4,3,1,5,0,1
183321,-142.857142857143,4,3,5,70,0,0
183458,-100,4,3,5,70,0,0
183730,-100,4,3,5,5,0,0
183867,-100,4,3,5,70,0,0
185094,-100,4,3,5,5,0,0
185231,-100,4,3,5,70,0,0
185912,-100,4,3,5,5,0,0
186049,-100,4,3,5,70,0,0
187276,-100,4,3,5,5,0,0
187412,-100,4,3,5,70,0,0
187685,-100,4,3,4,70,0,0
188094,-100,4,3,4,5,0,0
188231,-100,4,3,5,70,0,0
192049,-100,4,3,13,70,0,0
192594,-100,4,3,5,70,0,0
198594,-111.111111111111,4,3,14,70,0,0
199548,-111.111111111111,4,3,14,5,0,0
199685,-111.111111111111,4,3,2,70,0,0
199821,-111.111111111111,4,3,1,70,0,0
200162,-111.111111111111,4,3,2,70,0,0
200231,-111.111111111111,4,3,1,70,0,0
200503,-111.111111111111,4,3,6,70,0,0
200776,-111.111111111111,4,3,5,75,0,0
202685,-83.3333333333333,4,3,5,75,0,0
204049,-83.3333333333333,4,3,8,75,0,0
204458,-83.3333333333333,4,3,5,75,0,0
205140,-100,4,3,5,65,0,0
207321,-100,4,3,4,65,0,0
207867,-100,4,3,5,65,0,0
209503,-100,4,3,4,65,0,0
209707,-100,4,3,4,5,0,0
209776,-100,4,3,4,65,0,0
210049,-100,4,3,5,65,0,0
211685,-83.3333333333333,4,3,4,65,0,0
211957,-83.3333333333333,4,3,5,65,0,0
212503,-83.3333333333333,4,3,1,65,0,0
216049,-83.3333333333333,4,3,1,75,0,0

[Colours]
Combo1 : 128,131,253
Combo2 : 130,253,207
Combo3 : 15,177,255

[HitObjects]
318,275,2246,6,0,L|199:264,1,100,6|0,1:2|3:0,3:0:0:0:
365,208,2518,6,0,P|389:230|395:241,3,35,2|0|0|0,3:2|3:0|3:0|3:0,3:0:0:0:
344,129,2791,6,0,P|376:127|388:131,3,35,2|0|0|0,3:2|3:0|3:0|3:0,3:0:0:0:
273,87,3064,6,0,P|294:62|305:57,3,35,2|0|0|0,3:2|3:0|3:0|3:0,3:0:0:0:
211,19,3336,5,10,3:2:0:0:
174,51,3405,1,8,3:2:0:0:
164,99,3473,1,0,1:0:0:0:
186,143,3541,1,0,1:0:0:0:
230,165,3609,1,10,3:0:0:0:
267,197,3677,1,8,3:0:0:0:
277,245,3746,1,0,1:0:0:0:
255,289,3814,1,0,1:0:0:0:
211,311,3882,5,6,3:0:0:0:
199,306,3950,1,4,3:0:0:0:
187,301,4018,1,0,1:0:0:0:
176,296,4086,1,0,1:0:0:0:
164,291,4155,2,0,L|105:303,3,50,10|8|0|0,3:2|3:0|1:0|1:0,3:0:0:0:
100,305,4427,6,0,B|81:271|81:271|96:176,1,100,6|0,1:2|3:0,3:0:0:0:
5,142,4700,5,2,1:2:0:0:
47,107,4768,1,8,3:2:0:0:
100,98,4836,1,0,1:0:0:0:
151,117,4905,1,8,3:2:0:0:
187,159,4973,1,2,1:2:0:0:
229,193,5041,1,8,3:2:0:0:
282,202,5109,1,0,1:0:0:0:
333,183,5177,1,8,3:2:0:0:
369,141,5246,2,0,L|377:78,3,55,2|8|0|8,1:2|3:2|1:0|3:2,3:0:0:0:
281,37,5518,5,2,1:2:0:0:
242,75,5586,1,8,3:2:0:0:
222,126,5655,1,0,1:0:0:0:
226,180,5723,1,8,3:2:0:0:
252,228,5791,1,2,1:2:0:0:
296,261,5859,1,8,3:2:0:0:
349,272,5927,1,0,1:0:0:0:
402,261,5996,1,8,3:2:0:0:
446,228,6064,5,2,1:2:0:0:
442,214,6132,1,8,3:2:0:0:
439,201,6200,1,0,1:0:0:0:
436,187,6268,1,8,3:2:0:0:
432,174,6336,2,0,L|440:111,3,55,2|8|0|8,1:2|3:2|1:0|3:2,3:0:0:0:
383,32,6609,5,2,1:2:0:0:
329,7,6677,1,8,3:2:0:0:
271,18,6746,1,0,1:0:0:0:
231,62,6814,1,8,3:2:0:0:
224,120,6882,1,2,1:2:0:0:
252,172,6950,1,8,3:2:0:0:
305,197,7018,1,0,1:0:0:0:
343,243,7086,1,8,3:2:0:0:
345,302,7155,1,2,1:2:0:0:
312,351,7223,1,8,3:2:0:0:
257,371,7291,1,0,1:0:0:0:
200,354,7359,1,8,3:2:0:0:
165,307,7427,1,2,1:2:0:0:
165,248,7496,1,8,3:2:0:0:
199,200,7564,1,0,1:0:0:0:
255,181,7632,1,8,3:2:0:0:
311,199,7700,6,0,B|324:252|324:252|321:262|321:262|335:325,1,120,6|8,1:2|3:2,3:0:0:0:
476,119,7973,5,10,3:2:0:0:
446,115,8041,1,8,3:0:0:0:
416,111,8109,1,0,1:0:0:0:
386,107,8177,1,0,1:0:0:0:
372,84,8246,5,6,3:0:0:0:
357,85,8314,1,8,3:0:0:0:
342,87,8382,1,0,1:0:0:0:
327,89,8450,1,0,1:0:0:0:
312,91,8518,1,10,3:2:0:0:
29,81,8791,5,6,1:2:0:0:
29,81,8859,1,2,1:2:0:0:
29,81,8927,2,0,L|99:93,1,50,2|2,1:2|1:2,3:0:0:0:
167,205,9064,2,0,B|154:137|154:137|171:103|171:103|164:67|164:67|170:66|170:66|164:67|164:67|152:4,1,200,2|14,1:2|1:2,3:0:0:0:
164,20,9405,1,2,1:2:0:0:
172,16,9473,2,0,L|250:28,1,50,2|2,1:2|1:2,3:0:0:0:
346,166,9609,5,2,1:2:0:0:
321,162,9677,1,2,1:2:0:0:
296,158,9746,1,2,1:2:0:0:
271,154,9814,1,2,1:2:0:0:
247,150,9882,1,6,1:2:0:0:
50,346,10155,5,2,1:2:0:0:
75,342,10223,1,2,1:2:0:0:
100,338,10291,1,2,1:2:0:0:
125,334,10359,1,2,1:2:0:0:
149,330,10427,1,14,1:2:0:0:
330,149,10700,6,0,L|252:137,3,50,8|8|8|8,3:2|3:2|3:2|3:2,3:0:0:0:
395,210,10973,6,0,B|421:166|421:166|412:115,1,100,6|0,1:2|3:0,3:0:0:0:
503,282,11246,5,2,1:2:0:0:
477,330,11314,1,8,3:2:0:0:
432,361,11382,1,2,1:3:0:0:
378,368,11450,1,8,3:2:0:0:
327,349,11518,1,2,1:2:0:0:
290,309,11586,1,8,3:2:0:0:
276,257,11655,1,2,1:3:0:0:
245,211,11723,1,8,3:2:0:0:
197,186,11791,1,2,1:2:0:0:
142,187,11859,1,8,3:2:0:0:
95,214,11927,1,2,1:3:0:0:
66,260,11996,1,8,3:2:0:0:
63,315,12064,5,2,1:2:0:0:
110,340,12132,1,8,3:2:0:0:
165,342,12200,1,2,1:3:0:0:
215,320,12268,1,8,3:2:0:0:
249,278,12336,1,2,1:2:0:0:
262,225,12405,1,8,3:2:0:0:
249,172,12473,1,2,1:3:0:0:
214,130,12541,1,8,3:2:0:0:
165,107,12609,5,2,1:2:0:0:
161,135,12677,1,8,3:2:0:0:
156,162,12746,1,2,1:3:0:0:
152,189,12814,1,8,3:2:0:0:
148,216,12882,2,0,L|165:296,3,55,2|8|2|8,1:2|3:2|1:3|3:2,3:0:0:0:
71,145,13155,5,2,1:2:0:0:
59,92,13223,1,8,3:2:0:0:
83,43,13291,1,2,1:3:0:0:
131,19,13359,1,8,3:2:0:0:
184,30,13427,1,2,1:2:0:0:
219,71,13496,1,8,3:2:0:0:
222,125,13564,1,2,1:3:0:0:
213,178,13632,1,8,3:2:0:0:
234,228,13700,1,2,1:2:0:0:
278,260,13768,1,8,3:2:0:0:
332,265,13836,1,2,1:3:0:0:
381,241,13905,1,8,3:2:0:0:
410,196,13973,1,2,1:2:0:0:
412,141,14041,1,8,3:2:0:0:
385,94,14109,1,2,1:3:0:0:
338,68,14177,1,8,3:2:0:0:
283,70,14246,5,2,1:2:0:0:
287,97,14314,1,8,3:2:0:0:
291,124,14382,1,2,1:3:0:0:
295,151,14450,1,8,3:2:0:0:
299,178,14518,1,2,1:2:0:0:
303,205,14586,1,8,3:2:0:0:
308,233,14655,1,2,1:3:0:0:
312,260,14723,1,8,3:2:0:0:
316,287,14791,5,2,1:2:0:0:
329,289,14859,1,8,3:2:0:0:
342,292,14927,1,2,1:3:0:0:
356,295,14996,1,8,3:2:0:0:
369,298,15064,2,0,L|427:282,3,55,2|8|2|8,1:2|3:2|1:3|3:2,3:0:0:0:
384,176,15336,5,2,1:2:0:0:
342,141,15405,1,8,3:2:0:0:
288,141,15473,1,2,1:3:0:0:
246,176,15541,1,8,3:2:0:0:
236,228,15609,1,2,1:2:0:0:
245,282,15677,1,8,3:2:0:0:
220,330,15746,1,2,1:3:0:0:
172,354,15814,1,8,3:2:0:0:
119,346,15882,1,2,1:2:0:0:
81,307,15950,1,8,3:2:0:0:
73,254,16018,1,2,1:3:0:0:
98,206,16086,1,8,3:2:0:0:
147,182,16155,1,2,1:2:0:0:
182,141,16223,1,8,3:2:0:0:
182,87,16291,1,2,1:3:0:0:
148,45,16359,1,8,3:2:0:0:
95,36,16427,6,0,B|67:84|67:84|85:146,1,110,6|0,1:2|3:0,3:0:0:0:
62,269,16700,5,10,1:2:0:0:
130,261,16768,1,8,3:2:0:0:
198,253,16836,1,8,3:2:0:0:
266,245,16905,1,8,3:2:0:0:
335,238,16973,5,10,3:0:0:0:
331,251,17041,1,8,3:0:0:0:
328,264,17109,1,8,3:0:0:0:
325,278,17177,1,8,3:0:0:0:
322,291,17246,1,6,1:2:0:0:
432,31,17518,5,14,1:2:0:0:
432,31,17586,1,2,1:2:0:0:
432,31,17655,2,0,B|427:55|427:55|428:57|428:57|421:89,1,50,2|2,1:2|1:2,3:0:0:0:
263,94,17791,2,0,B|317:80|351:125|351:125|386:175|449:159,1,200,14|14,1:2|1:2,3:0:0:0:
447,170,18132,1,2,1:2:0:0:
455,178,18200,2,0,B|460:202|460:202|459:204|459:204|466:236,1,50,2|2,1:2|1:2,3:0:0:0:
306,266,18336,5,14,1:2:0:0:
287,249,18405,1,2,1:2:0:0:
276,226,18473,1,2,1:2:0:0:
275,201,18541,1,2,1:2:0:0:
283,178,18609,1,14,1:2:0:0:
147,27,18882,5,10,3:2:0:0:
155,50,18950,1,10,3:2:0:0:
154,75,19018,1,2,1:2:0:0:
143,98,19086,1,2,1:2:0:0:
124,115,19155,2,0,B|100:110|100:110|98:111|98:111|66:104,3,50,10|4|0|0,3:0|3:0|1:0|1:0,3:0:0:0:
172,201,19427,1,8,3:2:0:0:
172,201,19496,1,8,3:2:0:0:
172,201,19564,2,0,B|196:196|196:196|198:197|198:197|230:190,1,50,0|0,1:0|1:0,3:0:0:0:
81,338,19700,6,0,B|63:305|63:305|71:271|71:271|66:265|66:265|73:262|73:262|84:225|84:225|63:188,1,160,6|2,1:2|3:2,3:0:0:0:
67,195,20109,1,2,3:2:0:0:
161,296,20246,2,0,L|248:283,1,80,2|2,3:2|3:2,3:0:0:0:
266,159,20518,2,0,L|186:170,1,80,2|2,3:2|3:2,3:0:0:0:
327,348,20791,6,0,L|414:335,2,80,2|0|2,3:2|3:0|3:2,3:0:0:0:
432,211,21200,2,0,L|352:222,2,80,2|0|2,3:2|3:0|3:2,3:0:0:0:
192,57,21609,5,6,1:2:0:0:
405,114,21746,1,2,1:2:0:0:
197,192,21882,1,6,1:2:0:0:
318,7,22018,1,2,1:2:0:0:
327,228,22155,6,0,L|338:327,2,80,2|2|0,3:2|3:2|3:0,3:0:0:0:
222,377,22564,2,0,L|211:278,2,80,2|2|0,3:2|3:2|3:0,3:0:0:0:
29,172,22973,5,6,1:2:0:0:
67,321,23109,1,8,3:2:0:0:
217,282,23246,1,8,3:2:0:0:
179,133,23382,1,10,3:2:0:0:
132,237,23518,5,8,3:2:0:0:
132,237,23586,1,8,3:0:0:0:
132,237,23655,1,0,1:0:0:0:
132,237,23723,1,0,1:0:0:0:
132,237,23791,1,10,3:2:0:0:
293,127,23927,1,8,3:2:0:0:
94,51,24064,6,0,B|101:136|101:136|126:152|126:152|131:247,1,200,6|2,1:2|3:2,3:0:0:0:
93,317,24473,1,0,3:0:0:0:
4,328,24609,6,0,P|8:281|45:241,1,100,14|0,3:2|3:0,3:0:0:0:
131,236,24882,2,0,P|169:263|185:315,1,100,2|0,3:2|3:0,3:0:0:0:
268,111,25155,6,0,L|235:213,1,100,6|0,1:2|3:0,3:0:0:0:
400,285,25427,2,0,L|327:205,1,100,2|0,3:2|3:0,3:0:0:0:
185,311,25700,2,0,L|291:289,1,100,14|0,3:2|3:0,3:0:0:0:
504,281,25973,6,0,B|489:232|489:232|492:221|492:221|480:179,1,100,2|0,1:2|3:0,3:0:0:0:
486,174,26177,1,0,3:0:0:0:
490,162,26246,6,0,B|438:149|406:197|406:197|370:243|306:222,1,200,6|0,1:2|3:0,3:0:0:0:
272,88,26655,6,0,B|271:51|307:31|307:31|371:71|359:125|311:167,1,200,2|0,3:2|3:0,3:0:0:0:
158,201,27064,6,0,P|206:179|265:166,1,100,0|0,3:0|3:0,3:0:0:0:
17,101,27336,5,4,1:2:0:0:
104,271,27473,1,0,3:0:0:0:
187,95,27609,1,2,1:2:0:0:
184,80,27677,1,0,1:0:0:0:
181,65,27746,1,0,1:0:0:0:
104,271,27882,6,0,L|109:382,1,100,14|0,3:2|3:0,3:0:0:0:
197,179,28155,1,2,1:2:0:0:
0,190,28291,1,0,3:0:0:0:
271,4,28427,6,0,B|318:39|318:39|314:112|314:112|309:115|309:115|303:182,1,200,6|0,1:2|3:0,3:0:0:0:
303,177,28836,1,0,3:0:0:0:
459,220,28973,6,0,B|381:233|381:233|354:263|354:263|248:278,1,200,14|2,3:2|3:2,3:0:0:0:
138,334,29382,6,0,B|198:354|198:354|193:318|193:318|180:291|180:291|184:264|184:264|175:206,1,200,2|0,3:2|3:0,3:0:0:0:
103,170,29791,2,0,P|139:139|204:136,1,100,2|0,3:2|1:0,3:0:0:0:
189,132,29996,1,0,1:0:0:0:
189,132,30064,1,12,3:2:0:0:
490,312,30336,6,0,B|450:300|450:300|391:327|391:327|340:304,1,150,2|0,1:2|3:0,3:0:0:0:
342,315,30609,6,0,B|330:223|329:223|329:223|335:212|335:212|322:110,1,200,6|0,1:2|3:0,3:0:0:0:
368,36,31018,1,2,1:2:0:0:
368,36,31086,1,0,1:0:0:0:
368,36,31155,2,0,B|316:23|316:23|244:52,1,100,12|0,3:2|1:0,3:0:0:0:
228,122,31427,2,0,B|280:135|280:135|352:106,1,100,2|0,3:2|3:0,3:0:0:0:
86,29,31700,5,4,1:2:0:0:
121,288,31836,1,0,1:0:0:0:
86,29,31973,1,0,1:0:0:0:
121,288,32109,1,0,1:0:0:0:
258,31,32246,5,12,3:2:0:0:
0,162,32382,1,0,1:0:0:0:
280,225,32518,1,0,1:0:0:0:
117,6,32655,1,0,1:0:0:0:
0,251,32791,6,0,B|69:237|69:237|127:258|127:258|217:242,1,200,4|2,1:2|3:2,3:0:0:0:
271,186,33200,1,0,3:0:0:0:
286,280,33336,2,0,P|290:230|270:185,1,100,14|0,3:2|3:0,3:0:0:0:
280,88,33609,2,0,P|326:106|358:145,1,100,2|0,3:2|3:0,3:0:0:0:
482,223,33882,6,0,B|432:230|432:230|430:227|430:227|371:235,1,100,6|0,1:2|3:0,3:0:0:0:
199,304,34155,2,0,B|249:311|249:311|251:308|251:308|310:316,1,100,2|0,3:2|1:0,3:0:0:0:
306,307,34359,1,0,1:0:0:0:
315,299,34427,6,0,P|291:254|313:172,1,100,14|0,3:2|3:0,3:0:0:0:
340,51,34700,2,0,P|363:94|361:143,1,100,2|0,1:2|3:0,3:0:0:0:
183,76,34973,6,0,B|143:134|143:134|296:112,1,200,4|2,1:2|1:2,3:0:0:0:
270,129,35314,1,0,1:0:0:0:
268,142,35382,1,4,1:3:0:0:
89,210,35518,6,0,P|55:165|56:114,1,100,14|0,3:2|3:0,3:0:0:0:
142,283,35791,2,0,P|88:301|40:284,1,100,2|0,1:2|3:0,3:0:0:0:
143,134,36064,5,6,1:2:0:0:
213,339,36200,2,0,B|241:289|241:289|208:205|208:205|241:149,1,200,0|2,1:0|1:2,3:0:0:0:
244,156,36541,1,0,1:0:0:0:
254,152,36609,2,0,B|322:160|322:160|326:172|326:172|406:182,2,150,12|0|0,3:2|3:0|1:0,3:0:0:0:
393,0,37155,6,0,B|386:37|386:37|376:49|376:49|380:68|380:68|372:115,1,100,6|0,1:2|3:0,3:0:0:0:
289,336,37427,2,0,B|282:299|282:299|272:287|272:287|276:268|276:268|268:221,1,100,0|0,3:0|3:0,3:0:0:0:
206,177,37700,6,0,P|248:151|307:160,1,100,14|0,3:2|3:0,3:0:0:0:
362,263,37973,2,0,P|312:266|271:240,1,100,2|2,3:2|3:2,3:0:0:0:
64,359,38246,6,0,L|165:345,1,100,4|0,1:2|3:0,3:0:0:0:
171,337,38450,1,0,3:0:0:0:
178,328,38518,2,0,B|168:266|168:266|174:257|174:257|162:178,1,150,2|0,3:2|1:0,3:0:0:0:
195,96,38791,6,0,B|145:86|145:86|80:127,1,100,14|0,3:2|3:0,3:0:0:0:
253,172,39064,2,0,B|303:182|303:182|368:141,1,100,2|0,1:2|3:0,3:0:0:0:
474,40,39336,5,10,3:2:0:0:
471,52,39405,1,8,3:0:0:0:
468,64,39473,1,4,3:0:0:0:
465,76,39541,1,8,3:0:0:0:
463,88,39609,2,0,L|380:104,1,50,0|0,1:0|1:0,3:0:0:0:
407,217,39746,5,10,3:2:0:0:
365,212,39814,1,8,3:0:0:0:
324,207,39882,1,4,3:0:0:0:
282,202,39950,1,8,3:0:0:0:
241,197,40018,1,0,1:0:0:0:
200,192,40086,1,0,1:0:0:0:
158,187,40155,1,14,3:2:0:0:
147,196,40427,5,6,1:2:0:0:
390,78,40564,1,8,3:2:0:0:
262,316,40700,1,8,3:2:0:0:
224,48,40836,1,8,3:2:0:0:
427,256,40973,5,10,3:2:0:0:
122,190,41109,1,8,3:2:0:0:
317,19,41246,1,8,3:2:0:0:
317,19,41314,1,8,3:0:0:0:
317,19,41382,2,0,L|303:78,1,50,0|0,1:0|1:0,3:0:0:0:
171,332,41518,5,14,3:2:0:0:
171,332,41586,1,0,3:0:0:0:
171,332,41655,1,0,1:0:0:0:
79,82,41791,1,10,3:2:0:0:
298,181,41927,1,0,1:0:0:0:
0,240,42064,6,0,B|60:269|60:269|164:228|164:228|234:254,1,240,10|10,3:2|3:2,3:0:0:0:
423,327,42473,1,0,1:0:0:0:
377,50,42609,6,0,B|369:124|369:124|354:141|354:141|345:231,1,180,10|0,3:2|3:0,3:0:0:0:
340,235,42882,2,0,L|201:250,1,120,10|0,3:2|1:0,3:0:0:0:
227,67,43155,1,10,3:2:0:0:
151,306,43291,1,0,1:0:0:0:
44,102,43427,6,0,B|114:73|158:127|158:127|205:180|299:142,1,240,10|10,3:2|3:2,3:0:0:0:
458,126,43836,1,0,1:0:0:0:
277,310,43973,1,10,3:2:0:0:
227,67,44109,1,0,1:0:0:0:
461,259,44246,5,10,3:2:0:0:
194,179,44382,1,0,1:0:0:0:
461,259,44518,2,0,B|467:207|467:207|471:205|471:205|481:110,1,120,10|0,3:2|1:0,3:0:0:0:
181,82,44791,5,10,3:2:0:0:
315,352,44927,1,0,1:0:0:0:
373,67,45064,1,10,3:2:0:0:
151,359,45200,5,2,1:2:0:0:
462,296,45336,1,10,3:2:0:0:
168,181,45473,1,0,1:0:0:0:
433,19,45609,5,10,3:2:0:0:
311,277,45746,1,0,1:0:0:0:
311,277,45814,1,0,1:0:0:0:
311,277,45882,6,0,L|162:302,1,120,12|0,3:2|1:0,3:0:0:0:
118,138,46155,2,0,L|0:119,1,120,10|0,3:2|1:0,3:0:0:0:
111,309,46427,2,0,B|97:251|159:214|159:214|219:176|197:100,1,240,10|10,3:2|3:2,3:0:0:0:
314,247,46836,1,0,1:0:0:0:
122,52,46973,6,0,B|176:12|176:12|329:41,1,180,10|0,3:2|3:0,3:0:0:0:
295,43,47246,2,0,B|289:90|289:90|294:101|294:101|284:184,1,120,10|0,3:2|1:0,3:0:0:0:
416,366,47518,2,0,B|408:306|408:306|413:295|413:295|407:247,1,120,10|0,3:2|1:0,3:0:0:0:
382,54,47791,1,10,3:2:0:0:
465,171,47927,1,0,1:0:0:0:
465,171,47996,1,0,1:0:0:0:
465,171,48064,6,0,B|416:145|416:145|359:160|359:160|351:157|351:157|253:180,1,180,10|0,3:2|3:0,3:0:0:0:
291,184,48336,2,0,L|160:170,1,120,10|0,3:2|1:0,3:0:0:0:
28,49,48609,1,10,3:2:0:0:
66,257,48746,1,0,1:0:0:0:
199,85,48882,2,0,P|121:93|80:160,1,120,10|0,3:2|3:0,3:0:0:0:
321,294,49155,5,6,1:2:0:0:
93,120,49291,1,8,3:2:0:0:
353,43,49427,1,8,3:2:0:0:
353,43,49496,1,8,3:2:0:0:
353,43,49564,2,0,B|361:77|361:77|357:79|357:79|365:113,1,60,10|8,3:2|3:2,3:0:0:0:
172,318,49700,5,8,3:2:0:0:
214,113,49836,1,8,3:2:0:0:
394,242,49973,2,0,B|447:237|447:237|456:241|456:241|522:237,1,120,2|8,1:2|3:0,3:0:0:0:
339,319,50246,5,4,1:2:0:0:
294,280,50314,1,0,1:0:0:0:
286,221,50382,1,0,1:0:0:0:
316,171,50450,1,0,1:0:0:0:
372,153,50518,1,6,1:2:0:0:
421,122,50586,1,0,1:0:0:0:
435,65,50655,1,0,1:0:0:0:
404,15,50723,1,0,1:0:0:0:
348,2,50791,1,14,3:2:0:0:
298,32,50859,1,0,1:0:0:0:
284,89,50927,1,0,1:0:0:0:
257,141,50996,1,0,1:0:0:0:
203,165,51064,1,6,1:2:0:0:
147,149,51132,1,0,1:0:0:0:
114,101,51200,1,0,1:0:0:0:
119,42,51268,1,0,1:0:0:0:
160,0,51336,5,6,1:2:0:0:
203,46,51405,1,0,1:0:0:0:
203,110,51473,1,0,1:0:0:0:
160,157,51541,1,0,1:0:0:0:
97,162,51609,1,6,1:2:0:0:
41,192,51677,1,0,1:0:0:0:
16,251,51746,1,0,1:0:0:0:
35,312,51814,1,0,1:0:0:0:
87,348,51882,1,14,3:2:0:0:
151,343,51950,1,0,1:0:0:0:
197,299,52018,1,0,1:0:0:0:
205,236,52086,1,0,1:0:0:0:
218,173,52155,1,6,1:2:0:0:
269,135,52223,1,0,1:0:0:0:
333,140,52291,1,0,1:0:0:0:
378,185,52359,1,0,1:0:0:0:
382,249,52427,6,0,L|299:261,3,65,4|0|0|0,1:2|1:0|1:0|1:0,3:0:0:0:
280,184,52700,5,6,1:2:0:0:
280,184,52768,1,0,1:0:0:0:
280,184,52836,2,0,P|248:214|237:257,1,65,0|0,1:0|1:0,3:0:0:0:
155,246,52973,6,0,P|173:285|211:309,3,65,14|0|0|0,3:2|1:0|1:0|1:0,3:0:0:0:
178,383,53246,5,6,1:2:0:0:
178,383,53314,1,0,1:0:0:0:
178,383,53382,2,0,P|221:377|255:349,1,65,0|0,1:0|1:0,3:0:0:0:
373,346,53518,5,6,1:2:0:0:
370,321,53586,1,0,1:0:0:0:
367,296,53655,1,0,1:0:0:0:
365,271,53723,1,0,1:0:0:0:
351,248,53791,5,6,1:2:0:0:
352,235,53859,1,0,1:0:0:0:
353,223,53927,1,0,1:0:0:0:
354,210,53996,1,0,1:0:0:0:
366,193,54064,6,0,L|350:101,3,50,14|0|0|0,3:2|1:0|1:0|1:0,3:0:0:0:
440,88,54336,5,6,1:2:0:0:
395,49,54405,1,0,1:0:0:0:
336,43,54473,1,0,1:0:0:0:
284,71,54541,1,0,1:0:0:0:
257,124,54609,1,4,1:2:0:0:
227,174,54677,1,0,1:0:0:0:
171,194,54746,1,0,1:0:0:0:
116,173,54814,1,0,1:0:0:0:
87,122,54882,5,6,1:2:0:0:
91,107,54950,1,0,1:0:0:0:
96,93,55018,1,0,1:0:0:0:
100,79,55086,1,0,1:0:0:0:
105,64,55155,2,0,L|195:46,3,60,12|0|0|0,3:2|1:0|1:0|1:0,3:0:0:0:
216,146,55427,2,0,L|306:164,3,60,4|0|0|0,1:2|1:0|1:0|1:0,3:0:0:0:
311,41,55700,5,6,1:2:0:0:
377,24,55768,1,0,1:0:0:0:
443,45,55836,1,0,1:0:0:0:
487,98,55905,1,0,1:0:0:0:
495,167,55973,1,4,1:2:0:0:
466,229,56041,1,0,1:0:0:0:
408,266,56109,1,2,1:2:0:0:
338,266,56177,1,0,1:0:0:0:
280,229,56246,2,0,L|265:157,3,60,12|0|0|0,3:2|1:0|1:0|1:0,3:0:0:0:
173,307,56518,5,6,1:2:0:0:
173,307,56586,1,0,1:0:0:0:
173,307,56655,2,0,L|187:235,1,60,0|0,1:0|1:0,3:0:0:0:
85,29,56791,5,6,1:2:0:0:
381,152,56927,1,12,3:2:0:0:
68,254,57064,1,12,3:2:0:0:
222,37,57200,5,0,1:0:0:0:
154,313,57336,1,2,1:2:0:0:
59,112,57473,2,0,B|112:72|167:111|167:111|235:155|294:93,2,240,12|4|8,3:2|1:2|3:2,3:0:0:0:
45,249,58155,5,8,3:2:0:0:
59,296,58223,1,8,3:2:0:0:
93,332,58291,1,8,3:2:0:0:
139,349,58359,1,8,3:2:0:0:
189,344,58427,1,10,3:0:0:0:
231,318,58496,1,8,3:0:0:0:
257,275,58564,1,8,3:0:0:0:
261,226,58632,1,8,3:0:0:0:
243,180,58700,2,0,L|179:189,3,50,4|4|4|4,3:0|3:0|3:0|3:0,3:0:0:0:
178,191,58973,6,0,B|163:141|163:141|188:82,1,100,6|0,1:2|3:0,3:0:0:0:
256,16,59246,5,2,1:2:0:0:
303,5,59314,1,8,3:2:0:0:
349,23,59382,1,2,1:3:0:0:
375,65,59450,1,8,3:2:0:0:
373,114,59518,1,2,1:2:0:0:
379,162,59586,1,8,3:2:0:0:
416,194,59655,1,2,1:3:0:0:
465,192,59723,1,8,3:2:0:0:
500,159,59791,2,0,L|493:93,3,50,2|8|2|8,1:2|3:2|1:3|3:2,3:0:0:0:
426,34,60064,5,2,1:2:0:0:
385,5,60132,1,8,3:2:0:0:
336,0,60200,1,2,1:3:0:0:
292,22,60268,1,8,3:2:0:0:
265,63,60336,1,2,1:2:0:0:
238,104,60405,1,8,3:2:0:0:
194,126,60473,1,2,1:3:0:0:
145,121,60541,1,8,3:2:0:0:
104,92,60609,5,2,1:2:0:0:
106,79,60677,1,8,3:2:0:0:
109,67,60746,1,2,1:3:0:0:
112,55,60814,1,8,3:2:0:0:
115,43,60882,2,0,L|205:21,3,50,2|8|2|8,1:2|3:2|1:3|3:2,3:0:0:0:
264,40,61155,5,2,1:2:0:0:
312,63,61223,1,8,3:2:0:0:
331,113,61291,1,2,1:3:0:0:
310,162,61359,1,8,3:2:0:0:
261,183,61427,1,2,1:2:0:0:
210,164,61496,1,8,3:2:0:0:
159,145,61564,1,2,1:3:0:0:
111,168,61632,1,8,3:2:0:0:
93,218,61700,1,2,1:2:0:0:
116,267,61768,1,8,3:2:0:0:
167,284,61836,1,2,1:3:0:0:
215,260,61905,1,8,3:2:0:0:
263,237,61973,1,2,1:2:0:0:
312,258,62041,1,8,3:2:0:0:
329,309,62109,1,2,1:3:0:0:
303,355,62177,1,8,3:2:0:0:
251,367,62246,5,2,1:2:0:0:
208,325,62314,1,8,3:2:0:0:
200,267,62382,1,2,1:3:0:0:
228,216,62450,1,8,3:2:0:0:
283,193,62518,1,2,1:2:0:0:
334,163,62586,1,8,3:2:0:0:
357,109,62655,1,2,1:3:0:0:
343,52,62723,1,8,3:2:0:0:
297,15,62791,1,2,1:2:0:0:
238,13,62859,1,8,3:2:0:0:
190,48,62927,1,2,1:3:0:0:
173,104,62996,1,8,3:2:0:0:
193,159,63064,2,0,L|266:141,3,60,2|8|2|8,1:2|3:2|1:3|3:2,3:0:0:0:
378,174,63336,5,2,1:2:0:0:
421,196,63405,1,8,3:2:0:0:
448,238,63473,1,2,1:3:0:0:
450,287,63541,1,8,3:2:0:0:
426,331,63609,1,2,1:2:0:0:
384,357,63677,1,8,3:2:0:0:
335,357,63746,1,2,1:3:0:0:
292,333,63814,1,8,3:2:0:0:
267,290,63882,5,2,1:2:0:0:
270,277,63950,1,8,3:2:0:0:
273,265,64018,1,2,1:3:0:0:
276,253,64086,1,8,3:2:0:0:
279,241,64155,2,0,L|264:180,3,50,2|8|2|8,1:2|3:2|1:3|3:2,3:0:0:0:
297,112,64427,6,0,B|253:96|253:96|222:116|222:116|207:120|207:120|197:133|197:133|166:154|166:154|112:128,1,200,6|2,1:2|1:2,3:0:0:0:
121,121,64768,1,8,3:0:0:0:
119,109,64836,1,8,3:0:0:0:
116,96,64905,1,8,3:0:0:0:
114,84,64973,6,0,L|131:1,1,50,10|0,3:2|3:0,3:0:0:0:
41,8,65109,2,0,L|24:91,1,50,8|0,3:2|3:0,3:0:0:0:
19,230,65246,6,0,B|49:202|49:202|33:119,1,100,2|8,1:2|3:0,3:0:0:0:
30,332,65518,5,6,1:2:0:0:
79,325,65586,1,2,1:2:0:0:
129,318,65655,1,2,1:2:0:0:
178,311,65723,1,2,1:2:0:0:
228,304,65791,5,6,1:2:0:0:
234,314,65859,1,0,1:0:0:0:
240,325,65927,1,0,1:0:0:0:
247,336,65996,1,0,1:0:0:0:
253,346,66064,5,14,3:2:0:0:
259,302,66132,1,2,1:2:0:0:
266,259,66200,1,2,1:2:0:0:
272,216,66268,1,2,1:2:0:0:
279,173,66336,1,6,1:2:0:0:
286,129,66405,1,2,1:2:0:0:
292,86,66473,1,2,1:2:0:0:
299,43,66541,1,2,1:2:0:0:
304,0,66609,6,0,L|325:98,1,100,14|0,3:2|1:0,3:0:0:0:
383,159,66814,1,0,1:0:0:0:
383,159,66882,2,0,L|443:167,1,50,10|10,3:2|3:0,3:0:0:0:
303,176,67018,2,0,L|251:207,1,50,10|10,3:0|3:0,3:0:0:0:
360,240,67155,5,6,3:0:0:0:
362,252,67223,1,4,3:0:0:0:
365,264,67291,1,0,1:0:0:0:
367,276,67359,1,0,1:0:0:0:
370,288,67427,1,8,3:2:0:0:
489,356,67700,6,0,B|452:312|452:312|383:323|383:323|379:319|379:319|305:330,1,200,6|2,1:2|3:2,3:0:0:0:
177,256,68109,1,0,3:0:0:0:
282,148,68246,2,0,L|266:252,1,100,14|0,3:2|3:0,3:0:0:0:
192,354,68518,2,0,L|176:255,1,100,2|0,3:2|3:0,3:0:0:0:
244,63,68791,6,0,B|296:57|296:57|349:82,1,100,6|0,1:2|3:0,3:0:0:0:
441,105,69064,2,0,B|420:153|420:153|372:186,1,100,2|0,3:2|3:0,3:0:0:0:
306,254,69336,2,0,B|274:211|274:211|269:153,1,100,14|0,3:2|3:0,3:0:0:0:
127,17,69609,6,0,B|115:71|115:71|117:79|117:79|104:136,1,100,2|0,1:2|3:0,3:0:0:0:
102,125,69814,1,0,3:0:0:0:
95,135,69882,6,0,B|108:210|108:210|82:242|82:242|102:342,1,200,6|0,1:2|3:0,3:0:0:0:
211,371,70291,6,0,B|253:295|253:295|179:269|179:269|191:331,1,200,2|0,3:2|3:0,3:0:0:0:
294,211,70700,6,0,L|192:175,1,100,0|0,3:0|3:0,3:0:0:0:
483,130,70973,5,4,1:2:0:0:
359,305,71109,1,0,3:0:0:0:
301,106,71246,1,2,1:2:0:0:
297,92,71314,1,0,1:0:0:0:
293,78,71382,1,0,1:0:0:0:
416,235,71518,6,0,B|373:208|373:208|323:218,1,100,14|0,3:2|3:0,3:0:0:0:
390,90,71791,1,2,1:2:0:0:
359,305,71927,1,0,3:0:0:0:
113,102,72064,6,0,B|157:108|157:108|175:103|175:103|191:113|191:113|236:119|236:119|250:129|250:129|267:124|267:124|317:130,1,200,6|0,1:2|3:0,3:0:0:0:
304,128,72473,1,0,3:0:0:0:
112,259,72609,6,0,B|84:241|84:241|78:242|78:242|61:230|61:230|84:175|84:175|83:170|83:170|121:80,1,200,14|2,3:2|3:2,3:0:0:0:
112,101,73018,1,2,3:2:0:0:
193,226,73155,6,0,B|213:253|213:253|189:316,1,100,4|0,1:2|3:0,3:0:0:0:
55,348,73427,2,0,B|35:321|35:321|59:258,1,100,2|0,3:2|1:0,3:0:0:0:
53,248,73632,1,0,1:0:0:0:
47,236,73700,6,0,B|41:194|41:194|37:197|37:197|41:195|41:195|34:129,1,100,12|0,3:2|3:0,3:0:0:0:
203,0,73973,2,0,B|197:41|197:41|193:39|193:39|197:41|197:41|190:107,1,100,2|0,1:2|3:0,3:0:0:0:
30,66,74246,6,0,B|87:63|113:118|113:118|135:177|215:173,1,200,6|0,1:2|3:0,3:0:0:0:
287,62,74655,1,2,1:2:0:0:
287,62,74723,1,0,1:0:0:0:
287,62,74791,2,0,P|231:75|182:93,1,100,12|0,3:2|1:0,3:0:0:0:
268,154,75064,2,0,P|324:167|373:185,1,100,2|0,3:2|3:0,3:0:0:0:
478,43,75336,5,4,1:2:0:0:
423,313,75473,1,0,1:0:0:0:
478,43,75609,1,0,1:0:0:0:
423,313,75746,1,0,1:0:0:0:
235,39,75882,5,12,3:2:0:0:
508,147,76018,1,0,1:0:0:0:
231,250,76155,1,0,1:0:0:0:
508,147,76291,1,0,1:0:0:0:
335,4,76427,6,0,B|330:33|330:33|340:62|340:62|320:88|320:88|313:133|313:133|316:137|316:137|304:212,1,200,4|2,1:2|3:2,3:0:0:0:
360,269,76836,1,0,3:0:0:0:
453,261,76973,2,0,P|429:208|378:178,1,100,14|0,3:2|3:0,3:0:0:0:
307,192,77246,2,0,P|273:239|272:298,1,100,2|0,3:2|3:0,3:0:0:0:
44,357,77518,6,0,L|21:232,1,100,6|0,1:2|3:0,3:0:0:0:
106,196,77791,2,0,L|129:321,1,100,2|0,3:2|1:0,3:0:0:0:
135,301,77996,1,0,1:0:0:0:
145,307,78064,6,0,B|189:303|189:303|195:309|195:309|255:304,1,100,14|0,3:2|3:0,3:0:0:0:
127,108,78336,2,0,B|83:104|83:104|77:110|77:110|17:105,1,100,2|0,1:2|3:0,3:0:0:0:
227,39,78609,6,0,B|221:95|221:95|216:95|216:95|221:95|221:95|218:139|218:139|213:138|213:138|218:139|218:139|209:244,1,200,4|0,1:2|1:0,3:0:0:0:
220,229,78950,1,0,1:0:0:0:
228,239,79018,1,2,1:2:0:0:
402,77,79155,6,0,P|352:81|313:123,1,100,14|0,3:2|3:0,3:0:0:0:
376,234,79427,2,0,P|426:230|465:188,1,100,2|0,1:2|3:0,3:0:0:0:
389,157,79700,5,6,1:2:0:0:
212,314,79836,2,0,B|282:321|282:321|286:319|286:319|336:324|336:324|339:328|339:328|412:335,1,200,0|0,1:0|1:0,3:0:0:0:
416,343,80177,1,0,1:0:0:0:
423,351,80246,2,0,B|457:312|457:312|443:256,1,100,14|0,3:2|1:0,3:0:0:0:
385,152,80518,2,0,B|351:191|351:191|365:247,1,100,2|0,3:2|1:0,3:0:0:0:
212,314,80791,6,0,B|174:275|174:275|106:285|106:285|101:291|101:291|4:307,1,200,6|0,1:2|3:0,3:0:0:0:
28,316,81132,1,0,3:0:0:0:
23,329,81200,1,0,3:0:0:0:
76,116,81336,6,0,B|65:161|65:161|70:168|70:168|56:222,1,100,14|0,3:2|3:0,3:0:0:0:
22,40,81609,2,0,B|99:24|99:24|161:75,1,150,2|0,3:2|3:0,3:0:0:0:
158,83,81882,6,0,L|280:67,1,100,6|0,1:2|3:0,3:0:0:0:
417,173,82155,2,0,L|295:157,1,100,2|0,3:2|1:0,3:0:0:0:
314,150,82359,1,0,1:0:0:0:
310,140,82427,6,0,P|342:95|335:30,1,100,14|0,3:2|3:0,3:0:0:0:
224,164,82700,2,0,P|192:209|199:274,1,100,2|0,1:2|3:0,3:0:0:0:
351,344,82973,5,10,3:2:0:0:
345,319,83041,1,8,3:0:0:0:
340,295,83109,1,4,3:0:0:0:
335,270,83177,1,4,3:0:0:0:
329,246,83246,2,0,L|268:234,1,50,0|0,1:0|1:0,3:0:0:0:
162,347,83382,2,0,L|265:326,1,100,14|0,3:2|3:0,3:0:0:0:
480,187,83655,5,8,3:2:0:0:
333,380,83791,1,10,3:2:0:0:
224,164,83927,1,8,3:2:0:0:
470,299,84064,5,6,1:2:0:0:
285,243,84200,1,8,3:2:0:0:
456,170,84336,5,8,3:2:0:0:
345,189,84473,1,8,3:0:0:0:
388,118,84609,5,10,3:0:0:0:
334,56,84746,1,8,3:0:0:0:
390,6,84882,6,0,L|480:16,1,80,4|8,3:0|3:2,3:0:0:0:
347,309,85155,5,4,1:2:0:0:
211,91,85291,1,0,1:0:0:0:
449,187,85427,1,4,3:0:0:0:
199,248,85564,1,0,1:0:0:0:
364,52,85700,6,0,B|359:68|359:68|357:70|357:70|351:88,1,25,14|0,3:2|3:0,3:0:0:0:
284,190,85836,2,0,B|278:174|278:174|279:171|279:171|273:153,1,25,0|0,1:0|3:0,3:0:0:0:
267,31,85973,2,0,B|280:40|280:40|281:43|281:43|297:54,1,25,4|0,3:0|3:0,3:0:0:0:
374,149,86109,2,0,B|357:149|357:149|354:147|354:147|335:147,1,25,0|0,1:0|3:0,3:0:0:0:
218,116,86246,5,4,1:2:0:0:
63,287,86382,1,0,1:0:0:0:
288,239,86518,1,4,3:0:0:0:
77,144,86655,1,0,1:0:0:0:
192,343,86791,6,0,L|184:308,1,25,14|0,3:2|3:0,3:0:0:0:
142,242,86927,2,0,L|115:266,1,25,0|0,1:0|3:0,3:0:0:0:
79,335,87064,6,0,L|113:345,3,25,4|8|8|8,3:0|3:0|3:0|3:0,3:0:0:0:
192,343,87336,5,4,1:2:0:0:
290,140,87473,1,0,1:0:0:0:
330,361,87609,1,6,3:0:0:0:
167,205,87746,1,0,1:0:0:0:
389,235,87882,6,0,P|382:247|368:242,1,25,14|0,3:2|3:0,3:0:0:0:
248,264,88018,2,0,P|246:250|260:245,1,25,0|0,1:0|3:0,3:0:0:0:
345,157,88155,2,0,P|354:167|345:179,1,25,4|0,3:0|3:0,3:0:0:0:
329,300,88291,2,0,P|315:297|315:282,1,25,0|0,1:0|3:0,3:0:0:0:
257,174,88427,6,0,B|249:130|249:130|253:123|253:123|244:64,1,100,6|0,1:2|1:0,3:0:0:0:
422,237,88700,2,0,B|414:281|414:281|418:288|418:288|409:347,1,100,4|2,3:0|1:2,3:0:0:0:
385,157,88973,5,12,3:2:0:0:
328,299,89109,1,0,1:0:0:0:
385,157,89246,2,0,B|436:146|436:146|489:178,1,100,6|0,3:0|1:0,3:0:0:0:
324,25,89518,5,4,1:2:0:0:
281,249,89655,1,0,1:0:0:0:
324,25,89791,1,4,3:0:0:0:
281,249,89927,1,0,1:0:0:0:
233,68,90064,6,0,P|242:90|258:105,1,25,14|0,3:2|3:0,3:0:0:0:
213,187,90200,2,0,P|230:170|251:162,1,25,0|0,1:0|3:0,3:0:0:0:
138,115,90336,6,0,L|179:122,3,25,4|4|8|8,3:0|3:0|3:0|3:0,3:0:0:0:
69,29,90609,5,4,1:2:0:0:
101,272,90746,1,0,1:0:0:0:
69,29,90882,1,4,3:0:0:0:
101,272,91018,1,0,1:0:0:0:
162,83,91155,6,0,B|153:99|153:99|152:112,1,25,14|0,3:2|3:0,3:0:0:0:
176,208,91291,2,0,B|163:194|163:194|159:182,1,25,0|0,1:0|3:0,3:0:0:0:
243,100,91427,6,0,B|235:114|235:114|234:126,1,25,4|0,3:0|3:0,3:0:0:0:
251,172,91564,2,0,B|239:159|239:159|235:148,1,25,0|0,1:0|3:0,3:0:0:0:
376,32,91700,5,4,1:2:0:0:
338,256,91836,1,0,1:0:0:0:
376,32,91973,1,6,3:0:0:0:
338,256,92109,1,0,1:0:0:0:
423,218,92246,5,10,3:2:0:0:
401,173,92314,1,8,3:0:0:0:
358,150,92382,1,0,1:0:0:0:
309,156,92450,1,0,1:0:0:0:
272,188,92518,1,6,3:0:0:0:
235,220,92586,1,8,3:0:0:0:
186,226,92655,1,0,1:0:0:0:
143,203,92723,1,0,1:0:0:0:
121,158,92791,6,0,B|131:98|131:98|137:95|137:95|152:5,1,150,14|0,3:2|3:0,3:0:0:0:
160,25,93064,6,0,L|267:13,1,100,10|10,3:2|3:2,3:0:0:0:
374,203,93314,2,0,L|267:191,1,100,10|10,3:2|3:2,3:0:0:0:
466,92,93564,5,10,3:2:0:0:
440,299,93700,1,10,3:2:0:0:
371,68,93836,5,10,3:2:0:0:
361,328,93973,1,10,3:2:0:0:
269,36,94109,5,10,3:2:0:0:
284,344,94245,1,10,3:2:0:0:
155,27,94382,5,10,3:2:0:0:
192,357,94518,1,10,3:2:0:0:
37,26,94654,5,10,3:2:0:0:
101,368,94791,1,10,3:2:0:0:
14,167,94980,6,0,B|59:141|59:141|123:151,1,100,6|0,1:2|3:0,3:0:0:0:
224,296,95252,5,2,1:3:0:0:
262,340,95320,1,8,3:2:0:0:
320,351,95389,1,2,1:3:0:0:
372,325,95457,1,8,3:2:0:0:
398,271,95525,1,2,1:3:0:0:
385,214,95593,1,8,3:2:0:0:
339,177,95661,1,2,1:3:0:0:
280,175,95730,1,8,3:2:0:0:
222,186,95798,1,2,1:3:0:0:
171,158,95866,1,8,3:2:0:0:
148,103,95934,1,2,1:3:0:0:
164,47,96002,1,8,3:2:0:0:
212,13,96070,1,2,1:3:0:0:
271,16,96139,1,8,3:2:0:0:
314,56,96207,1,2,1:3:0:0:
324,114,96275,1,8,3:2:0:0:
295,166,96343,1,2,1:3:0:0:
241,188,96411,1,8,3:2:0:0:
184,172,96480,1,2,1:3:0:0:
134,139,96548,1,8,3:2:0:0:
75,139,96616,1,2,1:3:0:0:
25,171,96684,1,8,3:2:0:0:
0,225,96752,1,2,1:3:0:0:
9,284,96820,1,8,3:2:0:0:
48,328,96889,1,2,1:3:0:0:
104,345,96957,1,8,3:2:0:0:
161,328,97025,1,2,1:3:0:0:
200,283,97093,1,8,3:2:0:0:
197,275,97161,5,2,3:2:0:0:
441,310,98252,6,0,L|457:238,2,60,14|0|0,3:2|3:0|1:0,3:0:0:0:
329,126,98525,1,10,3:2:0:0:
218,302,98661,1,0,1:0:0:0:
500,179,98798,6,0,B|441:144|392:189|392:189|335:240|269:191,1,240,10|10,3:2|3:2,3:0:0:0:
194,46,99207,1,0,1:0:0:0:
230,332,99343,6,0,B|222:265|222:265|198:249|198:249|184:129,1,180,10|0,3:2|3:0,3:0:0:0:
179,159,99616,2,0,B|185:112|185:112|185:105|185:105|187:108|187:108|197:27,1,120,10|0,3:2|1:0,3:0:0:0:
76,156,99889,1,10,3:2:0:0:
279,198,100025,1,0,1:0:0:0:
55,350,100161,6,0,B|16:283|16:283|191:299,1,240,10|10,3:2|3:2,3:0:0:0:
367,100,100570,1,0,1:0:0:0:
308,359,100707,1,10,3:2:0:0:
367,100,100843,1,0,1:0:0:0:
225,273,100980,5,10,3:2:0:0:
512,208,101116,1,0,1:0:0:0:
295,26,101252,2,0,B|257:75|257:75|271:156,1,120,10|0,3:2|1:0,3:0:0:0:
389,319,101525,5,10,3:2:0:0:
109,219,101661,1,0,1:0:0:0:
367,100,101798,1,10,3:2:0:0:
82,364,101934,5,2,1:2:0:0:
154,85,102070,1,10,3:2:0:0:
274,348,102207,1,0,1:0:0:0:
277,33,102343,5,10,3:2:0:0:
124,259,102480,1,0,1:0:0:0:
124,259,102548,1,0,1:0:0:0:
124,259,102616,6,0,L|-25:234,1,120,12|0,3:2|1:0,3:0:0:0:
278,134,102889,2,0,L|396:153,1,120,10|0,3:2|1:0,3:0:0:0:
241,341,103161,2,0,B|220:266|220:266|228:224|228:224|196:197|196:197|163:103,1,240,10|10,3:2|3:2,3:0:0:0:
346,83,103570,1,0,1:0:0:0:
82,104,103707,6,0,P|129:43|224:51,1,180,10|0,3:2|3:0,3:0:0:0:
232,61,103980,2,0,B|292:69|292:69|297:77|297:77|363:85,1,120,10|0,3:2|1:0,3:0:0:0:
512,268,104252,2,0,B|452:276|452:276|447:284|447:284|381:292,1,120,10|0,3:2|1:0,3:0:0:0:
246,151,104525,1,10,3:2:0:0:
420,26,104661,1,0,1:0:0:0:
420,26,104730,1,0,1:0:0:0:
420,26,104798,6,0,B|446:75|446:75|431:132|431:132|434:140|434:140|411:238,1,180,10|0,3:2|3:0,3:0:0:0:
410,202,105070,2,0,L|291:189,1,120,10|0,3:2|1:0,3:0:0:0:
238,48,105343,1,10,3:2:0:0:
178,246,105480,1,0,1:0:0:0:
0,123,105616,2,0,L|119:110,1,120,10|0,3:2|3:0,3:0:0:0:
311,343,105889,5,6,1:2:0:0:
52,227,106025,1,8,3:2:0:0:
316,103,106161,1,8,3:2:0:0:
319,117,106230,1,8,3:2:0:0:
322,132,106298,1,10,3:2:0:0:
325,146,106366,1,8,3:2:0:0:
329,161,106434,2,0,L|448:146,1,100,8|8,3:2|3:2,3:0:0:0:
274,19,106707,2,0,L|155:4,1,100,2|8,1:2|3:0,3:0:0:0:
63,74,106980,5,4,1:2:0:0:
69,132,107048,1,0,1:0:0:0:
106,178,107116,1,0,1:0:0:0:
163,197,107184,1,0,1:0:0:0:
220,183,107252,1,6,1:2:0:0:
260,139,107320,1,0,1:0:0:0:
299,95,107389,1,0,1:0:0:0:
356,84,107457,1,0,1:0:0:0:
408,113,107525,1,14,3:2:0:0:
430,167,107593,1,0,1:0:0:0:
413,223,107661,1,0,1:0:0:0:
364,256,107730,1,0,1:0:0:0:
305,250,107798,1,6,1:2:0:0:
249,232,107866,1,0,1:0:0:0:
193,250,107934,1,0,1:0:0:0:
158,298,108002,1,0,1:0:0:0:
158,356,108070,5,6,1:2:0:0:
223,337,108139,1,0,1:0:0:0:
250,275,108207,1,0,1:0:0:0:
219,215,108275,1,0,1:0:0:0:
152,201,108343,1,6,1:2:0:0:
91,172,108411,1,0,1:0:0:0:
65,108,108480,1,0,1:0:0:0:
91,44,108548,1,0,1:0:0:0:
152,15,108616,1,14,3:2:0:0:
217,36,108684,1,0,1:0:0:0:
250,96,108752,1,0,1:0:0:0:
234,162,108820,1,0,1:0:0:0:
216,228,108889,1,6,1:2:0:0:
250,288,108957,1,0,1:0:0:0:
315,309,109025,1,0,1:0:0:0:
376,280,109093,1,0,1:0:0:0:
402,217,109161,6,0,L|315:199,3,70,4|0|0|0,1:2|1:0|1:0|1:0,3:0:0:0:
318,117,109434,6,0,P|274:138|249:189,3,70,6|0|0|0,1:2|1:0|1:0|1:0,3:0:0:0:
173,141,109707,6,0,P|179:189|220:229,3,70,14|0|0|0,3:2|1:0|1:0|1:0,3:0:0:0:
151,286,109980,6,0,P|199:295|249:268,3,70,6|0|0|0,1:2|1:0|1:0|1:0,3:0:0:0:
41,284,110252,5,6,1:2:0:0:
53,233,110320,1,0,1:0:0:0:
66,182,110389,1,0,1:0:0:0:
79,131,110457,1,0,1:0:0:0:
92,80,110525,5,6,1:2:0:0:
96,96,110593,1,0,1:0:0:0:
100,113,110661,1,0,1:0:0:0:
105,130,110730,1,0,1:0:0:0:
109,147,110798,2,0,L|177:164,3,70,14|0|0|0,3:2|1:0|1:0|1:0,3:0:0:0:
126,263,111070,5,6,1:2:0:0:
180,287,111139,1,0,1:0:0:0:
238,275,111207,1,0,1:0:0:0:
280,233,111275,1,0,1:0:0:0:
290,175,111343,1,4,1:2:0:0:
304,118,111411,1,0,1:0:0:0:
352,82,111480,1,0,1:0:0:0:
410,86,111548,1,0,1:0:0:0:
453,127,111616,5,6,1:2:0:0:
451,144,111684,1,0,1:0:0:0:
444,160,111752,1,0,1:0:0:0:
431,172,111820,1,0,1:0:0:0:
415,179,111889,2,0,P|390:185|348:177,3,60,12|0|0|0,3:2|1:0|1:0|1:0,3:0:0:0:
315,255,112161,2,0,P|293:242|269:206,3,60,4|0|0|0,1:2|1:0|1:0|1:0,3:0:0:0:
237,336,112434,5,6,1:2:0:0:
171,368,112502,1,0,1:0:0:0:
103,342,112570,1,0,1:0:0:0:
77,274,112639,1,0,1:0:0:0:
113,211,112707,1,4,1:2:0:0:
164,159,112775,1,0,1:0:0:0:
161,87,112843,1,2,1:2:0:0:
103,42,112911,1,0,1:0:0:0:
31,56,112980,2,0,L|44:124,3,60,12|0|0|0,3:2|1:0|1:0|1:0,3:0:0:0:
127,191,113252,5,6,1:2:0:0:
127,191,113320,1,0,1:0:0:0:
127,191,113389,2,0,L|141:119,1,60,0|0,1:0|1:0,3:0:0:0:
396,75,113525,5,6,1:2:0:0:
263,288,113661,1,12,3:2:0:0:
206,39,113798,1,12,3:2:0:0:
403,264,113934,1,0,1:0:0:0:
401,273,114002,1,0,1:0:0:0:
399,283,114070,1,2,1:2:0:0:
398,293,114139,1,0,3:0:0:0:
396,303,114207,6,0,B|339:316|339:316|331:312|331:312|272:323,1,120,12|0,3:2|3:0,3:0:0:0:
61,201,114480,2,0,B|118:214|118:214|126:210|126:210|185:221,1,120,4|2,1:2|3:2,3:0:0:0:
361,70,114752,5,8,3:2:0:0:
180,319,114889,1,8,3:2:0:0:
180,11,115025,1,8,3:2:0:0:
360,260,115161,1,10,3:2:0:0:
67,164,115298,1,8,3:2:0:0:
361,70,115434,5,8,3:0:0:0:
227,163,115570,1,4,3:0:0:0:
180,11,115707,1,6,1:2:0:0:
419,98,120070,6,0,B|369:106|369:106|368:102|368:102|369:106|369:106|290:118,1,100,2|8,1:2|3:0,3:0:0:0:
153,166,120343,1,10,3:0:0:0:
245,49,120480,1,0,1:0:0:0:
245,49,120548,1,0,1:0:0:0:
245,49,120616,2,0,B|235:130|235:130|246:145|246:145|233:254,1,200,10|12,3:2|3:0,3:0:0:0:
150,170,121025,1,8,3:0:0:0:
177,312,121161,6,0,B|222:340|222:340|289:320,1,100,2|8,1:2|3:0,3:0:0:0:
448,328,121434,1,12,3:0:0:0:
377,254,121570,1,0,1:0:0:0:
377,254,121639,1,0,1:0:0:0:
377,254,121707,2,0,B|369:294|369:294|360:304|360:304|363:322|363:322|352:381,1,100,10|0,3:2|3:0,3:0:0:0:
455,202,121980,2,0,P|417:167|336:176,1,100,2|0,1:3|3:0,3:0:0:0:
305,54,122231,5,6,1:2:0:0:
255,53,122299,1,0,1:0:0:0:
217,84,122367,1,0,1:0:0:0:
206,131,122435,1,0,1:0:0:0:
227,176,122503,1,4,1:2:0:0:
255,216,122571,1,0,1:0:0:0:
251,265,122640,1,0,1:0:0:0:
218,300,122708,1,0,1:0:0:0:
169,307,122776,5,6,1:2:0:0:
165,282,122844,1,0,1:0:0:0:
161,257,122912,1,0,1:0:0:0:
157,232,122981,1,0,1:0:0:0:
154,208,123049,5,6,1:2:0:0:
159,196,123117,1,0,1:0:0:0:
165,185,123185,1,0,1:0:0:0:
171,174,123253,1,0,1:0:0:0:
177,163,123321,5,14,3:2:0:0:
456,278,123458,1,0,1:0:0:0:
151,342,123594,1,0,1:0:0:0:
472,121,123731,5,14,3:2:0:0:
311,356,123867,1,0,1:0:0:0:
296,69,124003,1,0,1:0:0:0:
48,316,124140,5,14,3:2:0:0:
362,208,124276,1,0,3:0:0:0:
142,54,124412,6,0,B|75:76|75:76|64:135|64:135|59:139|59:139|43:237,1,220,4|2,1:2|3:2,3:0:0:0:
349,151,124821,1,0,1:0:0:0:
255,109,124958,2,0,B|202:121|202:121|199:128|199:128|127:148,1,110,12|0,3:2|3:0,3:0:0:0:
349,151,125231,2,0,B|363:97|363:97|332:31,1,110,2|0,3:2|1:0,3:0:0:0:
336,304,125503,6,0,B|310:246|310:246|356:255|356:255|386:253|386:253|409:268|409:268|483:284,1,220,6|2,3:2|1:2,3:0:0:0:
451,176,125912,1,0,3:0:0:0:
236,182,126049,2,0,P|212:234|222:287,1,110,14|0,3:2|1:0,3:0:0:0:
125,329,126321,1,2,3:2:0:0:
310,246,126458,1,8,3:2:0:0:
95,136,126594,6,0,B|106:186|106:186|103:186|103:186|106:186|106:186|116:234|116:234|107:251|107:251|114:284|114:284|118:284|118:284|114:284|114:284|132:355,1,220,4|2,1:2|3:2,3:0:0:0:
168,90,127003,1,0,1:0:0:0:
168,90,127071,1,0,1:0:0:0:
168,90,127140,2,0,P|119:47|52:56,1,110,12|0,3:2|3:0,3:0:0:0:
203,176,127412,1,2,1:2:0:0:
344,79,127549,1,0,1:0:0:0:
406,147,127685,6,0,B|357:190|300:161|300:161|239:131|186:192,1,220,4|2,3:2|3:2,3:0:0:0:
344,79,128094,1,0,1:0:0:0:
265,248,128231,2,0,B|270:301|270:301|267:306|267:306|274:373,1,110,12|0,3:2|3:0,3:0:0:0:
420,384,128503,2,0,B|372:373|372:373|367:319|367:319|362:316|362:316|355:239,1,165,0|0,1:0|3:0,3:0:0:0:
356,247,128776,6,0,B|318:217|318:217|269:233|269:233|259:231|259:231|252:239|252:239|204:256|204:256|145:213,1,220,4|0,1:2|3:0,3:0:0:0:
204,53,129185,1,0,1:0:0:0:
204,53,129253,1,0,1:0:0:0:
204,53,129321,2,0,B|229:88|229:88|209:173,1,110,12|0,3:2|3:0,3:0:0:0:
124,108,129594,1,2,1:2:0:0:
298,200,129731,1,0,1:0:0:0:
294,12,129867,1,6,3:2:0:0:
124,108,130003,6,0,B|110:186|110:186|134:217|134:217|111:328,1,220,0|0,1:0|1:0,3:0:0:0:
121,325,130344,1,0,1:0:0:0:
128,333,130412,2,0,B|181:327|181:327|187:330|187:330|253:323,1,110,14|0,3:2|3:0,3:0:0:0:
390,193,130685,2,0,B|441:174|441:174|412:305,1,165,2|0,1:2|3:0,3:0:0:0:
408,291,130958,6,0,B|348:317|309:272|309:272|272:224|209:240,1,220,4|2,1:2|3:2,3:0:0:0:
39,275,131367,1,0,1:0:0:0:
39,275,131435,1,0,1:0:0:0:
39,275,131503,1,12,3:2:0:0:
236,324,131640,1,0,1:0:0:0:
105,168,131776,1,2,1:2:0:0:
119,370,131912,1,0,1:0:0:0:
227,197,132049,1,4,3:2:0:0:
42,82,132185,6,0,B|-6:130|-6:130|19:198|19:198|17:205|17:205|43:289,1,220,2|0,1:2|1:0,3:0:0:0:
38,274,132526,1,0,1:0:0:0:
38,274,132594,1,12,3:2:0:0:
313,179,132731,2,0,B|214:163|214:163|194:170|194:170|47:144,1,220,0|0,1:0|1:0,3:0:0:0:
331,92,133140,6,0,B|390:107|400:166|400:166|406:244|492:247,1,220,4|0,1:2|3:0,3:0:0:0:
489,161,133549,1,0,3:0:0:0:
313,179,133685,2,0,B|244:189|244:189|242:193|242:193|147:206,1,165,12|0,3:2|3:0,3:0:0:0:
145,216,133958,2,0,B|129:272|129:272|182:338,1,110,2|0,3:2|1:0,3:0:0:0:
386,245,134231,6,0,B|407:158|407:158|357:91,1,165,6|0,3:2|3:0,3:0:0:0:
352,87,134503,2,0,B|295:81|295:81|292:77|292:77|223:69,1,110,2|0,1:2|3:0,3:0:0:0:
19,178,134776,1,14,3:2:0:0:
153,23,134912,1,0,1:0:0:0:
222,211,135049,1,2,3:2:0:0:
19,178,135185,1,8,3:2:0:0:
89,118,135321,6,0,B|120:172|120:172|78:272|78:272|116:335,1,220,4|2,1:2|3:2,3:0:0:0:
286,253,135731,1,0,1:0:0:0:
286,253,135799,1,0,1:0:0:0:
286,253,135867,2,0,B|247:257|247:257|227:252|227:252|206:261|206:261|160:266,1,110,12|0,3:2|3:0,3:0:0:0:
234,344,136140,1,2,1:2:0:0:
312,162,136276,6,0,B|373:186|373:186|380:249|380:249|387:257|387:257|396:347,1,220,0|2,1:0|1:2,3:0:0:0:
473,206,136685,2,0,B|483:132|483:132|476:128|476:128|486:41,1,165,2|0,1:2|3:0,3:0:0:0:
487,31,136958,2,0,B|427:21|427:21|347:53,1,110,12|0,3:2|1:0,3:0:0:0:
173,90,137231,1,0,3:0:0:0:
332,220,137367,1,8,3:2:0:0:
278,10,137503,6,0,B|297:98|297:98|313:112|313:112|334:234,1,220,4|0,1:2|3:0,3:0:0:0:
221,364,137912,1,0,1:0:0:0:
221,364,137981,1,0,1:0:0:0:
221,364,138049,2,0,L|239:255,1,110,14|0,3:2|3:0,3:0:0:0:
135,93,138321,2,0,L|153:201,1,110,2|0,3:2|1:0,3:0:0:0:
357,176,138594,6,0,B|300:166|300:166|293:169|293:169|230:160,1,110,6|0,3:2|1:0,3:0:0:0:
25,305,138867,2,0,B|82:295|82:295|89:298|89:298|152:289,1,110,2|0,1:2|3:0,3:0:0:0:
441,343,139140,2,0,B|362:328|362:328|348:333|348:333|249:317,1,165,14|0,3:2|3:0,3:0:0:0:
270,330,139412,6,0,B|287:254|287:254|281:223|281:223|297:204|297:204|323:81,1,220,2|4,3:2|1:2,3:0:0:0:
324,113,139753,1,0,1:0:0:0:
333,104,139821,2,0,L|419:92,1,55,0|0,1:0|1:0,3:0:0:0:
476,213,139958,1,2,1:2:0:0:
476,213,140231,5,12,1:2:0:0:
448,215,140299,1,0,1:0:0:0:
421,218,140367,1,0,1:0:0:0:
393,221,140435,1,0,1:0:0:0:
377,243,140503,5,2,1:2:0:0:
363,241,140571,1,0,1:0:0:0:
349,239,140640,1,0,1:0:0:0:
336,237,140708,1,0,1:0:0:0:
322,236,140776,1,4,1:2:0:0:
169,60,141049,5,2,1:2:0:0:
183,62,141117,1,0,1:0:0:0:
197,64,141185,1,0,1:0:0:0:
210,66,141253,1,0,1:0:0:0:
224,67,141321,1,12,3:2:0:0:
377,243,141594,5,2,1:2:0:0:
363,241,141662,1,0,1:0:0:0:
349,239,141731,1,0,1:0:0:0:
336,237,141799,1,0,1:0:0:0:
309,230,141867,5,4,1:2:0:0:
311,258,141935,1,0,1:0:0:0:
314,284,142003,1,0,1:0:0:0:
317,313,142071,1,0,1:0:0:0:
320,341,142140,1,0,1:0:0:0:
114,206,142412,5,14,1:2:0:0:
117,178,142481,1,0,1:0:0:0:
120,149,142549,1,0,1:0:0:0:
123,123,142617,1,0,1:0:0:0:
146,99,142685,5,2,1:2:0:0:
144,85,142753,1,0,1:0:0:0:
142,71,142821,1,0,1:0:0:0:
140,58,142890,1,0,1:0:0:0:
139,44,142958,1,6,1:2:0:0:
331,200,143231,5,2,1:2:0:0:
333,214,143299,1,0,1:0:0:0:
335,228,143367,1,0,1:0:0:0:
337,241,143435,1,0,1:0:0:0:
338,255,143503,1,14,3:2:0:0:
146,99,143776,5,0,1:0:0:0:
144,85,143844,1,0,1:0:0:0:
142,71,143912,1,0,1:0:0:0:
140,58,143981,1,0,1:0:0:0:
139,44,144049,6,0,B|184:18|233:48|233:48|281:77|336:47,1,200,6|0,1:2|3:0,3:0:0:0:
329,50,144458,1,0,1:0:0:0:
448,139,144594,6,0,B|393:118|355:158|355:158|376:234|451:217,1,200,10|2,3:2|3:2,3:0:0:0:
422,221,145003,1,8,3:0:0:0:
293,360,145140,6,0,B|277:303|277:303|355:314|355:314|359:312|359:312|420:319,1,200,2|2,1:3|3:2,3:0:0:0:
261,220,145549,1,0,1:0:0:0:
261,220,145617,1,0,1:0:0:0:
261,220,145685,2,0,P|211:244|193:293,1,100,10|0,3:2|3:0,3:0:0:0:
92,239,145958,2,0,B|103:284|103:284|101:290|101:290|117:349,1,100,0|8,1:0|3:2,3:0:0:0:
29,176,146231,6,0,B|80:146|80:146|160:170|160:170|226:126,1,200,2|0,1:2|3:0,3:0:0:0:
207,138,146640,1,0,1:0:0:0:
382,62,146776,1,10,3:2:0:0:
301,12,146912,2,0,B|287:93|287:93|308:120|308:120|287:225,1,200,0|0,1:0|1:0,3:0:0:0:
283,212,147253,1,0,1:0:0:0:
274,222,147321,6,0,B|206:232|206:232|198:240|198:240|124:250,1,150,2|0,1:3|3:0,3:0:0:0:
120,239,147594,2,0,B|92:309|92:309|141:391,1,150,2|0,1:3|3:0,3:0:0:0:
143,378,147867,1,6,3:2:0:0:
143,378,148412,5,6,1:2:0:0:
346,184,148549,1,2,1:2:0:0:
68,220,148685,1,6,1:3:0:0:
315,355,148821,1,2,1:2:0:0:
199,103,148958,6,0,B|193:132|193:132|190:133|190:133|193:132|193:132|185:171,1,50,14|0,3:2|3:0,3:0:0:0:
215,297,149094,2,0,B|236:277|236:277|239:278|239:278|236:277|236:277|266:250,1,50,2|0,1:2|3:0,3:0:0:0:
316,130,149231,2,0,B|286:133|286:133|284:130|284:130|286:133|286:133|247:137,1,50,6|0,3:0|3:0,3:0:0:0:
136,205,149367,2,0,B|161:219|161:219|161:222|161:222|161:219|161:219|196:239,1,50,2|0,1:2|3:0,3:0:0:0:
326,249,149503,5,6,1:2:0:0:
196,38,149640,1,2,1:2:0:0:
425,132,149776,1,6,3:0:0:0:
184,190,149912,1,2,1:2:0:0:
344,1,150049,6,0,P|360:32|336:35,1,50,14|0,3:2|3:0,3:0:0:0:
331,179,150185,2,0,P|299:163|317:146,1,50,2|0,1:2|3:0,3:0:0:0:
241,29,150321,2,0,P|275:23|270:47,1,50,10|8,3:0|3:0,3:0:0:0:
402,93,150458,2,0,P|377:117|367:95,1,50,6|4,3:0|3:0,3:0:0:0:
228,136,150594,5,6,1:2:0:0:
438,245,150731,1,2,1:2:0:0:
204,280,150867,1,6,3:0:0:0:
373,114,151003,1,2,1:2:0:0:
333,348,151140,6,0,B|314:328|314:328|317:297,1,50,14|0,3:2|3:0,3:0:0:0:
293,158,151276,2,0,B|320:163|320:163|335:189,1,50,2|0,1:2|3:0,3:0:0:0:
437,288,151412,2,0,B|412:299|412:299|383:287,1,50,6|0,3:0|3:0,3:0:0:0:
243,267,151549,2,0,B|256:242|256:242|286:236,1,50,2|0,1:2|3:0,3:0:0:0:
412,170,151685,6,0,B|418:135|418:135|416:121|416:121|425:112|425:112|440:43,1,100,6|2,1:2|1:2,3:0:0:0:
243,267,151958,2,0,B|249:301|249:301|247:316|247:316|256:325|256:325|271:394,1,100,6|2,3:0|1:2,3:0:0:0:
159,229,152231,5,12,3:2:0:0:
342,289,152367,1,0,1:0:0:0:
159,229,152503,2,0,P|206:181|276:185,1,100,6|0,3:0|1:0,3:0:0:0:
155,49,152776,5,6,1:2:0:0:
243,267,152912,1,2,1:2:0:0:
155,49,153049,1,6,3:0:0:0:
243,267,153185,1,2,1:2:0:0:
234,75,153321,6,0,B|248:55|248:55|250:57|250:57|271:27,1,50,14|0,3:2|3:0,3:0:0:0:
112,121,153458,2,0,B|88:116|88:116|88:118|88:118|52:110,1,50,2|0,1:2|3:0,3:0:0:0:
197,151,153594,1,10,3:0:0:0:
197,151,153662,1,8,3:0:0:0:
197,151,153731,2,0,L|221:211,1,50,6|4,3:0|3:0,3:0:0:0:
436,305,153867,5,6,1:2:0:0:
141,273,154003,1,2,1:2:0:0:
436,305,154140,1,6,3:0:0:0:
141,273,154276,1,2,1:2:0:0:
319,367,154412,6,0,B|337:348|337:348|342:347|342:347|376:307,1,50,14|0,3:2|3:0,3:0:0:0:
365,255,154549,2,0,B|346:236|346:236|345:231|345:231|305:197,1,50,2|0,1:2|3:0,3:0:0:0:
254,211,154685,2,0,B|235:229|235:229|230:230|230:230|196:270,1,50,6|0,3:0|3:0,3:0:0:0:
208,323,154821,2,0,B|226:341|226:341|227:346|227:346|267:380,1,50,2|0,1:2|3:0,3:0:0:0:
381,47,154958,5,6,1:2:0:0:
290,292,155094,1,2,1:2:0:0:
381,47,155231,1,6,3:0:0:0:
290,292,155367,1,2,1:2:0:0:
481,145,155503,5,10,3:2:0:0:
470,193,155571,1,8,3:0:0:0:
436,227,155640,1,2,1:2:0:0:
388,235,155708,1,0,1:0:0:0:
342,215,155776,1,6,3:0:0:0:
297,195,155844,1,8,3:0:0:0:
248,204,155912,1,2,1:2:0:0:
213,238,155981,1,0,1:0:0:0:
204,286,156049,5,6,1:2:0:0:
39,70,156185,1,8,3:2:0:0:
299,147,156321,1,8,3:2:0:0:
42,237,156458,1,10,3:2:0:0:
196,13,156594,5,4,3:0:0:0:
197,25,156662,1,4,3:0:0:0:
199,37,156731,1,0,1:0:0:0:
201,50,156799,1,0,1:0:0:0:
203,62,156867,2,0,B|251:56|251:56|256:59|256:59|336:51,1,100,14|0,3:2|3:0,3:0:0:0:
435,108,157140,5,6,1:2:0:0:
479,139,157208,1,0,1:0:0:0:
500,189,157276,1,2,1:2:0:0:
492,243,157344,1,0,1:0:0:0:
458,285,157412,1,2,1:2:0:0:
407,304,157481,1,0,1:0:0:0:
354,294,157549,1,2,1:2:0:0:
314,258,157617,1,0,1:0:0:0:
298,206,157685,6,0,B|347:165|347:165|356:207|356:207|371:225|371:225|368:248|368:248|386:322,1,210,6|0,1:2|3:0,3:0:0:0:
250,331,158231,5,14,1:2:0:0:
200,354,158299,1,0,1:0:0:0:
146,353,158367,1,2,1:2:0:0:
97,329,158435,1,0,1:0:0:0:
63,286,158503,1,2,1:2:0:0:
52,232,158571,1,0,1:0:0:0:
65,179,158640,1,2,1:2:0:0:
99,137,158708,1,0,1:0:0:0:
149,114,158776,6,0,B|185:146|185:146|225:133|225:133|243:120|243:120|265:121|265:121|303:109|303:109|350:140,1,210,6|0,1:2|3:0,3:0:0:0:
422,267,159321,5,6,1:2:0:0:
381,231,159390,1,0,1:0:0:0:
327,229,159458,1,2,1:2:0:0:
283,260,159526,1,0,1:0:0:0:
268,312,159594,1,2,1:2:0:0:
227,348,159662,1,0,1:0:0:0:
173,350,159731,1,0,1:0:0:0:
129,319,159799,1,0,1:0:0:0:
114,267,159867,6,0,B|162:240|209:279|209:279|211:276|211:276|255:321|319:291,1,210,6|0,1:2|3:0,3:0:0:0:
481,329,160412,5,14,1:2:0:0:
427,318,160481,1,0,1:0:0:0:
393,276,160549,1,0,1:0:0:0:
395,222,160617,1,0,1:0:0:0:
431,182,160685,1,0,1:0:0:0:
467,142,160753,1,0,1:0:0:0:
469,88,160821,1,2,1:2:0:0:
436,45,160890,1,0,1:0:0:0:
382,35,160958,6,0,B|378:65|378:65|375:67|375:67|367:115,1,55,4|0,1:2|3:0,3:0:0:0:
299,190,161094,2,0,B|303:169|303:169|306:167|306:167|310:137,1,55,0|0,3:0|3:0,3:0:0:0:
303,0,161231,6,0,B|298:36|298:36|294:39|294:39|285:96,1,55,2|0,3:2|3:0,3:0:0:0:
211,187,161367,2,0,B|215:162|215:162|218:159|218:159|223:123,1,55,12|0,3:2|3:0,3:0:0:0:
112,49,161503,5,6,1:2:0:0:
59,65,161571,1,0,1:0:0:0:
20,102,161640,1,2,1:2:0:0:
0,153,161708,1,0,1:0:0:0:
4,207,161776,1,2,1:2:0:0:
32,255,161844,1,0,1:0:0:0:
77,285,161912,1,2,1:2:0:0:
131,293,161981,1,0,1:0:0:0:
183,277,162049,2,0,B|163:185|163:185|149:179|149:179|141:140|141:140|136:141|136:141|141:140|141:140|127:65,1,210,6|0,1:2|3:0,3:0:0:0:
236,18,162594,5,14,1:2:0:0:
289,13,162662,1,0,1:0:0:0:
334,43,162731,1,2,1:2:0:0:
350,95,162799,1,0,1:0:0:0:
330,145,162867,1,2,1:2:0:0:
310,195,162935,1,0,1:0:0:0:
326,246,163003,1,2,1:2:0:0:
371,276,163071,1,0,1:0:0:0:
424,272,163140,6,0,B|440:218|440:218|364:225|364:225|357:221|357:221|269:229,1,210,6|0,1:2|3:0,3:0:0:0:
74,341,163685,6,0,B|105:348|105:348|107:352|107:352|147:360,1,55,6|0,1:2|3:0,3:0:0:0:
205,256,163821,2,0,B|174:263|174:263|172:267|172:267|132:275,1,55,10|0,3:2|3:0,3:0:0:0:
67,254,163958,5,10,3:2:0:0:
50,197,164026,1,8,3:2:0:0:
66,140,164094,1,0,1:0:0:0:
110,100,164162,1,0,1:0:0:0:
168,90,164231,1,2,1:2:0:0:
223,113,164299,1,8,3:0:0:0:
256,162,164367,1,0,1:0:0:0:
285,213,164435,1,0,1:0:0:0:
339,238,164503,1,6,3:0:0:0:
397,229,164571,1,8,3:0:0:0:
440,189,164640,1,0,1:0:0:0:
454,131,164708,1,0,1:0:0:0:
432,76,164776,5,10,3:2:0:0:
363,78,164844,1,8,3:2:0:0:
306,117,164912,1,8,3:2:0:0:
278,180,164981,1,8,3:2:0:0:
288,248,165049,1,0,1:0:0:0:
333,301,165117,1,0,1:0:0:0:
399,321,165185,5,10,3:2:0:0:
409,253,165253,1,8,3:2:0:0:
384,188,165321,1,8,3:2:0:0:
331,145,165390,1,8,3:2:0:0:
262,133,165458,1,0,1:0:0:0:
197,157,165526,1,0,1:0:0:0:
153,210,165594,6,0,B|218:227|218:227|212:165|212:165|216:157|216:157|208:79,1,210,14|0,3:2|3:0,3:0:0:0:
207,74,165867,5,10,3:2:0:0:
325,384,166003,1,8,3:2:0:0:
435,145,166140,1,10,3:2:0:0:
94,300,166276,1,8,3:2:0:0:
64,336,169140,5,10,3:2:0:0:
83,270,169208,1,4,3:0:0:0:
140,230,169276,1,0,1:0:0:0:
208,233,169344,1,0,1:0:0:0:
260,278,169412,1,8,3:2:0:0:
317,316,169481,1,8,3:0:0:0:
385,313,169549,1,2,1:2:0:0:
439,270,169617,1,0,1:0:0:0:
458,204,169685,1,8,3:2:0:0:
433,140,169753,1,8,3:0:0:0:
375,102,169821,1,0,1:0:0:0:
306,106,169890,1,0,1:0:0:0:
253,150,169958,1,10,3:2:0:0:
205,199,170026,1,8,3:0:0:0:
136,206,170094,1,0,1:0:0:0:
79,168,170162,1,0,1:0:0:0:
60,102,170231,5,14,3:2:0:0:
364,161,170367,1,0,1:0:0:0:
171,321,170503,1,10,3:2:0:0:
226,44,170640,1,0,1:0:0:0:
454,214,170776,2,0,B|434:254|434:254|388:259|388:259|384:262|384:262|319:268,1,150,10|0,3:2|3:0,3:0:0:0:
320,270,171049,2,0,B|269:265|269:265|264:269|264:269|175:261,1,100,10|0,3:2|1:0,3:0:0:0:
0,104,171321,6,0,B|84:92|84:92|104:101|104:101|219:86,1,200,10|10,3:2|3:2,3:0:0:0:
462,192,171731,1,0,1:0:0:0:
220,247,171867,1,10,3:2:0:0:
308,11,172003,1,0,1:0:0:0:
491,274,172140,6,0,B|434:296|394:250|394:250|353:205|283:234,1,200,10|10,3:2|3:2,3:0:0:0:
33,253,172549,1,0,1:0:0:0:
332,311,172685,1,10,3:2:0:0:
233,24,172821,1,0,1:0:0:0:
170,339,172958,5,10,3:2:0:0:
82,86,173094,1,0,1:0:0:0:
347,138,173231,2,0,B|357:187|357:187|353:194|353:194|365:262,1,100,10|0,3:2|1:0,3:0:0:0:
261,71,173503,5,6,1:2:0:0:
460,205,173640,1,8,3:2:0:0:
262,300,173776,1,8,3:2:0:0:
249,297,173844,1,8,3:2:0:0:
237,294,173912,1,10,3:2:0:0:
225,292,173981,1,8,3:2:0:0:
213,290,174049,5,12,3:2:0:0:
99,113,174185,1,8,3:2:0:0:
279,173,174321,2,0,B|230:183|230:183|223:179|223:179|155:191,1,100,14|8,1:3|3:0,3:0:0:0:
340,65,174594,5,6,1:2:0:0:
393,40,174662,1,0,1:0:0:0:
452,50,174731,1,0,1:0:0:0:
494,91,174799,1,0,1:0:0:0:
507,149,174867,1,6,1:2:0:0:
485,204,174935,1,0,1:0:0:0:
436,237,175003,1,0,1:0:0:0:
377,237,175071,1,0,1:0:0:0:
328,205,175140,1,14,3:2:0:0:
282,166,175208,1,0,1:0:0:0:
224,159,175276,1,0,1:0:0:0:
170,184,175344,1,0,1:0:0:0:
139,234,175412,1,6,1:2:0:0:
139,293,175481,1,0,1:0:0:0:
172,343,175549,1,0,1:0:0:0:
226,367,175617,1,0,1:0:0:0:
285,358,175685,5,6,1:2:0:0:
297,290,175753,1,0,1:0:0:0:
265,229,175821,1,0,1:0:0:0:
203,199,175890,1,0,1:0:0:0:
136,212,175958,1,6,1:2:0:0:
67,208,176026,1,0,1:0:0:0:
15,163,176094,1,0,1:0:0:0:
1,96,176162,1,0,1:0:0:0:
33,35,176231,1,14,3:2:0:0:
95,6,176299,1,0,1:0:0:0:
162,21,176367,1,0,1:0:0:0:
205,75,176435,1,0,1:0:0:0:
206,143,176503,1,6,1:2:0:0:
227,207,176571,1,0,1:0:0:0:
286,242,176640,1,0,1:0:0:0:
353,229,176708,1,0,1:0:0:0:
396,175,176776,5,4,1:2:0:0:
365,107,176844,1,0,1:0:0:0:
303,67,176912,1,0,1:0:0:0:
229,67,176981,1,0,1:0:0:0:
167,107,177049,1,6,1:2:0:0:
136,175,177117,1,0,1:0:0:0:
147,248,177185,1,0,1:0:0:0:
196,303,177253,1,0,1:0:0:0:
268,323,177321,5,14,3:2:0:0:
306,260,177390,1,0,1:0:0:0:
307,186,177458,1,0,1:0:0:0:
269,123,177526,1,0,1:0:0:0:
203,89,177594,1,6,1:2:0:0:
129,95,177662,1,0,1:0:0:0:
69,138,177731,1,0,1:0:0:0:
40,206,177799,1,0,1:0:0:0:
51,279,177867,5,6,1:2:0:0:
61,287,177935,1,0,1:0:0:0:
70,294,178003,2,0,B|102:292|102:292|104:294|104:294|144:292,1,60,0|0,1:0|1:0,3:0:0:0:
231,315,178140,5,6,1:2:0:0:
232,303,178208,1,0,1:0:0:0:
234,292,178276,2,0,B|216:265|216:265|217:262|217:262|195:228,1,60,0|0,1:0|1:0,3:0:0:0:
172,142,178412,5,14,3:2:0:0:
161,146,178481,1,0,1:0:0:0:
150,150,178549,2,0,B|135:178|135:178|133:179|133:179|114:215,1,60,0|0,1:0|1:0,3:0:0:0:
37,113,178685,5,6,1:2:0:0:
75,50,178753,1,0,1:0:0:0:
143,22,178821,1,0,1:0:0:0:
215,39,178890,1,0,1:0:0:0:
262,96,178958,1,4,1:2:0:0:
268,169,179026,1,0,1:0:0:0:
282,241,179094,1,0,1:0:0:0:
340,287,179162,1,0,1:0:0:0:
413,285,179231,1,6,1:2:0:0:
469,238,179299,1,0,1:0:0:0:
481,165,179367,1,0,1:0:0:0:
444,101,179435,1,0,1:0:0:0:
375,76,179503,5,12,3:2:0:0:
371,90,179571,1,0,1:0:0:0:
368,105,179640,1,0,1:0:0:0:
365,119,179708,1,0,1:0:0:0:
361,134,179776,2,0,L|380:202,3,60,4|0|0|0,1:2|1:0|1:0|1:0,3:0:0:0:
453,268,180049,5,6,1:2:0:0:
418,332,180117,1,0,1:0:0:0:
348,348,180185,1,0,1:0:0:0:
289,305,180253,1,0,1:0:0:0:
283,233,180321,1,4,1:2:0:0:
246,169,180390,1,0,1:0:0:0:
176,145,180458,1,2,1:2:0:0:
108,173,180526,1,0,1:0:0:0:
76,239,180594,1,12,3:2:0:0:
95,310,180662,1,0,1:0:0:0:
156,351,180731,1,0,1:0:0:0:
229,342,180799,1,0,1:0:0:0:
277,287,180867,5,6,1:2:0:0:
272,278,180935,1,0,1:0:0:0:
266,268,181003,2,0,L|189:255,1,60,0|0,1:0|1:0,3:0:0:0:
56,102,181140,5,6,1:2:0:0:
366,230,181276,1,12,3:2:0:0:
153,334,181412,2,0,B|105:306|105:306|111:256|111:256|106:251|106:251|116:160,1,180,12|0,3:2|1:0,3:0:0:0:
116,172,181685,5,2,1:2:0:0:
268,70,181821,2,0,B|224:121|152:90|152:90|81:62|26:136,1,240,12|4,3:2|1:2,3:0:0:0:
199,14,182231,5,2,3:2:0:0:
298,279,182367,1,8,3:2:0:0:
373,6,182503,1,8,3:2:0:0:
151,182,182640,1,0,1:0:0:0:
434,169,182776,1,10,3:2:0:0:
284,80,182912,5,0,1:0:0:0:
284,80,182981,1,0,1:0:0:0:
284,80,183049,2,0,B|294:130|294:130|288:136|288:136|300:207,1,105,12|0,3:0|3:0,3:0:0:0:
298,194,183321,5,6,1:2:0:0:
307,184,183390,1,2,1:2:0:0:
316,174,183458,2,0,L|377:185,1,50,2|2,1:2|1:2,3:0:0:0:
470,258,183594,2,0,B|426:266|426:266|419:264|419:264|413:269|413:269|346:281,1,100,2|0,1:2|3:0,3:0:0:0:
264,358,183867,5,6,1:2:0:0:
270,333,183935,1,2,1:2:0:0:
276,309,184003,1,2,1:2:0:0:
282,285,184071,1,2,1:2:0:0:
288,261,184140,5,2,1:2:0:0:
275,263,184208,1,2,1:2:0:0:
263,266,184276,1,2,1:2:0:0:
251,269,184344,1,2,1:2:0:0:
239,272,184412,6,0,B|186:247|146:287|146:287|106:330|37:300,1,200,14|2,3:2|1:2,3:0:0:0:
47,297,184753,1,2,1:2:0:0:
38,287,184821,2,0,B|40:262|40:262|42:262|42:262|46:220,1,50,2|2,1:2|1:2,3:0:0:0:
101,98,184958,2,0,B|108:129|108:129|118:147|118:147|117:170|117:170|126:220,1,100,6|0,1:2|3:0,3:0:0:0:
88,9,185231,5,2,1:2:0:0:
125,8,185299,1,2,1:2:0:0:
158,23,185367,1,2,1:2:0:0:
182,52,185435,1,2,1:2:0:0:
191,88,185503,1,6,1:2:0:0:
199,124,185571,1,2,1:2:0:0:
223,152,185640,1,2,1:2:0:0:
256,168,185708,1,2,1:2:0:0:
294,167,185776,2,0,B|324:128|324:128|306:55,1,100,2|0,1:2|3:0,3:0:0:0:
439,33,186049,5,6,1:2:0:0:
432,69,186117,1,2,1:2:0:0:
425,106,186185,1,2,1:2:0:0:
419,143,186253,1,2,1:2:0:0:
412,180,186321,5,2,1:2:0:0:
422,172,186390,1,2,1:2:0:0:
432,165,186458,1,2,1:2:0:0:
442,158,186526,1,2,1:2:0:0:
452,150,186594,6,0,B|482:202|482:202|433:276|433:276|461:337,1,200,14|0,3:2|1:0,3:0:0:0:
460,335,186935,1,0,1:0:0:0:
465,347,187003,2,0,B|436:357|436:357|436:355|436:355|391:369,1,50,2|0,1:2|1:0,3:0:0:0:
359,218,187140,2,0,B|336:259|336:259|350:310,1,100,4|0,1:2|3:0,3:0:0:0:
231,342,187412,2,0,B|259:352|259:352|260:350|260:350|305:364,3,50,2|0|0|0,1:2|1:0|1:0|1:0,3:0:0:0:
222,332,187685,5,6,1:2:0:0:
213,322,187753,1,2,1:2:0:0:
204,312,187821,2,0,L|143:323,1,50,2|2,1:2|1:2,3:0:0:0:
60,254,187958,2,0,B|102:246|102:246|107:241|107:241|155:231,1,100,2|0,1:2|3:0,3:0:0:0:
269,132,188231,5,6,1:2:0:0:
263,156,188299,1,2,1:2:0:0:
257,180,188367,1,2,1:2:0:0:
251,205,188435,1,2,1:2:0:0:
246,229,188503,5,2,1:2:0:0:
258,231,188571,1,2,1:2:0:0:
270,233,188640,1,2,1:2:0:0:
282,236,188708,1,2,1:2:0:0:
295,238,188776,6,0,B|351:223|351:223|360:159|360:159|366:157|366:157|380:71,1,200,14|2,3:2|1:2,3:0:0:0:
371,77,189117,1,2,1:2:0:0:
364,67,189185,2,0,B|339:61|339:61|339:58|339:58|339:61|339:61|294:52,1,50,2|2,1:2|1:2,3:0:0:0:
271,135,189321,1,6,1:2:0:0:
271,135,189458,1,0,3:0:0:0:
231,50,189594,5,2,1:2:0:0:
198,32,189662,1,2,1:2:0:0:
162,38,189731,1,2,1:2:0:0:
136,65,189799,1,2,1:2:0:0:
131,101,189867,1,6,1:2:0:0:
126,137,189935,1,2,1:2:0:0:
100,164,190003,1,2,1:2:0:0:
64,170,190071,1,2,1:2:0:0:
31,152,190140,2,0,B|77:121|77:121|139:135,1,100,2|0,1:2|3:0,3:0:0:0:
175,228,190412,5,6,1:2:0:0:
137,236,190481,1,2,1:2:0:0:
101,245,190549,1,2,1:2:0:0:
64,255,190617,1,2,1:2:0:0:
28,263,190685,5,2,1:2:0:0:
32,274,190753,1,2,1:2:0:0:
37,285,190821,1,2,1:2:0:0:
42,297,190890,1,2,1:2:0:0:
47,308,190958,6,0,B|138:328|138:328|145:320|145:320|256:344,1,200,14|2,3:2|1:2,3:0:0:0:
249,333,191299,1,0,1:0:0:0:
258,325,191367,2,0,B|266:301|266:301|264:297|264:297|271:276,1,50,0|0,1:0|1:0,3:0:0:0:
191,229,191503,1,6,1:2:0:0:
191,229,191640,1,2,3:2:0:0:
278,189,191776,2,0,B|270:165|270:165|272:161|272:161|265:140,3,50,2|0|2|0,1:2|1:0|1:2|1:0,3:0:0:0:
275,132,192049,5,6,1:2:0:0:
285,123,192117,1,2,3:2:0:0:
295,114,192185,2,0,L|284:53,1,50,2|2,1:2|1:2,3:0:0:0:
191,31,192321,2,0,L|202:92,3,50,2|0|0|0,1:2|3:0|3:0|3:0,3:0:0:0:
115,117,192594,5,14,1:2:0:0:
105,126,192662,1,2,1:2:0:0:
95,135,192731,2,0,L|106:196,1,50,2|2,1:2|1:2,3:0:0:0:
199,218,192867,2,0,L|188:157,3,50,2|2|2|2,1:2|1:2|1:2|1:2,3:0:0:0:
184,307,193140,6,0,B|243:313|273:268|273:268|301:212|384:227,1,200,6|2,1:2|1:2,3:0:0:0:
360,236,193481,1,2,1:2:0:0:
366,247,193549,2,0,L|374:313,1,50,2|2,1:2|1:2,3:0:0:0:
460,318,193685,2,0,L|452:252,3,50,14|0|0|0,3:2|3:0|3:0|3:0,3:0:0:0:
432,179,193958,5,2,1:2:0:0:
433,166,194026,1,2,1:2:0:0:
435,154,194094,1,2,1:2:0:0:
436,141,194162,1,2,1:2:0:0:
438,129,194231,5,6,1:2:0:0:
400,133,194299,1,2,1:2:0:0:
363,137,194367,1,2,1:2:0:0:
326,142,194435,1,2,1:2:0:0:
289,146,194503,2,0,L|282:96,3,50,2|0|0|0,1:2|3:0|3:0|3:0,3:0:0:0:
213,30,194776,5,14,1:2:0:0:
176,32,194844,1,2,1:2:0:0:
150,58,194912,1,2,1:2:0:0:
150,95,194981,1,2,1:2:0:0:
174,122,195049,1,2,1:2:0:0:
198,149,195117,1,2,1:2:0:0:
197,186,195185,1,2,1:2:0:0:
171,212,195253,1,2,1:2:0:0:
135,214,195321,6,0,B|99:164|99:164|170:156|170:156|173:151|173:151|256:142,1,200,6|2,1:2|1:2,3:0:0:0:
243,152,195662,1,2,1:2:0:0:
252,159,195731,2,0,L|245:208,1,50,2|2,1:2|1:2,3:0:0:0:
329,246,195867,2,0,L|335:196,3,50,14|0|0|0,3:2|3:0|3:0|3:0,3:0:0:0:
409,285,196140,5,2,1:2:0:0:
396,319,196208,1,2,1:2:0:0:
367,342,196276,1,2,1:2:0:0:
330,346,196344,1,2,1:2:0:0:
296,324,196412,1,6,1:2:0:0:
262,307,196481,1,2,1:2:0:0:
225,311,196549,1,2,1:2:0:0:
196,334,196617,1,2,1:2:0:0:
184,369,196685,6,0,B|146:334|146:334|155:299|155:299|154:286|154:286|161:279|161:279|174:239|174:239|131:196,1,200,2|14,1:2|1:2,3:0:0:0:
129,209,197026,1,2,1:2:0:0:
117,212,197094,2,0,B|88:219|88:219|85:219|85:219|47:232,1,50,2|2,1:2|1:2,3:0:0:0:
0,108,197231,5,2,1:2:0:0:
24,111,197299,1,2,1:2:0:0:
49,114,197367,1,2,1:2:0:0:
74,117,197435,1,2,1:2:0:0:
99,121,197503,6,0,B|161:134|193:87|193:87|231:43|306:61,1,200,14|2,3:2|1:2,3:0:0:0:
289,60,197844,1,2,1:2:0:0:
301,63,197912,2,0,L|316:141,1,50,2|2,1:2|1:2,3:0:0:0:
389,67,198049,2,0,L|374:-11,3,50,14|0|0|0,3:2|3:0|3:0|3:0,3:0:0:0:
387,155,198321,5,2,1:2:0:0:
380,192,198390,1,2,1:2:0:0:
374,229,198458,1,2,1:2:0:0:
368,266,198526,1,2,1:2:0:0:
362,303,198594,6,0,B|457:225|457:225|450:231|450:231|397:225|397:225|376:210|376:210|350:218|350:218|301:214|301:214|313:215|313:215|262:292|262:292|268:283|268:283|202:277|202:277|201:285|201:285|202:277|202:277|140:269|140:269|153:270|153:270|126:174,1,630.000000000001,6|0,1:2|3:0,3:0:0:0:
56,118,199685,6,0,B|79:114|79:114|80:116|80:116|121:110,1,45.0000000000001,10|8,3:2|3:0,3:0:0:0:
224,114,199821,1,4,3:0:0:0:
224,114,199890,1,8,3:0:0:0:
224,114,199958,2,0,B|201:118|201:118|200:116|200:116|159:122,1,45.0000000000001,0|0,1:0|1:0,3:0:0:0:
9,205,200094,6,0,B|32:201|32:201|33:203|33:203|74:197,1,45.0000000000001,8|8,3:2|3:0,3:0:0:0:
267,195,200231,1,4,3:0:0:0:
267,195,200299,1,8,3:0:0:0:
267,195,200367,2,0,B|244:199|244:199|243:197|243:197|202:203,1,45.0000000000001,0|0,1:0|1:0,3:0:0:0:
58,291,200503,5,12,3:2:0:0:
58,291,200776,5,14,3:2:0:0:
88,346,200844,1,0,1:0:0:0:
147,370,200912,1,0,1:0:0:0:
208,350,200981,1,0,1:0:0:0:
242,296,201049,1,14,3:2:0:0:
234,233,201117,1,0,1:0:0:0:
187,190,201185,1,2,1:2:0:0:
152,137,201253,1,0,1:0:0:0:
162,74,201321,1,14,3:2:0:0:
213,36,201390,1,0,1:0:0:0:
276,44,201458,1,2,1:2:0:0:
316,93,201526,1,0,1:0:0:0:
311,156,201594,1,14,1:2:0:0:
310,219,201662,1,0,1:0:0:0:
351,268,201731,1,2,1:2:0:0:
414,278,201799,1,0,1:0:0:0:
468,245,201867,5,14,3:2:0:0:
443,180,201935,1,0,1:0:0:0:
390,135,202003,1,2,1:2:0:0:
322,123,202071,1,0,1:0:0:0:
256,146,202140,1,14,3:2:0:0:
211,198,202208,1,0,1:0:0:0:
197,266,202276,5,2,1:2:0:0:
261,291,202344,1,0,1:0:0:0:
329,278,202412,1,12,3:2:0:0:
381,232,202481,1,0,1:0:0:0:
401,166,202549,1,2,1:2:0:0:
383,99,202617,1,0,1:0:0:0:
333,51,202685,6,0,B|305:55|305:55|300:54|300:54|269:58,1,60,14|0,3:2|1:0,3:0:0:0:
182,158,202821,2,0,B|210:162|210:162|215:161|215:161|246:165,1,60,0|0,1:0|1:0,3:0:0:0:
130,51,202958,5,14,3:2:0:0:
66,60,203026,1,0,1:0:0:0:
20,105,203094,1,0,1:0:0:0:
8,168,203162,1,0,1:0:0:0:
35,226,203231,1,14,3:2:0:0:
90,259,203299,1,0,1:0:0:0:
153,254,203367,1,2,1:2:0:0:
203,213,203435,1,0,1:0:0:0:
220,151,203503,1,14,3:2:0:0:
238,90,203571,1,0,1:0:0:0:
289,52,203640,1,2,1:2:0:0:
353,52,203708,1,0,1:0:0:0:
405,90,203776,2,0,L|413:149,3,60,14|0|2|0,3:2|1:0|1:2|1:0,3:0:0:0:
421,228,204049,5,14,3:2:0:0:
241,1,204185,1,14,3:2:0:0:
132,273,204321,1,2,1:2:0:0:
132,273,204390,1,0,1:0:0:0:
132,273,204458,2,0,B|188:268|188:268|188:271|188:271|254:266,1,120,14|0,3:2|3:0,3:0:0:0:
298,60,204731,5,10,3:2:0:0:
383,277,204867,1,10,3:2:0:0:
166,362,205003,1,10,3:2:0:0:
81,145,205140,6,0,B|131:120|175:162|175:162|213:202|284:178,1,200,6|2,1:2|3:2,3:0:0:0:
258,3,205549,1,2,3:2:0:0:
258,3,205685,2,0,B|248:43|248:43|251:52|251:52|237:108,1,100,6|2,3:2|3:2,3:0:0:0:
321,254,205958,1,2,3:2:0:0:
446,162,206094,1,2,1:2:0:0:
446,162,206162,1,0,1:0:0:0:
446,162,206231,6,0,B|398:189|398:189|317:158|317:158|264:183,1,200,14|2,3:2|3:2,3:0:0:0:
159,317,206640,6,0,B|143:250|143:250|194:262|194:262|207:260|207:260|215:267|215:267|295:288,1,200,2|2,3:2|3:2,3:0:0:0:
391,337,207049,5,2,1:2:0:0:
379,342,207117,1,0,1:0:0:0:
368,347,207185,1,2,1:2:0:0:
356,352,207253,1,0,1:0:0:0:
345,357,207321,6,0,B|371:275|371:275|356:251|356:251|388:146,1,200,6|2,1:2|3:2,3:0:0:0:
448,108,207731,1,2,3:2:0:0:
448,108,207867,2,0,B|406:75|406:75|332:86,1,100,6|2,3:2|3:2,3:0:0:0:
473,198,208140,1,2,3:2:0:0:
288,146,208276,1,2,1:2:0:0:
288,146,208344,1,0,1:0:0:0:
288,146,208412,6,0,B|221:133|221:133|193:117|193:117|159:122|159:122|86:109,1,200,14|2,3:2|3:2,3:0:0:0:
66,345,208821,6,0,B|139:330|139:330|153:276|153:276|159:272|159:272|177:194,1,200,2|2,3:2|3:2,3:0:0:0:
47,200,209231,5,2,1:2:0:0:
51,212,209299,1,0,1:0:0:0:
56,223,209367,1,2,1:2:0:0:
61,235,209435,1,0,1:0:0:0:
66,247,209503,6,0,B|75:220|75:220|81:218|81:218|101:142|101:142|98:136|98:136|108:100,1,150,6|0,1:2|3:0,3:0:0:0:
118,99,209776,2,0,B|168:91|168:91|168:94|168:94|231:82,1,100,2|2,3:2|3:2,3:0:0:0:
242,255,210049,2,0,B|210:215|210:215|212:214|212:214|170:165,1,100,6|2,3:2|3:2,3:0:0:0:
316,69,210321,2,0,B|297:116|297:116|295:114|295:114|274:175,1,100,2|2,3:2|3:2,3:0:0:0:
399,255,210594,6,0,B|349:251|319:300|319:300|285:358|209:337,1,200,14|2,3:2|3:2,3:0:0:0:
57,196,211003,6,0,B|143:219|143:219|144:229|144:229|255:257,1,200,2|2,3:2|3:2,3:0:0:0:
100,383,211412,6,0,B|68:343|68:343|91:278,1,100,2|2,3:2|3:2,3:0:0:0:
301,35,211685,6,0,B|251:-11|251:-11|233:55|233:55|219:70|219:70|224:89|224:89|203:176,1,240,6|10,1:2|3:2,3:0:0:0:
383,204,212094,6,0,B|359:190|341:190|341:190|342:186|342:186|341:190|341:190|313:187|279:209|279:209|257:228|231:236|231:236|231:240|231:240|231:236|231:236|193:244|155:220,1,240,6|2,1:2|1:2,3:0:0:0:
165,237,212435,1,0,1:0:0:0:
155,243,212503,2,0,B|161:297|161:297|156:300|156:300|161:297|161:297|171:378,1,120,14|0,3:2|3:0,3:0:0:0:
108,163,212776,6,0,B|75:158|75:158|71:160|71:160|19:154,1,60,2|0,1:2|3:0,3:0:0:0:
8,253,212912,2,0,B|41:248|41:248|45:250|45:250|97:244,1,60,8|0,3:2|3:0,3:0:0:0:
208,143,213049,5,8,3:2:0:0:
204,136,213117,1,8,3:2:0:0:
201,129,213185,1,2,1:2:0:0:
197,122,213253,1,0,1:0:0:0:
194,116,213321,5,4,3:0:0:0:
240,81,213390,1,4,3:0:0:0:
298,88,213458,1,0,1:0:0:0:
334,135,213526,1,0,1:0:0:0:
327,193,213594,1,10,3:0:0:0:
320,251,213662,1,8,3:0:0:0:
356,298,213731,1,0,1:0:0:0:
414,305,213799,1,0,1:0:0:0:
461,271,213867,1,14,1:3:0:0:
393,306,215776,5,2,1:2:0:0:
393,306,215844,1,0,1:0:0:0:
393,306,215912,2,0,L|334:284,1,60,0|0,1:0|1:0,3:0:0:0:
91,187,216049,1,10,3:2:0:0:
405,105,216185,1,10,3:2:0:0:
199,355,216321,1,10,3:2:0:0:
218,31,216458,1,10,3:2:0:0:
