osu file format v14

[General]
AudioFilename: audio.mp3
AudioLeadIn: 0
PreviewTime: 105989
Countdown: 0
SampleSet: Normal
StackLeniency: 0.7
Mode: 3
LetterboxInBreaks: 0
SpecialStyle: 0
WidescreenStoryboard: 1

[Editor]
Bookmarks: 239,1989,6239,10239,26239,44239,48239,50239,58239,66239,74239,75239,76239,90239,100239,104239,106239,114239,120239,122239,124239,130239,132239,138239,140239,156239,158239,158989,162239,164239,166239,167239,168239,176239,184239,193239
DistanceSpacing: 1
BeatDivisor: 4
GridSize: 4
TimelineZoom: 2.4

[Metadata]
Title:Everything Will Freeze
TitleUnicode:Everything Will Freeze
Artist:UNDEAD CORPORATION
ArtistUnicode:UNDEAD CORPORATION
Creator:wafflesofdoom13
Version:-240°c
Source:
Tags:
BeatmapID:1899837
BeatmapSetID:904419

[Difficulty]
HPDrainRate:7
CircleSize:4
OverallDifficulty:8
ApproachRate:5
SliderMultiplier:1.4
SliderTickRate:1

[Events]
//Background and Video events
0,0,"bg.jpg",0,0
//Break Periods
//Storyboard Layer 0 (Background)
//Storyboard Layer 1 (Fail)
//Storyboard Layer 2 (Pass)
//Storyboard Layer 3 (Foreground)
//Storyboard Sound Samples

[TimingPoints]
239,250,4,1,1,50,1,0
50239,-100,4,1,1,50,0,1
66239,-100,4,1,1,50,0,0
106239,-100,4,1,1,50,0,1
122239,-100,4,1,1,50,0,0
168239,-100,4,1,1,50,0,1
184239,-100,4,1,1,50,0,0

[HitObjects]
448,192,239,5,0,0:0:0:0:
64,192,239,1,0,0:0:0:0:
192,192,239,1,0,0:0:0:0:
320,192,364,1,0,0:0:0:0:
192,192,426,1,0,0:0:0:0:
64,192,489,1,0,0:0:0:0:
448,192,489,1,0,0:0:0:0:
192,192,614,1,0,0:0:0:0:
320,192,676,1,0,0:0:0:0:
448,192,739,1,0,0:0:0:0:
64,192,739,1,0,0:0:0:0:
320,192,801,1,0,0:0:0:0:
192,192,864,1,0,0:0:0:0:
64,192,926,1,0,0:0:0:0:
448,192,989,1,0,0:0:0:0:
320,192,989,1,0,0:0:0:0:
64,192,1051,1,0,0:0:0:0:
192,192,1114,1,0,0:0:0:0:
320,192,1176,1,0,0:0:0:0:
448,192,1239,1,0,0:0:0:0:
64,192,1239,1,0,0:0:0:0:
320,192,1301,1,0,0:0:0:0:
192,192,1364,1,0,0:0:0:0:
64,192,1426,1,0,0:0:0:0:
192,192,1489,1,0,0:0:0:0:
448,192,1489,1,0,0:0:0:0:
320,192,1551,1,0,0:0:0:0:
192,192,1614,1,0,0:0:0:0:
64,192,1676,1,0,0:0:0:0:
320,192,1739,1,0,0:0:0:0:
448,192,1739,1,0,0:0:0:0:
64,192,1801,1,0,0:0:0:0:
192,192,1864,1,0,0:0:0:0:
320,192,1926,1,0,0:0:0:0:
64,192,1989,1,0,0:0:0:0:
448,192,1989,1,0,0:0:0:0:
64,192,2239,1,0,0:0:0:0:
448,192,2239,1,0,0:0:0:0:
192,192,2239,128,0,2364:0:0:0:0:
320,192,2489,128,0,2614:0:0:0:0:
448,192,2739,128,0,2864:0:0:0:0:
320,192,2989,128,0,3114:0:0:0:0:
64,192,3114,1,0,0:0:0:0:
192,192,3176,1,0,0:0:0:0:
448,192,3239,1,0,0:0:0:0:
320,192,3239,1,0,0:0:0:0:
320,192,3364,1,0,0:0:0:0:
192,192,3426,1,0,0:0:0:0:
64,192,3489,1,0,0:0:0:0:
448,192,3489,1,0,0:0:0:0:
320,192,3551,1,0,0:0:0:0:
192,192,3614,1,0,0:0:0:0:
64,192,3676,1,0,0:0:0:0:
320,192,3739,1,0,0:0:0:0:
448,192,3739,1,0,0:0:0:0:
64,192,3801,1,0,0:0:0:0:
192,192,3864,1,0,0:0:0:0:
320,192,3926,1,0,0:0:0:0:
448,192,3989,1,0,0:0:0:0:
64,192,3989,1,0,0:0:0:0:
320,192,4051,1,0,0:0:0:0:
192,192,4114,1,0,0:0:0:0:
64,192,4176,1,0,0:0:0:0:
192,192,4239,128,0,4364:0:0:0:0:
448,192,4239,1,0,0:0:0:0:
320,192,4489,128,0,4614:0:0:0:0:
448,192,4739,128,0,4864:0:0:0:0:
320,192,4989,128,0,5114:0:0:0:0:
64,192,5239,1,0,0:0:0:0:
448,192,5239,1,0,0:0:0:0:
192,192,5301,1,0,0:0:0:0:
320,192,5364,1,0,0:0:0:0:
448,192,5426,1,0,0:0:0:0:
192,192,5489,1,0,0:0:0:0:
64,192,5489,1,0,0:0:0:0:
448,192,5551,1,0,0:0:0:0:
320,192,5614,1,0,0:0:0:0:
192,192,5676,1,0,0:0:0:0:
64,192,5739,1,0,0:0:0:0:
448,192,5739,1,0,0:0:0:0:
192,192,5801,1,0,0:0:0:0:
320,192,5864,1,0,0:0:0:0:
448,192,5926,1,0,0:0:0:0:
192,192,5989,1,0,0:0:0:0:
64,192,5989,1,0,0:0:0:0:
320,192,6051,1,0,0:0:0:0:
192,192,6114,1,0,0:0:0:0:
64,192,6176,1,0,0:0:0:0:
320,192,6239,1,0,0:0:0:0:
448,192,6239,1,0,0:0:0:0:
192,192,6364,1,0,0:0:0:0:
64,192,6364,1,0,0:0:0:0:
448,192,6489,1,0,0:0:0:0:
320,192,6551,1,0,0:0:0:0:
192,192,6614,1,0,0:0:0:0:
64,192,6614,1,0,0:0:0:0:
448,192,6739,1,0,0:0:0:0:
192,192,6739,1,0,0:0:0:0:
64,192,6864,1,0,0:0:0:0:
320,192,6864,1,0,0:0:0:0:
192,192,6989,1,0,0:0:0:0:
320,192,7051,1,0,0:0:0:0:
448,192,7114,1,0,0:0:0:0:
64,192,7114,1,0,0:0:0:0:
320,192,7239,1,0,0:0:0:0:
448,192,7239,1,0,0:0:0:0:
448,192,7364,1,0,0:0:0:0:
64,192,7364,1,0,0:0:0:0:
192,192,7489,1,0,0:0:0:0:
320,192,7551,1,0,0:0:0:0:
448,192,7614,1,0,0:0:0:0:
64,192,7614,1,0,0:0:0:0:
64,192,7739,1,0,0:0:0:0:
320,192,7739,1,0,0:0:0:0:
192,192,7864,1,0,0:0:0:0:
320,192,7864,1,0,0:0:0:0:
448,192,7989,1,0,0:0:0:0:
320,192,8051,1,0,0:0:0:0:
192,192,8114,1,0,0:0:0:0:
64,192,8114,1,0,0:0:0:0:
448,192,8239,1,0,0:0:0:0:
320,192,8239,1,0,0:0:0:0:
64,192,8301,1,0,0:0:0:0:
192,192,8364,1,0,0:0:0:0:
448,192,8426,1,0,0:0:0:0:
320,192,8489,1,0,0:0:0:0:
192,192,8551,1,0,0:0:0:0:
448,192,8614,1,0,0:0:0:0:
64,192,8614,1,0,0:0:0:0:
320,192,8676,1,0,0:0:0:0:
192,192,8739,1,0,0:0:0:0:
64,192,8801,1,0,0:0:0:0:
192,192,8864,1,0,0:0:0:0:
320,192,8926,1,0,0:0:0:0:
448,192,8989,1,0,0:0:0:0:
64,192,8989,128,0,9114:0:0:0:0:
192,192,9114,128,0,9239:0:0:0:0:
448,192,9239,128,0,9739:0:0:0:0:
64,192,9239,1,0,0:0:0:0:
320,192,9489,1,0,0:0:0:0:
192,192,9551,1,0,0:0:0:0:
320,192,9614,1,0,0:0:0:0:
192,192,9676,1,0,0:0:0:0:
64,192,9739,128,0,10239:0:0:0:0:
448,192,9989,1,0,0:0:0:0:
320,192,10051,1,0,0:0:0:0:
192,192,10114,1,0,0:0:0:0:
320,192,10176,1,0,0:0:0:0:
448,192,10239,1,0,0:0:0:0:
192,192,10364,1,0,0:0:0:0:
64,192,10364,1,0,0:0:0:0:
320,192,10489,1,0,0:0:0:0:
448,192,10551,1,0,0:0:0:0:
192,192,10614,1,0,0:0:0:0:
64,192,10614,1,0,0:0:0:0:
192,192,10739,1,0,0:0:0:0:
448,192,10739,1,0,0:0:0:0:
320,192,10864,1,0,0:0:0:0:
64,192,10864,1,0,0:0:0:0:
192,192,10989,1,0,0:0:0:0:
320,192,11051,1,0,0:0:0:0:
448,192,11114,1,0,0:0:0:0:
64,192,11114,1,0,0:0:0:0:
192,192,11239,1,0,0:0:0:0:
448,192,11239,1,0,0:0:0:0:
448,192,11364,1,0,0:0:0:0:
64,192,11364,1,0,0:0:0:0:
192,192,11489,1,0,0:0:0:0:
320,192,11551,1,0,0:0:0:0:
448,192,11614,1,0,0:0:0:0:
64,192,11614,1,0,0:0:0:0:
64,192,11739,1,0,0:0:0:0:
192,192,11739,1,0,0:0:0:0:
320,192,11864,1,0,0:0:0:0:
448,192,11864,1,0,0:0:0:0:
64,192,11989,1,0,0:0:0:0:
192,192,12051,1,0,0:0:0:0:
320,192,12114,1,0,0:0:0:0:
448,192,12114,1,0,0:0:0:0:
64,192,12239,1,0,0:0:0:0:
448,192,12239,1,0,0:0:0:0:
320,192,12364,1,0,0:0:0:0:
192,192,12364,1,0,0:0:0:0:
64,192,12489,1,0,0:0:0:0:
192,192,12551,1,0,0:0:0:0:
448,192,12614,1,0,0:0:0:0:
320,192,12614,1,0,0:0:0:0:
64,192,12739,1,0,0:0:0:0:
192,192,12739,1,0,0:0:0:0:
448,192,12864,1,0,0:0:0:0:
64,192,12864,1,0,0:0:0:0:
320,192,12989,1,0,0:0:0:0:
192,192,13051,1,0,0:0:0:0:
64,192,13114,1,0,0:0:0:0:
320,192,13114,1,0,0:0:0:0:
64,192,13239,1,0,0:0:0:0:
448,192,13239,1,0,0:0:0:0:
320,192,13301,1,0,0:0:0:0:
192,192,13364,1,0,0:0:0:0:
64,192,13426,1,0,0:0:0:0:
320,192,13489,1,0,0:0:0:0:
448,192,13489,1,0,0:0:0:0:
64,192,13551,1,0,0:0:0:0:
192,192,13614,1,0,0:0:0:0:
320,192,13676,1,0,0:0:0:0:
448,192,13739,1,0,0:0:0:0:
64,192,13739,1,0,0:0:0:0:
320,192,13801,1,0,0:0:0:0:
192,192,13864,1,0,0:0:0:0:
64,192,13926,1,0,0:0:0:0:
192,192,13989,1,0,0:0:0:0:
448,192,13989,1,0,0:0:0:0:
320,192,14051,1,0,0:0:0:0:
192,192,14114,1,0,0:0:0:0:
64,192,14176,1,0,0:0:0:0:
320,192,14239,1,0,0:0:0:0:
448,192,14239,1,0,0:0:0:0:
64,192,14364,1,0,0:0:0:0:
448,192,14364,1,0,0:0:0:0:
192,192,14489,1,0,0:0:0:0:
320,192,14551,1,0,0:0:0:0:
448,192,14614,1,0,0:0:0:0:
64,192,14614,1,0,0:0:0:0:
192,192,14739,1,0,0:0:0:0:
448,192,14739,1,0,0:0:0:0:
320,192,14864,1,0,0:0:0:0:
64,192,14864,1,0,0:0:0:0:
448,192,14989,1,0,0:0:0:0:
320,192,15051,1,0,0:0:0:0:
192,192,15114,1,0,0:0:0:0:
64,192,15114,1,0,0:0:0:0:
192,192,15239,1,0,0:0:0:0:
448,192,15239,1,0,0:0:0:0:
64,192,15364,1,0,0:0:0:0:
448,192,15364,1,0,0:0:0:0:
192,192,15489,1,0,0:0:0:0:
320,192,15551,1,0,0:0:0:0:
448,192,15614,1,0,0:0:0:0:
64,192,15614,1,0,0:0:0:0:
64,192,15739,1,0,0:0:0:0:
192,192,15739,1,0,0:0:0:0:
448,192,15864,1,0,0:0:0:0:
64,192,15864,1,0,0:0:0:0:
320,192,15989,1,0,0:0:0:0:
192,192,16051,1,0,0:0:0:0:
64,192,16114,1,0,0:0:0:0:
448,192,16114,1,0,0:0:0:0:
448,192,16239,1,0,0:0:0:0:
192,192,16239,1,0,0:0:0:0:
64,192,16239,1,0,0:0:0:0:
192,192,16364,1,0,0:0:0:0:
448,192,16489,1,0,0:0:0:0:
320,192,16489,1,0,0:0:0:0:
64,192,16489,1,0,0:0:0:0:
320,192,16614,1,0,0:0:0:0:
64,192,16739,1,0,0:0:0:0:
192,192,16739,1,0,0:0:0:0:
448,192,16739,1,0,0:0:0:0:
192,192,16864,1,0,0:0:0:0:
448,192,16989,1,0,0:0:0:0:
320,192,16989,1,0,0:0:0:0:
64,192,16989,1,0,0:0:0:0:
320,192,17114,1,0,0:0:0:0:
448,192,17239,128,0,17739:0:0:0:0:
64,192,17239,1,0,0:0:0:0:
192,192,17239,1,0,0:0:0:0:
192,192,17489,1,0,0:0:0:0:
320,192,17551,1,0,0:0:0:0:
192,192,17614,1,0,0:0:0:0:
320,192,17676,1,0,0:0:0:0:
64,192,17739,128,0,18239:0:0:0:0:
192,192,17989,1,0,0:0:0:0:
320,192,18051,1,0,0:0:0:0:
448,192,18114,1,0,0:0:0:0:
320,192,18176,1,0,0:0:0:0:
192,192,18239,1,0,0:0:0:0:
320,192,18364,1,0,0:0:0:0:
448,192,18364,1,0,0:0:0:0:
192,192,18489,1,0,0:0:0:0:
320,192,18551,1,0,0:0:0:0:
448,192,18614,1,0,0:0:0:0:
64,192,18614,1,0,0:0:0:0:
192,192,18739,1,0,0:0:0:0:
320,192,18739,1,0,0:0:0:0:
448,192,18864,1,0,0:0:0:0:
64,192,18864,1,0,0:0:0:0:
320,192,18989,1,0,0:0:0:0:
192,192,19051,1,0,0:0:0:0:
64,192,19114,1,0,0:0:0:0:
448,192,19114,1,0,0:0:0:0:
320,192,19239,1,0,0:0:0:0:
448,192,19239,1,0,0:0:0:0:
64,192,19364,1,0,0:0:0:0:
448,192,19364,1,0,0:0:0:0:
64,192,19489,1,0,0:0:0:0:
192,192,19551,1,0,0:0:0:0:
320,192,19614,1,0,0:0:0:0:
448,192,19614,1,0,0:0:0:0:
64,192,19739,1,0,0:0:0:0:
320,192,19739,1,0,0:0:0:0:
192,192,19864,1,0,0:0:0:0:
448,192,19864,1,0,0:0:0:0:
320,192,19989,1,0,0:0:0:0:
192,192,20051,1,0,0:0:0:0:
64,192,20114,1,0,0:0:0:0:
448,192,20114,1,0,0:0:0:0:
192,192,20239,1,0,0:0:0:0:
448,192,20239,1,0,0:0:0:0:
320,192,20364,1,0,0:0:0:0:
64,192,20364,1,0,0:0:0:0:
192,192,20489,1,0,0:0:0:0:
320,192,20551,1,0,0:0:0:0:
448,192,20614,1,0,0:0:0:0:
64,192,20614,1,0,0:0:0:0:
192,192,20739,1,0,0:0:0:0:
320,192,20739,1,0,0:0:0:0:
448,192,20864,1,0,0:0:0:0:
64,192,20864,1,0,0:0:0:0:
320,192,20989,1,0,0:0:0:0:
192,192,21051,1,0,0:0:0:0:
64,192,21114,1,0,0:0:0:0:
448,192,21114,1,0,0:0:0:0:
64,192,21239,1,0,0:0:0:0:
192,192,21239,1,0,0:0:0:0:
448,192,21301,1,0,0:0:0:0:
320,192,21364,1,0,0:0:0:0:
192,192,21426,1,0,0:0:0:0:
64,192,21489,1,0,0:0:0:0:
448,192,21489,1,0,0:0:0:0:
320,192,21551,1,0,0:0:0:0:
192,192,21614,1,0,0:0:0:0:
64,192,21676,1,0,0:0:0:0:
320,192,21739,1,0,0:0:0:0:
448,192,21739,1,0,0:0:0:0:
64,192,21801,1,0,0:0:0:0:
192,192,21864,1,0,0:0:0:0:
320,192,21926,1,0,0:0:0:0:
448,192,21989,1,0,0:0:0:0:
64,192,21989,1,0,0:0:0:0:
192,192,22051,1,0,0:0:0:0:
320,192,22114,1,0,0:0:0:0:
448,192,22176,1,0,0:0:0:0:
192,192,22239,1,0,0:0:0:0:
64,192,22239,1,0,0:0:0:0:
64,192,22364,1,0,0:0:0:0:
448,192,22364,1,0,0:0:0:0:
320,192,22489,1,0,0:0:0:0:
192,192,22551,1,0,0:0:0:0:
64,192,22614,1,0,0:0:0:0:
448,192,22614,1,0,0:0:0:0:
448,192,22739,1,0,0:0:0:0:
320,192,22739,1,0,0:0:0:0:
192,192,22864,1,0,0:0:0:0:
64,192,22864,1,0,0:0:0:0:
448,192,22989,1,0,0:0:0:0:
320,192,23051,1,0,0:0:0:0:
192,192,23114,1,0,0:0:0:0:
64,192,23114,1,0,0:0:0:0:
448,192,23239,1,0,0:0:0:0:
64,192,23239,1,0,0:0:0:0:
192,192,23364,1,0,0:0:0:0:
320,192,23364,1,0,0:0:0:0:
448,192,23489,1,0,0:0:0:0:
320,192,23551,1,0,0:0:0:0:
64,192,23614,1,0,0:0:0:0:
192,192,23614,1,0,0:0:0:0:
448,192,23739,1,0,0:0:0:0:
320,192,23739,1,0,0:0:0:0:
64,192,23864,1,0,0:0:0:0:
448,192,23864,1,0,0:0:0:0:
192,192,23989,1,0,0:0:0:0:
320,192,24051,1,0,0:0:0:0:
448,192,24114,1,0,0:0:0:0:
192,192,24114,1,0,0:0:0:0:
448,192,24239,1,0,0:0:0:0:
192,192,24239,1,0,0:0:0:0:
64,192,24239,1,0,0:0:0:0:
320,192,24364,1,0,0:0:0:0:
192,192,24489,1,0,0:0:0:0:
448,192,24614,1,0,0:0:0:0:
320,192,24614,1,0,0:0:0:0:
64,192,24614,1,0,0:0:0:0:
192,192,24739,1,0,0:0:0:0:
320,192,24864,1,0,0:0:0:0:
64,192,24989,1,0,0:0:0:0:
192,192,24989,1,0,0:0:0:0:
320,192,25114,1,0,0:0:0:0:
448,192,25114,1,0,0:0:0:0:
192,192,25239,1,0,0:0:0:0:
64,192,25239,1,0,0:0:0:0:
448,192,25239,128,0,25739:0:0:0:0:
192,192,25489,1,0,0:0:0:0:
320,192,25551,1,0,0:0:0:0:
192,192,25614,1,0,0:0:0:0:
320,192,25676,1,0,0:0:0:0:
64,192,25739,128,0,26239:0:0:0:0:
448,192,25989,1,0,0:0:0:0:
320,192,26051,1,0,0:0:0:0:
192,192,26114,1,0,0:0:0:0:
320,192,26176,1,0,0:0:0:0:
192,192,26239,1,0,0:0:0:0:
448,192,26239,1,0,0:0:0:0:
448,192,26364,1,0,0:0:0:0:
320,192,26489,1,0,0:0:0:0:
64,192,26489,1,0,0:0:0:0:
320,192,26614,1,0,0:0:0:0:
192,192,26739,1,0,0:0:0:0:
448,192,26739,1,0,0:0:0:0:
192,192,26864,1,0,0:0:0:0:
320,192,26989,1,0,0:0:0:0:
64,192,26989,1,0,0:0:0:0:
64,192,27114,1,0,0:0:0:0:
448,192,27239,128,0,27364:0:0:0:0:
64,192,27239,1,0,0:0:0:0:
320,192,27364,128,0,27489:0:0:0:0:
192,192,27364,1,0,0:0:0:0:
64,192,27489,128,0,27614:0:0:0:0:
448,192,27489,1,0,0:0:0:0:
192,192,27614,128,0,27739:0:0:0:0:
320,192,27614,1,0,0:0:0:0:
448,192,27739,128,0,27864:0:0:0:0:
64,192,27739,1,0,0:0:0:0:
320,192,27864,128,0,27989:0:0:0:0:
192,192,27864,1,0,0:0:0:0:
64,192,27989,128,0,28114:0:0:0:0:
448,192,27989,1,0,0:0:0:0:
192,192,28114,128,0,28239:0:0:0:0:
320,192,28114,1,0,0:0:0:0:
448,192,28239,1,0,0:0:0:0:
64,192,28239,1,0,0:0:0:0:
448,192,28364,1,0,0:0:0:0:
320,192,28489,1,0,0:0:0:0:
192,192,28489,1,0,0:0:0:0:
192,192,28614,1,0,0:0:0:0:
64,192,28739,1,0,0:0:0:0:
320,192,28739,1,0,0:0:0:0:
320,192,28864,1,0,0:0:0:0:
64,192,28989,1,0,0:0:0:0:
448,192,28989,1,0,0:0:0:0:
64,192,29114,1,0,0:0:0:0:
320,192,29239,128,0,29364:0:0:0:0:
192,192,29239,1,0,0:0:0:0:
448,192,29364,128,0,29489:0:0:0:0:
64,192,29364,1,0,0:0:0:0:
192,192,29489,128,0,29614:0:0:0:0:
320,192,29489,1,0,0:0:0:0:
64,192,29614,128,0,29739:0:0:0:0:
448,192,29614,1,0,0:0:0:0:
320,192,29739,128,0,29864:0:0:0:0:
192,192,29739,1,0,0:0:0:0:
448,192,29864,128,0,29989:0:0:0:0:
64,192,29864,1,0,0:0:0:0:
192,192,29989,128,0,30114:0:0:0:0:
320,192,29989,1,0,0:0:0:0:
64,192,30114,128,0,30239:0:0:0:0:
448,192,30114,1,0,0:0:0:0:
320,192,30239,1,0,0:0:0:0:
192,192,30239,1,0,0:0:0:0:
320,192,30364,1,0,0:0:0:0:
192,192,30489,1,0,0:0:0:0:
448,192,30489,1,0,0:0:0:0:
192,192,30614,1,0,0:0:0:0:
64,192,30739,1,0,0:0:0:0:
448,192,30739,1,0,0:0:0:0:
448,192,30864,1,0,0:0:0:0:
320,192,30989,1,0,0:0:0:0:
64,192,30989,1,0,0:0:0:0:
320,192,31114,1,0,0:0:0:0:
192,192,31239,128,0,31364:0:0:0:0:
64,192,31239,1,0,0:0:0:0:
448,192,31364,128,0,31489:0:0:0:0:
320,192,31364,1,0,0:0:0:0:
64,192,31489,128,0,31614:0:0:0:0:
192,192,31489,1,0,0:0:0:0:
320,192,31614,128,0,31739:0:0:0:0:
448,192,31614,1,0,0:0:0:0:
192,192,31739,128,0,31864:0:0:0:0:
64,192,31739,1,0,0:0:0:0:
448,192,31864,128,0,31989:0:0:0:0:
320,192,31864,1,0,0:0:0:0:
64,192,31989,128,0,32239:0:0:0:0:
192,192,31989,1,0,0:0:0:0:
448,192,32239,1,0,0:0:0:0:
192,192,32239,1,0,0:0:0:0:
320,192,32301,1,0,0:0:0:0:
192,192,32364,1,0,0:0:0:0:
64,192,32426,1,0,0:0:0:0:
320,192,32489,1,0,0:0:0:0:
448,192,32489,1,0,0:0:0:0:
448,192,32614,1,0,0:0:0:0:
64,192,32614,1,0,0:0:0:0:
320,192,32676,1,0,0:0:0:0:
192,192,32739,1,0,0:0:0:0:
64,192,32801,1,0,0:0:0:0:
448,192,32864,1,0,0:0:0:0:
320,192,32864,1,0,0:0:0:0:
64,192,32989,1,0,0:0:0:0:
192,192,32989,1,0,0:0:0:0:
448,192,33051,1,0,0:0:0:0:
320,192,33114,1,0,0:0:0:0:
192,192,33176,1,0,0:0:0:0:
64,192,33239,1,0,0:0:0:0:
448,192,33239,1,0,0:0:0:0:
320,192,33364,1,0,0:0:0:0:
448,192,33364,1,0,0:0:0:0:
64,192,33426,1,0,0:0:0:0:
192,192,33489,1,0,0:0:0:0:
320,192,33551,1,0,0:0:0:0:
448,192,33614,1,0,0:0:0:0:
64,192,33614,1,0,0:0:0:0:
64,192,33739,1,0,0:0:0:0:
448,192,33739,1,0,0:0:0:0:
320,192,33801,1,0,0:0:0:0:
192,192,33864,1,0,0:0:0:0:
64,192,33926,1,0,0:0:0:0:
192,192,33989,1,0,0:0:0:0:
448,192,33989,1,0,0:0:0:0:
320,192,34051,1,0,0:0:0:0:
192,192,34114,1,0,0:0:0:0:
64,192,34176,1,0,0:0:0:0:
192,192,34239,1,0,0:0:0:0:
320,192,34239,1,0,0:0:0:0:
320,192,34364,1,0,0:0:0:0:
448,192,34489,1,0,0:0:0:0:
64,192,34489,1,0,0:0:0:0:
64,192,34614,1,0,0:0:0:0:
192,192,34739,1,0,0:0:0:0:
448,192,34739,1,0,0:0:0:0:
448,192,34864,1,0,0:0:0:0:
320,192,34989,1,0,0:0:0:0:
64,192,34989,1,0,0:0:0:0:
64,192,35114,1,0,0:0:0:0:
192,192,35239,1,0,0:0:0:0:
448,192,35239,128,0,35364:0:0:0:0:
64,192,35364,1,0,0:0:0:0:
320,192,35364,128,0,35489:0:0:0:0:
448,192,35489,1,0,0:0:0:0:
192,192,35489,128,0,35614:0:0:0:0:
320,192,35614,1,0,0:0:0:0:
64,192,35614,128,0,35739:0:0:0:0:
192,192,35739,1,0,0:0:0:0:
448,192,35739,128,0,35864:0:0:0:0:
64,192,35864,1,0,0:0:0:0:
320,192,35864,128,0,35989:0:0:0:0:
448,192,35989,1,0,0:0:0:0:
192,192,35989,128,0,36114:0:0:0:0:
320,192,36114,1,0,0:0:0:0:
64,192,36114,128,0,36239:0:0:0:0:
192,192,36239,1,0,0:0:0:0:
320,192,36239,1,0,0:0:0:0:
320,192,36364,1,0,0:0:0:0:
448,192,36489,1,0,0:0:0:0:
64,192,36489,1,0,0:0:0:0:
64,192,36614,1,0,0:0:0:0:
192,192,36739,1,0,0:0:0:0:
448,192,36739,1,0,0:0:0:0:
448,192,36864,1,0,0:0:0:0:
64,192,36989,1,0,0:0:0:0:
320,192,36989,1,0,0:0:0:0:
64,192,37114,1,0,0:0:0:0:
448,192,37239,128,0,37364:0:0:0:0:
192,192,37239,1,0,0:0:0:0:
320,192,37364,128,0,37489:0:0:0:0:
64,192,37364,1,0,0:0:0:0:
192,192,37489,128,0,37614:0:0:0:0:
448,192,37489,1,0,0:0:0:0:
64,192,37614,128,0,37739:0:0:0:0:
320,192,37614,1,0,0:0:0:0:
448,192,37739,128,0,37864:0:0:0:0:
192,192,37739,1,0,0:0:0:0:
320,192,37864,128,0,37989:0:0:0:0:
64,192,37864,1,0,0:0:0:0:
192,192,37989,128,0,38114:0:0:0:0:
448,192,37989,1,0,0:0:0:0:
64,192,38114,128,0,38239:0:0:0:0:
320,192,38114,1,0,0:0:0:0:
192,192,38239,1,0,0:0:0:0:
448,192,38239,1,0,0:0:0:0:
192,192,38364,1,0,0:0:0:0:
320,192,38489,1,0,0:0:0:0:
448,192,38489,1,0,0:0:0:0:
448,192,38614,1,0,0:0:0:0:
320,192,38739,1,0,0:0:0:0:
64,192,38739,1,0,0:0:0:0:
320,192,38864,1,0,0:0:0:0:
192,192,38989,1,0,0:0:0:0:
64,192,38989,1,0,0:0:0:0:
64,192,39114,1,0,0:0:0:0:
448,192,39239,128,0,39364:0:0:0:0:
192,192,39239,1,0,0:0:0:0:
320,192,39364,128,0,39489:0:0:0:0:
64,192,39364,1,0,0:0:0:0:
64,192,39489,128,0,39614:0:0:0:0:
448,192,39489,1,0,0:0:0:0:
192,192,39614,128,0,39739:0:0:0:0:
320,192,39614,1,0,0:0:0:0:
448,192,39739,128,0,39864:0:0:0:0:
64,192,39739,1,0,0:0:0:0:
320,192,39864,128,0,39989:0:0:0:0:
192,192,39864,1,0,0:0:0:0:
64,192,39989,128,0,40239:0:0:0:0:
448,192,39989,1,0,0:0:0:0:
192,192,40239,1,0,0:0:0:0:
448,192,40239,1,0,0:0:0:0:
192,192,40364,1,0,0:0:0:0:
192,192,40489,1,0,0:0:0:0:
448,192,40614,1,0,0:0:0:0:
64,192,40614,1,0,0:0:0:0:
320,192,40614,128,0,40864:0:0:0:0:
192,192,40864,1,0,0:0:0:0:
448,192,40989,1,0,0:0:0:0:
320,192,40989,1,0,0:0:0:0:
64,192,40989,128,0,41239:0:0:0:0:
320,192,41239,1,0,0:0:0:0:
448,192,41239,1,0,0:0:0:0:
192,192,41364,1,0,0:0:0:0:
64,192,41364,1,0,0:0:0:0:
448,192,41489,1,0,0:0:0:0:
64,192,41489,1,0,0:0:0:0:
192,192,41551,1,0,0:0:0:0:
320,192,41614,1,0,0:0:0:0:
448,192,41676,1,0,0:0:0:0:
192,192,41739,1,0,0:0:0:0:
64,192,41739,1,0,0:0:0:0:
448,192,41801,1,0,0:0:0:0:
320,192,41864,1,0,0:0:0:0:
192,192,41926,1,0,0:0:0:0:
64,192,41989,1,0,0:0:0:0:
448,192,41989,1,0,0:0:0:0:
64,192,42239,1,0,0:0:0:0:
192,192,42239,1,0,0:0:0:0:
448,192,42239,128,0,43239:0:0:0:0:
320,192,42364,1,0,0:0:0:0:
192,192,42489,1,0,0:0:0:0:
64,192,42489,1,0,0:0:0:0:
320,192,42614,1,0,0:0:0:0:
192,192,42739,1,0,0:0:0:0:
64,192,42739,1,0,0:0:0:0:
320,192,42864,1,0,0:0:0:0:
64,192,42989,1,0,0:0:0:0:
192,192,42989,1,0,0:0:0:0:
320,192,43114,1,0,0:0:0:0:
192,192,43239,1,0,0:0:0:0:
64,192,43239,1,0,0:0:0:0:
448,192,43301,1,0,0:0:0:0:
320,192,43364,1,0,0:0:0:0:
192,192,43426,1,0,0:0:0:0:
64,192,43489,1,0,0:0:0:0:
448,192,43489,1,0,0:0:0:0:
192,192,43551,1,0,0:0:0:0:
320,192,43614,1,0,0:0:0:0:
448,192,43676,1,0,0:0:0:0:
192,192,43739,1,0,0:0:0:0:
64,192,43739,1,0,0:0:0:0:
320,192,43801,1,0,0:0:0:0:
192,192,43864,1,0,0:0:0:0:
64,192,43926,1,0,0:0:0:0:
320,192,43989,1,0,0:0:0:0:
448,192,43989,128,0,44239:0:0:0:0:
192,192,44239,1,0,0:0:0:0:
64,192,44239,1,0,0:0:0:0:
192,192,44364,1,0,0:0:0:0:
64,192,44489,1,0,0:0:0:0:
448,192,44489,1,0,0:0:0:0:
448,192,44614,1,0,0:0:0:0:
320,192,44739,1,0,0:0:0:0:
64,192,44739,1,0,0:0:0:0:
192,192,44864,1,0,0:0:0:0:
320,192,44926,1,0,0:0:0:0:
448,192,44989,1,0,0:0:0:0:
64,192,44989,1,0,0:0:0:0:
64,192,45114,1,0,0:0:0:0:
192,192,45239,1,0,0:0:0:0:
320,192,45239,1,0,0:0:0:0:
320,192,45364,1,0,0:0:0:0:
64,192,45489,1,0,0:0:0:0:
192,192,45489,1,0,0:0:0:0:
64,192,45614,1,0,0:0:0:0:
448,192,45739,1,0,0:0:0:0:
192,192,45739,1,0,0:0:0:0:
448,192,45864,1,0,0:0:0:0:
320,192,45989,1,0,0:0:0:0:
64,192,45989,1,0,0:0:0:0:
320,192,46114,1,0,0:0:0:0:
64,192,46239,1,0,0:0:0:0:
448,192,46239,1,0,0:0:0:0:
64,192,46364,1,0,0:0:0:0:
192,192,46489,1,0,0:0:0:0:
320,192,46489,1,0,0:0:0:0:
320,192,46614,1,0,0:0:0:0:
448,192,46739,1,0,0:0:0:0:
64,192,46739,1,0,0:0:0:0:
64,192,46864,1,0,0:0:0:0:
448,192,46989,1,0,0:0:0:0:
320,192,46989,1,0,0:0:0:0:
320,192,47114,1,0,0:0:0:0:
64,192,47239,1,0,0:0:0:0:
192,192,47239,1,0,0:0:0:0:
192,192,47364,1,0,0:0:0:0:
320,192,47489,1,0,0:0:0:0:
64,192,47489,1,0,0:0:0:0:
320,192,47614,1,0,0:0:0:0:
192,192,47739,1,0,0:0:0:0:
448,192,47739,1,0,0:0:0:0:
192,192,47864,1,0,0:0:0:0:
448,192,47989,1,0,0:0:0:0:
64,192,47989,1,0,0:0:0:0:
448,192,48114,1,0,0:0:0:0:
64,192,48239,128,0,49239:0:0:0:0:
192,192,48239,1,0,0:0:0:0:
448,192,48239,1,0,0:0:0:0:
320,192,48364,1,0,0:0:0:0:
448,192,48489,1,0,0:0:0:0:
192,192,48489,1,0,0:0:0:0:
320,192,48614,1,0,0:0:0:0:
448,192,48739,1,0,0:0:0:0:
192,192,48739,1,0,0:0:0:0:
320,192,48864,1,0,0:0:0:0:
448,192,48989,1,0,0:0:0:0:
192,192,48989,1,0,0:0:0:0:
320,192,49114,1,0,0:0:0:0:
192,192,49239,1,0,0:0:0:0:
448,192,49239,1,0,0:0:0:0:
192,192,50239,128,0,50489:0:0:0:0:
64,192,50239,1,0,0:0:0:0:
448,192,50239,1,0,0:0:0:0:
448,192,50364,1,0,0:0:0:0:
320,192,50489,128,0,50739:0:0:0:0:
64,192,50489,1,0,0:0:0:0:
192,192,50614,1,0,0:0:0:0:
64,192,50739,128,0,50864:0:0:0:0:
448,192,50739,1,0,0:0:0:0:
320,192,50864,128,0,50989:0:0:0:0:
192,192,50864,1,0,0:0:0:0:
64,192,50989,128,0,51114:0:0:0:0:
448,192,50989,1,0,0:0:0:0:
320,192,51114,128,0,51239:0:0:0:0:
192,192,51114,1,0,0:0:0:0:
448,192,51239,128,0,51489:0:0:0:0:
64,192,51239,1,0,0:0:0:0:
64,192,51364,1,0,0:0:0:0:
192,192,51489,128,0,51739:0:0:0:0:
320,192,51489,1,0,0:0:0:0:
448,192,51614,1,0,0:0:0:0:
64,192,51739,128,0,51864:0:0:0:0:
320,192,51739,1,0,0:0:0:0:
448,192,51864,128,0,51989:0:0:0:0:
192,192,51864,1,0,0:0:0:0:
192,192,51989,128,0,52114:0:0:0:0:
320,192,51989,1,0,0:0:0:0:
64,192,52114,128,0,52239:0:0:0:0:
448,192,52114,1,0,0:0:0:0:
192,192,52239,128,0,52489:0:0:0:0:
320,192,52239,1,0,0:0:0:0:
64,192,52364,1,0,0:0:0:0:
320,192,52489,128,0,52739:0:0:0:0:
448,192,52489,1,0,0:0:0:0:
192,192,52614,1,0,0:0:0:0:
64,192,52739,128,0,52864:0:0:0:0:
448,192,52739,1,0,0:0:0:0:
192,192,52864,128,0,52989:0:0:0:0:
320,192,52864,1,0,0:0:0:0:
64,192,52989,128,0,53114:0:0:0:0:
448,192,52989,1,0,0:0:0:0:
192,192,53114,128,0,53239:0:0:0:0:
320,192,53114,1,0,0:0:0:0:
448,192,53239,128,0,53489:0:0:0:0:
64,192,53239,1,0,0:0:0:0:
192,192,53364,1,0,0:0:0:0:
320,192,53489,128,0,53739:0:0:0:0:
64,192,53489,1,0,0:0:0:0:
192,192,53614,1,0,0:0:0:0:
448,192,53739,128,0,53989:0:0:0:0:
192,192,53739,128,0,53989:0:0:0:0:
64,192,53739,1,0,0:0:0:0:
320,192,53989,128,0,54239:0:0:0:0:
64,192,53989,1,0,0:0:0:0:
192,192,54114,1,0,0:0:0:0:
192,192,54239,128,0,54489:0:0:0:0:
64,192,54239,1,0,0:0:0:0:
448,192,54239,1,0,0:0:0:0:
448,192,54364,1,0,0:0:0:0:
320,192,54489,128,0,54739:0:0:0:0:
64,192,54489,1,0,0:0:0:0:
192,192,54614,1,0,0:0:0:0:
64,192,54739,128,0,54864:0:0:0:0:
448,192,54739,1,0,0:0:0:0:
320,192,54864,128,0,54989:0:0:0:0:
192,192,54864,1,0,0:0:0:0:
64,192,54989,128,0,55114:0:0:0:0:
448,192,54989,1,0,0:0:0:0:
320,192,55114,128,0,55239:0:0:0:0:
192,192,55114,1,0,0:0:0:0:
448,192,55239,128,0,55489:0:0:0:0:
64,192,55239,1,0,0:0:0:0:
64,192,55364,1,0,0:0:0:0:
192,192,55489,128,0,55739:0:0:0:0:
320,192,55489,1,0,0:0:0:0:
448,192,55614,1,0,0:0:0:0:
64,192,55739,128,0,55864:0:0:0:0:
320,192,55739,1,0,0:0:0:0:
448,192,55864,128,0,55989:0:0:0:0:
192,192,55864,1,0,0:0:0:0:
192,192,55989,128,0,56114:0:0:0:0:
320,192,55989,1,0,0:0:0:0:
64,192,56114,128,0,56239:0:0:0:0:
448,192,56239,1,0,0:0:0:0:
320,192,56239,1,0,0:0:0:0:
64,192,56301,1,0,0:0:0:0:
192,192,56364,1,0,0:0:0:0:
320,192,56426,1,0,0:0:0:0:
64,192,56489,1,0,0:0:0:0:
192,192,56489,1,0,0:0:0:0:
448,192,56551,1,0,0:0:0:0:
320,192,56614,1,0,0:0:0:0:
192,192,56676,1,0,0:0:0:0:
64,192,56739,1,0,0:0:0:0:
448,192,56739,1,0,0:0:0:0:
320,192,56801,1,0,0:0:0:0:
192,192,56864,1,0,0:0:0:0:
64,192,56926,1,0,0:0:0:0:
192,192,56989,1,0,0:0:0:0:
448,192,56989,1,0,0:0:0:0:
320,192,57051,1,0,0:0:0:0:
192,192,57114,1,0,0:0:0:0:
64,192,57176,1,0,0:0:0:0:
448,192,57239,128,0,58114:0:0:0:0:
320,192,57239,1,0,0:0:0:0:
64,192,57364,1,0,0:0:0:0:
192,192,57426,1,0,0:0:0:0:
320,192,57489,1,0,0:0:0:0:
64,192,57614,1,0,0:0:0:0:
192,192,57676,1,0,0:0:0:0:
64,192,57739,128,0,58114:0:0:0:0:
320,192,57739,1,0,0:0:0:0:
192,192,58114,1,0,0:0:0:0:
320,192,58114,1,0,0:0:0:0:
448,192,58239,1,0,0:0:0:0:
64,192,58239,1,0,0:0:0:0:
192,192,58301,1,0,0:0:0:0:
320,192,58364,1,0,0:0:0:0:
448,192,58426,1,0,0:0:0:0:
64,192,58489,1,0,0:0:0:0:
320,192,58489,1,0,0:0:0:0:
192,192,58551,1,0,0:0:0:0:
320,192,58614,1,0,0:0:0:0:
448,192,58676,1,0,0:0:0:0:
64,192,58739,1,0,0:0:0:0:
192,192,58739,1,0,0:0:0:0:
448,192,58801,1,0,0:0:0:0:
320,192,58864,1,0,0:0:0:0:
192,192,58926,1,0,0:0:0:0:
64,192,58989,1,0,0:0:0:0:
448,192,58989,1,0,0:0:0:0:
320,192,59051,1,0,0:0:0:0:
192,192,59114,1,0,0:0:0:0:
64,192,59176,1,0,0:0:0:0:
192,192,59239,1,0,0:0:0:0:
448,192,59239,1,0,0:0:0:0:
320,192,59301,1,0,0:0:0:0:
192,192,59364,1,0,0:0:0:0:
64,192,59426,1,0,0:0:0:0:
320,192,59489,1,0,0:0:0:0:
448,192,59489,1,0,0:0:0:0:
192,192,59551,1,0,0:0:0:0:
320,192,59614,1,0,0:0:0:0:
448,192,59676,1,0,0:0:0:0:
64,192,59739,1,0,0:0:0:0:
192,192,59739,1,0,0:0:0:0:
448,192,59801,1,0,0:0:0:0:
320,192,59864,1,0,0:0:0:0:
192,192,59926,1,0,0:0:0:0:
64,192,59989,1,0,0:0:0:0:
448,192,59989,1,0,0:0:0:0:
192,192,60051,1,0,0:0:0:0:
320,192,60114,1,0,0:0:0:0:
448,192,60176,1,0,0:0:0:0:
64,192,60239,1,0,0:0:0:0:
320,192,60239,1,0,0:0:0:0:
192,192,60301,1,0,0:0:0:0:
320,192,60364,1,0,0:0:0:0:
448,192,60426,1,0,0:0:0:0:
192,192,60489,1,0,0:0:0:0:
64,192,60489,1,0,0:0:0:0:
448,192,60551,1,0,0:0:0:0:
320,192,60614,1,0,0:0:0:0:
192,192,60676,1,0,0:0:0:0:
64,192,60739,1,0,0:0:0:0:
448,192,60739,1,0,0:0:0:0:
192,192,60801,1,0,0:0:0:0:
320,192,60864,1,0,0:0:0:0:
448,192,60926,1,0,0:0:0:0:
64,192,60989,1,0,0:0:0:0:
192,192,60989,1,0,0:0:0:0:
320,192,61051,1,0,0:0:0:0:
192,192,61114,1,0,0:0:0:0:
64,192,61176,1,0,0:0:0:0:
320,192,61239,1,0,0:0:0:0:
448,192,61239,1,0,0:0:0:0:
64,192,61301,1,0,0:0:0:0:
192,192,61364,1,0,0:0:0:0:
320,192,61426,1,0,0:0:0:0:
448,192,61489,1,0,0:0:0:0:
64,192,61489,1,0,0:0:0:0:
320,192,61551,1,0,0:0:0:0:
192,192,61614,1,0,0:0:0:0:
64,192,61676,1,0,0:0:0:0:
320,192,61739,1,0,0:0:0:0:
448,192,61739,1,0,0:0:0:0:
64,192,61801,1,0,0:0:0:0:
192,192,61864,1,0,0:0:0:0:
320,192,61926,1,0,0:0:0:0:
448,192,61989,1,0,0:0:0:0:
64,192,61989,1,0,0:0:0:0:
320,192,62051,1,0,0:0:0:0:
192,192,62114,1,0,0:0:0:0:
64,192,62176,1,0,0:0:0:0:
448,192,62239,1,0,0:0:0:0:
320,192,62239,1,0,0:0:0:0:
64,192,62301,1,0,0:0:0:0:
192,192,62364,1,0,0:0:0:0:
320,192,62426,1,0,0:0:0:0:
64,192,62489,1,0,0:0:0:0:
192,192,62489,1,0,0:0:0:0:
448,192,62551,1,0,0:0:0:0:
320,192,62614,1,0,0:0:0:0:
192,192,62676,1,0,0:0:0:0:
64,192,62739,1,0,0:0:0:0:
448,192,62739,1,0,0:0:0:0:
192,192,62801,1,0,0:0:0:0:
320,192,62864,1,0,0:0:0:0:
448,192,62926,1,0,0:0:0:0:
192,192,62989,1,0,0:0:0:0:
64,192,62989,1,0,0:0:0:0:
448,192,63051,1,0,0:0:0:0:
320,192,63114,1,0,0:0:0:0:
192,192,63176,1,0,0:0:0:0:
64,192,63239,1,0,0:0:0:0:
448,192,63239,1,0,0:0:0:0:
320,192,63301,1,0,0:0:0:0:
192,192,63364,1,0,0:0:0:0:
64,192,63426,1,0,0:0:0:0:
320,192,63489,1,0,0:0:0:0:
448,192,63489,1,0,0:0:0:0:
192,192,63551,1,0,0:0:0:0:
320,192,63614,1,0,0:0:0:0:
448,192,63676,1,0,0:0:0:0:
64,192,63739,1,0,0:0:0:0:
192,192,63739,1,0,0:0:0:0:
448,192,63801,1,0,0:0:0:0:
320,192,63864,1,0,0:0:0:0:
192,192,63926,1,0,0:0:0:0:
64,192,63989,1,0,0:0:0:0:
448,192,63989,1,0,0:0:0:0:
320,192,64051,1,0,0:0:0:0:
192,192,64114,1,0,0:0:0:0:
64,192,64176,1,0,0:0:0:0:
320,192,64239,1,0,0:0:0:0:
448,192,64239,1,0,0:0:0:0:
64,192,64301,1,0,0:0:0:0:
192,192,64364,1,0,0:0:0:0:
320,192,64426,1,0,0:0:0:0:
448,192,64489,1,0,0:0:0:0:
64,192,64489,1,0,0:0:0:0:
192,192,64551,1,0,0:0:0:0:
320,192,64614,1,0,0:0:0:0:
448,192,64676,1,0,0:0:0:0:
192,192,64739,1,0,0:0:0:0:
64,192,64739,1,0,0:0:0:0:
448,192,64801,1,0,0:0:0:0:
320,192,64864,1,0,0:0:0:0:
192,192,64926,1,0,0:0:0:0:
64,192,64989,1,0,0:0:0:0:
448,192,64989,1,0,0:0:0:0:
192,192,65051,1,0,0:0:0:0:
320,192,65114,1,0,0:0:0:0:
448,192,65176,1,0,0:0:0:0:
64,192,65239,128,0,66239:0:0:0:0:
192,192,65239,1,0,0:0:0:0:
448,192,65739,128,0,66239:0:0:0:0:
192,192,65739,1,0,0:0:0:0:
320,192,65739,1,0,0:0:0:0:
192,192,66239,1,0,0:0:0:0:
320,192,66239,1,0,0:0:0:0:
448,192,66364,1,0,0:0:0:0:
64,192,66364,1,0,0:0:0:0:
192,192,66489,1,0,0:0:0:0:
320,192,66551,1,0,0:0:0:0:
448,192,66614,1,0,0:0:0:0:
64,192,66614,1,0,0:0:0:0:
64,192,66739,1,0,0:0:0:0:
320,192,66739,1,0,0:0:0:0:
192,192,66864,1,0,0:0:0:0:
448,192,66864,1,0,0:0:0:0:
448,192,66989,1,0,0:0:0:0:
320,192,67051,1,0,0:0:0:0:
192,192,67114,1,0,0:0:0:0:
64,192,67114,1,0,0:0:0:0:
320,192,67239,1,0,0:0:0:0:
448,192,67239,1,0,0:0:0:0:
448,192,67364,1,0,0:0:0:0:
64,192,67364,1,0,0:0:0:0:
320,192,67489,1,0,0:0:0:0:
192,192,67551,1,0,0:0:0:0:
64,192,67614,1,0,0:0:0:0:
448,192,67614,1,0,0:0:0:0:
320,192,67739,1,0,0:0:0:0:
448,192,67739,1,0,0:0:0:0:
64,192,67864,1,0,0:0:0:0:
320,192,67864,1,0,0:0:0:0:
448,192,67989,1,0,0:0:0:0:
320,192,68051,1,0,0:0:0:0:
192,192,68114,1,0,0:0:0:0:
64,192,68114,1,0,0:0:0:0:
192,192,68239,1,0,0:0:0:0:
448,192,68239,1,0,0:0:0:0:
64,192,68364,1,0,0:0:0:0:
448,192,68364,1,0,0:0:0:0:
192,192,68489,1,0,0:0:0:0:
320,192,68551,1,0,0:0:0:0:
448,192,68614,1,0,0:0:0:0:
64,192,68614,1,0,0:0:0:0:
64,192,68739,1,0,0:0:0:0:
192,192,68739,1,0,0:0:0:0:
320,192,68864,1,0,0:0:0:0:
448,192,68864,1,0,0:0:0:0:
448,192,68989,1,0,0:0:0:0:
320,192,69051,1,0,0:0:0:0:
64,192,69114,1,0,0:0:0:0:
192,192,69114,1,0,0:0:0:0:
448,192,69239,1,0,0:0:0:0:
64,192,69239,1,0,0:0:0:0:
192,192,69301,1,0,0:0:0:0:
320,192,69364,1,0,0:0:0:0:
448,192,69426,1,0,0:0:0:0:
64,192,69489,1,0,0:0:0:0:
192,192,69489,1,0,0:0:0:0:
448,192,69551,1,0,0:0:0:0:
320,192,69614,1,0,0:0:0:0:
192,192,69676,1,0,0:0:0:0:
64,192,69739,1,0,0:0:0:0:
448,192,69739,1,0,0:0:0:0:
320,192,69801,1,0,0:0:0:0:
192,192,69864,1,0,0:0:0:0:
64,192,69926,1,0,0:0:0:0:
320,192,69989,1,0,0:0:0:0:
448,192,69989,1,0,0:0:0:0:
64,192,70051,1,0,0:0:0:0:
192,192,70114,1,0,0:0:0:0:
320,192,70176,1,0,0:0:0:0:
448,192,70239,1,0,0:0:0:0:
64,192,70239,1,0,0:0:0:0:
320,192,70364,1,0,0:0:0:0:
448,192,70364,1,0,0:0:0:0:
64,192,70489,1,0,0:0:0:0:
192,192,70551,1,0,0:0:0:0:
320,192,70614,1,0,0:0:0:0:
448,192,70614,1,0,0:0:0:0:
64,192,70739,1,0,0:0:0:0:
320,192,70739,1,0,0:0:0:0:
448,192,70864,1,0,0:0:0:0:
192,192,70864,1,0,0:0:0:0:
320,192,70989,1,0,0:0:0:0:
192,192,71051,1,0,0:0:0:0:
64,192,71114,1,0,0:0:0:0:
448,192,71114,1,0,0:0:0:0:
192,192,71239,1,0,0:0:0:0:
64,192,71239,1,0,0:0:0:0:
64,192,71364,1,0,0:0:0:0:
448,192,71364,1,0,0:0:0:0:
320,192,71489,1,0,0:0:0:0:
192,192,71551,1,0,0:0:0:0:
64,192,71614,1,0,0:0:0:0:
448,192,71614,1,0,0:0:0:0:
448,192,71739,1,0,0:0:0:0:
192,192,71739,1,0,0:0:0:0:
320,192,71864,1,0,0:0:0:0:
192,192,71864,1,0,0:0:0:0:
64,192,71989,1,0,0:0:0:0:
192,192,72051,1,0,0:0:0:0:
320,192,72114,1,0,0:0:0:0:
448,192,72114,1,0,0:0:0:0:
448,192,72239,1,0,0:0:0:0:
192,192,72239,1,0,0:0:0:0:
64,192,72239,1,0,0:0:0:0:
192,192,72364,1,0,0:0:0:0:
448,192,72489,1,0,0:0:0:0:
320,192,72489,1,0,0:0:0:0:
64,192,72489,1,0,0:0:0:0:
320,192,72614,1,0,0:0:0:0:
192,192,72739,1,0,0:0:0:0:
64,192,72739,1,0,0:0:0:0:
448,192,72739,1,0,0:0:0:0:
192,192,72864,1,0,0:0:0:0:
448,192,72989,1,0,0:0:0:0:
320,192,72989,1,0,0:0:0:0:
64,192,72989,1,0,0:0:0:0:
320,192,73114,1,0,0:0:0:0:
448,192,73239,128,0,73739:0:0:0:0:
192,192,73239,1,0,0:0:0:0:
64,192,73239,1,0,0:0:0:0:
64,192,73489,1,0,0:0:0:0:
192,192,73551,1,0,0:0:0:0:
320,192,73614,1,0,0:0:0:0:
192,192,73676,1,0,0:0:0:0:
64,192,73739,128,0,74239:0:0:0:0:
192,192,73989,1,0,0:0:0:0:
320,192,74051,1,0,0:0:0:0:
448,192,74114,1,0,0:0:0:0:
320,192,74176,1,0,0:0:0:0:
192,192,74239,128,0,74364:0:0:0:0:
320,192,74489,128,0,74614:0:0:0:0:
448,192,74739,128,0,74864:0:0:0:0:
320,192,74989,128,0,75114:0:0:0:0:
448,192,75239,1,0,0:0:0:0:
192,192,75239,1,0,0:0:0:0:
64,192,75239,1,0,0:0:0:0:
192,192,75364,1,0,0:0:0:0:
448,192,75489,1,0,0:0:0:0:
320,192,75489,1,0,0:0:0:0:
64,192,75489,1,0,0:0:0:0:
320,192,75614,1,0,0:0:0:0:
192,192,75739,1,0,0:0:0:0:
320,192,75739,1,0,0:0:0:0:
448,192,75739,1,0,0:0:0:0:
192,192,75864,1,0,0:0:0:0:
320,192,75989,1,0,0:0:0:0:
192,192,75989,1,0,0:0:0:0:
64,192,75989,1,0,0:0:0:0:
320,192,76114,1,0,0:0:0:0:
64,192,76239,1,0,0:0:0:0:
192,192,76239,1,0,0:0:0:0:
448,192,76364,1,0,0:0:0:0:
64,192,76364,1,0,0:0:0:0:
320,192,76489,1,0,0:0:0:0:
192,192,76551,1,0,0:0:0:0:
64,192,76614,1,0,0:0:0:0:
448,192,76614,1,0,0:0:0:0:
448,192,76739,1,0,0:0:0:0:
192,192,76739,1,0,0:0:0:0:
320,192,76864,1,0,0:0:0:0:
64,192,76864,1,0,0:0:0:0:
448,192,76989,1,0,0:0:0:0:
320,192,77051,1,0,0:0:0:0:
192,192,77114,1,0,0:0:0:0:
64,192,77114,1,0,0:0:0:0:
448,192,77239,1,0,0:0:0:0:
64,192,77239,1,0,0:0:0:0:
192,192,77301,1,0,0:0:0:0:
320,192,77364,1,0,0:0:0:0:
448,192,77426,1,0,0:0:0:0:
192,192,77489,1,0,0:0:0:0:
64,192,77489,1,0,0:0:0:0:
448,192,77551,1,0,0:0:0:0:
320,192,77614,1,0,0:0:0:0:
192,192,77676,1,0,0:0:0:0:
64,192,77739,1,0,0:0:0:0:
448,192,77739,1,0,0:0:0:0:
320,192,77801,1,0,0:0:0:0:
192,192,77864,1,0,0:0:0:0:
64,192,77926,1,0,0:0:0:0:
320,192,77989,1,0,0:0:0:0:
448,192,77989,1,0,0:0:0:0:
192,192,78051,1,0,0:0:0:0:
320,192,78114,1,0,0:0:0:0:
448,192,78176,1,0,0:0:0:0:
192,192,78239,1,0,0:0:0:0:
64,192,78239,1,0,0:0:0:0:
64,192,78364,1,0,0:0:0:0:
448,192,78364,1,0,0:0:0:0:
192,192,78489,1,0,0:0:0:0:
320,192,78551,1,0,0:0:0:0:
448,192,78614,1,0,0:0:0:0:
64,192,78614,1,0,0:0:0:0:
192,192,78739,1,0,0:0:0:0:
448,192,78739,1,0,0:0:0:0:
448,192,78864,1,0,0:0:0:0:
64,192,78864,1,0,0:0:0:0:
320,192,78989,1,0,0:0:0:0:
192,192,79051,1,0,0:0:0:0:
64,192,79114,1,0,0:0:0:0:
448,192,79114,1,0,0:0:0:0:
64,192,79239,1,0,0:0:0:0:
192,192,79239,1,0,0:0:0:0:
64,192,79364,1,0,0:0:0:0:
448,192,79364,1,0,0:0:0:0:
192,192,79489,1,0,0:0:0:0:
320,192,79551,1,0,0:0:0:0:
448,192,79614,1,0,0:0:0:0:
64,192,79614,1,0,0:0:0:0:
192,192,79739,1,0,0:0:0:0:
448,192,79739,1,0,0:0:0:0:
448,192,79864,1,0,0:0:0:0:
64,192,79864,1,0,0:0:0:0:
448,192,79989,1,0,0:0:0:0:
320,192,80051,1,0,0:0:0:0:
192,192,80114,1,0,0:0:0:0:
64,192,80114,1,0,0:0:0:0:
448,192,80239,1,0,0:0:0:0:
320,192,80239,1,0,0:0:0:0:
64,192,80239,1,0,0:0:0:0:
192,192,80364,1,0,0:0:0:0:
320,192,80489,1,0,0:0:0:0:
448,192,80614,1,0,0:0:0:0:
192,192,80614,1,0,0:0:0:0:
64,192,80614,1,0,0:0:0:0:
320,192,80739,1,0,0:0:0:0:
192,192,80864,1,0,0:0:0:0:
64,192,80989,1,0,0:0:0:0:
448,192,80989,1,0,0:0:0:0:
320,192,81114,1,0,0:0:0:0:
192,192,81114,1,0,0:0:0:0:
64,192,81239,1,0,0:0:0:0:
448,192,81239,128,0,81739:0:0:0:0:
64,192,81489,1,0,0:0:0:0:
192,192,81551,1,0,0:0:0:0:
320,192,81614,1,0,0:0:0:0:
192,192,81676,1,0,0:0:0:0:
64,192,81739,128,0,82239:0:0:0:0:
448,192,81989,1,0,0:0:0:0:
320,192,82051,1,0,0:0:0:0:
192,192,82114,1,0,0:0:0:0:
320,192,82176,1,0,0:0:0:0:
448,192,82239,1,0,0:0:0:0:
64,192,82364,1,0,0:0:0:0:
192,192,82489,1,0,0:0:0:0:
448,192,82489,1,0,0:0:0:0:
192,192,82614,1,0,0:0:0:0:
320,192,82739,1,0,0:0:0:0:
64,192,82739,1,0,0:0:0:0:
320,192,82864,1,0,0:0:0:0:
192,192,82989,1,0,0:0:0:0:
448,192,82989,1,0,0:0:0:0:
448,192,83114,1,0,0:0:0:0:
64,192,83239,128,0,83364:0:0:0:0:
448,192,83239,1,0,0:0:0:0:
192,192,83364,128,0,83489:0:0:0:0:
320,192,83364,1,0,0:0:0:0:
448,192,83489,128,0,83614:0:0:0:0:
64,192,83489,1,0,0:0:0:0:
320,192,83614,128,0,83739:0:0:0:0:
192,192,83614,1,0,0:0:0:0:
64,192,83739,128,0,83864:0:0:0:0:
448,192,83739,1,0,0:0:0:0:
192,192,83864,128,0,83989:0:0:0:0:
320,192,83864,1,0,0:0:0:0:
448,192,83989,128,0,84114:0:0:0:0:
64,192,83989,1,0,0:0:0:0:
320,192,84114,128,0,84239:0:0:0:0:
192,192,84114,1,0,0:0:0:0:
64,192,84239,1,0,0:0:0:0:
448,192,84239,1,0,0:0:0:0:
64,192,84364,1,0,0:0:0:0:
192,192,84489,1,0,0:0:0:0:
320,192,84489,1,0,0:0:0:0:
320,192,84614,1,0,0:0:0:0:
448,192,84739,1,0,0:0:0:0:
192,192,84739,1,0,0:0:0:0:
192,192,84864,1,0,0:0:0:0:
448,192,84989,1,0,0:0:0:0:
64,192,84989,1,0,0:0:0:0:
448,192,85114,1,0,0:0:0:0:
192,192,85239,128,0,85364:0:0:0:0:
320,192,85239,1,0,0:0:0:0:
64,192,85364,128,0,85489:0:0:0:0:
448,192,85364,1,0,0:0:0:0:
320,192,85489,128,0,85614:0:0:0:0:
192,192,85489,1,0,0:0:0:0:
448,192,85614,128,0,85739:0:0:0:0:
64,192,85614,1,0,0:0:0:0:
192,192,85739,128,0,85864:0:0:0:0:
320,192,85739,1,0,0:0:0:0:
64,192,85864,128,0,85989:0:0:0:0:
448,192,85864,1,0,0:0:0:0:
320,192,85989,128,0,86114:0:0:0:0:
192,192,85989,1,0,0:0:0:0:
448,192,86114,128,0,86239:0:0:0:0:
64,192,86114,1,0,0:0:0:0:
192,192,86239,1,0,0:0:0:0:
320,192,86239,1,0,0:0:0:0:
192,192,86364,1,0,0:0:0:0:
320,192,86489,1,0,0:0:0:0:
64,192,86489,1,0,0:0:0:0:
320,192,86614,1,0,0:0:0:0:
448,192,86739,1,0,0:0:0:0:
64,192,86739,1,0,0:0:0:0:
64,192,86864,1,0,0:0:0:0:
192,192,86989,1,0,0:0:0:0:
448,192,86989,1,0,0:0:0:0:
192,192,87114,1,0,0:0:0:0:
320,192,87239,128,0,87364:0:0:0:0:
448,192,87239,1,0,0:0:0:0:
64,192,87364,128,0,87489:0:0:0:0:
192,192,87364,1,0,0:0:0:0:
448,192,87489,128,0,87614:0:0:0:0:
320,192,87489,1,0,0:0:0:0:
192,192,87614,128,0,87739:0:0:0:0:
64,192,87614,1,0,0:0:0:0:
320,192,87739,128,0,87864:0:0:0:0:
448,192,87739,1,0,0:0:0:0:
64,192,87864,128,0,87989:0:0:0:0:
192,192,87864,1,0,0:0:0:0:
448,192,87989,128,0,88239:0:0:0:0:
320,192,87989,1,0,0:0:0:0:
64,192,88239,1,0,0:0:0:0:
320,192,88239,1,0,0:0:0:0:
192,192,88301,1,0,0:0:0:0:
320,192,88364,1,0,0:0:0:0:
448,192,88426,1,0,0:0:0:0:
192,192,88489,1,0,0:0:0:0:
64,192,88489,1,0,0:0:0:0:
448,192,88614,1,0,0:0:0:0:
64,192,88614,1,0,0:0:0:0:
320,192,88676,1,0,0:0:0:0:
64,192,88739,1,0,0:0:0:0:
192,192,88801,1,0,0:0:0:0:
448,192,88864,1,0,0:0:0:0:
320,192,88864,1,0,0:0:0:0:
448,192,88989,1,0,0:0:0:0:
64,192,88989,1,0,0:0:0:0:
320,192,89051,1,0,0:0:0:0:
192,192,89114,1,0,0:0:0:0:
64,192,89176,1,0,0:0:0:0:
448,192,89239,1,0,0:0:0:0:
320,192,89239,1,0,0:0:0:0:
192,192,89364,1,0,0:0:0:0:
64,192,89364,1,0,0:0:0:0:
448,192,89426,1,0,0:0:0:0:
320,192,89489,1,0,0:0:0:0:
192,192,89551,1,0,0:0:0:0:
64,192,89614,1,0,0:0:0:0:
448,192,89614,1,0,0:0:0:0:
448,192,89739,1,0,0:0:0:0:
64,192,89739,1,0,0:0:0:0:
192,192,89801,1,0,0:0:0:0:
320,192,89864,1,0,0:0:0:0:
448,192,89926,1,0,0:0:0:0:
320,192,89989,1,0,0:0:0:0:
64,192,89989,1,0,0:0:0:0:
192,192,90051,1,0,0:0:0:0:
320,192,90114,1,0,0:0:0:0:
448,192,90176,1,0,0:0:0:0:
320,192,90239,1,0,0:0:0:0:
192,192,90239,1,0,0:0:0:0:
192,192,90364,1,0,0:0:0:0:
64,192,90489,1,0,0:0:0:0:
448,192,90489,1,0,0:0:0:0:
448,192,90614,1,0,0:0:0:0:
320,192,90739,1,0,0:0:0:0:
64,192,90739,1,0,0:0:0:0:
64,192,90864,1,0,0:0:0:0:
192,192,90989,1,0,0:0:0:0:
448,192,90989,1,0,0:0:0:0:
448,192,91114,1,0,0:0:0:0:
320,192,91239,1,0,0:0:0:0:
64,192,91239,128,0,91364:0:0:0:0:
448,192,91364,1,0,0:0:0:0:
192,192,91364,128,0,91489:0:0:0:0:
64,192,91489,1,0,0:0:0:0:
320,192,91489,128,0,91614:0:0:0:0:
192,192,91614,1,0,0:0:0:0:
448,192,91614,128,0,91739:0:0:0:0:
320,192,91739,1,0,0:0:0:0:
64,192,91739,128,0,91864:0:0:0:0:
448,192,91864,1,0,0:0:0:0:
192,192,91864,128,0,91989:0:0:0:0:
64,192,91989,1,0,0:0:0:0:
320,192,91989,128,0,92114:0:0:0:0:
192,192,92114,1,0,0:0:0:0:
448,192,92114,128,0,92239:0:0:0:0:
320,192,92239,1,0,0:0:0:0:
192,192,92239,1,0,0:0:0:0:
192,192,92364,1,0,0:0:0:0:
64,192,92489,1,0,0:0:0:0:
448,192,92489,1,0,0:0:0:0:
448,192,92614,1,0,0:0:0:0:
320,192,92739,1,0,0:0:0:0:
64,192,92739,1,0,0:0:0:0:
64,192,92864,1,0,0:0:0:0:
448,192,92989,1,0,0:0:0:0:
192,192,92989,1,0,0:0:0:0:
448,192,93114,1,0,0:0:0:0:
64,192,93239,128,0,93364:0:0:0:0:
320,192,93239,1,0,0:0:0:0:
192,192,93364,128,0,93489:0:0:0:0:
448,192,93364,1,0,0:0:0:0:
320,192,93489,128,0,93614:0:0:0:0:
64,192,93489,1,0,0:0:0:0:
448,192,93614,128,0,93739:0:0:0:0:
192,192,93614,1,0,0:0:0:0:
64,192,93739,128,0,93864:0:0:0:0:
320,192,93739,1,0,0:0:0:0:
192,192,93864,128,0,93989:0:0:0:0:
448,192,93864,1,0,0:0:0:0:
320,192,93989,128,0,94114:0:0:0:0:
64,192,93989,1,0,0:0:0:0:
448,192,94114,128,0,94239:0:0:0:0:
192,192,94114,1,0,0:0:0:0:
320,192,94239,1,0,0:0:0:0:
64,192,94239,1,0,0:0:0:0:
320,192,94364,1,0,0:0:0:0:
192,192,94489,1,0,0:0:0:0:
64,192,94489,1,0,0:0:0:0:
64,192,94614,1,0,0:0:0:0:
192,192,94739,1,0,0:0:0:0:
448,192,94739,1,0,0:0:0:0:
192,192,94864,1,0,0:0:0:0:
320,192,94989,1,0,0:0:0:0:
448,192,94989,1,0,0:0:0:0:
448,192,95114,1,0,0:0:0:0:
64,192,95239,128,0,95364:0:0:0:0:
320,192,95239,1,0,0:0:0:0:
192,192,95364,128,0,95489:0:0:0:0:
448,192,95364,1,0,0:0:0:0:
448,192,95489,128,0,95614:0:0:0:0:
64,192,95489,1,0,0:0:0:0:
320,192,95614,128,0,95739:0:0:0:0:
192,192,95614,1,0,0:0:0:0:
64,192,95739,128,0,95864:0:0:0:0:
448,192,95739,1,0,0:0:0:0:
192,192,95864,128,0,95989:0:0:0:0:
320,192,95864,1,0,0:0:0:0:
448,192,95989,128,0,96239:0:0:0:0:
64,192,95989,1,0,0:0:0:0:
320,192,96239,1,0,0:0:0:0:
64,192,96239,1,0,0:0:0:0:
320,192,96364,1,0,0:0:0:0:
320,192,96489,1,0,0:0:0:0:
64,192,96614,1,0,0:0:0:0:
448,192,96614,1,0,0:0:0:0:
192,192,96614,128,0,96864:0:0:0:0:
320,192,96864,1,0,0:0:0:0:
64,192,96989,1,0,0:0:0:0:
192,192,96989,1,0,0:0:0:0:
448,192,96989,128,0,97239:0:0:0:0:
192,192,97239,1,0,0:0:0:0:
64,192,97239,1,0,0:0:0:0:
320,192,97364,1,0,0:0:0:0:
448,192,97364,1,0,0:0:0:0:
64,192,97489,1,0,0:0:0:0:
448,192,97489,1,0,0:0:0:0:
320,192,97551,1,0,0:0:0:0:
192,192,97614,1,0,0:0:0:0:
64,192,97676,1,0,0:0:0:0:
320,192,97739,1,0,0:0:0:0:
448,192,97739,1,0,0:0:0:0:
64,192,97801,1,0,0:0:0:0:
192,192,97864,1,0,0:0:0:0:
320,192,97926,1,0,0:0:0:0:
448,192,97989,1,0,0:0:0:0:
64,192,97989,1,0,0:0:0:0:
448,192,98239,1,0,0:0:0:0:
320,192,98239,1,0,0:0:0:0:
64,192,98239,128,0,99239:0:0:0:0:
192,192,98364,1,0,0:0:0:0:
320,192,98489,1,0,0:0:0:0:
448,192,98489,1,0,0:0:0:0:
192,192,98614,1,0,0:0:0:0:
320,192,98739,1,0,0:0:0:0:
448,192,98739,1,0,0:0:0:0:
192,192,98864,1,0,0:0:0:0:
448,192,98989,1,0,0:0:0:0:
320,192,98989,1,0,0:0:0:0:
192,192,99114,1,0,0:0:0:0:
320,192,99239,1,0,0:0:0:0:
448,192,99239,1,0,0:0:0:0:
192,192,99364,1,0,0:0:0:0:
64,192,99364,1,0,0:0:0:0:
320,192,99489,1,0,0:0:0:0:
192,192,99489,1,0,0:0:0:0:
320,192,99614,1,0,0:0:0:0:
448,192,99614,1,0,0:0:0:0:
64,192,99739,1,0,0:0:0:0:
192,192,99739,1,0,0:0:0:0:
320,192,99864,1,0,0:0:0:0:
448,192,99864,1,0,0:0:0:0:
192,192,99989,1,0,0:0:0:0:
64,192,99989,128,0,100239:0:0:0:0:
320,192,100239,1,0,0:0:0:0:
448,192,100239,1,0,0:0:0:0:
320,192,100364,1,0,0:0:0:0:
448,192,100489,1,0,0:0:0:0:
64,192,100489,1,0,0:0:0:0:
64,192,100614,1,0,0:0:0:0:
192,192,100739,1,0,0:0:0:0:
448,192,100739,1,0,0:0:0:0:
320,192,100864,1,0,0:0:0:0:
192,192,100926,1,0,0:0:0:0:
64,192,100989,1,0,0:0:0:0:
448,192,100989,1,0,0:0:0:0:
448,192,101114,1,0,0:0:0:0:
320,192,101239,1,0,0:0:0:0:
192,192,101239,1,0,0:0:0:0:
192,192,101364,1,0,0:0:0:0:
448,192,101489,1,0,0:0:0:0:
320,192,101489,1,0,0:0:0:0:
448,192,101614,1,0,0:0:0:0:
64,192,101739,1,0,0:0:0:0:
320,192,101739,1,0,0:0:0:0:
64,192,101864,1,0,0:0:0:0:
192,192,101989,1,0,0:0:0:0:
448,192,101989,1,0,0:0:0:0:
192,192,102114,1,0,0:0:0:0:
448,192,102239,1,0,0:0:0:0:
64,192,102239,1,0,0:0:0:0:
448,192,102364,1,0,0:0:0:0:
320,192,102489,1,0,0:0:0:0:
192,192,102489,1,0,0:0:0:0:
192,192,102614,1,0,0:0:0:0:
64,192,102739,1,0,0:0:0:0:
448,192,102739,1,0,0:0:0:0:
448,192,102864,1,0,0:0:0:0:
64,192,102989,1,0,0:0:0:0:
192,192,102989,1,0,0:0:0:0:
192,192,103114,1,0,0:0:0:0:
320,192,103239,1,0,0:0:0:0:
64,192,103239,1,0,0:0:0:0:
320,192,103364,1,0,0:0:0:0:
192,192,103489,1,0,0:0:0:0:
448,192,103489,1,0,0:0:0:0:
192,192,103614,1,0,0:0:0:0:
448,192,103739,1,0,0:0:0:0:
64,192,103739,1,0,0:0:0:0:
448,192,103864,1,0,0:0:0:0:
64,192,103989,1,0,0:0:0:0:
192,192,103989,1,0,0:0:0:0:
192,192,104114,1,0,0:0:0:0:
448,192,104239,128,0,105239:0:0:0:0:
320,192,104239,1,0,0:0:0:0:
64,192,104239,1,0,0:0:0:0:
192,192,104364,1,0,0:0:0:0:
64,192,104489,1,0,0:0:0:0:
320,192,104489,1,0,0:0:0:0:
192,192,104614,1,0,0:0:0:0:
64,192,104739,1,0,0:0:0:0:
320,192,104739,1,0,0:0:0:0:
192,192,104864,1,0,0:0:0:0:
64,192,104989,1,0,0:0:0:0:
320,192,104989,1,0,0:0:0:0:
192,192,105114,1,0,0:0:0:0:
320,192,105239,1,0,0:0:0:0:
64,192,105239,1,0,0:0:0:0:
192,192,105301,1,0,0:0:0:0:
320,192,105364,1,0,0:0:0:0:
448,192,105426,1,0,0:0:0:0:
192,192,105489,1,0,0:0:0:0:
320,192,105551,1,0,0:0:0:0:
192,192,105614,1,0,0:0:0:0:
320,192,105676,1,0,0:0:0:0:
64,192,105739,1,0,0:0:0:0:
192,192,105801,1,0,0:0:0:0:
448,192,105864,1,0,0:0:0:0:
320,192,105926,1,0,0:0:0:0:
192,192,105989,1,0,0:0:0:0:
64,192,106051,1,0,0:0:0:0:
320,192,106114,1,0,0:0:0:0:
448,192,106176,1,0,0:0:0:0:
192,192,106239,128,0,106489:0:0:0:0:
64,192,106239,1,0,0:0:0:0:
320,192,106239,1,0,0:0:0:0:
64,192,106364,1,0,0:0:0:0:
320,192,106489,128,0,106739:0:0:0:0:
448,192,106489,1,0,0:0:0:0:
64,192,106614,1,0,0:0:0:0:
64,192,106739,128,0,106864:0:0:0:0:
448,192,106739,1,0,0:0:0:0:
320,192,106864,128,0,106989:0:0:0:0:
192,192,106864,1,0,0:0:0:0:
64,192,106989,128,0,107114:0:0:0:0:
448,192,106989,1,0,0:0:0:0:
320,192,107114,128,0,107239:0:0:0:0:
192,192,107114,1,0,0:0:0:0:
448,192,107239,128,0,107489:0:0:0:0:
64,192,107239,1,0,0:0:0:0:
192,192,107364,1,0,0:0:0:0:
192,192,107489,128,0,107739:0:0:0:0:
320,192,107489,1,0,0:0:0:0:
448,192,107614,1,0,0:0:0:0:
64,192,107739,128,0,107864:0:0:0:0:
320,192,107739,1,0,0:0:0:0:
448,192,107864,128,0,107989:0:0:0:0:
192,192,107864,1,0,0:0:0:0:
192,192,107989,128,0,108114:0:0:0:0:
320,192,107989,1,0,0:0:0:0:
64,192,108114,128,0,108239:0:0:0:0:
320,192,108114,1,0,0:0:0:0:
192,192,108239,128,0,108489:0:0:0:0:
448,192,108239,1,0,0:0:0:0:
64,192,108364,1,0,0:0:0:0:
320,192,108489,128,0,108739:0:0:0:0:
448,192,108489,1,0,0:0:0:0:
192,192,108614,1,0,0:0:0:0:
64,192,108739,128,0,108864:0:0:0:0:
448,192,108739,1,0,0:0:0:0:
192,192,108864,128,0,108989:0:0:0:0:
448,192,108864,1,0,0:0:0:0:
64,192,108989,128,0,109114:0:0:0:0:
320,192,108989,1,0,0:0:0:0:
192,192,109114,128,0,109239:0:0:0:0:
448,192,109114,1,0,0:0:0:0:
448,192,109239,128,0,109489:0:0:0:0:
64,192,109239,1,0,0:0:0:0:
192,192,109364,1,0,0:0:0:0:
320,192,109489,128,0,109739:0:0:0:0:
64,192,109489,1,0,0:0:0:0:
192,192,109614,1,0,0:0:0:0:
448,192,109739,128,0,109989:0:0:0:0:
192,192,109739,128,0,109989:0:0:0:0:
64,192,109739,1,0,0:0:0:0:
320,192,109989,128,0,110239:0:0:0:0:
64,192,109989,1,0,0:0:0:0:
192,192,110114,1,0,0:0:0:0:
192,192,110239,128,0,110489:0:0:0:0:
64,192,110239,1,0,0:0:0:0:
448,192,110239,1,0,0:0:0:0:
448,192,110364,1,0,0:0:0:0:
320,192,110489,128,0,110739:0:0:0:0:
64,192,110489,1,0,0:0:0:0:
448,192,110614,1,0,0:0:0:0:
64,192,110739,128,0,110864:0:0:0:0:
192,192,110739,1,0,0:0:0:0:
320,192,110864,128,0,110989:0:0:0:0:
448,192,110864,1,0,0:0:0:0:
64,192,110989,128,0,111114:0:0:0:0:
192,192,110989,1,0,0:0:0:0:
320,192,111114,128,0,111239:0:0:0:0:
448,192,111114,1,0,0:0:0:0:
448,192,111239,128,0,111489:0:0:0:0:
192,192,111239,1,0,0:0:0:0:
64,192,111364,1,0,0:0:0:0:
192,192,111489,128,0,111739:0:0:0:0:
320,192,111489,1,0,0:0:0:0:
448,192,111614,1,0,0:0:0:0:
64,192,111739,128,0,111864:0:0:0:0:
320,192,111739,1,0,0:0:0:0:
448,192,111864,128,0,111989:0:0:0:0:
192,192,111864,1,0,0:0:0:0:
192,192,111989,128,0,112114:0:0:0:0:
320,192,111989,1,0,0:0:0:0:
64,192,112114,128,0,112239:0:0:0:0:
448,192,112239,1,0,0:0:0:0:
320,192,112239,1,0,0:0:0:0:
64,192,112301,1,0,0:0:0:0:
192,192,112364,1,0,0:0:0:0:
320,192,112426,1,0,0:0:0:0:
448,192,112489,1,0,0:0:0:0:
64,192,112489,1,0,0:0:0:0:
192,192,112551,1,0,0:0:0:0:
320,192,112614,1,0,0:0:0:0:
448,192,112676,1,0,0:0:0:0:
192,192,112739,1,0,0:0:0:0:
64,192,112739,1,0,0:0:0:0:
320,192,112801,1,0,0:0:0:0:
192,192,112864,1,0,0:0:0:0:
64,192,112926,1,0,0:0:0:0:
320,192,112989,1,0,0:0:0:0:
448,192,112989,1,0,0:0:0:0:
192,192,113051,1,0,0:0:0:0:
320,192,113114,1,0,0:0:0:0:
448,192,113176,1,0,0:0:0:0:
64,192,113239,128,0,114114:0:0:0:0:
192,192,113239,1,0,0:0:0:0:
448,192,113489,1,0,0:0:0:0:
320,192,113551,1,0,0:0:0:0:
192,192,113614,1,0,0:0:0:0:
320,192,113676,1,0,0:0:0:0:
448,192,113739,128,0,114114:0:0:0:0:
192,192,113864,1,0,0:0:0:0:
320,192,113926,1,0,0:0:0:0:
192,192,113989,1,0,0:0:0:0:
192,192,114114,1,0,0:0:0:0:
320,192,114114,1,0,0:0:0:0:
448,192,114239,1,0,0:0:0:0:
64,192,114239,1,0,0:0:0:0:
320,192,114301,1,0,0:0:0:0:
192,192,114364,1,0,0:0:0:0:
64,192,114426,1,0,0:0:0:0:
320,192,114489,1,0,0:0:0:0:
448,192,114489,1,0,0:0:0:0:
64,192,114551,1,0,0:0:0:0:
192,192,114614,1,0,0:0:0:0:
320,192,114676,1,0,0:0:0:0:
192,192,114739,1,0,0:0:0:0:
64,192,114739,1,0,0:0:0:0:
448,192,114801,1,0,0:0:0:0:
320,192,114864,1,0,0:0:0:0:
192,192,114926,1,0,0:0:0:0:
64,192,114989,1,0,0:0:0:0:
448,192,114989,1,0,0:0:0:0:
320,192,115051,1,0,0:0:0:0:
192,192,115114,1,0,0:0:0:0:
64,192,115176,1,0,0:0:0:0:
192,192,115239,1,0,0:0:0:0:
448,192,115239,1,0,0:0:0:0:
320,192,115301,1,0,0:0:0:0:
192,192,115364,1,0,0:0:0:0:
64,192,115426,1,0,0:0:0:0:
448,192,115489,1,0,0:0:0:0:
192,192,115489,1,0,0:0:0:0:
320,192,115551,1,0,0:0:0:0:
192,192,115614,1,0,0:0:0:0:
64,192,115676,1,0,0:0:0:0:
320,192,115739,1,0,0:0:0:0:
448,192,115739,1,0,0:0:0:0:
64,192,115801,1,0,0:0:0:0:
192,192,115864,1,0,0:0:0:0:
320,192,115926,1,0,0:0:0:0:
64,192,115989,1,0,0:0:0:0:
448,192,115989,1,0,0:0:0:0:
320,192,116051,1,0,0:0:0:0:
192,192,116114,1,0,0:0:0:0:
64,192,116176,1,0,0:0:0:0:
320,192,116239,1,0,0:0:0:0:
448,192,116239,1,0,0:0:0:0:
64,192,116301,1,0,0:0:0:0:
192,192,116364,1,0,0:0:0:0:
320,192,116426,1,0,0:0:0:0:
192,192,116489,1,0,0:0:0:0:
64,192,116489,1,0,0:0:0:0:
448,192,116551,1,0,0:0:0:0:
320,192,116614,1,0,0:0:0:0:
192,192,116676,1,0,0:0:0:0:
448,192,116739,1,0,0:0:0:0:
64,192,116739,1,0,0:0:0:0:
320,192,116801,1,0,0:0:0:0:
192,192,116864,1,0,0:0:0:0:
64,192,116926,1,0,0:0:0:0:
448,192,116989,1,0,0:0:0:0:
320,192,116989,1,0,0:0:0:0:
64,192,117051,1,0,0:0:0:0:
192,192,117114,1,0,0:0:0:0:
320,192,117176,1,0,0:0:0:0:
64,192,117239,1,0,0:0:0:0:
448,192,117239,1,0,0:0:0:0:
192,192,117301,1,0,0:0:0:0:
320,192,117364,1,0,0:0:0:0:
448,192,117426,1,0,0:0:0:0:
192,192,117489,1,0,0:0:0:0:
64,192,117489,1,0,0:0:0:0:
448,192,117551,1,0,0:0:0:0:
320,192,117614,1,0,0:0:0:0:
192,192,117676,1,0,0:0:0:0:
448,192,117739,1,0,0:0:0:0:
64,192,117739,1,0,0:0:0:0:
320,192,117801,1,0,0:0:0:0:
192,192,117864,1,0,0:0:0:0:
64,192,117926,1,0,0:0:0:0:
320,192,117989,1,0,0:0:0:0:
448,192,117989,1,0,0:0:0:0:
64,192,118051,1,0,0:0:0:0:
192,192,118114,1,0,0:0:0:0:
320,192,118176,1,0,0:0:0:0:
64,192,118239,1,0,0:0:0:0:
448,192,118239,1,0,0:0:0:0:
192,192,118301,1,0,0:0:0:0:
320,192,118364,1,0,0:0:0:0:
448,192,118426,1,0,0:0:0:0:
192,192,118489,1,0,0:0:0:0:
64,192,118489,1,0,0:0:0:0:
448,192,118551,1,0,0:0:0:0:
320,192,118614,1,0,0:0:0:0:
192,192,118676,1,0,0:0:0:0:
320,192,118739,1,0,0:0:0:0:
448,192,118739,1,0,0:0:0:0:
64,192,118801,1,0,0:0:0:0:
192,192,118864,1,0,0:0:0:0:
320,192,118926,1,0,0:0:0:0:
448,192,118989,1,0,0:0:0:0:
64,192,118989,1,0,0:0:0:0:
192,192,119051,1,0,0:0:0:0:
320,192,119114,1,0,0:0:0:0:
448,192,119176,1,0,0:0:0:0:
320,192,119239,1,0,0:0:0:0:
64,192,119239,1,0,0:0:0:0:
192,192,119301,1,0,0:0:0:0:
320,192,119364,1,0,0:0:0:0:
448,192,119426,1,0,0:0:0:0:
64,192,119489,1,0,0:0:0:0:
320,192,119489,1,0,0:0:0:0:
192,192,119551,1,0,0:0:0:0:
320,192,119614,1,0,0:0:0:0:
448,192,119676,1,0,0:0:0:0:
192,192,119739,1,0,0:0:0:0:
64,192,119739,1,0,0:0:0:0:
448,192,119801,1,0,0:0:0:0:
320,192,119864,1,0,0:0:0:0:
192,192,119926,1,0,0:0:0:0:
448,192,119989,1,0,0:0:0:0:
64,192,119989,1,0,0:0:0:0:
192,192,120051,1,0,0:0:0:0:
320,192,120114,1,0,0:0:0:0:
448,192,120176,1,0,0:0:0:0:
192,192,120239,1,0,0:0:0:0:
64,192,120239,1,0,0:0:0:0:
448,192,120301,1,0,0:0:0:0:
320,192,120364,1,0,0:0:0:0:
192,192,120426,1,0,0:0:0:0:
320,192,120489,1,0,0:0:0:0:
448,192,120489,1,0,0:0:0:0:
64,192,120551,1,0,0:0:0:0:
192,192,120614,1,0,0:0:0:0:
320,192,120676,1,0,0:0:0:0:
64,192,120739,1,0,0:0:0:0:
448,192,120739,1,0,0:0:0:0:
192,192,120801,1,0,0:0:0:0:
320,192,120864,1,0,0:0:0:0:
448,192,120926,1,0,0:0:0:0:
64,192,120989,1,0,0:0:0:0:
192,192,120989,1,0,0:0:0:0:
448,192,121051,1,0,0:0:0:0:
320,192,121114,1,0,0:0:0:0:
192,192,121176,1,0,0:0:0:0:
64,192,121239,128,0,122114:0:0:0:0:
448,192,121239,1,0,0:0:0:0:
448,192,121739,128,0,122114:0:0:0:0:
320,192,121739,1,0,0:0:0:0:
192,192,121739,1,0,0:0:0:0:
64,192,122239,5,0,0:0:0:0:
448,192,122239,1,0,0:0:0:0:
320,192,122239,1,0,0:0:0:0:
192,192,122364,1,0,0:0:0:0:
320,192,122426,1,0,0:0:0:0:
448,192,122489,1,0,0:0:0:0:
64,192,122489,1,0,0:0:0:0:
320,192,122614,1,0,0:0:0:0:
192,192,122676,1,0,0:0:0:0:
64,192,122739,1,0,0:0:0:0:
448,192,122739,1,0,0:0:0:0:
192,192,122801,1,0,0:0:0:0:
320,192,122864,1,0,0:0:0:0:
448,192,122926,1,0,0:0:0:0:
64,192,122989,1,0,0:0:0:0:
192,192,122989,1,0,0:0:0:0:
448,192,123051,1,0,0:0:0:0:
320,192,123114,1,0,0:0:0:0:
192,192,123176,1,0,0:0:0:0:
64,192,123239,1,0,0:0:0:0:
448,192,123239,1,0,0:0:0:0:
192,192,123301,1,0,0:0:0:0:
320,192,123364,1,0,0:0:0:0:
448,192,123426,1,0,0:0:0:0:
320,192,123489,1,0,0:0:0:0:
64,192,123489,1,0,0:0:0:0:
192,192,123551,1,0,0:0:0:0:
320,192,123614,1,0,0:0:0:0:
448,192,123676,1,0,0:0:0:0:
192,192,123739,1,0,0:0:0:0:
64,192,123739,1,0,0:0:0:0:
448,192,123801,1,0,0:0:0:0:
320,192,123864,1,0,0:0:0:0:
192,192,123926,1,0,0:0:0:0:
448,192,123989,1,0,0:0:0:0:
64,192,123989,1,0,0:0:0:0:
448,192,124239,1,0,0:0:0:0:
192,192,124239,1,0,0:0:0:0:
64,192,124239,1,0,0:0:0:0:
192,192,124364,1,0,0:0:0:0:
192,192,124489,1,0,0:0:0:0:
192,192,124614,1,0,0:0:0:0:
448,192,124739,1,0,0:0:0:0:
320,192,124739,1,0,0:0:0:0:
64,192,124739,1,0,0:0:0:0:
320,192,124864,1,0,0:0:0:0:
320,192,124989,1,0,0:0:0:0:
320,192,125114,1,0,0:0:0:0:
448,192,125239,1,0,0:0:0:0:
320,192,125239,1,0,0:0:0:0:
192,192,125239,1,0,0:0:0:0:
192,192,125364,1,0,0:0:0:0:
192,192,125489,1,0,0:0:0:0:
192,192,125614,1,0,0:0:0:0:
320,192,125739,1,0,0:0:0:0:
192,192,125739,1,0,0:0:0:0:
64,192,125739,1,0,0:0:0:0:
320,192,125864,1,0,0:0:0:0:
320,192,125989,1,0,0:0:0:0:
192,192,126051,1,0,0:0:0:0:
64,192,126114,1,0,0:0:0:0:
192,192,126176,1,0,0:0:0:0:
320,192,126239,1,0,0:0:0:0:
448,192,126239,1,0,0:0:0:0:
64,192,126239,1,0,0:0:0:0:
320,192,126364,1,0,0:0:0:0:
320,192,126489,1,0,0:0:0:0:
320,192,126614,1,0,0:0:0:0:
448,192,126739,1,0,0:0:0:0:
64,192,126739,1,0,0:0:0:0:
192,192,126739,1,0,0:0:0:0:
192,192,126864,1,0,0:0:0:0:
192,192,126989,1,0,0:0:0:0:
320,192,127051,1,0,0:0:0:0:
448,192,127114,1,0,0:0:0:0:
320,192,127176,1,0,0:0:0:0:
192,192,127239,1,0,0:0:0:0:
64,192,127239,1,0,0:0:0:0:
192,192,127364,1,0,0:0:0:0:
320,192,127364,1,0,0:0:0:0:
320,192,127489,1,0,0:0:0:0:
448,192,127489,1,0,0:0:0:0:
320,192,127614,1,0,0:0:0:0:
192,192,127614,1,0,0:0:0:0:
64,192,127739,1,0,0:0:0:0:
448,192,127739,1,0,0:0:0:0:
192,192,127864,1,0,0:0:0:0:
448,192,127864,1,0,0:0:0:0:
320,192,127989,1,0,0:0:0:0:
64,192,127989,1,0,0:0:0:0:
192,192,128114,1,0,0:0:0:0:
320,192,128114,1,0,0:0:0:0:
448,192,128239,1,0,0:0:0:0:
192,192,128239,1,0,0:0:0:0:
64,192,128239,1,0,0:0:0:0:
192,192,128364,1,0,0:0:0:0:
192,192,128489,1,0,0:0:0:0:
192,192,128614,1,0,0:0:0:0:
448,192,128739,1,0,0:0:0:0:
320,192,128739,1,0,0:0:0:0:
64,192,128739,1,0,0:0:0:0:
320,192,128864,1,0,0:0:0:0:
320,192,128989,1,0,0:0:0:0:
320,192,129114,1,0,0:0:0:0:
448,192,129239,1,0,0:0:0:0:
320,192,129239,1,0,0:0:0:0:
192,192,129239,1,0,0:0:0:0:
192,192,129364,1,0,0:0:0:0:
192,192,129489,1,0,0:0:0:0:
192,192,129614,1,0,0:0:0:0:
320,192,129739,1,0,0:0:0:0:
192,192,129739,1,0,0:0:0:0:
64,192,129739,1,0,0:0:0:0:
320,192,129864,1,0,0:0:0:0:
320,192,129989,1,0,0:0:0:0:
320,192,130114,1,0,0:0:0:0:
448,192,130239,1,0,0:0:0:0:
64,192,130239,1,0,0:0:0:0:
320,192,130301,1,0,0:0:0:0:
192,192,130364,1,0,0:0:0:0:
64,192,130426,1,0,0:0:0:0:
448,192,130489,1,0,0:0:0:0:
320,192,130489,1,0,0:0:0:0:
192,192,130551,1,0,0:0:0:0:
320,192,130614,1,0,0:0:0:0:
448,192,130676,1,0,0:0:0:0:
192,192,130739,1,0,0:0:0:0:
64,192,130739,1,0,0:0:0:0:
448,192,130801,1,0,0:0:0:0:
320,192,130864,1,0,0:0:0:0:
192,192,130926,1,0,0:0:0:0:
64,192,130989,1,0,0:0:0:0:
448,192,130989,1,0,0:0:0:0:
320,192,131051,1,0,0:0:0:0:
192,192,131114,1,0,0:0:0:0:
64,192,131176,1,0,0:0:0:0:
320,192,131239,1,0,0:0:0:0:
448,192,131239,1,0,0:0:0:0:
64,192,131301,1,0,0:0:0:0:
192,192,131364,1,0,0:0:0:0:
320,192,131426,1,0,0:0:0:0:
448,192,131489,1,0,0:0:0:0:
64,192,131489,1,0,0:0:0:0:
320,192,131551,1,0,0:0:0:0:
192,192,131614,1,0,0:0:0:0:
64,192,131676,1,0,0:0:0:0:
320,192,131739,1,0,0:0:0:0:
448,192,131739,1,0,0:0:0:0:
192,192,131801,1,0,0:0:0:0:
320,192,131864,1,0,0:0:0:0:
448,192,131926,1,0,0:0:0:0:
192,192,131989,1,0,0:0:0:0:
64,192,131989,1,0,0:0:0:0:
448,192,132051,1,0,0:0:0:0:
320,192,132114,1,0,0:0:0:0:
192,192,132176,1,0,0:0:0:0:
64,192,132239,1,0,0:0:0:0:
320,192,132239,1,0,0:0:0:0:
448,192,132239,1,0,0:0:0:0:
320,192,132364,1,0,0:0:0:0:
320,192,132489,1,0,0:0:0:0:
320,192,132614,1,0,0:0:0:0:
192,192,132739,1,0,0:0:0:0:
192,192,132864,1,0,0:0:0:0:
192,192,132989,1,0,0:0:0:0:
192,192,133114,1,0,0:0:0:0:
320,192,133239,1,0,0:0:0:0:
192,192,133239,1,0,0:0:0:0:
64,192,133239,1,0,0:0:0:0:
320,192,133364,1,0,0:0:0:0:
320,192,133489,1,0,0:0:0:0:
320,192,133614,1,0,0:0:0:0:
64,192,133739,1,0,0:0:0:0:
64,192,133864,1,0,0:0:0:0:
64,192,133989,1,0,0:0:0:0:
448,192,134051,1,0,0:0:0:0:
320,192,134114,1,0,0:0:0:0:
192,192,134176,1,0,0:0:0:0:
64,192,134239,1,0,0:0:0:0:
320,192,134239,1,0,0:0:0:0:
448,192,134239,1,0,0:0:0:0:
320,192,134364,1,0,0:0:0:0:
320,192,134489,1,0,0:0:0:0:
320,192,134614,1,0,0:0:0:0:
192,192,134739,1,0,0:0:0:0:
192,192,134864,1,0,0:0:0:0:
192,192,134989,1,0,0:0:0:0:
192,192,135114,1,0,0:0:0:0:
64,192,135239,1,0,0:0:0:0:
320,192,135239,1,0,0:0:0:0:
448,192,135239,1,0,0:0:0:0:
64,192,135364,1,0,0:0:0:0:
192,192,135364,1,0,0:0:0:0:
320,192,135489,1,0,0:0:0:0:
448,192,135489,1,0,0:0:0:0:
64,192,135614,1,0,0:0:0:0:
448,192,135614,1,0,0:0:0:0:
192,192,135739,1,0,0:0:0:0:
448,192,135739,1,0,0:0:0:0:
320,192,135864,1,0,0:0:0:0:
64,192,135864,1,0,0:0:0:0:
192,192,135989,1,0,0:0:0:0:
320,192,135989,1,0,0:0:0:0:
448,192,136114,1,0,0:0:0:0:
64,192,136114,1,0,0:0:0:0:
448,192,136239,1,0,0:0:0:0:
192,192,136239,1,0,0:0:0:0:
64,192,136239,1,0,0:0:0:0:
192,192,136364,1,0,0:0:0:0:
192,192,136489,1,0,0:0:0:0:
192,192,136614,1,0,0:0:0:0:
320,192,136739,1,0,0:0:0:0:
320,192,136864,1,0,0:0:0:0:
320,192,136989,1,0,0:0:0:0:
64,192,137051,1,0,0:0:0:0:
192,192,137114,1,0,0:0:0:0:
320,192,137176,1,0,0:0:0:0:
448,192,137239,1,0,0:0:0:0:
192,192,137239,1,0,0:0:0:0:
64,192,137239,1,0,0:0:0:0:
192,192,137364,1,0,0:0:0:0:
192,192,137489,1,0,0:0:0:0:
192,192,137614,1,0,0:0:0:0:
448,192,137739,1,0,0:0:0:0:
448,192,137864,1,0,0:0:0:0:
448,192,137989,1,0,0:0:0:0:
448,192,138114,1,0,0:0:0:0:
320,192,138239,1,0,0:0:0:0:
192,192,138239,1,0,0:0:0:0:
64,192,138239,1,0,0:0:0:0:
320,192,138364,1,0,0:0:0:0:
320,192,138489,1,0,0:0:0:0:
448,192,138614,1,0,0:0:0:0:
320,192,138614,1,0,0:0:0:0:
64,192,138614,1,0,0:0:0:0:
64,192,138739,1,0,0:0:0:0:
64,192,138864,1,0,0:0:0:0:
448,192,138989,1,0,0:0:0:0:
320,192,138989,1,0,0:0:0:0:
192,192,139114,5,0,0:0:0:0:
64,192,139114,1,0,0:0:0:0:
448,192,139239,128,0,140114:0:0:0:0:
64,192,139239,1,0,0:0:0:0:
320,192,139239,1,0,0:0:0:0:
192,192,139489,1,0,0:0:0:0:
320,192,139551,1,0,0:0:0:0:
192,192,139614,1,0,0:0:0:0:
320,192,139676,1,0,0:0:0:0:
64,192,139739,128,0,140114:0:0:0:0:
448,192,140239,5,0,0:0:0:0:
64,192,140239,1,0,0:0:0:0:
320,192,140301,1,0,0:0:0:0:
192,192,140364,1,0,0:0:0:0:
64,192,140426,1,0,0:0:0:0:
320,192,140489,1,0,0:0:0:0:
448,192,140489,1,0,0:0:0:0:
64,192,140551,1,0,0:0:0:0:
192,192,140614,1,0,0:0:0:0:
320,192,140676,1,0,0:0:0:0:
192,192,140739,1,0,0:0:0:0:
64,192,140739,1,0,0:0:0:0:
448,192,140801,1,0,0:0:0:0:
320,192,140864,1,0,0:0:0:0:
192,192,140926,1,0,0:0:0:0:
64,192,140989,1,0,0:0:0:0:
448,192,140989,1,0,0:0:0:0:
320,192,141051,1,0,0:0:0:0:
192,192,141114,1,0,0:0:0:0:
64,192,141176,1,0,0:0:0:0:
320,192,141239,1,0,0:0:0:0:
448,192,141239,1,0,0:0:0:0:
192,192,141301,1,0,0:0:0:0:
320,192,141364,1,0,0:0:0:0:
448,192,141426,1,0,0:0:0:0:
64,192,141489,1,0,0:0:0:0:
192,192,141489,1,0,0:0:0:0:
448,192,141551,1,0,0:0:0:0:
320,192,141614,1,0,0:0:0:0:
192,192,141676,1,0,0:0:0:0:
64,192,141739,1,0,0:0:0:0:
448,192,141739,1,0,0:0:0:0:
320,192,141801,1,0,0:0:0:0:
192,192,141864,1,0,0:0:0:0:
64,192,141926,1,0,0:0:0:0:
320,192,141989,1,0,0:0:0:0:
448,192,141989,1,0,0:0:0:0:
64,192,142051,1,0,0:0:0:0:
192,192,142114,1,0,0:0:0:0:
320,192,142176,1,0,0:0:0:0:
448,192,142239,1,0,0:0:0:0:
64,192,142239,1,0,0:0:0:0:
192,192,142301,1,0,0:0:0:0:
320,192,142364,1,0,0:0:0:0:
192,192,142426,1,0,0:0:0:0:
64,192,142489,1,0,0:0:0:0:
448,192,142489,1,0,0:0:0:0:
320,192,142551,1,0,0:0:0:0:
192,192,142614,1,0,0:0:0:0:
64,192,142676,1,0,0:0:0:0:
320,192,142739,1,0,0:0:0:0:
448,192,142739,1,0,0:0:0:0:
64,192,142801,1,0,0:0:0:0:
192,192,142864,1,0,0:0:0:0:
320,192,142926,1,0,0:0:0:0:
448,192,142989,1,0,0:0:0:0:
64,192,142989,1,0,0:0:0:0:
320,192,143051,1,0,0:0:0:0:
192,192,143114,1,0,0:0:0:0:
320,192,143176,1,0,0:0:0:0:
448,192,143239,128,0,144239:0:0:0:0:
64,192,143239,1,0,0:0:0:0:
192,192,143364,1,0,0:0:0:0:
320,192,143489,1,0,0:0:0:0:
64,192,143489,1,0,0:0:0:0:
192,192,143614,1,0,0:0:0:0:
64,192,143739,1,0,0:0:0:0:
320,192,143739,1,0,0:0:0:0:
192,192,143864,1,0,0:0:0:0:
64,192,143989,1,0,0:0:0:0:
320,192,143989,1,0,0:0:0:0:
192,192,144114,1,0,0:0:0:0:
64,192,144239,128,0,145239:0:0:0:0:
320,192,144239,1,0,0:0:0:0:
192,192,144239,1,0,0:0:0:0:
448,192,144364,1,0,0:0:0:0:
320,192,144489,1,0,0:0:0:0:
192,192,144489,1,0,0:0:0:0:
448,192,144614,1,0,0:0:0:0:
320,192,144739,1,0,0:0:0:0:
192,192,144739,1,0,0:0:0:0:
448,192,144864,1,0,0:0:0:0:
320,192,144989,1,0,0:0:0:0:
192,192,144989,1,0,0:0:0:0:
448,192,145114,1,0,0:0:0:0:
192,192,145239,1,0,0:0:0:0:
320,192,145239,1,0,0:0:0:0:
448,192,145364,1,0,0:0:0:0:
64,192,145364,1,0,0:0:0:0:
192,192,145489,1,0,0:0:0:0:
448,192,145489,1,0,0:0:0:0:
320,192,145614,1,0,0:0:0:0:
64,192,145614,1,0,0:0:0:0:
64,192,145739,1,0,0:0:0:0:
192,192,145739,1,0,0:0:0:0:
320,192,145864,1,0,0:0:0:0:
448,192,145864,1,0,0:0:0:0:
64,192,145989,1,0,0:0:0:0:
448,192,145989,1,0,0:0:0:0:
320,192,146114,1,0,0:0:0:0:
192,192,146114,1,0,0:0:0:0:
448,192,146239,1,0,0:0:0:0:
64,192,146239,1,0,0:0:0:0:
192,192,146301,1,0,0:0:0:0:
320,192,146364,1,0,0:0:0:0:
448,192,146426,1,0,0:0:0:0:
64,192,146489,1,0,0:0:0:0:
192,192,146489,1,0,0:0:0:0:
320,192,146551,1,0,0:0:0:0:
192,192,146614,1,0,0:0:0:0:
64,192,146676,1,0,0:0:0:0:
320,192,146739,1,0,0:0:0:0:
448,192,146739,1,0,0:0:0:0:
64,192,146801,1,0,0:0:0:0:
192,192,146864,1,0,0:0:0:0:
320,192,146926,1,0,0:0:0:0:
448,192,146989,1,0,0:0:0:0:
64,192,146989,1,0,0:0:0:0:
320,192,147051,1,0,0:0:0:0:
192,192,147114,1,0,0:0:0:0:
64,192,147176,1,0,0:0:0:0:
448,192,147239,1,0,0:0:0:0:
320,192,147239,1,0,0:0:0:0:
192,192,147301,1,0,0:0:0:0:
320,192,147364,1,0,0:0:0:0:
448,192,147426,1,0,0:0:0:0:
192,192,147489,1,0,0:0:0:0:
64,192,147489,1,0,0:0:0:0:
448,192,147551,1,0,0:0:0:0:
320,192,147614,1,0,0:0:0:0:
192,192,147676,1,0,0:0:0:0:
64,192,147739,1,0,0:0:0:0:
448,192,147739,1,0,0:0:0:0:
320,192,147864,1,0,0:0:0:0:
192,192,147864,1,0,0:0:0:0:
64,192,147989,1,0,0:0:0:0:
448,192,147989,1,0,0:0:0:0:
320,192,148114,1,0,0:0:0:0:
192,192,148114,1,0,0:0:0:0:
448,192,148239,128,0,148614:0:0:0:0:
64,192,148239,1,0,0:0:0:0:
192,192,148364,1,0,0:0:0:0:
64,192,148489,1,0,0:0:0:0:
320,192,148489,1,0,0:0:0:0:
192,192,148614,128,0,148989:0:0:0:0:
64,192,148739,1,0,0:0:0:0:
448,192,148739,1,0,0:0:0:0:
320,192,148864,1,0,0:0:0:0:
448,192,148989,1,0,0:0:0:0:
64,192,148989,1,0,0:0:0:0:
192,192,149114,1,0,0:0:0:0:
320,192,149114,1,0,0:0:0:0:
192,192,149239,128,0,149364:0:0:0:0:
448,192,149239,1,0,0:0:0:0:
64,192,149364,128,0,149614:0:0:0:0:
320,192,149364,1,0,0:0:0:0:
448,192,149489,1,0,0:0:0:0:
192,192,149489,1,0,0:0:0:0:
320,192,149614,128,0,149864:0:0:0:0:
64,192,149739,1,0,0:0:0:0:
448,192,149739,1,0,0:0:0:0:
64,192,149864,1,0,0:0:0:0:
192,192,149864,1,0,0:0:0:0:
320,192,149989,1,0,0:0:0:0:
448,192,149989,1,0,0:0:0:0:
320,192,150114,1,0,0:0:0:0:
192,192,150114,1,0,0:0:0:0:
448,192,150239,1,0,0:0:0:0:
64,192,150239,1,0,0:0:0:0:
192,192,150301,1,0,0:0:0:0:
320,192,150364,1,0,0:0:0:0:
448,192,150426,1,0,0:0:0:0:
192,192,150489,1,0,0:0:0:0:
64,192,150489,1,0,0:0:0:0:
320,192,150551,1,0,0:0:0:0:
192,192,150614,1,0,0:0:0:0:
64,192,150676,1,0,0:0:0:0:
320,192,150739,1,0,0:0:0:0:
448,192,150739,1,0,0:0:0:0:
192,192,150801,1,0,0:0:0:0:
320,192,150864,1,0,0:0:0:0:
448,192,150926,1,0,0:0:0:0:
64,192,150989,1,0,0:0:0:0:
192,192,150989,1,0,0:0:0:0:
448,192,151051,1,0,0:0:0:0:
320,192,151114,1,0,0:0:0:0:
192,192,151176,1,0,0:0:0:0:
448,192,151239,1,0,0:0:0:0:
64,192,151239,1,0,0:0:0:0:
320,192,151301,1,0,0:0:0:0:
192,192,151364,1,0,0:0:0:0:
64,192,151426,1,0,0:0:0:0:
320,192,151489,1,0,0:0:0:0:
448,192,151489,1,0,0:0:0:0:
64,192,151551,1,0,0:0:0:0:
192,192,151614,1,0,0:0:0:0:
320,192,151676,1,0,0:0:0:0:
448,192,151739,1,0,0:0:0:0:
64,192,151739,1,0,0:0:0:0:
192,192,151801,1,0,0:0:0:0:
320,192,151864,1,0,0:0:0:0:
448,192,151926,1,0,0:0:0:0:
192,192,151989,1,0,0:0:0:0:
64,192,151989,1,0,0:0:0:0:
448,192,152051,1,0,0:0:0:0:
320,192,152114,1,0,0:0:0:0:
192,192,152176,1,0,0:0:0:0:
448,192,152239,1,0,0:0:0:0:
64,192,152239,128,0,152489:0:0:0:0:
320,192,152239,1,0,0:0:0:0:
192,192,152364,1,0,0:0:0:0:
320,192,152489,1,0,0:0:0:0:
448,192,152489,1,0,0:0:0:0:
64,192,152614,1,0,0:0:0:0:
448,192,152614,1,0,0:0:0:0:
192,192,152739,1,0,0:0:0:0:
64,192,152739,1,0,0:0:0:0:
192,192,152864,1,0,0:0:0:0:
320,192,152864,1,0,0:0:0:0:
64,192,152989,1,0,0:0:0:0:
320,192,152989,1,0,0:0:0:0:
192,192,153114,1,0,0:0:0:0:
448,192,153114,1,0,0:0:0:0:
320,192,153239,1,0,0:0:0:0:
448,192,153239,1,0,0:0:0:0:
64,192,153364,1,0,0:0:0:0:
192,192,153364,1,0,0:0:0:0:
64,192,153489,1,0,0:0:0:0:
448,192,153489,1,0,0:0:0:0:
320,192,153614,1,0,0:0:0:0:
192,192,153614,1,0,0:0:0:0:
448,192,153739,1,0,0:0:0:0:
320,192,153739,1,0,0:0:0:0:
64,192,153864,1,0,0:0:0:0:
448,192,153864,1,0,0:0:0:0:
192,192,153989,1,0,0:0:0:0:
64,192,153989,1,0,0:0:0:0:
320,192,154114,1,0,0:0:0:0:
448,192,154114,1,0,0:0:0:0:
64,192,154239,1,0,0:0:0:0:
192,192,154239,1,0,0:0:0:0:
448,192,154239,1,0,0:0:0:0:
192,192,154364,1,0,0:0:0:0:
192,192,154489,1,0,0:0:0:0:
64,192,154614,1,0,0:0:0:0:
320,192,154614,1,0,0:0:0:0:
448,192,154614,1,0,0:0:0:0:
320,192,154739,1,0,0:0:0:0:
320,192,154864,1,0,0:0:0:0:
448,192,154989,1,0,0:0:0:0:
64,192,154989,1,0,0:0:0:0:
320,192,155051,1,0,0:0:0:0:
192,192,155114,1,0,0:0:0:0:
64,192,155176,1,0,0:0:0:0:
320,192,155239,1,0,0:0:0:0:
448,192,155239,1,0,0:0:0:0:
64,192,155301,1,0,0:0:0:0:
192,192,155364,1,0,0:0:0:0:
320,192,155426,1,0,0:0:0:0:
448,192,155489,1,0,0:0:0:0:
64,192,155489,1,0,0:0:0:0:
320,192,155551,1,0,0:0:0:0:
192,192,155614,1,0,0:0:0:0:
64,192,155676,1,0,0:0:0:0:
320,192,155739,1,0,0:0:0:0:
448,192,155739,1,0,0:0:0:0:
192,192,155801,1,0,0:0:0:0:
320,192,155864,1,0,0:0:0:0:
448,192,155926,1,0,0:0:0:0:
192,192,155989,1,0,0:0:0:0:
64,192,155989,1,0,0:0:0:0:
448,192,156051,1,0,0:0:0:0:
320,192,156114,1,0,0:0:0:0:
192,192,156176,1,0,0:0:0:0:
64,192,156239,1,0,0:0:0:0:
448,192,156239,1,0,0:0:0:0:
192,192,156364,1,0,0:0:0:0:
320,192,156364,1,0,0:0:0:0:
448,192,156489,1,0,0:0:0:0:
64,192,156489,1,0,0:0:0:0:
320,192,156551,1,0,0:0:0:0:
192,192,156614,1,0,0:0:0:0:
64,192,156676,1,0,0:0:0:0:
448,192,156739,1,0,0:0:0:0:
320,192,156739,1,0,0:0:0:0:
192,192,156801,1,0,0:0:0:0:
320,192,156864,1,0,0:0:0:0:
448,192,156926,1,0,0:0:0:0:
64,192,156989,1,0,0:0:0:0:
192,192,156989,1,0,0:0:0:0:
448,192,157051,1,0,0:0:0:0:
320,192,157114,1,0,0:0:0:0:
192,192,157176,1,0,0:0:0:0:
64,192,157239,1,0,0:0:0:0:
448,192,157239,1,0,0:0:0:0:
320,192,157301,1,0,0:0:0:0:
192,192,157364,1,0,0:0:0:0:
64,192,157426,1,0,0:0:0:0:
320,192,157489,1,0,0:0:0:0:
448,192,157489,1,0,0:0:0:0:
64,192,157551,1,0,0:0:0:0:
192,192,157614,1,0,0:0:0:0:
320,192,157676,1,0,0:0:0:0:
64,192,157739,1,0,0:0:0:0:
448,192,157739,128,0,158239:0:0:0:0:
320,192,157864,1,0,0:0:0:0:
192,192,157926,1,0,0:0:0:0:
64,192,157989,1,0,0:0:0:0:
320,192,158114,1,0,0:0:0:0:
192,192,158176,1,0,0:0:0:0:
64,192,158239,1,0,0:0:0:0:
320,192,158239,1,0,0:0:0:0:
320,192,158364,1,0,0:0:0:0:
448,192,158489,1,0,0:0:0:0:
192,192,158489,1,0,0:0:0:0:
192,192,158614,1,0,0:0:0:0:
64,192,158739,1,0,0:0:0:0:
448,192,158739,1,0,0:0:0:0:
448,192,158864,1,0,0:0:0:0:
320,192,158989,1,0,0:0:0:0:
192,192,158989,1,0,0:0:0:0:
192,192,159114,1,0,0:0:0:0:
64,192,159239,1,0,0:0:0:0:
320,192,159239,1,0,0:0:0:0:
320,192,159364,1,0,0:0:0:0:
448,192,159489,1,0,0:0:0:0:
64,192,159489,1,0,0:0:0:0:
64,192,159614,1,0,0:0:0:0:
320,192,159739,1,0,0:0:0:0:
448,192,159739,1,0,0:0:0:0:
320,192,159864,1,0,0:0:0:0:
192,192,159989,1,0,0:0:0:0:
448,192,159989,1,0,0:0:0:0:
192,192,160114,1,0,0:0:0:0:
320,192,160239,1,0,0:0:0:0:
64,192,160239,1,0,0:0:0:0:
320,192,160364,1,0,0:0:0:0:
64,192,160489,1,0,0:0:0:0:
192,192,160489,1,0,0:0:0:0:
192,192,160614,1,0,0:0:0:0:
448,192,160739,1,0,0:0:0:0:
64,192,160739,1,0,0:0:0:0:
64,192,160864,1,0,0:0:0:0:
192,192,160989,1,0,0:0:0:0:
320,192,160989,1,0,0:0:0:0:
320,192,161114,1,0,0:0:0:0:
192,192,161239,1,0,0:0:0:0:
448,192,161239,1,0,0:0:0:0:
192,192,161364,1,0,0:0:0:0:
448,192,161489,1,0,0:0:0:0:
320,192,161489,1,0,0:0:0:0:
320,192,161614,1,0,0:0:0:0:
64,192,161739,1,0,0:0:0:0:
448,192,161739,1,0,0:0:0:0:
64,192,161864,1,0,0:0:0:0:
192,192,161989,1,0,0:0:0:0:
320,192,161989,1,0,0:0:0:0:
320,192,162114,1,0,0:0:0:0:
448,192,162239,128,0,163239:0:0:0:0:
64,192,162239,1,0,0:0:0:0:
192,192,162239,1,0,0:0:0:0:
320,192,162364,1,0,0:0:0:0:
192,192,162489,1,0,0:0:0:0:
64,192,162489,1,0,0:0:0:0:
320,192,162614,1,0,0:0:0:0:
192,192,162739,1,0,0:0:0:0:
64,192,162739,1,0,0:0:0:0:
320,192,162864,1,0,0:0:0:0:
192,192,162989,1,0,0:0:0:0:
64,192,162989,1,0,0:0:0:0:
320,192,163114,1,0,0:0:0:0:
192,192,163239,1,0,0:0:0:0:
64,192,163239,1,0,0:0:0:0:
448,192,163301,1,0,0:0:0:0:
320,192,163364,1,0,0:0:0:0:
192,192,163426,1,0,0:0:0:0:
64,192,163489,1,0,0:0:0:0:
448,192,163489,1,0,0:0:0:0:
192,192,163551,1,0,0:0:0:0:
320,192,163614,1,0,0:0:0:0:
448,192,163676,1,0,0:0:0:0:
192,192,163739,1,0,0:0:0:0:
64,192,163739,1,0,0:0:0:0:
320,192,163801,1,0,0:0:0:0:
192,192,163864,1,0,0:0:0:0:
64,192,163926,1,0,0:0:0:0:
320,192,163989,1,0,0:0:0:0:
448,192,163989,1,0,0:0:0:0:
192,192,164239,1,0,0:0:0:0:
64,192,164239,1,0,0:0:0:0:
64,192,164364,1,0,0:0:0:0:
192,192,164364,1,0,0:0:0:0:
64,192,164489,1,0,0:0:0:0:
448,192,164489,1,0,0:0:0:0:
448,192,164614,1,0,0:0:0:0:
64,192,164614,1,0,0:0:0:0:
192,192,164739,1,0,0:0:0:0:
320,192,164739,1,0,0:0:0:0:
320,192,164864,1,0,0:0:0:0:
192,192,164864,1,0,0:0:0:0:
448,192,164989,1,0,0:0:0:0:
320,192,164989,1,0,0:0:0:0:
320,192,165114,1,0,0:0:0:0:
448,192,165114,1,0,0:0:0:0:
64,192,165239,1,0,0:0:0:0:
320,192,165239,1,0,0:0:0:0:
64,192,165364,1,0,0:0:0:0:
320,192,165364,1,0,0:0:0:0:
192,192,165489,1,0,0:0:0:0:
448,192,165489,1,0,0:0:0:0:
448,192,165614,1,0,0:0:0:0:
192,192,165614,1,0,0:0:0:0:
64,192,165739,1,0,0:0:0:0:
448,192,165739,1,0,0:0:0:0:
448,192,165864,1,0,0:0:0:0:
64,192,165864,1,0,0:0:0:0:
192,192,165989,1,0,0:0:0:0:
320,192,165989,1,0,0:0:0:0:
320,192,166114,1,0,0:0:0:0:
192,192,166114,1,0,0:0:0:0:
448,192,166239,1,0,0:0:0:0:
64,192,166239,1,0,0:0:0:0:
320,192,166301,1,0,0:0:0:0:
192,192,166364,1,0,0:0:0:0:
64,192,166426,1,0,0:0:0:0:
320,192,166489,1,0,0:0:0:0:
448,192,166489,1,0,0:0:0:0:
192,192,166551,1,0,0:0:0:0:
320,192,166614,1,0,0:0:0:0:
448,192,166676,1,0,0:0:0:0:
64,192,166739,1,0,0:0:0:0:
192,192,166739,1,0,0:0:0:0:
448,192,166801,1,0,0:0:0:0:
320,192,166864,1,0,0:0:0:0:
192,192,166926,1,0,0:0:0:0:
64,192,166989,1,0,0:0:0:0:
448,192,166989,1,0,0:0:0:0:
320,192,167051,1,0,0:0:0:0:
192,192,167114,1,0,0:0:0:0:
64,192,167176,1,0,0:0:0:0:
320,192,167239,1,0,0:0:0:0:
448,192,167239,1,0,0:0:0:0:
64,192,167739,1,0,0:0:0:0:
192,192,167801,1,0,0:0:0:0:
320,192,167864,1,0,0:0:0:0:
448,192,167926,1,0,0:0:0:0:
64,192,167989,1,0,0:0:0:0:
192,192,168051,1,0,0:0:0:0:
320,192,168114,1,0,0:0:0:0:
448,192,168176,1,0,0:0:0:0:
192,192,168239,128,0,168489:0:0:0:0:
64,192,168239,1,0,0:0:0:0:
320,192,168239,1,0,0:0:0:0:
448,192,168364,1,0,0:0:0:0:
320,192,168489,128,0,168739:0:0:0:0:
64,192,168489,1,0,0:0:0:0:
192,192,168614,1,0,0:0:0:0:
64,192,168739,128,0,168864:0:0:0:0:
448,192,168739,1,0,0:0:0:0:
320,192,168864,128,0,168989:0:0:0:0:
192,192,168864,1,0,0:0:0:0:
64,192,168989,128,0,169114:0:0:0:0:
448,192,168989,1,0,0:0:0:0:
320,192,169114,128,0,169239:0:0:0:0:
192,192,169114,1,0,0:0:0:0:
448,192,169239,128,0,169489:0:0:0:0:
64,192,169239,1,0,0:0:0:0:
64,192,169364,1,0,0:0:0:0:
192,192,169489,128,0,169739:0:0:0:0:
320,192,169489,1,0,0:0:0:0:
448,192,169614,1,0,0:0:0:0:
64,192,169739,128,0,169864:0:0:0:0:
320,192,169739,1,0,0:0:0:0:
448,192,169864,128,0,169989:0:0:0:0:
192,192,169864,1,0,0:0:0:0:
192,192,169989,128,0,170114:0:0:0:0:
320,192,169989,1,0,0:0:0:0:
64,192,170114,128,0,170239:0:0:0:0:
448,192,170114,1,0,0:0:0:0:
192,192,170239,128,0,170489:0:0:0:0:
320,192,170239,1,0,0:0:0:0:
64,192,170364,1,0,0:0:0:0:
320,192,170489,128,0,170739:0:0:0:0:
448,192,170489,1,0,0:0:0:0:
192,192,170614,1,0,0:0:0:0:
64,192,170739,128,0,170864:0:0:0:0:
448,192,170739,1,0,0:0:0:0:
192,192,170864,128,0,170989:0:0:0:0:
320,192,170864,1,0,0:0:0:0:
64,192,170989,128,0,171114:0:0:0:0:
448,192,170989,1,0,0:0:0:0:
192,192,171114,128,0,171239:0:0:0:0:
320,192,171114,1,0,0:0:0:0:
448,192,171239,128,0,171489:0:0:0:0:
64,192,171239,1,0,0:0:0:0:
192,192,171364,1,0,0:0:0:0:
320,192,171489,128,0,171739:0:0:0:0:
64,192,171489,1,0,0:0:0:0:
192,192,171614,1,0,0:0:0:0:
448,192,171739,128,0,171989:0:0:0:0:
192,192,171739,128,0,171989:0:0:0:0:
64,192,171739,1,0,0:0:0:0:
320,192,171989,128,0,172239:0:0:0:0:
64,192,171989,1,0,0:0:0:0:
192,192,172114,1,0,0:0:0:0:
192,192,172239,128,0,172489:0:0:0:0:
64,192,172239,1,0,0:0:0:0:
448,192,172239,1,0,0:0:0:0:
448,192,172364,1,0,0:0:0:0:
320,192,172489,128,0,172739:0:0:0:0:
64,192,172489,1,0,0:0:0:0:
192,192,172614,1,0,0:0:0:0:
64,192,172739,128,0,172864:0:0:0:0:
448,192,172739,1,0,0:0:0:0:
320,192,172864,128,0,172989:0:0:0:0:
192,192,172864,1,0,0:0:0:0:
64,192,172989,128,0,173114:0:0:0:0:
448,192,172989,1,0,0:0:0:0:
320,192,173114,128,0,173239:0:0:0:0:
192,192,173114,1,0,0:0:0:0:
448,192,173239,128,0,173489:0:0:0:0:
64,192,173239,1,0,0:0:0:0:
64,192,173364,1,0,0:0:0:0:
192,192,173489,128,0,173739:0:0:0:0:
320,192,173489,1,0,0:0:0:0:
448,192,173614,1,0,0:0:0:0:
64,192,173739,128,0,173864:0:0:0:0:
320,192,173739,1,0,0:0:0:0:
448,192,173864,128,0,173989:0:0:0:0:
192,192,173864,1,0,0:0:0:0:
192,192,173989,128,0,174114:0:0:0:0:
320,192,173989,1,0,0:0:0:0:
64,192,174114,128,0,174239:0:0:0:0:
448,192,174239,1,0,0:0:0:0:
320,192,174239,1,0,0:0:0:0:
64,192,174301,1,0,0:0:0:0:
192,192,174364,1,0,0:0:0:0:
320,192,174426,1,0,0:0:0:0:
448,192,174489,1,0,0:0:0:0:
64,192,174489,1,0,0:0:0:0:
320,192,174551,1,0,0:0:0:0:
192,192,174614,1,0,0:0:0:0:
64,192,174676,1,0,0:0:0:0:
320,192,174739,1,0,0:0:0:0:
448,192,174739,1,0,0:0:0:0:
192,192,174801,1,0,0:0:0:0:
320,192,174864,1,0,0:0:0:0:
448,192,174926,1,0,0:0:0:0:
192,192,174989,1,0,0:0:0:0:
64,192,174989,1,0,0:0:0:0:
320,192,175051,1,0,0:0:0:0:
192,192,175114,1,0,0:0:0:0:
64,192,175176,1,0,0:0:0:0:
448,192,175239,128,0,176114:0:0:0:0:
320,192,175239,1,0,0:0:0:0:
192,192,175301,1,0,0:0:0:0:
64,192,175364,1,0,0:0:0:0:
192,192,175426,1,0,0:0:0:0:
320,192,175489,1,0,0:0:0:0:
192,192,175551,1,0,0:0:0:0:
64,192,175614,1,0,0:0:0:0:
192,192,175676,1,0,0:0:0:0:
320,192,175739,128,0,176114:0:0:0:0:
192,192,175989,1,0,0:0:0:0:
64,192,175989,1,0,0:0:0:0:
448,192,176239,1,0,0:0:0:0:
64,192,176239,1,0,0:0:0:0:
320,192,176301,1,0,0:0:0:0:
192,192,176364,1,0,0:0:0:0:
320,192,176426,1,0,0:0:0:0:
448,192,176489,1,0,0:0:0:0:
64,192,176489,1,0,0:0:0:0:
192,192,176551,1,0,0:0:0:0:
320,192,176614,1,0,0:0:0:0:
448,192,176676,1,0,0:0:0:0:
192,192,176739,1,0,0:0:0:0:
64,192,176739,1,0,0:0:0:0:
320,192,176801,1,0,0:0:0:0:
192,192,176864,1,0,0:0:0:0:
64,192,176926,1,0,0:0:0:0:
320,192,176989,1,0,0:0:0:0:
448,192,176989,1,0,0:0:0:0:
64,192,177051,1,0,0:0:0:0:
192,192,177114,1,0,0:0:0:0:
320,192,177176,1,0,0:0:0:0:
448,192,177239,1,0,0:0:0:0:
64,192,177239,1,0,0:0:0:0:
192,192,177301,1,0,0:0:0:0:
320,192,177364,1,0,0:0:0:0:
192,192,177426,1,0,0:0:0:0:
448,192,177489,1,0,0:0:0:0:
64,192,177489,1,0,0:0:0:0:
320,192,177551,1,0,0:0:0:0:
192,192,177614,1,0,0:0:0:0:
64,192,177676,1,0,0:0:0:0:
320,192,177739,1,0,0:0:0:0:
448,192,177739,1,0,0:0:0:0:
64,192,177801,1,0,0:0:0:0:
192,192,177864,1,0,0:0:0:0:
320,192,177926,1,0,0:0:0:0:
448,192,177989,1,0,0:0:0:0:
64,192,177989,1,0,0:0:0:0:
320,192,178051,1,0,0:0:0:0:
192,192,178114,1,0,0:0:0:0:
64,192,178176,1,0,0:0:0:0:
320,192,178239,1,0,0:0:0:0:
448,192,178239,1,0,0:0:0:0:
64,192,178301,1,0,0:0:0:0:
192,192,178364,1,0,0:0:0:0:
320,192,178426,1,0,0:0:0:0:
192,192,178489,1,0,0:0:0:0:
64,192,178489,1,0,0:0:0:0:
448,192,178551,1,0,0:0:0:0:
320,192,178614,1,0,0:0:0:0:
192,192,178676,1,0,0:0:0:0:
64,192,178739,1,0,0:0:0:0:
448,192,178739,1,0,0:0:0:0:
320,192,178801,1,0,0:0:0:0:
192,192,178864,1,0,0:0:0:0:
320,192,178926,1,0,0:0:0:0:
64,192,178989,1,0,0:0:0:0:
448,192,178989,1,0,0:0:0:0:
192,192,179051,1,0,0:0:0:0:
320,192,179114,1,0,0:0:0:0:
448,192,179176,1,0,0:0:0:0:
192,192,179239,1,0,0:0:0:0:
64,192,179239,1,0,0:0:0:0:
448,192,179301,1,0,0:0:0:0:
320,192,179364,1,0,0:0:0:0:
192,192,179426,1,0,0:0:0:0:
64,192,179489,1,0,0:0:0:0:
448,192,179489,1,0,0:0:0:0:
320,192,179551,1,0,0:0:0:0:
192,192,179614,1,0,0:0:0:0:
64,192,179676,1,0,0:0:0:0:
448,192,179739,1,0,0:0:0:0:
320,192,179739,1,0,0:0:0:0:
192,192,179801,1,0,0:0:0:0:
320,192,179864,1,0,0:0:0:0:
448,192,179926,1,0,0:0:0:0:
192,192,179989,1,0,0:0:0:0:
64,192,179989,1,0,0:0:0:0:
320,192,180051,1,0,0:0:0:0:
192,192,180114,1,0,0:0:0:0:
64,192,180176,1,0,0:0:0:0:
448,192,180239,1,0,0:0:0:0:
320,192,180239,1,0,0:0:0:0:
64,192,180301,1,0,0:0:0:0:
192,192,180364,1,0,0:0:0:0:
320,192,180426,1,0,0:0:0:0:
448,192,180489,1,0,0:0:0:0:
64,192,180489,1,0,0:0:0:0:
192,192,180551,1,0,0:0:0:0:
320,192,180614,1,0,0:0:0:0:
192,192,180676,1,0,0:0:0:0:
64,192,180739,1,0,0:0:0:0:
448,192,180739,1,0,0:0:0:0:
320,192,180801,1,0,0:0:0:0:
192,192,180864,1,0,0:0:0:0:
64,192,180926,1,0,0:0:0:0:
320,192,180989,1,0,0:0:0:0:
448,192,180989,1,0,0:0:0:0:
64,192,181051,1,0,0:0:0:0:
192,192,181114,1,0,0:0:0:0:
320,192,181176,1,0,0:0:0:0:
448,192,181239,1,0,0:0:0:0:
64,192,181239,1,0,0:0:0:0:
192,192,181301,1,0,0:0:0:0:
320,192,181364,1,0,0:0:0:0:
192,192,181426,1,0,0:0:0:0:
448,192,181489,1,0,0:0:0:0:
64,192,181489,1,0,0:0:0:0:
320,192,181551,1,0,0:0:0:0:
192,192,181614,1,0,0:0:0:0:
64,192,181676,1,0,0:0:0:0:
320,192,181739,1,0,0:0:0:0:
448,192,181739,1,0,0:0:0:0:
192,192,181801,1,0,0:0:0:0:
320,192,181864,1,0,0:0:0:0:
448,192,181926,1,0,0:0:0:0:
64,192,181989,1,0,0:0:0:0:
192,192,181989,1,0,0:0:0:0:
448,192,182051,1,0,0:0:0:0:
320,192,182114,1,0,0:0:0:0:
192,192,182176,1,0,0:0:0:0:
64,192,182239,1,0,0:0:0:0:
448,192,182239,1,0,0:0:0:0:
320,192,182301,1,0,0:0:0:0:
192,192,182364,1,0,0:0:0:0:
320,192,182426,1,0,0:0:0:0:
64,192,182489,1,0,0:0:0:0:
448,192,182489,1,0,0:0:0:0:
192,192,182551,1,0,0:0:0:0:
320,192,182614,1,0,0:0:0:0:
448,192,182676,1,0,0:0:0:0:
192,192,182739,1,0,0:0:0:0:
64,192,182739,1,0,0:0:0:0:
448,192,182801,1,0,0:0:0:0:
320,192,182864,1,0,0:0:0:0:
192,192,182926,1,0,0:0:0:0:
64,192,182989,1,0,0:0:0:0:
448,192,182989,1,0,0:0:0:0:
192,192,183051,1,0,0:0:0:0:
320,192,183114,1,0,0:0:0:0:
192,192,183176,1,0,0:0:0:0:
64,192,183239,128,0,184114:0:0:0:0:
448,192,183239,1,0,0:0:0:0:
448,192,183739,128,0,184114:0:0:0:0:
192,192,183739,1,0,0:0:0:0:
320,192,183739,1,0,0:0:0:0:
64,192,184239,1,0,0:0:0:0:
192,192,184239,1,0,0:0:0:0:
64,192,184364,1,0,0:0:0:0:
448,192,184364,1,0,0:0:0:0:
192,192,184489,1,0,0:0:0:0:
320,192,184489,1,0,0:0:0:0:
448,192,184614,1,0,0:0:0:0:
64,192,184614,1,0,0:0:0:0:
192,192,184739,1,0,0:0:0:0:
448,192,184739,1,0,0:0:0:0:
320,192,184864,1,0,0:0:0:0:
64,192,184864,1,0,0:0:0:0:
192,192,184989,1,0,0:0:0:0:
320,192,184989,1,0,0:0:0:0:
448,192,185114,1,0,0:0:0:0:
64,192,185114,1,0,0:0:0:0:
64,192,185239,1,0,0:0:0:0:
192,192,185239,1,0,0:0:0:0:
320,192,185364,1,0,0:0:0:0:
448,192,185364,1,0,0:0:0:0:
448,192,185489,1,0,0:0:0:0:
64,192,185489,1,0,0:0:0:0:
192,192,185614,1,0,0:0:0:0:
64,192,185614,1,0,0:0:0:0:
64,192,185739,1,0,0:0:0:0:
320,192,185739,1,0,0:0:0:0:
64,192,185864,1,0,0:0:0:0:
448,192,185864,1,0,0:0:0:0:
320,192,185989,1,0,0:0:0:0:
192,192,185989,1,0,0:0:0:0:
64,192,186114,1,0,0:0:0:0:
448,192,186114,1,0,0:0:0:0:
320,192,186239,1,0,0:0:0:0:
448,192,186239,1,0,0:0:0:0:
192,192,186364,1,0,0:0:0:0:
64,192,186364,1,0,0:0:0:0:
64,192,186489,1,0,0:0:0:0:
448,192,186489,1,0,0:0:0:0:
448,192,186614,1,0,0:0:0:0:
192,192,186614,1,0,0:0:0:0:
320,192,186739,1,0,0:0:0:0:
64,192,186739,1,0,0:0:0:0:
192,192,186864,1,0,0:0:0:0:
320,192,186864,1,0,0:0:0:0:
448,192,186989,1,0,0:0:0:0:
64,192,186989,1,0,0:0:0:0:
64,192,187114,1,0,0:0:0:0:
192,192,187114,1,0,0:0:0:0:
320,192,187239,1,0,0:0:0:0:
448,192,187239,1,0,0:0:0:0:
64,192,187364,1,0,0:0:0:0:
448,192,187364,1,0,0:0:0:0:
192,192,187489,1,0,0:0:0:0:
64,192,187489,1,0,0:0:0:0:
64,192,187614,1,0,0:0:0:0:
448,192,187614,1,0,0:0:0:0:
192,192,187739,1,0,0:0:0:0:
448,192,187739,1,0,0:0:0:0:
320,192,187864,1,0,0:0:0:0:
448,192,187864,1,0,0:0:0:0:
64,192,187989,1,0,0:0:0:0:
192,192,187989,1,0,0:0:0:0:
64,192,188114,1,0,0:0:0:0:
448,192,188114,1,0,0:0:0:0:
64,192,188239,1,0,0:0:0:0:
192,192,188239,1,0,0:0:0:0:
320,192,188364,1,0,0:0:0:0:
448,192,188364,1,0,0:0:0:0:
448,192,188489,1,0,0:0:0:0:
64,192,188489,1,0,0:0:0:0:
320,192,188551,1,0,0:0:0:0:
192,192,188614,1,0,0:0:0:0:
64,192,188676,1,0,0:0:0:0:
320,192,188739,1,0,0:0:0:0:
448,192,188739,1,0,0:0:0:0:
64,192,188801,1,0,0:0:0:0:
192,192,188864,1,0,0:0:0:0:
320,192,188926,1,0,0:0:0:0:
448,192,188989,1,0,0:0:0:0:
64,192,188989,1,0,0:0:0:0:
320,192,189051,1,0,0:0:0:0:
192,192,189114,1,0,0:0:0:0:
320,192,189176,1,0,0:0:0:0:
448,192,189239,1,0,0:0:0:0:
64,192,189239,1,0,0:0:0:0:
192,192,189301,1,0,0:0:0:0:
320,192,189364,1,0,0:0:0:0:
448,192,189426,1,0,0:0:0:0:
192,192,189489,1,0,0:0:0:0:
64,192,189489,1,0,0:0:0:0:
448,192,189551,1,0,0:0:0:0:
320,192,189614,1,0,0:0:0:0:
192,192,189676,1,0,0:0:0:0:
64,192,189739,1,0,0:0:0:0:
448,192,189739,1,0,0:0:0:0:
320,192,189801,1,0,0:0:0:0:
192,192,189864,1,0,0:0:0:0:
64,192,189926,1,0,0:0:0:0:
320,192,189989,1,0,0:0:0:0:
448,192,189989,1,0,0:0:0:0:
192,192,190051,1,0,0:0:0:0:
320,192,190114,1,0,0:0:0:0:
448,192,190176,1,0,0:0:0:0:
192,192,190239,1,0,0:0:0:0:
64,192,190239,1,0,0:0:0:0:
448,192,190364,1,0,0:0:0:0:
320,192,190426,1,0,0:0:0:0:
192,192,190489,1,0,0:0:0:0:
64,192,190489,1,0,0:0:0:0:
448,192,190551,1,0,0:0:0:0:
320,192,190614,1,0,0:0:0:0:
192,192,190676,1,0,0:0:0:0:
64,192,190739,1,0,0:0:0:0:
448,192,190739,1,0,0:0:0:0:
192,192,190801,1,0,0:0:0:0:
320,192,190864,1,0,0:0:0:0:
448,192,190926,1,0,0:0:0:0:
192,192,190989,1,0,0:0:0:0:
64,192,190989,1,0,0:0:0:0:
448,192,191051,1,0,0:0:0:0:
320,192,191114,1,0,0:0:0:0:
192,192,191176,1,0,0:0:0:0:
64,192,191239,1,0,0:0:0:0:
448,192,191239,1,0,0:0:0:0:
192,192,191364,1,0,0:0:0:0:
64,192,191364,1,0,0:0:0:0:
64,192,191489,1,0,0:0:0:0:
192,192,191489,1,0,0:0:0:0:
320,192,191614,1,0,0:0:0:0:
448,192,191614,128,0,191989:0:0:0:0:
64,192,191739,1,0,0:0:0:0:
192,192,191801,1,0,0:0:0:0:
320,192,191864,1,0,0:0:0:0:
192,192,191926,1,0,0:0:0:0:
64,192,191989,128,0,192239:0:0:0:0:
448,192,192114,1,0,0:0:0:0:
320,192,192176,1,0,0:0:0:0:
192,192,192239,1,0,0:0:0:0:
448,192,192301,1,0,0:0:0:0:
320,192,192364,1,0,0:0:0:0:
192,192,192426,1,0,0:0:0:0:
64,192,192489,1,0,0:0:0:0:
448,192,192489,1,0,0:0:0:0:
192,192,192551,1,0,0:0:0:0:
320,192,192614,1,0,0:0:0:0:
448,192,192676,1,0,0:0:0:0:
192,192,192739,1,0,0:0:0:0:
64,192,192739,1,0,0:0:0:0:
448,192,192801,1,0,0:0:0:0:
320,192,192864,1,0,0:0:0:0:
192,192,192926,1,0,0:0:0:0:
64,192,192989,1,0,0:0:0:0:
448,192,192989,1,0,0:0:0:0:
192,192,193051,1,0,0:0:0:0:
320,192,193114,1,0,0:0:0:0:
192,192,193176,1,0,0:0:0:0:
320,192,193239,128,0,193489:0:0:0:0:
448,192,193239,128,0,193489:0:0:0:0:
64,192,193239,128,0,193489:0:0:0:0:
