osu file format v14

[General]
AudioFilename: EWF 1.300x (pitch raised).mp3
AudioLeadIn: 0
PreviewTime: 81519
Countdown: 0
SampleSet: None
StackLeniency: 0.7
Mode: 3
LetterboxInBreaks: 0
SpecialStyle: 0
WidescreenStoryboard: 0

[Editor]
DistanceSpacing: 0.8
BeatDivisor: 4
GridSize: 32
TimelineZoom: 1.7

[Metadata]
Title:Everything Will Freeze
TitleUnicode:Everything Will Freeze
Artist:UNDEAD CORPORATION
ArtistUnicode:UNDEAD CORPORATION
Creator:Shoegazer
Version:Calamity 1.3x (312bpm)
Source:東方Project
Tags:sakuya izayoi touhou project flowering night boukun tyrant wiosna
BeatmapID:3703203
BeatmapSetID:728496

[Difficulty]
HPDrainRate:8.5
CircleSize:4
OverallDifficulty:8.5
ApproachRate:5
SliderMultiplier:1.4
SliderTickRate:1

[Events]
//Background and Video events
0,0,"freeze-time.jpg",0,0
//Break Periods
//Storyboard Layer 0 (Background)
//Storyboard Layer 1 (Fail)
//Storyboard Layer 2 (Pass)
//Storyboard Layer 3 (Foreground)
//Storyboard Layer 4 (Overlay)
//Storyboard Sound Samples

[TimingPoints]
173,192.307692307692,4,3,0,25,1,0

[HitObjects]
448,192,173,5,0,0:0:0:0:
192,192,269,1,0,0:0:0:0:
64,192,269,1,0,0:0:0:0:
192,192,365,1,0,0:0:0:0:
64,192,365,1,0,0:0:0:0:
448,192,461,1,0,0:0:0:0:
320,192,461,1,0,0:0:0:0:
192,192,509,1,0,0:0:0:0:
64,192,509,1,0,0:0:0:0:
448,192,557,1,0,0:0:0:0:
320,192,557,1,0,0:0:0:0:
64,192,605,1,0,0:0:0:0:
448,192,653,1,0,0:0:0:0:
192,192,701,1,0,0:0:0:0:
320,192,750,1,0,0:0:0:0:
64,192,750,1,0,0:0:0:0:
448,192,797,1,0,0:0:0:0:
192,192,846,1,0,0:0:0:0:
64,192,846,1,0,0:0:0:0:
448,192,893,1,0,0:0:0:0:
320,192,893,1,0,0:0:0:0:
192,192,942,1,0,0:0:0:0:
64,192,990,1,0,0:0:0:0:
448,192,1038,1,0,0:0:0:0:
192,192,1086,1,0,0:0:0:0:
64,192,1086,1,0,0:0:0:0:
448,192,1134,1,0,0:0:0:0:
320,192,1134,1,0,0:0:0:0:
192,192,1182,1,0,0:0:0:0:
64,192,1230,1,0,0:0:0:0:
320,192,1278,1,0,0:0:0:0:
448,192,1326,1,0,0:0:0:0:
192,192,1326,1,0,0:0:0:0:
320,192,1374,1,0,0:0:0:0:
64,192,1423,1,0,0:0:0:0:
192,192,1470,1,0,0:0:0:0:
448,192,1519,1,0,0:0:0:0:
320,192,1519,1,0,0:0:0:0:
448,192,1711,1,0,0:0:0:0:
192,192,1711,1,0,0:0:0:0:
64,192,1711,1,0,0:0:0:0:
320,192,2384,1,0,0:0:0:0:
192,192,2432,1,0,0:0:0:0:
448,192,2480,1,0,0:0:0:0:
64,192,2480,1,0,0:0:0:0:
448,192,2673,1,0,0:0:0:0:
320,192,2673,1,0,0:0:0:0:
192,192,2720,1,0,0:0:0:0:
64,192,2769,1,0,0:0:0:0:
320,192,2816,1,0,0:0:0:0:
192,192,2865,1,0,0:0:0:0:
448,192,2913,1,0,0:0:0:0:
192,192,2961,1,0,0:0:0:0:
64,192,3009,1,0,0:0:0:0:
320,192,3057,1,0,0:0:0:0:
448,192,3105,1,0,0:0:0:0:
320,192,3153,1,0,0:0:0:0:
192,192,3201,1,0,0:0:0:0:
448,192,3250,1,0,0:0:0:0:
64,192,3250,1,0,0:0:0:0:
320,192,4019,1,0,0:0:0:0:
192,192,4019,1,0,0:0:0:0:
64,192,4066,1,0,0:0:0:0:
320,192,4115,1,0,0:0:0:0:
448,192,4163,1,0,0:0:0:0:
192,192,4211,1,0,0:0:0:0:
64,192,4211,1,0,0:0:0:0:
448,192,4259,1,0,0:0:0:0:
320,192,4259,1,0,0:0:0:0:
192,192,4307,1,0,0:0:0:0:
64,192,4307,1,0,0:0:0:0:
448,192,4355,1,0,0:0:0:0:
320,192,4355,1,0,0:0:0:0:
192,192,4403,1,0,0:0:0:0:
320,192,4451,1,0,0:0:0:0:
64,192,4500,1,0,0:0:0:0:
448,192,4547,1,0,0:0:0:0:
192,192,4596,1,0,0:0:0:0:
64,192,4596,1,0,0:0:0:0:
448,192,4643,1,0,0:0:0:0:
320,192,4643,1,0,0:0:0:0:
192,192,4692,1,0,0:0:0:0:
64,192,4692,1,0,0:0:0:0:
320,192,4740,1,0,0:0:0:0:
448,192,4788,1,0,0:0:0:0:
64,192,4788,1,0,0:0:0:0:
192,192,4884,1,0,0:0:0:0:
320,192,4980,1,0,0:0:0:0:
64,192,5028,1,0,0:0:0:0:
448,192,5076,1,0,0:0:0:0:
192,192,5076,1,0,0:0:0:0:
64,192,5173,1,0,0:0:0:0:
448,192,5269,1,0,0:0:0:0:
320,192,5269,1,0,0:0:0:0:
192,192,5365,1,0,0:0:0:0:
448,192,5413,1,0,0:0:0:0:
320,192,5461,1,0,0:0:0:0:
64,192,5461,1,0,0:0:0:0:
448,192,5557,1,0,0:0:0:0:
192,192,5653,1,0,0:0:0:0:
64,192,5653,1,0,0:0:0:0:
320,192,5750,1,0,0:0:0:0:
192,192,5797,1,0,0:0:0:0:
448,192,5846,1,0,0:0:0:0:
64,192,5846,1,0,0:0:0:0:
192,192,5942,1,0,0:0:0:0:
448,192,6038,1,0,0:0:0:0:
320,192,6038,1,0,0:0:0:0:
64,192,6134,1,0,0:0:0:0:
448,192,6182,1,0,0:0:0:0:
320,192,6230,1,0,0:0:0:0:
192,192,6230,1,0,0:0:0:0:
448,192,6326,1,0,0:0:0:0:
192,192,6326,1,0,0:0:0:0:
64,192,6326,1,0,0:0:0:0:
320,192,6423,1,0,0:0:0:0:
192,192,6470,1,0,0:0:0:0:
320,192,6519,1,0,0:0:0:0:
64,192,6566,1,0,0:0:0:0:
448,192,6615,1,0,0:0:0:0:
192,192,6615,1,0,0:0:0:0:
320,192,6663,1,0,0:0:0:0:
64,192,6711,1,0,0:0:0:0:
448,192,6759,1,0,0:0:0:0:
64,192,6807,1,0,0:0:0:0:
192,192,6855,1,0,0:0:0:0:
448,192,6903,1,0,0:0:0:0:
320,192,6903,1,0,0:0:0:0:
192,192,7000,1,0,0:0:0:0:
320,192,7047,1,0,0:0:0:0:
448,192,7096,1,0,0:0:0:0:
64,192,7096,128,0,7288:0:0:0:0:
448,192,7288,1,0,0:0:0:0:
192,192,7336,1,0,0:0:0:0:
448,192,7384,1,0,0:0:0:0:
192,192,7432,1,0,0:0:0:0:
320,192,7480,128,0,7624:0:0:0:0:
64,192,7480,1,0,0:0:0:0:
448,192,7673,1,0,0:0:0:0:
320,192,7673,1,0,0:0:0:0:
192,192,7720,1,0,0:0:0:0:
64,192,7720,1,0,0:0:0:0:
448,192,7769,1,0,0:0:0:0:
320,192,7769,1,0,0:0:0:0:
192,192,7816,1,0,0:0:0:0:
64,192,7816,1,0,0:0:0:0:
448,192,7865,1,0,0:0:0:0:
320,192,7865,1,0,0:0:0:0:
64,192,7961,1,0,0:0:0:0:
320,192,8057,1,0,0:0:0:0:
192,192,8105,1,0,0:0:0:0:
448,192,8153,1,0,0:0:0:0:
64,192,8153,1,0,0:0:0:0:
192,192,8250,1,0,0:0:0:0:
448,192,8346,1,0,0:0:0:0:
320,192,8346,1,0,0:0:0:0:
64,192,8442,1,0,0:0:0:0:
320,192,8490,1,0,0:0:0:0:
448,192,8538,1,0,0:0:0:0:
192,192,8538,1,0,0:0:0:0:
320,192,8634,1,0,0:0:0:0:
192,192,8730,1,0,0:0:0:0:
64,192,8730,1,0,0:0:0:0:
448,192,8826,1,0,0:0:0:0:
64,192,8874,1,0,0:0:0:0:
320,192,8923,1,0,0:0:0:0:
192,192,8923,1,0,0:0:0:0:
64,192,9019,1,0,0:0:0:0:
448,192,9115,1,0,0:0:0:0:
320,192,9115,1,0,0:0:0:0:
192,192,9211,1,0,0:0:0:0:
448,192,9259,1,0,0:0:0:0:
320,192,9307,1,0,0:0:0:0:
64,192,9307,1,0,0:0:0:0:
448,192,9403,1,0,0:0:0:0:
192,192,9500,1,0,0:0:0:0:
64,192,9500,1,0,0:0:0:0:
320,192,9596,1,0,0:0:0:0:
64,192,9643,1,0,0:0:0:0:
448,192,9692,1,0,0:0:0:0:
192,192,9692,1,0,0:0:0:0:
64,192,9788,1,0,0:0:0:0:
448,192,9884,1,0,0:0:0:0:
320,192,9884,1,0,0:0:0:0:
192,192,9980,1,0,0:0:0:0:
320,192,10028,1,0,0:0:0:0:
448,192,10076,1,0,0:0:0:0:
64,192,10076,1,0,0:0:0:0:
192,192,10173,1,0,0:0:0:0:
320,192,10220,1,0,0:0:0:0:
192,192,10269,1,0,0:0:0:0:
64,192,10269,1,0,0:0:0:0:
320,192,10316,1,0,0:0:0:0:
448,192,10365,1,0,0:0:0:0:
64,192,10413,1,0,0:0:0:0:
448,192,10461,1,0,0:0:0:0:
192,192,10461,1,0,0:0:0:0:
320,192,10509,1,0,0:0:0:0:
64,192,10557,1,0,0:0:0:0:
448,192,10605,1,0,0:0:0:0:
192,192,10653,1,0,0:0:0:0:
64,192,10653,1,0,0:0:0:0:
448,192,10701,1,0,0:0:0:0:
320,192,10750,1,0,0:0:0:0:
192,192,10797,1,0,0:0:0:0:
320,192,10846,1,0,0:0:0:0:
64,192,10846,1,0,0:0:0:0:
448,192,10893,1,0,0:0:0:0:
192,192,10942,1,0,0:0:0:0:
64,192,10942,1,0,0:0:0:0:
320,192,11038,1,0,0:0:0:0:
64,192,11134,1,0,0:0:0:0:
448,192,11182,1,0,0:0:0:0:
320,192,11230,1,0,0:0:0:0:
192,192,11230,1,0,0:0:0:0:
448,192,11326,1,0,0:0:0:0:
192,192,11423,1,0,0:0:0:0:
64,192,11423,1,0,0:0:0:0:
320,192,11519,1,0,0:0:0:0:
64,192,11566,1,0,0:0:0:0:
448,192,11615,1,0,0:0:0:0:
192,192,11615,1,0,0:0:0:0:
64,192,11711,1,0,0:0:0:0:
448,192,11807,1,0,0:0:0:0:
320,192,11807,1,0,0:0:0:0:
192,192,11903,1,0,0:0:0:0:
320,192,11951,1,0,0:0:0:0:
448,192,12000,1,0,0:0:0:0:
64,192,12000,1,0,0:0:0:0:
320,192,12096,1,0,0:0:0:0:
192,192,12192,1,0,0:0:0:0:
64,192,12192,1,0,0:0:0:0:
448,192,12288,1,0,0:0:0:0:
192,192,12336,1,0,0:0:0:0:
320,192,12384,1,0,0:0:0:0:
64,192,12384,1,0,0:0:0:0:
448,192,12480,1,0,0:0:0:0:
192,192,12480,1,0,0:0:0:0:
64,192,12480,1,0,0:0:0:0:
192,192,12576,1,0,0:0:0:0:
448,192,12673,1,0,0:0:0:0:
320,192,12673,1,0,0:0:0:0:
64,192,12673,1,0,0:0:0:0:
320,192,12769,1,0,0:0:0:0:
448,192,12865,1,0,0:0:0:0:
192,192,12865,1,0,0:0:0:0:
64,192,12865,1,0,0:0:0:0:
192,192,12961,1,0,0:0:0:0:
448,192,13057,1,0,0:0:0:0:
320,192,13057,1,0,0:0:0:0:
64,192,13057,1,0,0:0:0:0:
320,192,13153,1,0,0:0:0:0:
448,192,13250,1,0,0:0:0:0:
64,192,13250,128,0,13442:0:0:0:0:
448,192,13442,1,0,0:0:0:0:
320,192,13490,1,0,0:0:0:0:
192,192,13538,1,0,0:0:0:0:
64,192,13586,1,0,0:0:0:0:
448,192,13634,128,0,13826:0:0:0:0:
320,192,13634,1,0,0:0:0:0:
192,192,13826,1,0,0:0:0:0:
64,192,13826,1,0,0:0:0:0:
448,192,13874,1,0,0:0:0:0:
320,192,13874,1,0,0:0:0:0:
192,192,13923,1,0,0:0:0:0:
64,192,13923,1,0,0:0:0:0:
448,192,13970,1,0,0:0:0:0:
320,192,13970,1,0,0:0:0:0:
192,192,14019,1,0,0:0:0:0:
64,192,14019,1,0,0:0:0:0:
320,192,14115,1,0,0:0:0:0:
64,192,14211,1,0,0:0:0:0:
320,192,14259,1,0,0:0:0:0:
448,192,14307,1,0,0:0:0:0:
192,192,14307,1,0,0:0:0:0:
320,192,14403,1,0,0:0:0:0:
192,192,14500,1,0,0:0:0:0:
64,192,14500,1,0,0:0:0:0:
448,192,14596,1,0,0:0:0:0:
192,192,14643,1,0,0:0:0:0:
320,192,14692,1,0,0:0:0:0:
64,192,14692,1,0,0:0:0:0:
192,192,14788,1,0,0:0:0:0:
448,192,14884,1,0,0:0:0:0:
320,192,14884,1,0,0:0:0:0:
64,192,14980,1,0,0:0:0:0:
448,192,15028,1,0,0:0:0:0:
320,192,15076,1,0,0:0:0:0:
192,192,15076,1,0,0:0:0:0:
448,192,15173,1,0,0:0:0:0:
192,192,15269,1,0,0:0:0:0:
64,192,15269,1,0,0:0:0:0:
320,192,15365,1,0,0:0:0:0:
192,192,15413,1,0,0:0:0:0:
448,192,15461,1,0,0:0:0:0:
64,192,15461,1,0,0:0:0:0:
192,192,15557,1,0,0:0:0:0:
448,192,15653,1,0,0:0:0:0:
320,192,15653,1,0,0:0:0:0:
64,192,15750,1,0,0:0:0:0:
448,192,15797,1,0,0:0:0:0:
320,192,15846,1,0,0:0:0:0:
192,192,15846,1,0,0:0:0:0:
448,192,15942,1,0,0:0:0:0:
192,192,16038,1,0,0:0:0:0:
64,192,16038,1,0,0:0:0:0:
320,192,16134,1,0,0:0:0:0:
64,192,16182,1,0,0:0:0:0:
448,192,16230,1,0,0:0:0:0:
192,192,16230,1,0,0:0:0:0:
320,192,16326,1,0,0:0:0:0:
192,192,16374,1,0,0:0:0:0:
448,192,16423,1,0,0:0:0:0:
320,192,16423,1,0,0:0:0:0:
192,192,16470,1,0,0:0:0:0:
64,192,16519,1,0,0:0:0:0:
448,192,16566,1,0,0:0:0:0:
320,192,16615,1,0,0:0:0:0:
64,192,16615,1,0,0:0:0:0:
192,192,16663,1,0,0:0:0:0:
448,192,16711,1,0,0:0:0:0:
64,192,16759,1,0,0:0:0:0:
448,192,16807,1,0,0:0:0:0:
320,192,16807,1,0,0:0:0:0:
64,192,16855,1,0,0:0:0:0:
192,192,16903,1,0,0:0:0:0:
320,192,16951,1,0,0:0:0:0:
448,192,17000,1,0,0:0:0:0:
192,192,17000,1,0,0:0:0:0:
64,192,17047,1,0,0:0:0:0:
448,192,17096,1,0,0:0:0:0:
320,192,17096,1,0,0:0:0:0:
64,192,17192,1,0,0:0:0:0:
320,192,17288,1,0,0:0:0:0:
192,192,17336,1,0,0:0:0:0:
448,192,17384,1,0,0:0:0:0:
64,192,17384,1,0,0:0:0:0:
192,192,17480,1,0,0:0:0:0:
448,192,17576,1,0,0:0:0:0:
320,192,17576,1,0,0:0:0:0:
64,192,17673,1,0,0:0:0:0:
320,192,17720,1,0,0:0:0:0:
448,192,17769,1,0,0:0:0:0:
192,192,17769,1,0,0:0:0:0:
320,192,17865,1,0,0:0:0:0:
192,192,17961,1,0,0:0:0:0:
64,192,17961,1,0,0:0:0:0:
448,192,18057,1,0,0:0:0:0:
64,192,18105,1,0,0:0:0:0:
320,192,18153,1,0,0:0:0:0:
192,192,18153,1,0,0:0:0:0:
64,192,18250,1,0,0:0:0:0:
448,192,18346,1,0,0:0:0:0:
320,192,18346,1,0,0:0:0:0:
192,192,18442,1,0,0:0:0:0:
448,192,18490,1,0,0:0:0:0:
320,192,18538,1,0,0:0:0:0:
64,192,18538,1,0,0:0:0:0:
448,192,18634,1,0,0:0:0:0:
192,192,18634,1,0,0:0:0:0:
64,192,18634,1,0,0:0:0:0:
320,192,18730,1,0,0:0:0:0:
320,192,18826,1,0,0:0:0:0:
448,192,18923,1,0,0:0:0:0:
64,192,18923,1,0,0:0:0:0:
192,192,19019,1,0,0:0:0:0:
192,192,19115,1,0,0:0:0:0:
448,192,19211,1,0,0:0:0:0:
320,192,19211,1,0,0:0:0:0:
192,192,19307,1,0,0:0:0:0:
448,192,19403,1,0,0:0:0:0:
64,192,19403,128,0,19596:0:0:0:0:
448,192,19596,1,0,0:0:0:0:
192,192,19643,1,0,0:0:0:0:
448,192,19692,1,0,0:0:0:0:
192,192,19740,1,0,0:0:0:0:
320,192,19788,128,0,19932:0:0:0:0:
64,192,19788,1,0,0:0:0:0:
448,192,19980,1,0,0:0:0:0:
320,192,19980,1,0,0:0:0:0:
192,192,20028,1,0,0:0:0:0:
64,192,20028,1,0,0:0:0:0:
448,192,20076,1,0,0:0:0:0:
320,192,20076,1,0,0:0:0:0:
192,192,20124,1,0,0:0:0:0:
64,192,20124,1,0,0:0:0:0:
320,192,20173,1,0,0:0:0:0:
192,192,20269,1,0,0:0:0:0:
320,192,20365,1,0,0:0:0:0:
448,192,20413,1,0,0:0:0:0:
192,192,20461,1,0,0:0:0:0:
64,192,20461,1,0,0:0:0:0:
448,192,20557,1,0,0:0:0:0:
192,192,20653,1,0,0:0:0:0:
64,192,20653,1,0,0:0:0:0:
448,192,20750,1,0,0:0:0:0:
192,192,20797,1,0,0:0:0:0:
320,192,20846,1,0,0:0:0:0:
64,192,20846,1,0,0:0:0:0:
448,192,20942,1,0,0:0:0:0:
448,192,21038,1,0,0:0:0:0:
320,192,21038,1,0,0:0:0:0:
192,192,21134,1,0,0:0:0:0:
320,192,21182,1,0,0:0:0:0:
448,192,21230,1,0,0:0:0:0:
192,192,21230,1,0,0:0:0:0:
320,192,21326,1,0,0:0:0:0:
448,192,21423,1,0,0:0:0:0:
320,192,21423,1,0,0:0:0:0:
64,192,21519,1,0,0:0:0:0:
448,192,21566,1,0,0:0:0:0:
320,192,21615,1,0,0:0:0:0:
64,192,21615,1,0,0:0:0:0:
192,192,21711,1,0,0:0:0:0:
320,192,21807,1,0,0:0:0:0:
192,192,21903,1,0,0:0:0:0:
64,192,21951,1,0,0:0:0:0:
448,192,22000,1,0,0:0:0:0:
320,192,22000,1,0,0:0:0:0:
64,192,22096,1,0,0:0:0:0:
448,192,22192,1,0,0:0:0:0:
320,192,22192,1,0,0:0:0:0:
64,192,22288,1,0,0:0:0:0:
320,192,22336,1,0,0:0:0:0:
448,192,22384,1,0,0:0:0:0:
192,192,22384,1,0,0:0:0:0:
64,192,22480,1,0,0:0:0:0:
192,192,22576,1,0,0:0:0:0:
64,192,22576,1,0,0:0:0:0:
320,192,22673,1,0,0:0:0:0:
192,192,22720,1,0,0:0:0:0:
320,192,22769,1,0,0:0:0:0:
64,192,22769,1,0,0:0:0:0:
192,192,22865,1,0,0:0:0:0:
192,192,22961,1,0,0:0:0:0:
64,192,22961,1,0,0:0:0:0:
448,192,23057,1,0,0:0:0:0:
64,192,23105,1,0,0:0:0:0:
448,192,23153,1,0,0:0:0:0:
192,192,23153,1,0,0:0:0:0:
320,192,23250,1,0,0:0:0:0:
64,192,23346,1,0,0:0:0:0:
320,192,23442,1,0,0:0:0:0:
64,192,23490,1,0,0:0:0:0:
448,192,23538,1,0,0:0:0:0:
192,192,23538,1,0,0:0:0:0:
320,192,23634,1,0,0:0:0:0:
448,192,23730,1,0,0:0:0:0:
192,192,23730,1,0,0:0:0:0:
320,192,23826,1,0,0:0:0:0:
448,192,23874,1,0,0:0:0:0:
192,192,23923,1,0,0:0:0:0:
64,192,23923,1,0,0:0:0:0:
448,192,24019,1,0,0:0:0:0:
448,192,24115,1,0,0:0:0:0:
64,192,24115,1,0,0:0:0:0:
192,192,24211,1,0,0:0:0:0:
192,192,24307,1,0,0:0:0:0:
448,192,24355,1,0,0:0:0:0:
320,192,24403,1,0,0:0:0:0:
192,192,24451,1,0,0:0:0:0:
320,192,24500,1,0,0:0:0:0:
64,192,24547,1,0,0:0:0:0:
448,192,24596,1,0,0:0:0:0:
320,192,24596,1,0,0:0:0:0:
192,192,24596,1,0,0:0:0:0:
64,192,24692,1,0,0:0:0:0:
192,192,24740,1,0,0:0:0:0:
448,192,24788,1,0,0:0:0:0:
320,192,24788,1,0,0:0:0:0:
192,192,24836,1,0,0:0:0:0:
64,192,24836,1,0,0:0:0:0:
448,192,24884,1,0,0:0:0:0:
320,192,24884,1,0,0:0:0:0:
64,192,24932,1,0,0:0:0:0:
192,192,24980,1,0,0:0:0:0:
320,192,25028,1,0,0:0:0:0:
448,192,25076,1,0,0:0:0:0:
64,192,25076,1,0,0:0:0:0:
192,192,25124,1,0,0:0:0:0:
64,192,25173,1,0,0:0:0:0:
448,192,25220,1,0,0:0:0:0:
320,192,25269,1,0,0:0:0:0:
64,192,25316,1,0,0:0:0:0:
448,192,25365,1,0,0:0:0:0:
192,192,25365,1,0,0:0:0:0:
320,192,25413,1,0,0:0:0:0:
192,192,25461,1,0,0:0:0:0:
64,192,25509,1,0,0:0:0:0:
448,192,25557,1,0,0:0:0:0:
192,192,25605,1,0,0:0:0:0:
320,192,25653,1,0,0:0:0:0:
64,192,25653,1,0,0:0:0:0:
448,192,25701,1,0,0:0:0:0:
64,192,25750,1,0,0:0:0:0:
320,192,25797,1,0,0:0:0:0:
192,192,25846,1,0,0:0:0:0:
64,192,25893,1,0,0:0:0:0:
448,192,25942,1,0,0:0:0:0:
320,192,25942,1,0,0:0:0:0:
320,192,26038,1,0,0:0:0:0:
192,192,26086,1,0,0:0:0:0:
448,192,26134,1,0,0:0:0:0:
64,192,26134,1,0,0:0:0:0:
64,192,26230,1,0,0:0:0:0:
192,192,26278,1,0,0:0:0:0:
448,192,26326,1,0,0:0:0:0:
64,192,26423,1,0,0:0:0:0:
448,192,26519,1,0,0:0:0:0:
320,192,26566,1,0,0:0:0:0:
192,192,26615,1,0,0:0:0:0:
64,192,26615,1,0,0:0:0:0:
320,192,26711,1,0,0:0:0:0:
192,192,26807,1,0,0:0:0:0:
64,192,26807,1,0,0:0:0:0:
320,192,26903,1,0,0:0:0:0:
192,192,26951,1,0,0:0:0:0:
448,192,27000,1,0,0:0:0:0:
64,192,27000,1,0,0:0:0:0:
320,192,27096,1,0,0:0:0:0:
448,192,27192,1,0,0:0:0:0:
320,192,27192,1,0,0:0:0:0:
64,192,27288,1,0,0:0:0:0:
448,192,27336,1,0,0:0:0:0:
320,192,27384,1,0,0:0:0:0:
64,192,27384,1,0,0:0:0:0:
448,192,27480,1,0,0:0:0:0:
448,192,27576,1,0,0:0:0:0:
320,192,27576,1,0,0:0:0:0:
192,192,27673,1,0,0:0:0:0:
320,192,27720,1,0,0:0:0:0:
448,192,27769,1,0,0:0:0:0:
192,192,27769,1,0,0:0:0:0:
64,192,27865,1,0,0:0:0:0:
448,192,27961,1,0,0:0:0:0:
64,192,28057,1,0,0:0:0:0:
192,192,28105,1,0,0:0:0:0:
448,192,28153,1,0,0:0:0:0:
320,192,28153,1,0,0:0:0:0:
192,192,28250,1,0,0:0:0:0:
448,192,28346,1,0,0:0:0:0:
320,192,28346,1,0,0:0:0:0:
192,192,28442,1,0,0:0:0:0:
320,192,28490,1,0,0:0:0:0:
448,192,28538,1,0,0:0:0:0:
64,192,28538,1,0,0:0:0:0:
192,192,28634,1,0,0:0:0:0:
192,192,28730,1,0,0:0:0:0:
64,192,28730,1,0,0:0:0:0:
448,192,28826,1,0,0:0:0:0:
64,192,28874,1,0,0:0:0:0:
448,192,28923,1,0,0:0:0:0:
192,192,28923,1,0,0:0:0:0:
64,192,29019,1,0,0:0:0:0:
192,192,29115,1,0,0:0:0:0:
64,192,29115,1,0,0:0:0:0:
320,192,29211,1,0,0:0:0:0:
192,192,29259,1,0,0:0:0:0:
320,192,29307,1,0,0:0:0:0:
64,192,29307,1,0,0:0:0:0:
448,192,29403,1,0,0:0:0:0:
192,192,29500,1,0,0:0:0:0:
448,192,29596,1,0,0:0:0:0:
192,192,29643,1,0,0:0:0:0:
320,192,29692,1,0,0:0:0:0:
64,192,29692,1,0,0:0:0:0:
192,192,29788,1,0,0:0:0:0:
320,192,29884,1,0,0:0:0:0:
64,192,29884,1,0,0:0:0:0:
192,192,29980,1,0,0:0:0:0:
64,192,30028,1,0,0:0:0:0:
448,192,30076,1,0,0:0:0:0:
320,192,30076,1,0,0:0:0:0:
192,192,30173,1,0,0:0:0:0:
320,192,30269,1,0,0:0:0:0:
192,192,30269,1,0,0:0:0:0:
448,192,30365,1,0,0:0:0:0:
64,192,30413,1,0,0:0:0:0:
448,192,30461,1,0,0:0:0:0:
320,192,30461,1,0,0:0:0:0:
64,192,30557,1,0,0:0:0:0:
320,192,30605,1,0,0:0:0:0:
64,192,30653,1,0,0:0:0:0:
448,192,30701,1,0,0:0:0:0:
192,192,30750,128,0,30942:0:0:0:0:
448,192,30942,1,0,0:0:0:0:
320,192,30942,1,0,0:0:0:0:
448,192,31038,1,0,0:0:0:0:
320,192,31038,1,0,0:0:0:0:
192,192,31134,1,0,0:0:0:0:
64,192,31134,1,0,0:0:0:0:
448,192,31230,1,0,0:0:0:0:
64,192,31230,1,0,0:0:0:0:
192,192,31326,1,0,0:0:0:0:
64,192,31374,1,0,0:0:0:0:
448,192,31423,1,0,0:0:0:0:
320,192,31423,1,0,0:0:0:0:
192,192,31470,1,0,0:0:0:0:
448,192,31519,1,0,0:0:0:0:
64,192,31566,1,0,0:0:0:0:
192,192,31615,1,0,0:0:0:0:
448,192,31663,1,0,0:0:0:0:
320,192,31711,1,0,0:0:0:0:
192,192,31711,1,0,0:0:0:0:
64,192,31759,1,0,0:0:0:0:
448,192,31807,1,0,0:0:0:0:
192,192,31903,1,0,0:0:0:0:
448,192,31951,1,0,0:0:0:0:
320,192,32000,1,0,0:0:0:0:
64,192,32000,1,0,0:0:0:0:
192,192,32047,1,0,0:0:0:0:
320,192,32096,1,0,0:0:0:0:
64,192,32143,1,0,0:0:0:0:
448,192,32192,1,0,0:0:0:0:
320,192,32240,1,0,0:0:0:0:
192,192,32288,1,0,0:0:0:0:
64,192,32288,1,0,0:0:0:0:
448,192,32480,1,0,0:0:0:0:
64,192,32480,128,0,32673:0:0:0:0:
320,192,32673,1,0,0:0:0:0:
192,192,32720,1,0,0:0:0:0:
320,192,32769,1,0,0:0:0:0:
192,192,32816,1,0,0:0:0:0:
448,192,32865,1,0,0:0:0:0:
320,192,32913,1,0,0:0:0:0:
192,192,32961,1,0,0:0:0:0:
64,192,33009,1,0,0:0:0:0:
448,192,33057,1,0,0:0:0:0:
320,192,33057,1,0,0:0:0:0:
192,192,33105,1,0,0:0:0:0:
64,192,33105,1,0,0:0:0:0:
448,192,33153,1,0,0:0:0:0:
320,192,33153,1,0,0:0:0:0:
192,192,33201,1,0,0:0:0:0:
448,192,33250,1,0,0:0:0:0:
64,192,33250,1,0,0:0:0:0:
320,192,33297,1,0,0:0:0:0:
192,192,33346,1,0,0:0:0:0:
448,192,33393,1,0,0:0:0:0:
320,192,33442,1,0,0:0:0:0:
64,192,33490,1,0,0:0:0:0:
320,192,33538,1,0,0:0:0:0:
192,192,33586,1,0,0:0:0:0:
64,192,33634,128,0,33730:0:0:0:0:
448,192,33730,1,0,0:0:0:0:
320,192,33778,1,0,0:0:0:0:
192,192,33826,1,0,0:0:0:0:
64,192,33826,1,0,0:0:0:0:
64,192,34019,1,0,0:0:0:0:
64,192,34115,1,0,0:0:0:0:
64,192,34211,1,0,0:0:0:0:
64,192,34307,1,0,0:0:0:0:
448,192,34403,1,0,0:0:0:0:
64,192,34403,1,0,0:0:0:0:
64,192,34500,1,0,0:0:0:0:
320,192,34547,1,0,0:0:0:0:
64,192,34596,1,0,0:0:0:0:
64,192,34692,1,0,0:0:0:0:
192,192,34788,1,0,0:0:0:0:
192,192,34884,1,0,0:0:0:0:
192,192,34980,1,0,0:0:0:0:
192,192,35076,1,0,0:0:0:0:
320,192,35173,1,0,0:0:0:0:
192,192,35173,1,0,0:0:0:0:
192,192,35269,1,0,0:0:0:0:
192,192,35365,1,0,0:0:0:0:
192,192,35461,1,0,0:0:0:0:
448,192,35557,1,0,0:0:0:0:
320,192,35557,1,0,0:0:0:0:
320,192,35653,1,0,0:0:0:0:
320,192,35750,1,0,0:0:0:0:
64,192,35750,1,0,0:0:0:0:
320,192,35846,1,0,0:0:0:0:
320,192,35942,1,0,0:0:0:0:
192,192,35942,1,0,0:0:0:0:
320,192,36038,1,0,0:0:0:0:
64,192,36086,1,0,0:0:0:0:
320,192,36134,1,0,0:0:0:0:
320,192,36230,1,0,0:0:0:0:
448,192,36326,1,0,0:0:0:0:
448,192,36423,1,0,0:0:0:0:
448,192,36519,1,0,0:0:0:0:
448,192,36615,1,0,0:0:0:0:
448,192,36711,1,0,0:0:0:0:
64,192,36711,1,0,0:0:0:0:
192,192,36807,1,0,0:0:0:0:
64,192,36855,1,0,0:0:0:0:
448,192,36903,1,0,0:0:0:0:
192,192,36951,1,0,0:0:0:0:
320,192,37000,1,0,0:0:0:0:
448,192,37047,1,0,0:0:0:0:
192,192,37096,1,0,0:0:0:0:
64,192,37096,1,0,0:0:0:0:
320,192,37192,1,0,0:0:0:0:
448,192,37288,1,0,0:0:0:0:
192,192,37288,1,0,0:0:0:0:
64,192,37384,1,0,0:0:0:0:
192,192,37432,1,0,0:0:0:0:
448,192,37480,1,0,0:0:0:0:
320,192,37480,1,0,0:0:0:0:
192,192,37576,1,0,0:0:0:0:
320,192,37673,1,0,0:0:0:0:
64,192,37673,1,0,0:0:0:0:
448,192,37769,1,0,0:0:0:0:
320,192,37816,1,0,0:0:0:0:
192,192,37865,1,0,0:0:0:0:
64,192,37865,1,0,0:0:0:0:
192,192,38634,1,0,0:0:0:0:
64,192,38634,128,0,38682:0:0:0:0:
320,192,38730,1,0,0:0:0:0:
448,192,38826,128,0,38874:0:0:0:0:
192,192,38826,1,0,0:0:0:0:
64,192,38923,1,0,0:0:0:0:
448,192,39019,1,0,0:0:0:0:
320,192,39019,128,0,39066:0:0:0:0:
192,192,39115,128,0,39163:0:0:0:0:
320,192,39211,128,0,39259:0:0:0:0:
64,192,39211,1,0,0:0:0:0:
192,192,39307,128,0,39355:0:0:0:0:
64,192,39355,1,0,0:0:0:0:
448,192,39403,128,0,39451:0:0:0:0:
320,192,39403,1,0,0:0:0:0:
64,192,39500,1,0,0:0:0:0:
448,192,39596,1,0,0:0:0:0:
192,192,39596,128,0,39643:0:0:0:0:
320,192,39692,1,0,0:0:0:0:
192,192,39788,1,0,0:0:0:0:
64,192,39788,128,0,39836:0:0:0:0:
448,192,39884,128,0,39932:0:0:0:0:
192,192,39932,1,0,0:0:0:0:
320,192,39980,1,0,0:0:0:0:
64,192,39980,128,0,40028:0:0:0:0:
192,192,40076,128,0,40124:0:0:0:0:
448,192,40173,1,0,0:0:0:0:
320,192,40173,128,0,40220:0:0:0:0:
64,192,40173,1,0,0:0:0:0:
192,192,40269,1,0,0:0:0:0:
448,192,40365,128,0,40413:0:0:0:0:
320,192,40365,1,0,0:0:0:0:
64,192,40461,1,0,0:0:0:0:
448,192,40557,1,0,0:0:0:0:
192,192,40557,128,0,40605:0:0:0:0:
320,192,40653,128,0,40701:0:0:0:0:
448,192,40701,1,0,0:0:0:0:
192,192,40750,128,0,40797:0:0:0:0:
64,192,40750,1,0,0:0:0:0:
320,192,40846,128,0,40893:0:0:0:0:
448,192,40942,1,0,0:0:0:0:
64,192,40942,128,0,40990:0:0:0:0:
192,192,41038,1,0,0:0:0:0:
64,192,41086,1,0,0:0:0:0:
448,192,41134,128,0,41182:0:0:0:0:
320,192,41134,1,0,0:0:0:0:
64,192,41230,1,0,0:0:0:0:
448,192,41326,1,0,0:0:0:0:
192,192,41326,128,0,41374:0:0:0:0:
64,192,41423,128,0,41470:0:0:0:0:
448,192,41470,1,0,0:0:0:0:
320,192,41519,1,0,0:0:0:0:
192,192,41519,128,0,41566:0:0:0:0:
448,192,41615,1,0,0:0:0:0:
448,192,41711,1,0,0:0:0:0:
192,192,41711,1,0,0:0:0:0:
64,192,41711,128,0,41759:0:0:0:0:
320,192,41807,1,0,0:0:0:0:
448,192,41903,128,0,41951:0:0:0:0:
192,192,41903,1,0,0:0:0:0:
64,192,42000,1,0,0:0:0:0:
192,192,42047,1,0,0:0:0:0:
448,192,42096,1,0,0:0:0:0:
320,192,42096,128,0,42143:0:0:0:0:
192,192,42192,128,0,42240:0:0:0:0:
320,192,42288,128,0,42336:0:0:0:0:
64,192,42288,1,0,0:0:0:0:
192,192,42384,128,0,42432:0:0:0:0:
64,192,42432,1,0,0:0:0:0:
448,192,42480,128,0,42528:0:0:0:0:
320,192,42480,1,0,0:0:0:0:
64,192,42576,1,0,0:0:0:0:
448,192,42673,1,0,0:0:0:0:
192,192,42673,128,0,42720:0:0:0:0:
320,192,42769,1,0,0:0:0:0:
448,192,42816,1,0,0:0:0:0:
192,192,42865,1,0,0:0:0:0:
64,192,42865,128,0,42913:0:0:0:0:
448,192,42961,128,0,43009:0:0:0:0:
320,192,43057,1,0,0:0:0:0:
64,192,43057,128,0,43105:0:0:0:0:
192,192,43153,128,0,43201:0:0:0:0:
64,192,43201,1,0,0:0:0:0:
448,192,43250,1,0,0:0:0:0:
320,192,43250,1,0,0:0:0:0:
192,192,43297,1,0,0:0:0:0:
64,192,43297,1,0,0:0:0:0:
448,192,43346,1,0,0:0:0:0:
320,192,43393,1,0,0:0:0:0:
64,192,43442,1,0,0:0:0:0:
448,192,43490,1,0,0:0:0:0:
64,192,43538,1,0,0:0:0:0:
320,192,43586,1,0,0:0:0:0:
192,192,43634,1,0,0:0:0:0:
64,192,43682,1,0,0:0:0:0:
320,192,43730,1,0,0:0:0:0:
192,192,43826,1,0,0:0:0:0:
64,192,43826,1,0,0:0:0:0:
448,192,43874,1,0,0:0:0:0:
320,192,43874,1,0,0:0:0:0:
64,192,43923,1,0,0:0:0:0:
192,192,43970,1,0,0:0:0:0:
448,192,44019,1,0,0:0:0:0:
320,192,44066,1,0,0:0:0:0:
192,192,44115,1,0,0:0:0:0:
64,192,44163,1,0,0:0:0:0:
448,192,44211,1,0,0:0:0:0:
320,192,44211,1,0,0:0:0:0:
192,192,44259,1,0,0:0:0:0:
64,192,44259,1,0,0:0:0:0:
320,192,44307,1,0,0:0:0:0:
448,192,44355,1,0,0:0:0:0:
192,192,44403,1,0,0:0:0:0:
64,192,44451,1,0,0:0:0:0:
192,192,44500,1,0,0:0:0:0:
448,192,44547,1,0,0:0:0:0:
320,192,44596,1,0,0:0:0:0:
192,192,44692,1,0,0:0:0:0:
64,192,44692,1,0,0:0:0:0:
448,192,44788,1,0,0:0:0:0:
64,192,44788,1,0,0:0:0:0:
320,192,44836,1,0,0:0:0:0:
192,192,44884,1,0,0:0:0:0:
64,192,44932,1,0,0:0:0:0:
448,192,44980,1,0,0:0:0:0:
320,192,44980,1,0,0:0:0:0:
192,192,45028,1,0,0:0:0:0:
320,192,45076,1,0,0:0:0:0:
64,192,45124,1,0,0:0:0:0:
448,192,45173,1,0,0:0:0:0:
192,192,45173,1,0,0:0:0:0:
320,192,45220,1,0,0:0:0:0:
192,192,45269,1,0,0:0:0:0:
320,192,45316,1,0,0:0:0:0:
448,192,45365,1,0,0:0:0:0:
64,192,45365,1,0,0:0:0:0:
192,192,45413,1,0,0:0:0:0:
448,192,45461,1,0,0:0:0:0:
192,192,45509,1,0,0:0:0:0:
320,192,45557,1,0,0:0:0:0:
64,192,45557,1,0,0:0:0:0:
448,192,45605,1,0,0:0:0:0:
64,192,45653,1,0,0:0:0:0:
192,192,45701,1,0,0:0:0:0:
448,192,45750,1,0,0:0:0:0:
320,192,45750,1,0,0:0:0:0:
64,192,45797,1,0,0:0:0:0:
448,192,45846,1,0,0:0:0:0:
320,192,45893,1,0,0:0:0:0:
192,192,45942,1,0,0:0:0:0:
64,192,45942,1,0,0:0:0:0:
448,192,45990,1,0,0:0:0:0:
64,192,46038,1,0,0:0:0:0:
448,192,46086,1,0,0:0:0:0:
320,192,46134,1,0,0:0:0:0:
192,192,46134,1,0,0:0:0:0:
64,192,46182,1,0,0:0:0:0:
320,192,46230,1,0,0:0:0:0:
64,192,46278,1,0,0:0:0:0:
448,192,46326,1,0,0:0:0:0:
192,192,46326,1,0,0:0:0:0:
320,192,46374,1,0,0:0:0:0:
192,192,46423,1,0,0:0:0:0:
448,192,46470,1,0,0:0:0:0:
320,192,46519,1,0,0:0:0:0:
64,192,46519,1,0,0:0:0:0:
192,192,46566,1,0,0:0:0:0:
320,192,46615,1,0,0:0:0:0:
448,192,46663,1,0,0:0:0:0:
192,192,46711,1,0,0:0:0:0:
64,192,46711,1,0,0:0:0:0:
320,192,46759,1,0,0:0:0:0:
64,192,46807,1,0,0:0:0:0:
320,192,46855,1,0,0:0:0:0:
448,192,46903,1,0,0:0:0:0:
192,192,46903,1,0,0:0:0:0:
64,192,46951,1,0,0:0:0:0:
448,192,47000,1,0,0:0:0:0:
64,192,47047,1,0,0:0:0:0:
320,192,47096,1,0,0:0:0:0:
192,192,47096,1,0,0:0:0:0:
448,192,47143,1,0,0:0:0:0:
192,192,47192,1,0,0:0:0:0:
320,192,47240,1,0,0:0:0:0:
448,192,47288,1,0,0:0:0:0:
64,192,47288,1,0,0:0:0:0:
192,192,47336,1,0,0:0:0:0:
448,192,47384,1,0,0:0:0:0:
320,192,47432,1,0,0:0:0:0:
192,192,47480,1,0,0:0:0:0:
64,192,47480,1,0,0:0:0:0:
448,192,47528,1,0,0:0:0:0:
64,192,47576,1,0,0:0:0:0:
320,192,47624,1,0,0:0:0:0:
448,192,47673,1,0,0:0:0:0:
192,192,47673,1,0,0:0:0:0:
64,192,47720,1,0,0:0:0:0:
320,192,47769,1,0,0:0:0:0:
192,192,47816,1,0,0:0:0:0:
448,192,47865,1,0,0:0:0:0:
320,192,47865,1,0,0:0:0:0:
64,192,47865,1,0,0:0:0:0:
192,192,47913,1,0,0:0:0:0:
448,192,47961,1,0,0:0:0:0:
64,192,48009,1,0,0:0:0:0:
320,192,48057,1,0,0:0:0:0:
192,192,48057,1,0,0:0:0:0:
448,192,48105,1,0,0:0:0:0:
192,192,48153,1,0,0:0:0:0:
64,192,48201,1,0,0:0:0:0:
448,192,48250,1,0,0:0:0:0:
320,192,48250,1,0,0:0:0:0:
192,192,48297,1,0,0:0:0:0:
448,192,48346,1,0,0:0:0:0:
192,192,48393,1,0,0:0:0:0:
320,192,48442,1,0,0:0:0:0:
64,192,48442,1,0,0:0:0:0:
448,192,48490,1,0,0:0:0:0:
64,192,48538,1,0,0:0:0:0:
448,192,48586,1,0,0:0:0:0:
320,192,48634,1,0,0:0:0:0:
192,192,48634,1,0,0:0:0:0:
64,192,48682,1,0,0:0:0:0:
192,192,48730,1,0,0:0:0:0:
320,192,48778,1,0,0:0:0:0:
448,192,48826,1,0,0:0:0:0:
64,192,48826,1,0,0:0:0:0:
192,192,48874,1,0,0:0:0:0:
448,192,48923,1,0,0:0:0:0:
320,192,48970,1,0,0:0:0:0:
192,192,49019,1,0,0:0:0:0:
64,192,49019,1,0,0:0:0:0:
448,192,49066,1,0,0:0:0:0:
64,192,49115,1,0,0:0:0:0:
448,192,49163,1,0,0:0:0:0:
320,192,49211,1,0,0:0:0:0:
192,192,49211,1,0,0:0:0:0:
64,192,49259,1,0,0:0:0:0:
320,192,49307,1,0,0:0:0:0:
64,192,49355,1,0,0:0:0:0:
448,192,49403,1,0,0:0:0:0:
192,192,49403,1,0,0:0:0:0:
320,192,49500,1,0,0:0:0:0:
192,192,49547,1,0,0:0:0:0:
448,192,49596,1,0,0:0:0:0:
64,192,49596,1,0,0:0:0:0:
320,192,49692,1,0,0:0:0:0:
448,192,49740,1,0,0:0:0:0:
192,192,49788,1,0,0:0:0:0:
320,192,49836,1,0,0:0:0:0:
192,192,49884,1,0,0:0:0:0:
320,192,49980,1,0,0:0:0:0:
64,192,50028,1,0,0:0:0:0:
192,192,50076,1,0,0:0:0:0:
320,192,50124,1,0,0:0:0:0:
448,192,50173,128,0,50461:0:0:0:0:
64,192,50173,128,0,50461:0:0:0:0:
320,192,50557,128,0,50942:0:0:0:0:
64,192,50557,128,0,50653:0:0:0:0:
192,192,50653,128,0,50942:0:0:0:0:
448,192,50942,1,0,0:0:0:0:
64,192,50942,1,0,0:0:0:0:
192,192,51038,1,0,0:0:0:0:
448,192,51134,1,0,0:0:0:0:
64,192,51182,1,0,0:0:0:0:
320,192,51230,1,0,0:0:0:0:
192,192,51230,1,0,0:0:0:0:
64,192,51326,1,0,0:0:0:0:
448,192,51423,1,0,0:0:0:0:
320,192,51423,1,0,0:0:0:0:
192,192,51519,1,0,0:0:0:0:
448,192,51566,1,0,0:0:0:0:
320,192,51615,1,0,0:0:0:0:
64,192,51615,1,0,0:0:0:0:
448,192,51711,1,0,0:0:0:0:
192,192,51807,1,0,0:0:0:0:
64,192,51807,1,0,0:0:0:0:
320,192,51903,1,0,0:0:0:0:
192,192,51951,1,0,0:0:0:0:
448,192,52000,1,0,0:0:0:0:
64,192,52000,1,0,0:0:0:0:
192,192,52096,1,0,0:0:0:0:
448,192,52192,1,0,0:0:0:0:
320,192,52192,1,0,0:0:0:0:
64,192,52288,1,0,0:0:0:0:
320,192,52336,1,0,0:0:0:0:
448,192,52384,1,0,0:0:0:0:
192,192,52384,1,0,0:0:0:0:
320,192,52480,1,0,0:0:0:0:
192,192,52576,1,0,0:0:0:0:
64,192,52576,1,0,0:0:0:0:
448,192,52673,1,0,0:0:0:0:
192,192,52720,1,0,0:0:0:0:
320,192,52769,1,0,0:0:0:0:
64,192,52769,1,0,0:0:0:0:
192,192,52865,1,0,0:0:0:0:
448,192,52961,1,0,0:0:0:0:
320,192,52961,1,0,0:0:0:0:
192,192,53057,1,0,0:0:0:0:
448,192,53105,1,0,0:0:0:0:
320,192,53153,1,0,0:0:0:0:
64,192,53153,1,0,0:0:0:0:
192,192,53250,1,0,0:0:0:0:
320,192,53297,1,0,0:0:0:0:
192,192,53346,1,0,0:0:0:0:
64,192,53346,1,0,0:0:0:0:
320,192,53393,1,0,0:0:0:0:
448,192,53442,1,0,0:0:0:0:
64,192,53490,1,0,0:0:0:0:
448,192,53538,1,0,0:0:0:0:
192,192,53538,1,0,0:0:0:0:
320,192,53586,1,0,0:0:0:0:
64,192,53634,1,0,0:0:0:0:
448,192,53682,1,0,0:0:0:0:
192,192,53730,1,0,0:0:0:0:
64,192,53730,1,0,0:0:0:0:
448,192,53778,1,0,0:0:0:0:
320,192,53826,1,0,0:0:0:0:
192,192,53874,1,0,0:0:0:0:
320,192,53923,1,0,0:0:0:0:
64,192,53923,1,0,0:0:0:0:
448,192,53970,1,0,0:0:0:0:
192,192,54019,1,0,0:0:0:0:
64,192,54019,1,0,0:0:0:0:
320,192,54115,1,0,0:0:0:0:
192,192,54211,1,0,0:0:0:0:
448,192,54259,1,0,0:0:0:0:
320,192,54307,1,0,0:0:0:0:
64,192,54307,1,0,0:0:0:0:
448,192,54403,1,0,0:0:0:0:
192,192,54500,1,0,0:0:0:0:
64,192,54500,1,0,0:0:0:0:
320,192,54596,1,0,0:0:0:0:
192,192,54643,1,0,0:0:0:0:
448,192,54692,1,0,0:0:0:0:
64,192,54692,1,0,0:0:0:0:
192,192,54788,1,0,0:0:0:0:
448,192,54884,1,0,0:0:0:0:
320,192,54884,1,0,0:0:0:0:
64,192,54980,1,0,0:0:0:0:
320,192,55028,1,0,0:0:0:0:
448,192,55076,1,0,0:0:0:0:
192,192,55076,1,0,0:0:0:0:
320,192,55173,1,0,0:0:0:0:
192,192,55269,1,0,0:0:0:0:
64,192,55269,1,0,0:0:0:0:
448,192,55365,1,0,0:0:0:0:
64,192,55413,1,0,0:0:0:0:
320,192,55461,1,0,0:0:0:0:
192,192,55461,1,0,0:0:0:0:
448,192,55557,1,0,0:0:0:0:
320,192,55557,1,0,0:0:0:0:
64,192,55605,1,0,0:0:0:0:
448,192,55653,1,0,0:0:0:0:
192,192,55701,1,0,0:0:0:0:
320,192,55750,1,0,0:0:0:0:
64,192,55750,1,0,0:0:0:0:
448,192,55797,1,0,0:0:0:0:
64,192,55846,1,0,0:0:0:0:
192,192,55893,1,0,0:0:0:0:
448,192,55942,1,0,0:0:0:0:
320,192,55942,1,0,0:0:0:0:
64,192,55990,1,0,0:0:0:0:
320,192,56038,1,0,0:0:0:0:
192,192,56086,1,0,0:0:0:0:
448,192,56134,1,0,0:0:0:0:
64,192,56134,1,0,0:0:0:0:
320,192,56182,1,0,0:0:0:0:
64,192,56230,1,0,0:0:0:0:
448,192,56278,1,0,0:0:0:0:
320,192,56326,1,0,0:0:0:0:
192,192,56326,128,0,56519:0:0:0:0:
448,192,56519,1,0,0:0:0:0:
320,192,56519,1,0,0:0:0:0:
192,192,56566,1,0,0:0:0:0:
64,192,56566,1,0,0:0:0:0:
448,192,56615,1,0,0:0:0:0:
320,192,56615,1,0,0:0:0:0:
192,192,56663,1,0,0:0:0:0:
64,192,56663,1,0,0:0:0:0:
448,192,56711,1,0,0:0:0:0:
320,192,56759,1,0,0:0:0:0:
192,192,56807,1,0,0:0:0:0:
64,192,56855,1,0,0:0:0:0:
448,192,56903,1,0,0:0:0:0:
320,192,56903,1,0,0:0:0:0:
192,192,56951,1,0,0:0:0:0:
64,192,56951,1,0,0:0:0:0:
448,192,57000,1,0,0:0:0:0:
320,192,57000,1,0,0:0:0:0:
192,192,57047,1,0,0:0:0:0:
448,192,57096,1,0,0:0:0:0:
320,192,57096,1,0,0:0:0:0:
64,192,57096,1,0,0:0:0:0:
448,192,57865,1,0,0:0:0:0:
320,192,57865,1,0,0:0:0:0:
64,192,57865,1,0,0:0:0:0:
192,192,57961,1,0,0:0:0:0:
448,192,58057,1,0,0:0:0:0:
320,192,58057,1,0,0:0:0:0:
320,192,58153,1,0,0:0:0:0:
448,192,58250,1,0,0:0:0:0:
192,192,58250,1,0,0:0:0:0:
192,192,58346,1,0,0:0:0:0:
448,192,58442,1,0,0:0:0:0:
64,192,58442,1,0,0:0:0:0:
448,192,58538,1,0,0:0:0:0:
320,192,58634,1,0,0:0:0:0:
192,192,58634,1,0,0:0:0:0:
64,192,58730,1,0,0:0:0:0:
448,192,58826,1,0,0:0:0:0:
192,192,58874,1,0,0:0:0:0:
320,192,58923,1,0,0:0:0:0:
64,192,58923,1,0,0:0:0:0:
192,192,59019,1,0,0:0:0:0:
448,192,59115,1,0,0:0:0:0:
320,192,59115,1,0,0:0:0:0:
64,192,59211,1,0,0:0:0:0:
320,192,59259,1,0,0:0:0:0:
448,192,59307,1,0,0:0:0:0:
192,192,59307,1,0,0:0:0:0:
320,192,59403,1,0,0:0:0:0:
192,192,59451,1,0,0:0:0:0:
448,192,59500,1,0,0:0:0:0:
320,192,59500,1,0,0:0:0:0:
192,192,59547,1,0,0:0:0:0:
64,192,59596,1,0,0:0:0:0:
320,192,59643,1,0,0:0:0:0:
448,192,59692,1,0,0:0:0:0:
64,192,59692,1,0,0:0:0:0:
192,192,59740,1,0,0:0:0:0:
320,192,59788,1,0,0:0:0:0:
64,192,59836,1,0,0:0:0:0:
448,192,59884,1,0,0:0:0:0:
320,192,59884,1,0,0:0:0:0:
64,192,59932,1,0,0:0:0:0:
192,192,59980,1,0,0:0:0:0:
320,192,60028,1,0,0:0:0:0:
448,192,60076,1,0,0:0:0:0:
192,192,60076,1,0,0:0:0:0:
64,192,60124,1,0,0:0:0:0:
448,192,60173,1,0,0:0:0:0:
320,192,60173,1,0,0:0:0:0:
192,192,60269,1,0,0:0:0:0:
448,192,60365,1,0,0:0:0:0:
64,192,60413,1,0,0:0:0:0:
320,192,60461,1,0,0:0:0:0:
192,192,60461,1,0,0:0:0:0:
64,192,60557,1,0,0:0:0:0:
448,192,60653,1,0,0:0:0:0:
320,192,60653,1,0,0:0:0:0:
192,192,60750,1,0,0:0:0:0:
320,192,60797,1,0,0:0:0:0:
448,192,60846,1,0,0:0:0:0:
64,192,60846,1,0,0:0:0:0:
320,192,60942,1,0,0:0:0:0:
192,192,61038,1,0,0:0:0:0:
64,192,61038,1,0,0:0:0:0:
448,192,61134,1,0,0:0:0:0:
192,192,61182,1,0,0:0:0:0:
320,192,61230,1,0,0:0:0:0:
64,192,61230,1,0,0:0:0:0:
192,192,61326,1,0,0:0:0:0:
448,192,61423,1,0,0:0:0:0:
320,192,61423,1,0,0:0:0:0:
64,192,61519,1,0,0:0:0:0:
320,192,61566,1,0,0:0:0:0:
448,192,61615,1,0,0:0:0:0:
192,192,61615,1,0,0:0:0:0:
448,192,61711,1,0,0:0:0:0:
320,192,61711,1,0,0:0:0:0:
64,192,61711,1,0,0:0:0:0:
192,192,61807,1,0,0:0:0:0:
192,192,61903,1,0,0:0:0:0:
320,192,62000,1,0,0:0:0:0:
64,192,62000,1,0,0:0:0:0:
448,192,62096,1,0,0:0:0:0:
448,192,62192,1,0,0:0:0:0:
192,192,62288,1,0,0:0:0:0:
64,192,62288,1,0,0:0:0:0:
320,192,62384,1,0,0:0:0:0:
448,192,62480,1,0,0:0:0:0:
64,192,62480,128,0,62673:0:0:0:0:
448,192,62673,1,0,0:0:0:0:
192,192,62720,1,0,0:0:0:0:
448,192,62769,1,0,0:0:0:0:
192,192,62816,1,0,0:0:0:0:
320,192,62865,128,0,63057:0:0:0:0:
64,192,62865,1,0,0:0:0:0:
192,192,63057,1,0,0:0:0:0:
64,192,63057,1,0,0:0:0:0:
448,192,63105,1,0,0:0:0:0:
320,192,63105,1,0,0:0:0:0:
192,192,63153,1,0,0:0:0:0:
64,192,63153,1,0,0:0:0:0:
448,192,63201,1,0,0:0:0:0:
320,192,63201,1,0,0:0:0:0:
192,192,63250,1,0,0:0:0:0:
320,192,63346,1,0,0:0:0:0:
192,192,63442,1,0,0:0:0:0:
64,192,63490,1,0,0:0:0:0:
448,192,63538,1,0,0:0:0:0:
320,192,63538,1,0,0:0:0:0:
64,192,63634,1,0,0:0:0:0:
448,192,63730,1,0,0:0:0:0:
320,192,63730,1,0,0:0:0:0:
64,192,63826,1,0,0:0:0:0:
320,192,63874,1,0,0:0:0:0:
448,192,63923,1,0,0:0:0:0:
192,192,63923,1,0,0:0:0:0:
64,192,64019,1,0,0:0:0:0:
192,192,64115,1,0,0:0:0:0:
64,192,64115,1,0,0:0:0:0:
320,192,64211,1,0,0:0:0:0:
192,192,64259,1,0,0:0:0:0:
320,192,64307,1,0,0:0:0:0:
64,192,64307,1,0,0:0:0:0:
192,192,64403,1,0,0:0:0:0:
192,192,64500,1,0,0:0:0:0:
64,192,64500,1,0,0:0:0:0:
448,192,64596,1,0,0:0:0:0:
64,192,64643,1,0,0:0:0:0:
448,192,64692,1,0,0:0:0:0:
192,192,64692,1,0,0:0:0:0:
320,192,64788,1,0,0:0:0:0:
192,192,64884,1,0,0:0:0:0:
320,192,64980,1,0,0:0:0:0:
448,192,65028,1,0,0:0:0:0:
192,192,65076,1,0,0:0:0:0:
64,192,65076,1,0,0:0:0:0:
448,192,65173,1,0,0:0:0:0:
192,192,65269,1,0,0:0:0:0:
64,192,65269,1,0,0:0:0:0:
448,192,65365,1,0,0:0:0:0:
192,192,65413,1,0,0:0:0:0:
320,192,65461,1,0,0:0:0:0:
64,192,65461,1,0,0:0:0:0:
448,192,65557,1,0,0:0:0:0:
448,192,65653,1,0,0:0:0:0:
320,192,65653,1,0,0:0:0:0:
192,192,65750,1,0,0:0:0:0:
320,192,65797,1,0,0:0:0:0:
448,192,65846,1,0,0:0:0:0:
192,192,65846,1,0,0:0:0:0:
320,192,65942,1,0,0:0:0:0:
448,192,66038,1,0,0:0:0:0:
320,192,66038,1,0,0:0:0:0:
64,192,66134,1,0,0:0:0:0:
448,192,66182,1,0,0:0:0:0:
320,192,66230,1,0,0:0:0:0:
64,192,66230,1,0,0:0:0:0:
192,192,66326,1,0,0:0:0:0:
448,192,66423,1,0,0:0:0:0:
192,192,66519,1,0,0:0:0:0:
448,192,66566,1,0,0:0:0:0:
320,192,66615,1,0,0:0:0:0:
64,192,66615,1,0,0:0:0:0:
192,192,66711,1,0,0:0:0:0:
320,192,66807,1,0,0:0:0:0:
64,192,66807,1,0,0:0:0:0:
192,192,66903,1,0,0:0:0:0:
64,192,66951,1,0,0:0:0:0:
448,192,67000,1,0,0:0:0:0:
320,192,67000,1,0,0:0:0:0:
192,192,67096,1,0,0:0:0:0:
448,192,67192,1,0,0:0:0:0:
192,192,67192,1,0,0:0:0:0:
320,192,67288,1,0,0:0:0:0:
64,192,67336,1,0,0:0:0:0:
448,192,67384,1,0,0:0:0:0:
320,192,67384,1,0,0:0:0:0:
64,192,67480,1,0,0:0:0:0:
448,192,67528,1,0,0:0:0:0:
64,192,67576,1,0,0:0:0:0:
320,192,67624,1,0,0:0:0:0:
448,192,67673,1,0,0:0:0:0:
192,192,67673,1,0,0:0:0:0:
64,192,67673,1,0,0:0:0:0:
448,192,67769,1,0,0:0:0:0:
320,192,67816,1,0,0:0:0:0:
192,192,67865,1,0,0:0:0:0:
64,192,67865,1,0,0:0:0:0:
448,192,67913,1,0,0:0:0:0:
64,192,67961,1,0,0:0:0:0:
192,192,68009,1,0,0:0:0:0:
320,192,68057,1,0,0:0:0:0:
64,192,68105,1,0,0:0:0:0:
320,192,68153,1,0,0:0:0:0:
448,192,68250,1,0,0:0:0:0:
192,192,68250,1,0,0:0:0:0:
64,192,68297,1,0,0:0:0:0:
320,192,68346,1,0,0:0:0:0:
192,192,68393,1,0,0:0:0:0:
320,192,68442,1,0,0:0:0:0:
64,192,68442,1,0,0:0:0:0:
448,192,68490,1,0,0:0:0:0:
192,192,68538,1,0,0:0:0:0:
320,192,68586,1,0,0:0:0:0:
64,192,68634,1,0,0:0:0:0:
448,192,68682,1,0,0:0:0:0:
192,192,68730,1,0,0:0:0:0:
64,192,68730,1,0,0:0:0:0:
448,192,68826,1,0,0:0:0:0:
320,192,68874,1,0,0:0:0:0:
64,192,68923,1,0,0:0:0:0:
448,192,68970,1,0,0:0:0:0:
192,192,69019,1,0,0:0:0:0:
64,192,69019,1,0,0:0:0:0:
448,192,69066,1,0,0:0:0:0:
320,192,69066,1,0,0:0:0:0:
192,192,69115,1,0,0:0:0:0:
64,192,69163,1,0,0:0:0:0:
320,192,69211,1,0,0:0:0:0:
192,192,69259,1,0,0:0:0:0:
320,192,69307,1,0,0:0:0:0:
192,192,69355,1,0,0:0:0:0:
64,192,69403,1,0,0:0:0:0:
448,192,69500,1,0,0:0:0:0:
64,192,69596,1,0,0:0:0:0:
192,192,69643,1,0,0:0:0:0:
448,192,69692,1,0,0:0:0:0:
320,192,69692,1,0,0:0:0:0:
192,192,69788,1,0,0:0:0:0:
448,192,69884,1,0,0:0:0:0:
320,192,69884,1,0,0:0:0:0:
192,192,69980,1,0,0:0:0:0:
448,192,70028,1,0,0:0:0:0:
320,192,70076,1,0,0:0:0:0:
64,192,70076,1,0,0:0:0:0:
192,192,70173,1,0,0:0:0:0:
192,192,70269,1,0,0:0:0:0:
64,192,70269,1,0,0:0:0:0:
448,192,70365,1,0,0:0:0:0:
64,192,70413,1,0,0:0:0:0:
448,192,70461,1,0,0:0:0:0:
192,192,70461,1,0,0:0:0:0:
64,192,70557,1,0,0:0:0:0:
192,192,70653,1,0,0:0:0:0:
64,192,70653,1,0,0:0:0:0:
320,192,70750,1,0,0:0:0:0:
192,192,70797,1,0,0:0:0:0:
320,192,70846,1,0,0:0:0:0:
64,192,70846,1,0,0:0:0:0:
448,192,70942,1,0,0:0:0:0:
64,192,71038,1,0,0:0:0:0:
448,192,71134,1,0,0:0:0:0:
320,192,71182,1,0,0:0:0:0:
192,192,71230,1,0,0:0:0:0:
64,192,71230,1,0,0:0:0:0:
320,192,71326,1,0,0:0:0:0:
192,192,71423,1,0,0:0:0:0:
64,192,71423,1,0,0:0:0:0:
320,192,71519,1,0,0:0:0:0:
64,192,71566,1,0,0:0:0:0:
448,192,71615,1,0,0:0:0:0:
192,192,71615,1,0,0:0:0:0:
320,192,71711,1,0,0:0:0:0:
448,192,71807,1,0,0:0:0:0:
320,192,71807,1,0,0:0:0:0:
64,192,71903,1,0,0:0:0:0:
448,192,71951,1,0,0:0:0:0:
320,192,72000,1,0,0:0:0:0:
64,192,72000,1,0,0:0:0:0:
448,192,72096,1,0,0:0:0:0:
448,192,72192,1,0,0:0:0:0:
320,192,72192,1,0,0:0:0:0:
192,192,72288,1,0,0:0:0:0:
320,192,72336,1,0,0:0:0:0:
448,192,72384,1,0,0:0:0:0:
192,192,72384,1,0,0:0:0:0:
64,192,72480,1,0,0:0:0:0:
320,192,72576,1,0,0:0:0:0:
64,192,72673,1,0,0:0:0:0:
448,192,72769,1,0,0:0:0:0:
192,192,72769,1,0,0:0:0:0:
320,192,72865,1,0,0:0:0:0:
448,192,72961,1,0,0:0:0:0:
192,192,72961,1,0,0:0:0:0:
320,192,73057,1,0,0:0:0:0:
448,192,73105,1,0,0:0:0:0:
192,192,73153,1,0,0:0:0:0:
64,192,73153,1,0,0:0:0:0:
448,192,73250,1,0,0:0:0:0:
448,192,73346,1,0,0:0:0:0:
64,192,73346,1,0,0:0:0:0:
192,192,73442,1,0,0:0:0:0:
320,192,73490,1,0,0:0:0:0:
192,192,73538,1,0,0:0:0:0:
64,192,73538,1,0,0:0:0:0:
320,192,73634,1,0,0:0:0:0:
320,192,73730,1,0,0:0:0:0:
192,192,73778,1,0,0:0:0:0:
448,192,73826,1,0,0:0:0:0:
64,192,73826,128,0,74019:0:0:0:0:
448,192,74019,1,0,0:0:0:0:
320,192,74019,1,0,0:0:0:0:
448,192,74115,1,0,0:0:0:0:
320,192,74115,1,0,0:0:0:0:
192,192,74211,1,0,0:0:0:0:
64,192,74211,1,0,0:0:0:0:
448,192,74307,1,0,0:0:0:0:
64,192,74307,1,0,0:0:0:0:
192,192,74403,1,0,0:0:0:0:
64,192,74451,1,0,0:0:0:0:
448,192,74500,1,0,0:0:0:0:
320,192,74500,1,0,0:0:0:0:
192,192,74547,1,0,0:0:0:0:
448,192,74596,1,0,0:0:0:0:
320,192,74643,1,0,0:0:0:0:
64,192,74692,1,0,0:0:0:0:
448,192,74740,1,0,0:0:0:0:
320,192,74788,1,0,0:0:0:0:
192,192,74788,1,0,0:0:0:0:
64,192,74836,1,0,0:0:0:0:
320,192,74884,1,0,0:0:0:0:
448,192,74932,1,0,0:0:0:0:
192,192,74980,1,0,0:0:0:0:
320,192,75028,1,0,0:0:0:0:
448,192,75076,1,0,0:0:0:0:
64,192,75076,1,0,0:0:0:0:
192,192,75124,1,0,0:0:0:0:
64,192,75173,1,0,0:0:0:0:
320,192,75220,1,0,0:0:0:0:
192,192,75269,1,0,0:0:0:0:
64,192,75316,1,0,0:0:0:0:
448,192,75365,1,0,0:0:0:0:
320,192,75365,128,0,75557:0:0:0:0:
448,192,75557,1,0,0:0:0:0:
64,192,75557,1,0,0:0:0:0:
192,192,75653,1,0,0:0:0:0:
448,192,75750,1,0,0:0:0:0:
320,192,75750,1,0,0:0:0:0:
64,192,75846,1,0,0:0:0:0:
448,192,75942,1,0,0:0:0:0:
192,192,75942,1,0,0:0:0:0:
320,192,76038,1,0,0:0:0:0:
448,192,76086,1,0,0:0:0:0:
192,192,76134,1,0,0:0:0:0:
64,192,76134,1,0,0:0:0:0:
448,192,76230,1,0,0:0:0:0:
320,192,76326,1,0,0:0:0:0:
64,192,76326,1,0,0:0:0:0:
192,192,76423,1,0,0:0:0:0:
448,192,76519,1,0,0:0:0:0:
320,192,76519,1,0,0:0:0:0:
64,192,76615,1,0,0:0:0:0:
320,192,76663,1,0,0:0:0:0:
448,192,76711,128,0,76903:0:0:0:0:
192,192,76759,1,0,0:0:0:0:
320,192,76807,1,0,0:0:0:0:
64,192,76855,1,0,0:0:0:0:
320,192,76903,128,0,77096:0:0:0:0:
192,192,76951,1,0,0:0:0:0:
448,192,77000,1,0,0:0:0:0:
192,192,77047,1,0,0:0:0:0:
448,192,77096,1,0,0:0:0:0:
64,192,77096,1,0,0:0:0:0:
64,192,77192,1,0,0:0:0:0:
64,192,77288,1,0,0:0:0:0:
64,192,77384,1,0,0:0:0:0:
320,192,77480,1,0,0:0:0:0:
64,192,77480,1,0,0:0:0:0:
64,192,77576,1,0,0:0:0:0:
448,192,77624,1,0,0:0:0:0:
64,192,77673,1,0,0:0:0:0:
64,192,77769,1,0,0:0:0:0:
192,192,77865,1,0,0:0:0:0:
192,192,77961,1,0,0:0:0:0:
192,192,78057,1,0,0:0:0:0:
192,192,78153,1,0,0:0:0:0:
448,192,78250,1,0,0:0:0:0:
192,192,78250,1,0,0:0:0:0:
192,192,78346,1,0,0:0:0:0:
192,192,78442,1,0,0:0:0:0:
192,192,78538,1,0,0:0:0:0:
448,192,78634,1,0,0:0:0:0:
320,192,78634,1,0,0:0:0:0:
320,192,78730,1,0,0:0:0:0:
320,192,78826,1,0,0:0:0:0:
64,192,78826,1,0,0:0:0:0:
320,192,78923,1,0,0:0:0:0:
320,192,79019,1,0,0:0:0:0:
192,192,79019,1,0,0:0:0:0:
320,192,79115,1,0,0:0:0:0:
320,192,79211,1,0,0:0:0:0:
64,192,79259,1,0,0:0:0:0:
320,192,79307,1,0,0:0:0:0:
192,192,79355,1,0,0:0:0:0:
448,192,79403,1,0,0:0:0:0:
64,192,79451,1,0,0:0:0:0:
448,192,79500,1,0,0:0:0:0:
448,192,79596,1,0,0:0:0:0:
192,192,79643,1,0,0:0:0:0:
448,192,79692,1,0,0:0:0:0:
320,192,79740,1,0,0:0:0:0:
448,192,79788,1,0,0:0:0:0:
64,192,79836,1,0,0:0:0:0:
448,192,79884,1,0,0:0:0:0:
192,192,79932,1,0,0:0:0:0:
448,192,79980,1,0,0:0:0:0:
320,192,79980,1,0,0:0:0:0:
64,192,79980,1,0,0:0:0:0:
192,192,80076,1,0,0:0:0:0:
448,192,80173,1,0,0:0:0:0:
320,192,80173,1,0,0:0:0:0:
64,192,80269,1,0,0:0:0:0:
448,192,80365,1,0,0:0:0:0:
192,192,80365,1,0,0:0:0:0:
320,192,80461,1,0,0:0:0:0:
448,192,80509,1,0,0:0:0:0:
192,192,80557,1,0,0:0:0:0:
64,192,80557,1,0,0:0:0:0:
448,192,80653,1,0,0:0:0:0:
320,192,80750,1,0,0:0:0:0:
64,192,80750,1,0,0:0:0:0:
192,192,80846,1,0,0:0:0:0:
320,192,80893,1,0,0:0:0:0:
448,192,80942,1,0,0:0:0:0:
64,192,80942,1,0,0:0:0:0:
320,192,81038,1,0,0:0:0:0:
448,192,81086,1,0,0:0:0:0:
192,192,81134,1,0,0:0:0:0:
320,192,81182,1,0,0:0:0:0:
192,192,81230,1,0,0:0:0:0:
320,192,81278,1,0,0:0:0:0:
192,192,81326,1,0,0:0:0:0:
64,192,81326,1,0,0:0:0:0:
448,192,81374,1,0,0:0:0:0:
320,192,81374,1,0,0:0:0:0:
64,192,81423,1,0,0:0:0:0:
192,192,81470,1,0,0:0:0:0:
448,192,81519,1,0,0:0:0:0:
320,192,81519,128,0,81711:0:0:0:0:
192,192,81711,1,0,0:0:0:0:
64,192,81711,128,0,81759:0:0:0:0:
320,192,81807,1,0,0:0:0:0:
448,192,81903,128,0,81951:0:0:0:0:
192,192,81903,1,0,0:0:0:0:
64,192,82000,1,0,0:0:0:0:
448,192,82096,1,0,0:0:0:0:
320,192,82096,128,0,82143:0:0:0:0:
192,192,82192,128,0,82240:0:0:0:0:
320,192,82288,128,0,82336:0:0:0:0:
64,192,82288,1,0,0:0:0:0:
192,192,82384,128,0,82432:0:0:0:0:
64,192,82432,1,0,0:0:0:0:
448,192,82480,128,0,82528:0:0:0:0:
320,192,82480,1,0,0:0:0:0:
64,192,82576,1,0,0:0:0:0:
448,192,82673,1,0,0:0:0:0:
192,192,82673,128,0,82720:0:0:0:0:
320,192,82769,1,0,0:0:0:0:
192,192,82865,1,0,0:0:0:0:
64,192,82865,128,0,82913:0:0:0:0:
448,192,82961,128,0,83009:0:0:0:0:
192,192,83009,1,0,0:0:0:0:
320,192,83057,1,0,0:0:0:0:
64,192,83057,128,0,83105:0:0:0:0:
192,192,83153,128,0,83201:0:0:0:0:
448,192,83250,1,0,0:0:0:0:
320,192,83250,128,0,83297:0:0:0:0:
64,192,83250,1,0,0:0:0:0:
192,192,83346,1,0,0:0:0:0:
448,192,83442,128,0,83490:0:0:0:0:
320,192,83442,1,0,0:0:0:0:
64,192,83538,1,0,0:0:0:0:
448,192,83634,1,0,0:0:0:0:
192,192,83634,128,0,83682:0:0:0:0:
320,192,83730,128,0,83778:0:0:0:0:
448,192,83778,1,0,0:0:0:0:
192,192,83826,128,0,83874:0:0:0:0:
64,192,83826,1,0,0:0:0:0:
320,192,83923,128,0,83970:0:0:0:0:
448,192,84019,1,0,0:0:0:0:
64,192,84019,128,0,84066:0:0:0:0:
192,192,84115,1,0,0:0:0:0:
64,192,84163,1,0,0:0:0:0:
448,192,84211,128,0,84259:0:0:0:0:
320,192,84211,1,0,0:0:0:0:
64,192,84307,1,0,0:0:0:0:
448,192,84403,1,0,0:0:0:0:
192,192,84403,128,0,84451:0:0:0:0:
64,192,84500,128,0,84547:0:0:0:0:
448,192,84547,1,0,0:0:0:0:
320,192,84596,1,0,0:0:0:0:
192,192,84596,128,0,84643:0:0:0:0:
448,192,84692,1,0,0:0:0:0:
448,192,84788,1,0,0:0:0:0:
192,192,84788,1,0,0:0:0:0:
64,192,84788,128,0,84836:0:0:0:0:
320,192,84884,1,0,0:0:0:0:
448,192,84980,128,0,85028:0:0:0:0:
192,192,84980,1,0,0:0:0:0:
64,192,85076,1,0,0:0:0:0:
192,192,85124,1,0,0:0:0:0:
448,192,85173,1,0,0:0:0:0:
320,192,85173,128,0,85220:0:0:0:0:
192,192,85269,128,0,85316:0:0:0:0:
320,192,85365,128,0,85413:0:0:0:0:
64,192,85365,1,0,0:0:0:0:
192,192,85461,128,0,85509:0:0:0:0:
64,192,85509,1,0,0:0:0:0:
448,192,85557,128,0,85605:0:0:0:0:
320,192,85557,1,0,0:0:0:0:
64,192,85653,1,0,0:0:0:0:
448,192,85750,1,0,0:0:0:0:
192,192,85750,128,0,85797:0:0:0:0:
320,192,85846,1,0,0:0:0:0:
448,192,85893,1,0,0:0:0:0:
192,192,85942,1,0,0:0:0:0:
64,192,85942,128,0,85990:0:0:0:0:
448,192,86038,128,0,86086:0:0:0:0:
320,192,86134,1,0,0:0:0:0:
64,192,86134,128,0,86182:0:0:0:0:
192,192,86230,128,0,86278:0:0:0:0:
64,192,86278,1,0,0:0:0:0:
448,192,86326,1,0,0:0:0:0:
320,192,86326,1,0,0:0:0:0:
192,192,86374,1,0,0:0:0:0:
448,192,86423,1,0,0:0:0:0:
320,192,86470,1,0,0:0:0:0:
192,192,86519,1,0,0:0:0:0:
448,192,86566,1,0,0:0:0:0:
192,192,86615,1,0,0:0:0:0:
320,192,86663,1,0,0:0:0:0:
64,192,86711,1,0,0:0:0:0:
192,192,86759,1,0,0:0:0:0:
448,192,86807,1,0,0:0:0:0:
64,192,86855,1,0,0:0:0:0:
448,192,86903,1,0,0:0:0:0:
320,192,86903,1,0,0:0:0:0:
192,192,86951,1,0,0:0:0:0:
64,192,86951,1,0,0:0:0:0:
320,192,87000,1,0,0:0:0:0:
448,192,87047,1,0,0:0:0:0:
64,192,87096,1,0,0:0:0:0:
320,192,87143,1,0,0:0:0:0:
192,192,87192,1,0,0:0:0:0:
64,192,87240,1,0,0:0:0:0:
448,192,87288,1,0,0:0:0:0:
320,192,87288,1,0,0:0:0:0:
192,192,87336,1,0,0:0:0:0:
64,192,87336,1,0,0:0:0:0:
448,192,87384,1,0,0:0:0:0:
320,192,87384,1,0,0:0:0:0:
192,192,87432,1,0,0:0:0:0:
64,192,87432,1,0,0:0:0:0:
448,192,87480,1,0,0:0:0:0:
320,192,87528,1,0,0:0:0:0:
192,192,87576,1,0,0:0:0:0:
448,192,87624,1,0,0:0:0:0:
320,192,87673,1,0,0:0:0:0:
64,192,87673,1,0,0:0:0:0:
192,192,87769,1,0,0:0:0:0:
64,192,87769,1,0,0:0:0:0:
448,192,87865,1,0,0:0:0:0:
320,192,87865,1,0,0:0:0:0:
192,192,87913,1,0,0:0:0:0:
64,192,87961,1,0,0:0:0:0:
320,192,88009,1,0,0:0:0:0:
448,192,88057,1,0,0:0:0:0:
192,192,88057,1,0,0:0:0:0:
64,192,88105,1,0,0:0:0:0:
448,192,88153,1,0,0:0:0:0:
192,192,88201,1,0,0:0:0:0:
320,192,88250,1,0,0:0:0:0:
64,192,88250,1,0,0:0:0:0:
448,192,88297,1,0,0:0:0:0:
64,192,88346,1,0,0:0:0:0:
448,192,88393,1,0,0:0:0:0:
320,192,88442,1,0,0:0:0:0:
192,192,88442,1,0,0:0:0:0:
64,192,88490,1,0,0:0:0:0:
320,192,88538,1,0,0:0:0:0:
64,192,88586,1,0,0:0:0:0:
448,192,88634,1,0,0:0:0:0:
192,192,88634,1,0,0:0:0:0:
320,192,88682,1,0,0:0:0:0:
192,192,88730,1,0,0:0:0:0:
64,192,88778,1,0,0:0:0:0:
448,192,88826,1,0,0:0:0:0:
320,192,88826,1,0,0:0:0:0:
192,192,88874,1,0,0:0:0:0:
320,192,88923,1,0,0:0:0:0:
448,192,88970,1,0,0:0:0:0:
192,192,89019,1,0,0:0:0:0:
64,192,89019,1,0,0:0:0:0:
320,192,89066,1,0,0:0:0:0:
192,192,89115,1,0,0:0:0:0:
320,192,89163,1,0,0:0:0:0:
448,192,89211,1,0,0:0:0:0:
64,192,89211,1,0,0:0:0:0:
192,192,89259,1,0,0:0:0:0:
448,192,89307,1,0,0:0:0:0:
192,192,89355,1,0,0:0:0:0:
320,192,89403,1,0,0:0:0:0:
64,192,89403,1,0,0:0:0:0:
448,192,89451,1,0,0:0:0:0:
320,192,89500,1,0,0:0:0:0:
192,192,89547,1,0,0:0:0:0:
448,192,89596,1,0,0:0:0:0:
64,192,89596,1,0,0:0:0:0:
320,192,89643,1,0,0:0:0:0:
64,192,89692,1,0,0:0:0:0:
192,192,89740,1,0,0:0:0:0:
448,192,89788,1,0,0:0:0:0:
320,192,89788,1,0,0:0:0:0:
64,192,89836,1,0,0:0:0:0:
320,192,89884,1,0,0:0:0:0:
64,192,89932,1,0,0:0:0:0:
448,192,89980,1,0,0:0:0:0:
192,192,89980,1,0,0:0:0:0:
320,192,90028,1,0,0:0:0:0:
192,192,90076,1,0,0:0:0:0:
320,192,90124,1,0,0:0:0:0:
448,192,90173,1,0,0:0:0:0:
64,192,90173,1,0,0:0:0:0:
192,192,90220,1,0,0:0:0:0:
448,192,90269,1,0,0:0:0:0:
64,192,90316,1,0,0:0:0:0:
320,192,90365,1,0,0:0:0:0:
192,192,90365,1,0,0:0:0:0:
448,192,90413,1,0,0:0:0:0:
192,192,90461,1,0,0:0:0:0:
64,192,90509,1,0,0:0:0:0:
448,192,90557,1,0,0:0:0:0:
320,192,90557,1,0,0:0:0:0:
192,192,90605,1,0,0:0:0:0:
320,192,90653,1,0,0:0:0:0:
64,192,90701,1,0,0:0:0:0:
448,192,90750,1,0,0:0:0:0:
192,192,90750,1,0,0:0:0:0:
320,192,90797,1,0,0:0:0:0:
64,192,90846,1,0,0:0:0:0:
192,192,90893,1,0,0:0:0:0:
448,192,90942,1,0,0:0:0:0:
320,192,90942,1,0,0:0:0:0:
64,192,90942,1,0,0:0:0:0:
192,192,90990,1,0,0:0:0:0:
448,192,91038,1,0,0:0:0:0:
64,192,91086,1,0,0:0:0:0:
320,192,91134,1,0,0:0:0:0:
192,192,91134,1,0,0:0:0:0:
448,192,91182,1,0,0:0:0:0:
192,192,91230,1,0,0:0:0:0:
64,192,91278,1,0,0:0:0:0:
448,192,91326,1,0,0:0:0:0:
320,192,91326,1,0,0:0:0:0:
192,192,91374,1,0,0:0:0:0:
448,192,91423,1,0,0:0:0:0:
192,192,91470,1,0,0:0:0:0:
320,192,91519,1,0,0:0:0:0:
64,192,91519,1,0,0:0:0:0:
448,192,91566,1,0,0:0:0:0:
64,192,91615,1,0,0:0:0:0:
448,192,91663,1,0,0:0:0:0:
320,192,91711,1,0,0:0:0:0:
192,192,91711,1,0,0:0:0:0:
64,192,91759,1,0,0:0:0:0:
192,192,91807,1,0,0:0:0:0:
320,192,91855,1,0,0:0:0:0:
448,192,91903,1,0,0:0:0:0:
64,192,91903,1,0,0:0:0:0:
192,192,91951,1,0,0:0:0:0:
448,192,92000,1,0,0:0:0:0:
320,192,92047,1,0,0:0:0:0:
192,192,92096,1,0,0:0:0:0:
64,192,92096,1,0,0:0:0:0:
448,192,92143,1,0,0:0:0:0:
64,192,92192,1,0,0:0:0:0:
448,192,92240,1,0,0:0:0:0:
320,192,92288,1,0,0:0:0:0:
192,192,92288,1,0,0:0:0:0:
64,192,92336,1,0,0:0:0:0:
320,192,92384,1,0,0:0:0:0:
64,192,92432,1,0,0:0:0:0:
448,192,92480,1,0,0:0:0:0:
192,192,92528,1,0,0:0:0:0:
448,192,92596,1,0,0:0:0:0:
320,192,92673,1,0,0:0:0:0:
192,192,92800,1,0,0:0:0:0:
448,192,92865,1,0,0:0:0:0:
320,192,92865,1,0,0:0:0:0:
192,192,92929,1,0,0:0:0:0:
64,192,92929,1,0,0:0:0:0:
448,192,92993,1,0,0:0:0:0:
320,192,93057,1,0,0:0:0:0:
64,192,93121,1,0,0:0:0:0:
320,192,93185,1,0,0:0:0:0:
448,192,93250,128,0,93570:0:0:0:0:
64,192,93250,128,0,93570:0:0:0:0:
448,192,93634,128,0,94019:0:0:0:0:
192,192,93634,128,0,94019:0:0:0:0:
320,192,94019,1,0,0:0:0:0:
64,192,94066,1,0,0:0:0:0:
320,192,94115,1,0,0:0:0:0:
192,192,94211,1,0,0:0:0:0:
64,192,94211,1,0,0:0:0:0:
448,192,94307,1,0,0:0:0:0:
320,192,94307,1,0,0:0:0:0:
192,192,94355,1,0,0:0:0:0:
64,192,94355,1,0,0:0:0:0:
448,192,94403,1,0,0:0:0:0:
320,192,94403,1,0,0:0:0:0:
64,192,94451,1,0,0:0:0:0:
448,192,94500,1,0,0:0:0:0:
320,192,94547,1,0,0:0:0:0:
192,192,94596,1,0,0:0:0:0:
448,192,94643,1,0,0:0:0:0:
192,192,94692,1,0,0:0:0:0:
64,192,94692,1,0,0:0:0:0:
448,192,94740,1,0,0:0:0:0:
320,192,94740,1,0,0:0:0:0:
64,192,94788,1,0,0:0:0:0:
320,192,94836,1,0,0:0:0:0:
448,192,94884,1,0,0:0:0:0:
192,192,94932,1,0,0:0:0:0:
64,192,94932,1,0,0:0:0:0:
448,192,94980,1,0,0:0:0:0:
320,192,94980,1,0,0:0:0:0:
192,192,95028,1,0,0:0:0:0:
64,192,95076,1,0,0:0:0:0:
320,192,95124,1,0,0:0:0:0:
192,192,95173,1,0,0:0:0:0:
448,192,95220,1,0,0:0:0:0:
320,192,95269,1,0,0:0:0:0:
64,192,95316,1,0,0:0:0:0:
448,192,95365,1,0,0:0:0:0:
192,192,95365,1,0,0:0:0:0:
192,192,95557,1,0,0:0:0:0:
64,192,95557,1,0,0:0:0:0:
320,192,95653,1,0,0:0:0:0:
192,192,95750,1,0,0:0:0:0:
448,192,95846,1,0,0:0:0:0:
64,192,95942,1,0,0:0:0:0:
448,192,96038,1,0,0:0:0:0:
320,192,96134,1,0,0:0:0:0:
192,192,96230,1,0,0:0:0:0:
448,192,96326,1,0,0:0:0:0:
64,192,96326,1,0,0:0:0:0:
320,192,96423,1,0,0:0:0:0:
64,192,96519,1,0,0:0:0:0:
192,192,96615,1,0,0:0:0:0:
448,192,96711,1,0,0:0:0:0:
192,192,96807,1,0,0:0:0:0:
320,192,96903,1,0,0:0:0:0:
64,192,96951,1,0,0:0:0:0:
448,192,97000,1,0,0:0:0:0:
320,192,97047,1,0,0:0:0:0:
192,192,97096,1,0,0:0:0:0:
64,192,97096,1,0,0:0:0:0:
320,192,97192,1,0,0:0:0:0:
192,192,97288,1,0,0:0:0:0:
448,192,97384,1,0,0:0:0:0:
64,192,97480,1,0,0:0:0:0:
448,192,97576,1,0,0:0:0:0:
320,192,97673,1,0,0:0:0:0:
64,192,97720,1,0,0:0:0:0:
192,192,97769,1,0,0:0:0:0:
320,192,97816,1,0,0:0:0:0:
448,192,97865,1,0,0:0:0:0:
64,192,97865,1,0,0:0:0:0:
448,192,97961,1,0,0:0:0:0:
192,192,98057,1,0,0:0:0:0:
192,192,98153,1,0,0:0:0:0:
448,192,98250,1,0,0:0:0:0:
320,192,98250,1,0,0:0:0:0:
192,192,98313,1,0,0:0:0:0:
448,192,98377,1,0,0:0:0:0:
64,192,98442,1,0,0:0:0:0:
320,192,98506,1,0,0:0:0:0:
64,192,98570,1,0,0:0:0:0:
448,192,98634,1,0,0:0:0:0:
192,192,98634,1,0,0:0:0:0:
320,192,98730,1,0,0:0:0:0:
192,192,98826,1,0,0:0:0:0:
448,192,98923,1,0,0:0:0:0:
64,192,99019,1,0,0:0:0:0:
448,192,99115,1,0,0:0:0:0:
320,192,99211,1,0,0:0:0:0:
192,192,99259,1,0,0:0:0:0:
448,192,99307,1,0,0:0:0:0:
320,192,99355,1,0,0:0:0:0:
192,192,99403,1,0,0:0:0:0:
64,192,99403,1,0,0:0:0:0:
448,192,99500,1,0,0:0:0:0:
64,192,99596,1,0,0:0:0:0:
192,192,99692,1,0,0:0:0:0:
448,192,99788,1,0,0:0:0:0:
192,192,99884,1,0,0:0:0:0:
320,192,99980,1,0,0:0:0:0:
448,192,100076,1,0,0:0:0:0:
320,192,100173,1,0,0:0:0:0:
192,192,100220,1,0,0:0:0:0:
448,192,100269,1,0,0:0:0:0:
320,192,100316,1,0,0:0:0:0:
192,192,100365,1,0,0:0:0:0:
64,192,100365,1,0,0:0:0:0:
448,192,100413,1,0,0:0:0:0:
320,192,100413,1,0,0:0:0:0:
192,192,100461,1,0,0:0:0:0:
64,192,100461,1,0,0:0:0:0:
448,192,100509,1,0,0:0:0:0:
320,192,100557,1,0,0:0:0:0:
192,192,100605,1,0,0:0:0:0:
448,192,100653,1,0,0:0:0:0:
64,192,100701,1,0,0:0:0:0:
320,192,100750,1,0,0:0:0:0:
192,192,100797,1,0,0:0:0:0:
64,192,100846,1,0,0:0:0:0:
448,192,100893,1,0,0:0:0:0:
192,192,100942,1,0,0:0:0:0:
320,192,100990,1,0,0:0:0:0:
192,192,101038,1,0,0:0:0:0:
320,192,101086,1,0,0:0:0:0:
192,192,101134,1,0,0:0:0:0:
64,192,101134,1,0,0:0:0:0:
448,192,101182,1,0,0:0:0:0:
320,192,101182,1,0,0:0:0:0:
192,192,101230,1,0,0:0:0:0:
64,192,101230,1,0,0:0:0:0:
448,192,101278,1,0,0:0:0:0:
320,192,101326,1,0,0:0:0:0:
192,192,101374,1,0,0:0:0:0:
448,192,101423,1,0,0:0:0:0:
320,192,101470,1,0,0:0:0:0:
64,192,101519,1,0,0:0:0:0:
320,192,101566,1,0,0:0:0:0:
192,192,101615,1,0,0:0:0:0:
64,192,101663,1,0,0:0:0:0:
448,192,101711,1,0,0:0:0:0:
320,192,101711,1,0,0:0:0:0:
192,192,101903,1,0,0:0:0:0:
64,192,102096,1,0,0:0:0:0:
320,192,102288,1,0,0:0:0:0:
448,192,102480,1,0,0:0:0:0:
192,192,102480,1,0,0:0:0:0:
64,192,102673,1,0,0:0:0:0:
448,192,102865,1,0,0:0:0:0:
320,192,103057,1,0,0:0:0:0:
192,192,103105,1,0,0:0:0:0:
448,192,103153,1,0,0:0:0:0:
320,192,103201,1,0,0:0:0:0:
64,192,103250,1,0,0:0:0:0:
192,192,103442,1,0,0:0:0:0:
320,192,103634,1,0,0:0:0:0:
64,192,103634,1,0,0:0:0:0:
448,192,103826,1,0,0:0:0:0:
448,192,104019,1,0,0:0:0:0:
192,192,104019,1,0,0:0:0:0:
448,192,104115,1,0,0:0:0:0:
192,192,104211,1,0,0:0:0:0:
64,192,104211,1,0,0:0:0:0:
448,192,104275,1,0,0:0:0:0:
64,192,104339,1,0,0:0:0:0:
320,192,104403,1,0,0:0:0:0:
192,192,104403,1,0,0:0:0:0:
448,192,104467,1,0,0:0:0:0:
320,192,104531,1,0,0:0:0:0:
192,192,104596,1,0,0:0:0:0:
448,192,104660,1,0,0:0:0:0:
192,192,104723,1,0,0:0:0:0:
448,192,104788,1,0,0:0:0:0:
64,192,104788,1,0,0:0:0:0:
192,192,104980,1,0,0:0:0:0:
320,192,105173,1,0,0:0:0:0:
64,192,105173,1,0,0:0:0:0:
320,192,105365,1,0,0:0:0:0:
64,192,105413,1,0,0:0:0:0:
448,192,105461,1,0,0:0:0:0:
320,192,105509,1,0,0:0:0:0:
192,192,105557,1,0,0:0:0:0:
64,192,105557,1,0,0:0:0:0:
320,192,105653,1,0,0:0:0:0:
64,192,105750,1,0,0:0:0:0:
448,192,105942,1,0,0:0:0:0:
192,192,106038,1,0,0:0:0:0:
64,192,106038,1,0,0:0:0:0:
320,192,106134,1,0,0:0:0:0:
448,192,106326,1,0,0:0:0:0:
192,192,106326,1,0,0:0:0:0:
64,192,106326,1,0,0:0:0:0:
320,192,106423,1,0,0:0:0:0:
320,192,106519,1,0,0:0:0:0:
448,192,106615,1,0,0:0:0:0:
192,192,106615,1,0,0:0:0:0:
64,192,106711,1,0,0:0:0:0:
64,192,106807,1,0,0:0:0:0:
448,192,106903,1,0,0:0:0:0:
320,192,106903,1,0,0:0:0:0:
192,192,107000,1,0,0:0:0:0:
448,192,107096,1,0,0:0:0:0:
64,192,107096,128,0,107288:0:0:0:0:
448,192,107288,1,0,0:0:0:0:
192,192,107336,1,0,0:0:0:0:
448,192,107384,1,0,0:0:0:0:
192,192,107432,1,0,0:0:0:0:
320,192,107480,128,0,107673:0:0:0:0:
64,192,107480,1,0,0:0:0:0:
192,192,107673,1,0,0:0:0:0:
64,192,107673,1,0,0:0:0:0:
448,192,107720,1,0,0:0:0:0:
320,192,107720,1,0,0:0:0:0:
192,192,107769,1,0,0:0:0:0:
64,192,107769,1,0,0:0:0:0:
448,192,107816,1,0,0:0:0:0:
320,192,107816,1,0,0:0:0:0:
64,192,107865,1,0,0:0:0:0:
192,192,107913,1,0,0:0:0:0:
448,192,107961,1,0,0:0:0:0:
320,192,108009,1,0,0:0:0:0:
64,192,108057,1,0,0:0:0:0:
320,192,108105,1,0,0:0:0:0:
192,192,108153,1,0,0:0:0:0:
64,192,108201,1,0,0:0:0:0:
448,192,108250,1,0,0:0:0:0:
192,192,108297,1,0,0:0:0:0:
448,192,108346,1,0,0:0:0:0:
64,192,108393,1,0,0:0:0:0:
320,192,108442,1,0,0:0:0:0:
448,192,108490,1,0,0:0:0:0:
320,192,108538,1,0,0:0:0:0:
192,192,108586,1,0,0:0:0:0:
64,192,108634,1,0,0:0:0:0:
320,192,108682,1,0,0:0:0:0:
448,192,108750,1,0,0:0:0:0:
320,192,108786,1,0,0:0:0:0:
192,192,108826,128,0,108923:0:0:0:0:
64,192,108890,1,0,0:0:0:0:
448,192,108946,1,0,0:0:0:0:
320,192,109019,1,0,0:0:0:0:
192,192,109083,1,0,0:0:0:0:
448,192,109146,1,0,0:0:0:0:
320,192,109211,1,0,0:0:0:0:
64,192,109275,1,0,0:0:0:0:
448,192,109339,1,0,0:0:0:0:
192,192,109403,1,0,0:0:0:0:
64,192,109403,1,0,0:0:0:0:
320,192,109467,1,0,0:0:0:0:
448,192,109531,1,0,0:0:0:0:
64,192,109596,1,0,0:0:0:0:
192,192,109660,1,0,0:0:0:0:
320,192,109723,1,0,0:0:0:0:
64,192,109788,1,0,0:0:0:0:
320,192,109852,1,0,0:0:0:0:
448,192,109916,1,0,0:0:0:0:
320,192,109980,1,0,0:0:0:0:
64,192,110028,1,0,0:0:0:0:
192,192,110076,1,0,0:0:0:0:
448,192,110124,1,0,0:0:0:0:
192,192,110173,128,0,110365:0:0:0:0:
448,192,110269,1,0,0:0:0:0:
320,192,110269,1,0,0:0:0:0:
64,192,110365,1,0,0:0:0:0:
320,192,110413,1,0,0:0:0:0:
64,192,110461,1,0,0:0:0:0:
320,192,110557,128,0,110846:0:0:0:0:
448,192,110653,1,0,0:0:0:0:
192,192,110653,1,0,0:0:0:0:
64,192,110750,1,0,0:0:0:0:
448,192,110797,1,0,0:0:0:0:
64,192,110846,128,0,110942:0:0:0:0:
448,192,110942,128,0,111326:0:0:0:0:
320,192,111038,1,0,0:0:0:0:
64,192,111134,1,0,0:0:0:0:
320,192,111182,1,0,0:0:0:0:
192,192,111230,1,0,0:0:0:0:
320,192,111326,1,0,0:0:0:0:
320,192,111423,1,0,0:0:0:0:
64,192,111423,1,0,0:0:0:0:
192,192,111519,1,0,0:0:0:0:
448,192,111566,1,0,0:0:0:0:
64,192,111615,1,0,0:0:0:0:
448,192,111711,128,0,111807:0:0:0:0:
320,192,111807,128,0,111903:0:0:0:0:
64,192,111807,1,0,0:0:0:0:
192,192,111903,128,0,112000:0:0:0:0:
64,192,111951,1,0,0:0:0:0:
448,192,112000,128,0,112096:0:0:0:0:
64,192,112096,128,0,112192:0:0:0:0:
320,192,112192,128,0,112288:0:0:0:0:
192,192,112192,1,0,0:0:0:0:
448,192,112288,128,0,112384:0:0:0:0:
64,192,112336,1,0,0:0:0:0:
192,192,112384,128,0,112480:0:0:0:0:
320,192,112480,1,0,0:0:0:0:
64,192,112480,1,0,0:0:0:0:
448,192,112576,1,0,0:0:0:0:
192,192,112624,1,0,0:0:0:0:
448,192,112673,1,0,0:0:0:0:
320,192,112673,1,0,0:0:0:0:
192,192,112720,1,0,0:0:0:0:
64,192,112720,1,0,0:0:0:0:
320,192,112769,1,0,0:0:0:0:
448,192,112865,1,0,0:0:0:0:
320,192,112913,1,0,0:0:0:0:
192,192,112961,1,0,0:0:0:0:
64,192,113009,1,0,0:0:0:0:
320,192,113057,1,0,0:0:0:0:
192,192,113057,1,0,0:0:0:0:
448,192,113153,1,0,0:0:0:0:
192,192,113250,1,0,0:0:0:0:
448,192,113346,1,0,0:0:0:0:
64,192,113346,1,0,0:0:0:0:
448,192,113442,1,0,0:0:0:0:
192,192,113490,1,0,0:0:0:0:
320,192,113538,1,0,0:0:0:0:
64,192,113586,1,0,0:0:0:0:
448,192,113634,1,0,0:0:0:0:
192,192,113634,1,0,0:0:0:0:
320,192,113682,1,0,0:0:0:0:
192,192,113730,1,0,0:0:0:0:
64,192,113778,1,0,0:0:0:0:
448,192,113826,128,0,114019:0:0:0:0:
320,192,113826,1,0,0:0:0:0:
192,192,114019,128,0,114211:0:0:0:0:
320,192,114115,1,0,0:0:0:0:
448,192,114211,128,0,114307:0:0:0:0:
64,192,114259,1,0,0:0:0:0:
320,192,114307,128,0,114596:0:0:0:0:
192,192,114307,1,0,0:0:0:0:
64,192,114403,1,0,0:0:0:0:
448,192,114500,1,0,0:0:0:0:
192,192,114596,128,0,114692:0:0:0:0:
64,192,114643,1,0,0:0:0:0:
448,192,114692,128,0,114788:0:0:0:0:
320,192,114788,128,0,114884:0:0:0:0:
192,192,114884,1,0,0:0:0:0:
64,192,114884,128,0,114980:0:0:0:0:
448,192,114980,1,0,0:0:0:0:
192,192,115028,1,0,0:0:0:0:
320,192,115076,128,0,115236:0:0:0:0:
64,192,115076,1,0,0:0:0:0:
448,192,115173,1,0,0:0:0:0:
192,192,115236,1,0,0:0:0:0:
64,192,115300,1,0,0:0:0:0:
448,192,115365,1,0,0:0:0:0:
192,192,115429,1,0,0:0:0:0:
448,192,115493,1,0,0:0:0:0:
320,192,115557,1,0,0:0:0:0:
192,192,115605,1,0,0:0:0:0:
64,192,115653,1,0,0:0:0:0:
448,192,115701,1,0,0:0:0:0:
320,192,115750,1,0,0:0:0:0:
192,192,115797,1,0,0:0:0:0:
320,192,115846,1,0,0:0:0:0:
192,192,115893,1,0,0:0:0:0:
64,192,115942,1,0,0:0:0:0:
320,192,115990,1,0,0:0:0:0:
448,192,116038,1,0,0:0:0:0:
192,192,116086,1,0,0:0:0:0:
320,192,116134,1,0,0:0:0:0:
192,192,116182,1,0,0:0:0:0:
64,192,116230,1,0,0:0:0:0:
448,192,116278,1,0,0:0:0:0:
192,192,116326,1,0,0:0:0:0:
64,192,116390,1,0,0:0:0:0:
448,192,116454,1,0,0:0:0:0:
64,192,116519,1,0,0:0:0:0:
320,192,116583,1,0,0:0:0:0:
192,192,116646,1,0,0:0:0:0:
64,192,116711,128,0,116903:0:0:0:0:
448,192,116807,1,0,0:0:0:0:
320,192,116807,1,0,0:0:0:0:
192,192,116903,1,0,0:0:0:0:
320,192,117000,1,0,0:0:0:0:
448,192,117096,128,0,117288:0:0:0:0:
320,192,117192,1,0,0:0:0:0:
64,192,117192,1,0,0:0:0:0:
192,192,117288,128,0,117384:0:0:0:0:
64,192,117336,1,0,0:0:0:0:
320,192,117384,128,0,117480:0:0:0:0:
64,192,117480,128,0,117576:0:0:0:0:
448,192,117576,128,0,117673:0:0:0:0:
320,192,117576,1,0,0:0:0:0:
192,192,117673,128,0,117769:0:0:0:0:
320,192,117720,1,0,0:0:0:0:
64,192,117769,128,0,117865:0:0:0:0:
320,192,117865,128,0,117961:0:0:0:0:
448,192,117961,128,0,118057:0:0:0:0:
64,192,117961,1,0,0:0:0:0:
192,192,118057,128,0,118153:0:0:0:0:
64,192,118105,1,0,0:0:0:0:
320,192,118153,128,0,118250:0:0:0:0:
64,192,118250,128,0,118346:0:0:0:0:
448,192,118297,1,0,0:0:0:0:
192,192,118346,128,0,118442:0:0:0:0:
448,192,118393,1,0,0:0:0:0:
320,192,118442,1,0,0:0:0:0:
64,192,118442,128,0,118538:0:0:0:0:
448,192,118538,128,0,118634:0:0:0:0:
320,192,118634,128,0,118730:0:0:0:0:
192,192,118634,1,0,0:0:0:0:
64,192,118730,128,0,118826:0:0:0:0:
320,192,118826,128,0,118923:0:0:0:0:
192,192,118874,1,0,0:0:0:0:
448,192,118923,1,0,0:0:0:0:
64,192,118923,1,0,0:0:0:0:
192,192,119019,128,0,119115:0:0:0:0:
448,192,119115,1,0,0:0:0:0:
320,192,119115,1,0,0:0:0:0:
64,192,119163,1,0,0:0:0:0:
448,192,119211,1,0,0:0:0:0:
320,192,119211,1,0,0:0:0:0:
192,192,119259,1,0,0:0:0:0:
448,192,119307,1,0,0:0:0:0:
64,192,119355,1,0,0:0:0:0:
192,192,119403,1,0,0:0:0:0:
320,192,119451,1,0,0:0:0:0:
192,192,119500,1,0,0:0:0:0:
448,192,119547,1,0,0:0:0:0:
320,192,119596,1,0,0:0:0:0:
64,192,119643,1,0,0:0:0:0:
448,192,119692,1,0,0:0:0:0:
192,192,119692,1,0,0:0:0:0:
320,192,119788,1,0,0:0:0:0:
192,192,119836,1,0,0:0:0:0:
64,192,119884,1,0,0:0:0:0:
448,192,119932,1,0,0:0:0:0:
320,192,119980,1,0,0:0:0:0:
192,192,119980,1,0,0:0:0:0:
320,192,120173,1,0,0:0:0:0:
64,192,120173,1,0,0:0:0:0:
448,192,120269,128,0,120365:0:0:0:0:
192,192,120365,1,0,0:0:0:0:
320,192,120413,1,0,0:0:0:0:
192,192,120461,1,0,0:0:0:0:
320,192,120509,1,0,0:0:0:0:
448,192,120557,1,0,0:0:0:0:
192,192,120605,1,0,0:0:0:0:
64,192,120653,1,0,0:0:0:0:
320,192,120701,1,0,0:0:0:0:
192,192,120750,1,0,0:0:0:0:
64,192,120750,1,0,0:0:0:0:
448,192,120797,1,0,0:0:0:0:
320,192,120797,1,0,0:0:0:0:
192,192,120846,1,0,0:0:0:0:
64,192,120846,1,0,0:0:0:0:
448,192,120893,1,0,0:0:0:0:
320,192,120942,1,0,0:0:0:0:
192,192,120990,1,0,0:0:0:0:
448,192,121038,1,0,0:0:0:0:
64,192,121086,1,0,0:0:0:0:
192,192,121134,1,0,0:0:0:0:
320,192,121182,1,0,0:0:0:0:
192,192,121230,1,0,0:0:0:0:
448,192,121278,1,0,0:0:0:0:
320,192,121326,1,0,0:0:0:0:
64,192,121374,1,0,0:0:0:0:
448,192,121423,1,0,0:0:0:0:
192,192,121470,1,0,0:0:0:0:
448,192,121519,1,0,0:0:0:0:
64,192,121519,1,0,0:0:0:0:
64,192,121711,1,0,0:0:0:0:
64,192,121807,1,0,0:0:0:0:
64,192,121903,1,0,0:0:0:0:
64,192,122000,1,0,0:0:0:0:
448,192,122096,1,0,0:0:0:0:
64,192,122096,1,0,0:0:0:0:
64,192,122192,1,0,0:0:0:0:
320,192,122240,1,0,0:0:0:0:
64,192,122288,1,0,0:0:0:0:
64,192,122384,1,0,0:0:0:0:
192,192,122480,1,0,0:0:0:0:
192,192,122576,1,0,0:0:0:0:
192,192,122673,1,0,0:0:0:0:
192,192,122769,1,0,0:0:0:0:
320,192,122865,1,0,0:0:0:0:
192,192,122865,1,0,0:0:0:0:
192,192,122961,1,0,0:0:0:0:
192,192,123057,1,0,0:0:0:0:
192,192,123153,1,0,0:0:0:0:
448,192,123250,1,0,0:0:0:0:
320,192,123250,1,0,0:0:0:0:
320,192,123346,1,0,0:0:0:0:
320,192,123442,1,0,0:0:0:0:
64,192,123442,1,0,0:0:0:0:
320,192,123538,1,0,0:0:0:0:
320,192,123634,1,0,0:0:0:0:
192,192,123634,1,0,0:0:0:0:
320,192,123730,1,0,0:0:0:0:
320,192,123826,1,0,0:0:0:0:
64,192,123874,1,0,0:0:0:0:
320,192,123923,1,0,0:0:0:0:
192,192,123970,1,0,0:0:0:0:
448,192,124019,1,0,0:0:0:0:
320,192,124019,1,0,0:0:0:0:
64,192,124066,1,0,0:0:0:0:
448,192,124115,1,0,0:0:0:0:
192,192,124115,1,0,0:0:0:0:
64,192,124163,1,0,0:0:0:0:
448,192,124211,1,0,0:0:0:0:
320,192,124259,1,0,0:0:0:0:
448,192,124307,1,0,0:0:0:0:
192,192,124355,1,0,0:0:0:0:
448,192,124403,1,0,0:0:0:0:
64,192,124451,1,0,0:0:0:0:
448,192,124500,1,0,0:0:0:0:
192,192,124547,1,0,0:0:0:0:
320,192,124596,1,0,0:0:0:0:
64,192,124596,1,0,0:0:0:0:
448,192,124692,1,0,0:0:0:0:
192,192,124788,1,0,0:0:0:0:
64,192,124788,1,0,0:0:0:0:
320,192,124884,1,0,0:0:0:0:
448,192,124980,1,0,0:0:0:0:
192,192,124980,1,0,0:0:0:0:
64,192,125076,1,0,0:0:0:0:
192,192,125124,1,0,0:0:0:0:
448,192,125173,1,0,0:0:0:0:
320,192,125173,1,0,0:0:0:0:
192,192,125269,1,0,0:0:0:0:
320,192,125365,1,0,0:0:0:0:
64,192,125365,1,0,0:0:0:0:
448,192,125461,1,0,0:0:0:0:
320,192,125509,1,0,0:0:0:0:
192,192,125557,1,0,0:0:0:0:
64,192,125557,1,0,0:0:0:0:
448,192,125605,1,0,0:0:0:0:
320,192,125605,1,0,0:0:0:0:
192,192,125653,1,0,0:0:0:0:
64,192,125701,1,0,0:0:0:0:
448,192,125750,1,0,0:0:0:0:
320,192,125750,1,0,0:0:0:0:
192,192,125797,1,0,0:0:0:0:
64,192,125797,1,0,0:0:0:0:
320,192,125846,1,0,0:0:0:0:
448,192,125893,1,0,0:0:0:0:
192,192,125942,1,0,0:0:0:0:
64,192,125942,1,0,0:0:0:0:
448,192,126038,1,0,0:0:0:0:
64,192,126134,128,0,126326:0:0:0:0:
448,192,126326,1,0,0:0:0:0:
320,192,126326,128,0,126519:0:0:0:0:
192,192,126519,1,0,0:0:0:0:
448,192,126566,1,0,0:0:0:0:
192,192,126615,1,0,0:0:0:0:
320,192,126663,1,0,0:0:0:0:
448,192,126711,1,0,0:0:0:0:
64,192,126711,1,0,0:0:0:0:
320,192,126759,1,0,0:0:0:0:
192,192,126807,1,0,0:0:0:0:
64,192,126855,1,0,0:0:0:0:
192,192,126903,1,0,0:0:0:0:
448,192,126951,1,0,0:0:0:0:
320,192,127000,1,0,0:0:0:0:
448,192,127047,1,0,0:0:0:0:
192,192,127096,1,0,0:0:0:0:
64,192,127096,1,0,0:0:0:0:
320,192,127143,1,0,0:0:0:0:
64,192,127192,1,0,0:0:0:0:
448,192,127240,1,0,0:0:0:0:
192,192,127288,1,0,0:0:0:0:
448,192,127336,1,0,0:0:0:0:
320,192,127384,1,0,0:0:0:0:
192,192,127432,1,0,0:0:0:0:
320,192,127480,1,0,0:0:0:0:
64,192,127480,1,0,0:0:0:0:
448,192,127528,1,0,0:0:0:0:
64,192,127576,1,0,0:0:0:0:
448,192,127624,1,0,0:0:0:0:
320,192,127673,1,0,0:0:0:0:
192,192,127673,128,0,127865:0:0:0:0:
448,192,127865,1,0,0:0:0:0:
320,192,127865,1,0,0:0:0:0:
64,192,127913,1,0,0:0:0:0:
320,192,127961,1,0,0:0:0:0:
64,192,128009,1,0,0:0:0:0:
448,192,128057,1,0,0:0:0:0:
192,192,128057,1,0,0:0:0:0:
320,192,128105,1,0,0:0:0:0:
192,192,128153,1,0,0:0:0:0:
320,192,128201,1,0,0:0:0:0:
448,192,128250,1,0,0:0:0:0:
64,192,128250,1,0,0:0:0:0:
192,192,128297,1,0,0:0:0:0:
448,192,128346,1,0,0:0:0:0:
192,192,128393,1,0,0:0:0:0:
320,192,128442,1,0,0:0:0:0:
64,192,128442,1,0,0:0:0:0:
448,192,128490,1,0,0:0:0:0:
64,192,128538,1,0,0:0:0:0:
448,192,128586,1,0,0:0:0:0:
320,192,128634,128,0,128826:0:0:0:0:
192,192,128634,1,0,0:0:0:0:
448,192,129019,1,0,0:0:0:0:
320,192,129066,1,0,0:0:0:0:
192,192,129115,1,0,0:0:0:0:
64,192,129163,1,0,0:0:0:0:
448,192,129211,1,0,0:0:0:0:
192,192,129259,1,0,0:0:0:0:
448,192,129307,1,0,0:0:0:0:
320,192,129355,1,0,0:0:0:0:
192,192,129403,1,0,0:0:0:0:
64,192,129403,128,0,129451:0:0:0:0:
320,192,129500,1,0,0:0:0:0:
448,192,129596,128,0,129643:0:0:0:0:
192,192,129596,1,0,0:0:0:0:
64,192,129692,1,0,0:0:0:0:
448,192,129788,1,0,0:0:0:0:
320,192,129788,128,0,129836:0:0:0:0:
192,192,129884,128,0,129932:0:0:0:0:
320,192,129980,128,0,130028:0:0:0:0:
64,192,129980,1,0,0:0:0:0:
192,192,130076,128,0,130124:0:0:0:0:
64,192,130124,1,0,0:0:0:0:
448,192,130173,128,0,130220:0:0:0:0:
320,192,130173,1,0,0:0:0:0:
64,192,130269,1,0,0:0:0:0:
448,192,130365,1,0,0:0:0:0:
192,192,130365,128,0,130413:0:0:0:0:
320,192,130461,1,0,0:0:0:0:
192,192,130557,1,0,0:0:0:0:
64,192,130557,128,0,130605:0:0:0:0:
448,192,130653,128,0,130701:0:0:0:0:
192,192,130701,1,0,0:0:0:0:
320,192,130750,1,0,0:0:0:0:
64,192,130750,128,0,130797:0:0:0:0:
192,192,130846,128,0,130893:0:0:0:0:
448,192,130942,1,0,0:0:0:0:
320,192,130942,128,0,130990:0:0:0:0:
64,192,130942,1,0,0:0:0:0:
192,192,131038,1,0,0:0:0:0:
448,192,131134,128,0,131182:0:0:0:0:
320,192,131134,1,0,0:0:0:0:
64,192,131230,1,0,0:0:0:0:
448,192,131326,1,0,0:0:0:0:
192,192,131326,128,0,131374:0:0:0:0:
320,192,131423,128,0,131470:0:0:0:0:
448,192,131470,1,0,0:0:0:0:
192,192,131519,128,0,131566:0:0:0:0:
64,192,131519,1,0,0:0:0:0:
320,192,131615,128,0,131663:0:0:0:0:
448,192,131711,1,0,0:0:0:0:
64,192,131711,128,0,131759:0:0:0:0:
192,192,131807,1,0,0:0:0:0:
64,192,131855,1,0,0:0:0:0:
448,192,131903,128,0,131951:0:0:0:0:
320,192,131903,1,0,0:0:0:0:
64,192,132000,1,0,0:0:0:0:
448,192,132096,1,0,0:0:0:0:
192,192,132096,128,0,132143:0:0:0:0:
64,192,132192,128,0,132240:0:0:0:0:
448,192,132240,1,0,0:0:0:0:
320,192,132288,1,0,0:0:0:0:
192,192,132288,128,0,132336:0:0:0:0:
448,192,132384,1,0,0:0:0:0:
448,192,132480,1,0,0:0:0:0:
192,192,132480,1,0,0:0:0:0:
64,192,132480,128,0,132528:0:0:0:0:
320,192,132576,1,0,0:0:0:0:
448,192,132673,128,0,132720:0:0:0:0:
192,192,132673,1,0,0:0:0:0:
64,192,132769,1,0,0:0:0:0:
192,192,132816,1,0,0:0:0:0:
448,192,132865,1,0,0:0:0:0:
320,192,132865,128,0,132913:0:0:0:0:
192,192,132961,128,0,133009:0:0:0:0:
320,192,133057,128,0,133105:0:0:0:0:
64,192,133057,1,0,0:0:0:0:
192,192,133153,128,0,133201:0:0:0:0:
64,192,133201,1,0,0:0:0:0:
448,192,133250,128,0,133297:0:0:0:0:
320,192,133250,1,0,0:0:0:0:
64,192,133346,1,0,0:0:0:0:
448,192,133442,1,0,0:0:0:0:
192,192,133442,128,0,133490:0:0:0:0:
320,192,133538,1,0,0:0:0:0:
448,192,133586,1,0,0:0:0:0:
192,192,133634,1,0,0:0:0:0:
64,192,133634,128,0,133682:0:0:0:0:
448,192,133730,128,0,133778:0:0:0:0:
320,192,133826,1,0,0:0:0:0:
64,192,133826,128,0,133874:0:0:0:0:
192,192,133923,128,0,133970:0:0:0:0:
64,192,133970,1,0,0:0:0:0:
448,192,134019,1,0,0:0:0:0:
320,192,134019,1,0,0:0:0:0:
192,192,134066,1,0,0:0:0:0:
64,192,134066,1,0,0:0:0:0:
448,192,134115,1,0,0:0:0:0:
320,192,134163,1,0,0:0:0:0:
64,192,134211,1,0,0:0:0:0:
448,192,134259,1,0,0:0:0:0:
64,192,134307,1,0,0:0:0:0:
320,192,134355,1,0,0:0:0:0:
192,192,134403,1,0,0:0:0:0:
64,192,134451,1,0,0:0:0:0:
320,192,134500,1,0,0:0:0:0:
192,192,134596,1,0,0:0:0:0:
64,192,134596,1,0,0:0:0:0:
448,192,134643,1,0,0:0:0:0:
320,192,134643,1,0,0:0:0:0:
192,192,134692,1,0,0:0:0:0:
64,192,134692,1,0,0:0:0:0:
448,192,134740,1,0,0:0:0:0:
320,192,134740,1,0,0:0:0:0:
64,192,134788,1,0,0:0:0:0:
192,192,134836,1,0,0:0:0:0:
448,192,134884,1,0,0:0:0:0:
320,192,134932,1,0,0:0:0:0:
192,192,134980,1,0,0:0:0:0:
448,192,135028,1,0,0:0:0:0:
320,192,135076,1,0,0:0:0:0:
64,192,135124,1,0,0:0:0:0:
448,192,135173,1,0,0:0:0:0:
192,192,135220,1,0,0:0:0:0:
448,192,135269,1,0,0:0:0:0:
64,192,135316,1,0,0:0:0:0:
320,192,135365,1,0,0:0:0:0:
192,192,135365,128,0,135557:0:0:0:0:
448,192,135557,1,0,0:0:0:0:
64,192,135557,1,0,0:0:0:0:
320,192,135605,1,0,0:0:0:0:
192,192,135653,1,0,0:0:0:0:
64,192,135701,1,0,0:0:0:0:
448,192,135750,1,0,0:0:0:0:
320,192,135750,1,0,0:0:0:0:
192,192,135797,1,0,0:0:0:0:
320,192,135846,1,0,0:0:0:0:
64,192,135893,1,0,0:0:0:0:
448,192,135942,1,0,0:0:0:0:
192,192,135942,1,0,0:0:0:0:
320,192,135990,1,0,0:0:0:0:
192,192,136038,1,0,0:0:0:0:
320,192,136086,1,0,0:0:0:0:
448,192,136134,1,0,0:0:0:0:
64,192,136134,1,0,0:0:0:0:
192,192,136182,1,0,0:0:0:0:
448,192,136230,1,0,0:0:0:0:
192,192,136278,1,0,0:0:0:0:
320,192,136326,1,0,0:0:0:0:
64,192,136326,1,0,0:0:0:0:
448,192,136374,1,0,0:0:0:0:
64,192,136423,1,0,0:0:0:0:
320,192,136470,1,0,0:0:0:0:
448,192,136519,1,0,0:0:0:0:
192,192,136519,1,0,0:0:0:0:
64,192,136566,1,0,0:0:0:0:
448,192,136615,1,0,0:0:0:0:
320,192,136663,1,0,0:0:0:0:
192,192,136711,1,0,0:0:0:0:
64,192,136711,1,0,0:0:0:0:
448,192,136759,1,0,0:0:0:0:
64,192,136807,1,0,0:0:0:0:
448,192,136855,1,0,0:0:0:0:
320,192,136903,1,0,0:0:0:0:
192,192,136903,1,0,0:0:0:0:
64,192,136951,1,0,0:0:0:0:
320,192,137000,1,0,0:0:0:0:
64,192,137047,1,0,0:0:0:0:
448,192,137096,1,0,0:0:0:0:
192,192,137096,1,0,0:0:0:0:
320,192,137143,1,0,0:0:0:0:
192,192,137192,1,0,0:0:0:0:
64,192,137240,1,0,0:0:0:0:
448,192,137288,1,0,0:0:0:0:
320,192,137288,1,0,0:0:0:0:
192,192,137336,1,0,0:0:0:0:
320,192,137384,1,0,0:0:0:0:
448,192,137432,1,0,0:0:0:0:
192,192,137480,1,0,0:0:0:0:
64,192,137480,1,0,0:0:0:0:
320,192,137528,1,0,0:0:0:0:
64,192,137576,1,0,0:0:0:0:
320,192,137624,1,0,0:0:0:0:
448,192,137673,1,0,0:0:0:0:
192,192,137673,1,0,0:0:0:0:
64,192,137720,1,0,0:0:0:0:
448,192,137769,1,0,0:0:0:0:
64,192,137816,1,0,0:0:0:0:
320,192,137865,1,0,0:0:0:0:
192,192,137865,1,0,0:0:0:0:
448,192,137913,1,0,0:0:0:0:
192,192,137961,1,0,0:0:0:0:
64,192,138009,1,0,0:0:0:0:
448,192,138057,1,0,0:0:0:0:
320,192,138057,1,0,0:0:0:0:
192,192,138105,1,0,0:0:0:0:
448,192,138153,1,0,0:0:0:0:
320,192,138201,1,0,0:0:0:0:
192,192,138250,1,0,0:0:0:0:
64,192,138250,1,0,0:0:0:0:
448,192,138297,1,0,0:0:0:0:
64,192,138346,1,0,0:0:0:0:
320,192,138393,1,0,0:0:0:0:
448,192,138442,1,0,0:0:0:0:
192,192,138442,1,0,0:0:0:0:
64,192,138490,1,0,0:0:0:0:
320,192,138538,1,0,0:0:0:0:
192,192,138586,1,0,0:0:0:0:
448,192,138634,1,0,0:0:0:0:
320,192,138634,1,0,0:0:0:0:
64,192,138634,1,0,0:0:0:0:
192,192,138682,1,0,0:0:0:0:
448,192,138730,1,0,0:0:0:0:
64,192,138778,1,0,0:0:0:0:
320,192,138826,1,0,0:0:0:0:
192,192,138826,1,0,0:0:0:0:
448,192,138874,1,0,0:0:0:0:
320,192,138923,1,0,0:0:0:0:
64,192,138970,1,0,0:0:0:0:
448,192,139019,1,0,0:0:0:0:
192,192,139019,1,0,0:0:0:0:
320,192,139066,1,0,0:0:0:0:
192,192,139115,1,0,0:0:0:0:
320,192,139163,1,0,0:0:0:0:
448,192,139211,1,0,0:0:0:0:
64,192,139211,1,0,0:0:0:0:
192,192,139259,1,0,0:0:0:0:
448,192,139307,1,0,0:0:0:0:
192,192,139355,1,0,0:0:0:0:
320,192,139403,1,0,0:0:0:0:
64,192,139403,1,0,0:0:0:0:
448,192,139451,1,0,0:0:0:0:
64,192,139500,1,0,0:0:0:0:
320,192,139547,1,0,0:0:0:0:
448,192,139596,1,0,0:0:0:0:
192,192,139596,1,0,0:0:0:0:
64,192,139643,1,0,0:0:0:0:
448,192,139692,1,0,0:0:0:0:
320,192,139740,1,0,0:0:0:0:
192,192,139788,1,0,0:0:0:0:
64,192,139788,1,0,0:0:0:0:
448,192,139836,1,0,0:0:0:0:
64,192,139884,1,0,0:0:0:0:
448,192,139932,1,0,0:0:0:0:
320,192,139980,1,0,0:0:0:0:
192,192,139980,1,0,0:0:0:0:
64,192,140028,1,0,0:0:0:0:
320,192,140076,1,0,0:0:0:0:
64,192,140124,1,0,0:0:0:0:
448,192,140173,1,0,0:0:0:0:
192,192,140173,1,0,0:0:0:0:
320,192,140269,1,0,0:0:0:0:
448,192,140316,1,0,0:0:0:0:
192,192,140365,1,0,0:0:0:0:
64,192,140365,1,0,0:0:0:0:
448,192,140413,1,0,0:0:0:0:
320,192,140413,1,0,0:0:0:0:
192,192,140461,1,0,0:0:0:0:
320,192,140509,1,0,0:0:0:0:
64,192,140557,1,0,0:0:0:0:
192,192,140605,1,0,0:0:0:0:
448,192,140653,1,0,0:0:0:0:
320,192,140653,1,0,0:0:0:0:
192,192,140701,1,0,0:0:0:0:
64,192,140701,1,0,0:0:0:0:
320,192,140750,1,0,0:0:0:0:
64,192,140797,1,0,0:0:0:0:
448,192,140846,1,0,0:0:0:0:
320,192,140893,1,0,0:0:0:0:
192,192,140942,128,0,141278:0:0:0:0:
64,192,140942,128,0,141278:0:0:0:0:
320,192,141326,128,0,141711:0:0:0:0:
64,192,141326,128,0,141711:0:0:0:0:
448,192,141711,128,0,141903:0:0:0:0:
192,192,141711,1,0,0:0:0:0:
192,192,141903,1,0,0:0:0:0:
64,192,141903,1,0,0:0:0:0:
320,192,141951,1,0,0:0:0:0:
64,192,142000,1,0,0:0:0:0:
448,192,142047,1,0,0:0:0:0:
192,192,142096,1,0,0:0:0:0:
448,192,142143,1,0,0:0:0:0:
320,192,142192,1,0,0:0:0:0:
64,192,142240,1,0,0:0:0:0:
320,192,142288,1,0,0:0:0:0:
192,192,142336,1,0,0:0:0:0:
64,192,142384,1,0,0:0:0:0:
192,192,142432,1,0,0:0:0:0:
320,192,142480,1,0,0:0:0:0:
64,192,142528,1,0,0:0:0:0:
320,192,142576,1,0,0:0:0:0:
448,192,142624,1,0,0:0:0:0:
192,192,142673,1,0,0:0:0:0:
448,192,142720,1,0,0:0:0:0:
64,192,142769,1,0,0:0:0:0:
320,192,142816,1,0,0:0:0:0:
64,192,142865,1,0,0:0:0:0:
192,192,142913,1,0,0:0:0:0:
320,192,142961,1,0,0:0:0:0:
192,192,143009,1,0,0:0:0:0:
448,192,143057,1,0,0:0:0:0:
64,192,143105,1,0,0:0:0:0:
448,192,143153,1,0,0:0:0:0:
192,192,143201,1,0,0:0:0:0:
320,192,143250,1,0,0:0:0:0:
192,192,143297,1,0,0:0:0:0:
64,192,143346,1,0,0:0:0:0:
320,192,143393,1,0,0:0:0:0:
64,192,143442,1,0,0:0:0:0:
448,192,143490,1,0,0:0:0:0:
192,192,143538,1,0,0:0:0:0:
448,192,143586,1,0,0:0:0:0:
320,192,143634,1,0,0:0:0:0:
192,192,143682,1,0,0:0:0:0:
320,192,143730,1,0,0:0:0:0:
64,192,143778,1,0,0:0:0:0:
192,192,143826,1,0,0:0:0:0:
64,192,143874,1,0,0:0:0:0:
320,192,143923,1,0,0:0:0:0:
192,192,143970,1,0,0:0:0:0:
448,192,144019,1,0,0:0:0:0:
64,192,144066,1,0,0:0:0:0:
448,192,144115,1,0,0:0:0:0:
64,192,144163,1,0,0:0:0:0:
192,192,144211,1,0,0:0:0:0:
320,192,144259,1,0,0:0:0:0:
192,192,144307,1,0,0:0:0:0:
448,192,144355,1,0,0:0:0:0:
320,192,144403,1,0,0:0:0:0:
64,192,144451,1,0,0:0:0:0:
320,192,144500,1,0,0:0:0:0:
192,192,144547,1,0,0:0:0:0:
64,192,144596,1,0,0:0:0:0:
320,192,144643,1,0,0:0:0:0:
64,192,144692,1,0,0:0:0:0:
192,192,144740,1,0,0:0:0:0:
448,192,144788,1,0,0:0:0:0:
320,192,144788,1,0,0:0:0:0:
320,192,144980,1,0,0:0:0:0:
64,192,144980,1,0,0:0:0:0:
448,192,145028,1,0,0:0:0:0:
192,192,145076,1,0,0:0:0:0:
64,192,145124,1,0,0:0:0:0:
448,192,145173,1,0,0:0:0:0:
320,192,145173,1,0,0:0:0:0:
192,192,145220,1,0,0:0:0:0:
320,192,145269,1,0,0:0:0:0:
192,192,145316,1,0,0:0:0:0:
448,192,145365,1,0,0:0:0:0:
64,192,145365,1,0,0:0:0:0:
320,192,145413,1,0,0:0:0:0:
192,192,145461,1,0,0:0:0:0:
448,192,145509,1,0,0:0:0:0:
320,192,145557,1,0,0:0:0:0:
64,192,145557,1,0,0:0:0:0:
192,192,145605,1,0,0:0:0:0:
320,192,145653,1,0,0:0:0:0:
64,192,145701,1,0,0:0:0:0:
448,192,145750,1,0,0:0:0:0:
192,192,145750,1,0,0:0:0:0:
320,192,145797,1,0,0:0:0:0:
64,192,145846,1,0,0:0:0:0:
192,192,145893,1,0,0:0:0:0:
448,192,145942,1,0,0:0:0:0:
320,192,145942,1,0,0:0:0:0:
192,192,145990,1,0,0:0:0:0:
64,192,146038,1,0,0:0:0:0:
448,192,146086,1,0,0:0:0:0:
320,192,146134,1,0,0:0:0:0:
192,192,146134,128,0,146326:0:0:0:0:
448,192,146326,1,0,0:0:0:0:
320,192,146374,1,0,0:0:0:0:
64,192,146423,1,0,0:0:0:0:
448,192,146470,1,0,0:0:0:0:
64,192,146519,1,0,0:0:0:0:
192,192,146566,1,0,0:0:0:0:
320,192,146615,1,0,0:0:0:0:
64,192,146663,1,0,0:0:0:0:
448,192,146711,1,0,0:0:0:0:
192,192,146759,1,0,0:0:0:0:
448,192,146807,1,0,0:0:0:0:
64,192,146855,1,0,0:0:0:0:
448,192,146903,1,0,0:0:0:0:
320,192,146903,1,0,0:0:0:0:
192,192,146903,1,0,0:0:0:0:
320,192,147000,1,0,0:0:0:0:
192,192,147047,1,0,0:0:0:0:
448,192,147096,1,0,0:0:0:0:
64,192,147096,1,0,0:0:0:0:
448,192,147192,1,0,0:0:0:0:
64,192,147192,1,0,0:0:0:0:
448,192,147288,1,0,0:0:0:0:
64,192,147288,1,0,0:0:0:0:
320,192,147384,1,0,0:0:0:0:
192,192,147384,1,0,0:0:0:0:
448,192,147480,1,0,0:0:0:0:
320,192,147528,1,0,0:0:0:0:
192,192,147576,1,0,0:0:0:0:
64,192,147624,1,0,0:0:0:0:
448,192,147673,1,0,0:0:0:0:
320,192,147673,1,0,0:0:0:0:
192,192,147769,1,0,0:0:0:0:
64,192,147816,1,0,0:0:0:0:
320,192,147865,1,0,0:0:0:0:
448,192,147913,1,0,0:0:0:0:
320,192,147961,1,0,0:0:0:0:
64,192,147961,1,0,0:0:0:0:
64,192,148057,1,0,0:0:0:0:
192,192,148105,1,0,0:0:0:0:
448,192,148153,1,0,0:0:0:0:
320,192,148201,1,0,0:0:0:0:
192,192,148250,1,0,0:0:0:0:
64,192,148250,1,0,0:0:0:0:
448,192,148297,1,0,0:0:0:0:
320,192,148297,1,0,0:0:0:0:
192,192,148346,1,0,0:0:0:0:
64,192,148393,1,0,0:0:0:0:
448,192,148442,1,0,0:0:0:0:
320,192,148442,1,0,0:0:0:0:
192,192,148490,1,0,0:0:0:0:
64,192,148490,1,0,0:0:0:0:
448,192,148538,1,0,0:0:0:0:
320,192,148538,1,0,0:0:0:0:
192,192,148586,1,0,0:0:0:0:
448,192,148634,1,0,0:0:0:0:
320,192,148634,1,0,0:0:0:0:
64,192,148634,1,0,0:0:0:0:
