osu file format v14

[General]
AudioFilename: audio.mp3
AudioLeadIn: 0
PreviewTime: 121857
Countdown: 0
SampleSet: Normal
StackLeniency: 0.7
Mode: 1
LetterboxInBreaks: 0
WidescreenStoryboard: 1

[Editor]
DistanceSpacing: 0.7
BeatDivisor: 16
GridSize: 4
TimelineZoom: 2

[Metadata]
Title:Embraced by the Flame
TitleUnicode:Embraced by the Flame
Artist:UNDEAD CORPORATION
ArtistUnicode:UNDEAD CORPORATION
Creator:KawaiiBass
Version:Muzukashii
Source:東方地霊殿 ~ Subterranean Animism.
Tags:東方Project SA Touhou Project 11 Chireiden TH11 廃獄ララバイ ~ Lullaby of Deserted Hell Stage 5 Theme 火焔猫 燐 Rin Kaenbyou 天外冬黄 みぃ Unlucky Morpheus Mie GET IN THE RING Pinetree パインツリー Pine パイン sawacy 瞬殺 ANCO-0013HP Reitaisai 12 ZUN Team Shanghai Alice featured artist fa metal english 火車の叫ぶ夜に 英語ver Kasha no Sakebu Yoru ni Eigo ver English version
BeatmapID:3607887
BeatmapSetID:1762719

[Difficulty]
HPDrainRate:5
CircleSize:5
OverallDifficulty:5
ApproachRate:5
SliderMultiplier:1.4
SliderTickRate:1

[Events]
//Background and Video events
0,0,"bg.jpg",0,0
//Break Periods
//Storyboard Layer 0 (Background)
//Storyboard Layer 1 (Fail)
//Storyboard Layer 2 (Pass)
//Storyboard Layer 3 (Foreground)
//Storyboard Layer 4 (Overlay)
//Storyboard Sound Samples

[TimingPoints]
462,279.06976744186,4,1,0,85,1,0
9392,-100,4,1,0,85,0,0
51810,-100,4,1,0,85,0,0
52229,-133.333333333333,4,1,0,85,0,0
52927,-100,4,1,0,85,0,0
53345,-133.333333333333,4,1,0,85,0,0
54043,-100,4,1,0,85,0,0
54461,-133.333333333333,4,1,0,85,0,0
55159,-100,4,1,0,85,0,0
55578,-133.333333333333,4,1,0,85,0,0
56275,-100,4,1,0,85,0,0
57113,-133.333333333333,4,1,0,85,0,0
57392,-100,4,1,0,85,0,0
57810,-133.333333333333,4,1,0,85,0,0
58508,-100,4,1,0,85,0,0
58927,-133.333333333333,4,1,0,85,0,0
59624,-100,4,1,0,85,0,0
60043,-133.333333333333,4,1,0,85,0,0
60741,-100,4,1,0,85,0,0
61578,-100,4,1,0,85,0,0
61857,-100,4,1,0,95,0,1
78601,-100,4,1,0,85,0,0
112089,-100,4,1,0,85,0,0
112508,-133.333333333333,4,1,0,85,0,0
113206,-100,4,1,0,85,0,0
113624,-133.333333333333,4,1,0,85,0,0
114322,-100,4,1,0,85,0,0
114740,-133.333333333333,4,1,0,85,0,0
115438,-100,4,1,0,85,0,0
115857,-133.333333333333,4,1,0,85,0,0
116554,-100,4,1,0,85,0,0
117392,-133.333333333333,4,1,0,85,0,0
117671,-100,4,1,0,85,0,0
118089,-133.333333333333,4,1,0,85,0,0
118787,-100,4,1,0,85,0,0
119206,-133.333333333333,4,1,0,85,0,0
119903,-100,4,1,0,85,0,0
120322,-133.333333333333,4,1,0,85,0,0
121020,-100,4,1,0,85,0,0
121857,-100,4,1,0,85,0,0
122136,-100,4,1,0,95,0,1
138880,-100,4,1,0,85,0,0
165671,-100,4,1,0,95,0,1
181299,-100,4,1,0,85,0,0
183531,-100,4,1,0,85,0,0
183950,-133.333333333333,4,1,0,85,0,0
184648,-100,4,1,0,85,0,0
185066,-133.333333333333,4,1,0,85,0,0
185764,-100,4,1,0,85,0,0
186182,-133.333333333333,4,1,0,85,0,0
186880,-100,4,1,0,85,0,0
187299,-133.333333333333,4,1,0,85,0,0
187996,-100,4,1,0,85,0,0
188834,-133.333333333333,4,1,0,85,0,0
189113,-100,4,1,0,85,0,0
189531,-133.333333333333,4,1,0,85,0,0
190229,-100,4,1,0,85,0,0
190648,-133.333333333333,4,1,0,85,0,0
191345,-100,4,1,0,85,0,0
191764,-133.333333333333,4,1,0,85,0,0
192461,-100,4,1,0,85,0,0
193299,-100,4,1,0,85,0,0
193578,-100,4,1,0,95,0,1
224834,-100,4,1,0,85,0,0
242694,-76.9230769230769,4,1,0,85,0,0

[HitObjects]
260,192,462,5,4,0:0:0:0:
260,192,2136,1,4,0:0:0:0:
260,192,2415,1,4,0:0:0:0:
260,192,2694,1,4,0:0:0:0:
260,192,3950,1,4,0:0:0:0:
260,192,4368,1,0,0:0:0:0:
260,192,4648,1,0,0:0:0:0:
260,192,4927,1,12,0:0:0:0:
260,192,5345,1,12,0:0:0:0:
260,192,5764,1,12,0:0:0:0:
260,192,6182,1,12,0:0:0:0:
260,192,6601,1,4,0:0:0:0:
260,192,6880,1,4,0:0:0:0:
260,192,7159,1,12,0:0:0:0:
260,192,7438,1,0,0:0:0:0:
260,192,7578,1,8,0:0:0:0:
260,192,7857,1,0,0:0:0:0:
260,192,7996,1,8,0:0:0:0:
260,192,8275,1,8,0:0:0:0:
260,192,8415,1,0,0:0:0:0:
260,192,8694,1,0,0:0:0:0:
260,192,8834,1,12,0:0:0:0:
260,192,9113,1,12,0:0:0:0:
260,192,9392,1,4,0:0:0:0:
260,192,9671,1,8,0:0:0:0:
260,192,9810,1,0,0:0:0:0:
260,192,10089,1,0,0:0:0:0:
260,192,10229,1,8,0:0:0:0:
260,192,10508,1,8,0:0:0:0:
260,192,10648,1,8,0:0:0:0:
260,192,10927,1,0,0:0:0:0:
260,192,11066,1,8,0:0:0:0:
260,192,11345,1,8,0:0:0:0:
260,192,11624,1,0,0:0:0:0:
260,192,11903,1,8,0:0:0:0:
260,192,12043,1,0,0:0:0:0:
260,192,12322,1,0,0:0:0:0:
260,192,12461,1,8,0:0:0:0:
260,192,12741,1,8,0:0:0:0:
260,192,12880,1,0,0:0:0:0:
260,192,13159,1,0,0:0:0:0:
260,192,13299,1,8,0:0:0:0:
260,192,13857,1,4,0:0:0:0:
260,192,14136,1,8,0:0:0:0:
260,192,14275,1,0,0:0:0:0:
260,192,14555,1,0,0:0:0:0:
260,192,14694,1,8,0:0:0:0:
260,192,14973,1,0,0:0:0:0:
260,192,15113,1,8,0:0:0:0:
260,192,15392,1,0,0:0:0:0:
260,192,15531,1,8,0:0:0:0:
260,192,15810,1,8,0:0:0:0:
260,192,16089,5,8,0:0:0:0:
260,192,16368,1,0,0:0:0:0:
260,192,16508,1,0,0:0:0:0:
260,192,16648,1,8,0:0:0:0:
260,192,16787,1,8,0:0:0:0:
260,192,16927,1,0,0:0:0:0:
260,192,17206,1,0,0:0:0:0:
260,192,17345,1,8,0:0:0:0:
260,192,17485,1,8,0:0:0:0:
260,192,17624,1,8,0:0:0:0:
260,192,17764,1,0,0:0:0:0:
260,192,18322,1,0,0:0:0:0:
260,192,18601,1,8,0:0:0:0:
260,192,18880,1,0,0:0:0:0:
260,192,19020,1,0,0:0:0:0:
260,192,19159,1,8,0:0:0:0:
260,192,19438,1,0,0:0:0:0:
260,192,19717,1,8,0:0:0:0:
260,192,19857,1,0,0:0:0:0:
260,192,19996,1,0,0:0:0:0:
260,192,20136,1,0,0:0:0:0:
260,192,20275,1,8,0:0:0:0:
260,192,20555,1,0,0:0:0:0:
260,192,20834,1,8,0:0:0:0:
260,192,21113,1,0,0:0:0:0:
260,192,21252,1,0,0:0:0:0:
260,192,21392,1,8,0:0:0:0:
260,192,21671,1,0,0:0:0:0:
260,192,21810,1,8,0:0:0:0:
260,192,21950,1,0,0:0:0:0:
260,192,22089,1,8,0:0:0:0:
260,192,22229,1,0,0:0:0:0:
260,192,22787,1,0,0:0:0:0:
260,192,23066,1,8,0:0:0:0:
260,192,23345,1,0,0:0:0:0:
260,192,23485,1,0,0:0:0:0:
260,192,23624,1,8,0:0:0:0:
260,192,23903,1,0,0:0:0:0:
260,192,24182,1,8,0:0:0:0:
260,192,24322,1,0,0:0:0:0:
260,192,24461,1,0,0:0:0:0:
260,192,24601,1,0,0:0:0:0:
260,192,24741,1,8,0:0:0:0:
260,192,25020,1,8,0:0:0:0:
260,192,25159,1,0,0:0:0:0:
260,192,25299,1,8,0:0:0:0:
260,192,25438,1,0,0:0:0:0:
260,192,25578,1,8,0:0:0:0:
260,192,25717,1,8,0:0:0:0:
260,192,25857,1,0,0:0:0:0:
260,192,25996,1,0,0:0:0:0:
260,192,26136,1,8,0:0:0:0:
260,192,26275,1,0,0:0:0:0:
260,192,26415,1,8,0:0:0:0:
260,192,26555,1,8,0:0:0:0:
260,192,26694,1,0,0:0:0:0:
260,192,27252,1,12,0:0:0:0:
260,192,27531,1,0,0:0:0:0:
260,192,27671,1,8,0:0:0:0:
260,192,27950,1,8,0:0:0:0:
260,192,28089,1,0,0:0:0:0:
260,192,28229,1,0,0:0:0:0:
260,192,28368,1,8,0:0:0:0:
260,192,28648,1,8,0:0:0:0:
260,192,28787,1,0,0:0:0:0:
260,192,29066,1,0,0:0:0:0:
260,192,29206,1,8,0:0:0:0:
260,192,29345,1,0,0:0:0:0:
260,192,29485,1,8,0:0:0:0:
260,192,29624,1,0,0:0:0:0:
260,192,29903,1,8,0:0:0:0:
260,192,30043,1,0,0:0:0:0:
260,192,30182,1,0,0:0:0:0:
260,192,30322,1,8,0:0:0:0:
260,192,30461,1,8,0:0:0:0:
260,192,30601,1,0,0:0:0:0:
260,192,30880,1,8,0:0:0:0:
260,192,31020,1,8,0:0:0:0:
260,192,31159,1,0,0:0:0:0:
260,192,31717,1,4,0:0:0:0:
260,192,31996,1,8,0:0:0:0:
260,192,32275,1,0,0:0:0:0:
260,192,32415,1,0,0:0:0:0:
260,192,32555,1,8,0:0:0:0:
260,192,32834,1,0,0:0:0:0:
260,192,33113,1,8,0:0:0:0:
260,192,33392,1,0,0:0:0:0:
260,192,33531,1,0,0:0:0:0:
260,192,33671,1,8,0:0:0:0:
260,192,33950,1,8,0:0:0:0:
260,192,34089,1,0,0:0:0:0:
260,192,34229,1,8,0:0:0:0:
260,192,34368,1,0,0:0:0:0:
260,192,34508,1,8,0:0:0:0:
260,192,34648,1,8,0:0:0:0:
260,192,34787,1,0,0:0:0:0:
260,192,34927,1,0,0:0:0:0:
260,192,35066,1,12,0:0:0:0:
260,192,35345,1,12,0:0:0:0:
260,192,35624,1,12,0:0:0:0:
260,192,36182,1,12,0:0:0:0:
260,192,36461,1,0,0:0:0:0:
260,192,36601,1,8,0:0:0:0:
260,192,36880,1,0,0:0:0:0:
260,192,37020,1,0,0:0:0:0:
260,192,37159,1,0,0:0:0:0:
260,192,37299,1,8,0:0:0:0:
260,192,37578,1,8,0:0:0:0:
260,192,37717,1,0,0:0:0:0:
260,192,37996,1,0,0:0:0:0:
260,192,38136,1,8,0:0:0:0:
260,192,38275,1,0,0:0:0:0:
260,192,38415,1,8,0:0:0:0:
260,192,38555,1,8,0:0:0:0:
260,192,38834,1,8,0:0:0:0:
260,192,38973,1,0,0:0:0:0:
260,192,39113,1,0,0:0:0:0:
260,192,39252,1,8,0:0:0:0:
260,192,39392,1,8,0:0:0:0:
260,192,39531,1,0,0:0:0:0:
260,192,39810,1,8,0:0:0:0:
260,192,39950,1,8,0:0:0:0:
260,192,40089,1,0,0:0:0:0:
260,192,40229,1,0,0:0:0:0:
260,192,40368,1,8,0:0:0:0:
260,192,40648,1,4,0:0:0:0:
260,192,41066,1,12,0:0:0:0:
260,192,41485,1,4,0:0:0:0:
260,192,41764,1,8,0:0:0:0:
260,192,41903,1,0,0:0:0:0:
260,192,42043,1,8,0:0:0:0:
260,192,42182,1,8,0:0:0:0:
260,192,42322,1,0,0:0:0:0:
260,192,42461,1,0,0:0:0:0:
260,192,42601,1,8,0:0:0:0:
260,192,42880,1,4,0:0:0:0:
260,192,43159,1,8,0:0:0:0:
260,192,43438,1,0,0:0:0:0:
260,192,43578,1,0,0:0:0:0:
260,192,43717,1,8,0:0:0:0:
260,192,43996,1,0,0:0:0:0:
260,192,44136,1,0,0:0:0:0:
260,192,44275,1,8,0:0:0:0:
260,192,44415,1,0,0:0:0:0:
260,192,44555,1,0,0:0:0:0:
260,192,44694,1,0,0:0:0:0:
260,192,44834,1,8,0:0:0:0:
260,192,44973,1,0,0:0:0:0:
260,192,45113,1,0,0:0:0:0:
260,192,45392,1,8,0:0:0:0:
260,192,45671,1,0,0:0:0:0:
260,192,45810,1,0,0:0:0:0:
260,192,45950,1,8,0:0:0:0:
260,192,46229,1,12,0:0:0:0:
260,192,46648,1,12,0:0:0:0:
260,192,46927,1,0,0:0:0:0:
260,192,47066,1,12,0:0:0:0:
260,192,47345,1,8,0:0:0:0:
260,192,47624,1,0,0:0:0:0:
260,192,47764,1,8,0:0:0:0:
260,192,48043,1,8,0:0:0:0:
260,192,48182,1,0,0:0:0:0:
260,192,48322,1,0,0:0:0:0:
260,192,48461,1,8,0:0:0:0:
260,192,48741,1,0,0:0:0:0:
260,192,48880,1,8,0:0:0:0:
260,192,49159,1,0,0:0:0:0:
260,192,49299,1,8,0:0:0:0:
260,192,49438,1,0,0:0:0:0:
260,192,49578,1,8,0:0:0:0:
260,192,49857,1,0,0:0:0:0:
260,192,49996,1,8,0:0:0:0:
260,192,50275,1,0,0:0:0:0:
260,192,50415,1,0,0:0:0:0:
260,192,50555,1,0,0:0:0:0:
260,192,50694,1,12,0:0:0:0:
260,192,51252,1,8,0:0:0:0:
260,192,51392,1,8,0:0:0:0:
260,192,51531,1,0,0:0:0:0:
260,192,51671,1,0,0:0:0:0:
260,192,51810,1,12,0:0:0:0:
260,192,52229,1,8,0:0:0:0:
260,192,52648,1,8,0:0:0:0:
260,192,52927,1,4,0:0:0:0:
260,192,53345,1,0,0:0:0:0:
260,192,53764,1,8,0:0:0:0:
260,192,54043,1,4,0:0:0:0:
260,192,54461,1,8,0:0:0:0:
260,192,54880,1,0,0:0:0:0:
260,192,55159,1,12,0:0:0:0:
260,192,55578,1,8,0:0:0:0:
260,192,55996,1,8,0:0:0:0:
260,192,56275,1,4,0:0:0:0:
260,192,57113,1,0,0:0:0:0:
260,192,57252,1,0,0:0:0:0:
260,192,57392,1,12,0:0:0:0:
260,192,57810,1,8,0:0:0:0:
260,192,58229,1,0,0:0:0:0:
260,192,58508,1,12,0:0:0:0:
260,192,58927,1,8,0:0:0:0:
260,192,59345,1,0,0:0:0:0:
256,192,59624,5,12,0:0:0:0:
260,192,60043,1,8,0:0:0:0:
256,192,60461,1,8,0:0:0:0:
256,192,60741,5,4,0:0:0:0:
256,192,61578,1,8,0:0:0:0:
256,192,61857,1,4,0:0:0:0:
256,192,62136,1,8,0:0:0:0:
256,192,62275,1,0,0:0:0:0:
256,192,62415,1,0,0:0:0:0:
256,192,62555,1,0,0:0:0:0:
256,192,62694,1,8,0:0:0:0:
256,192,62834,1,8,0:0:0:0:
256,192,62973,1,0,0:0:0:0:
256,192,63252,1,8,0:0:0:0:
256,192,63392,1,8,0:0:0:0:
256,192,63531,1,0,0:0:0:0:
256,192,63671,1,0,0:0:0:0:
256,192,63810,1,8,0:0:0:0:
256,192,63950,1,0,0:0:0:0:
256,192,64089,1,8,0:0:0:0:
256,192,64368,1,0,0:0:0:0:
256,192,64508,1,8,0:0:0:0:
256,192,64787,1,8,0:0:0:0:
256,192,64927,1,0,0:0:0:0:
256,192,65066,1,0,0:0:0:0:
256,192,65206,1,8,0:0:0:0:
256,192,65485,1,0,0:0:0:0:
256,192,65624,1,8,0:0:0:0:
256,192,65764,1,0,0:0:0:0:
256,192,65903,1,0,0:0:0:0:
256,192,66043,1,8,0:0:0:0:
256,192,66182,1,8,0:0:0:0:
256,192,66322,1,0,0:0:0:0:
256,192,66880,1,0,0:0:0:0:
256,192,67020,1,0,0:0:0:0:
256,192,67159,1,8,0:0:0:0:
256,192,67299,1,0,0:0:0:0:
256,192,67438,1,8,0:0:0:0:
256,192,67717,1,0,0:0:0:0:
256,192,67857,1,8,0:0:0:0:
256,192,68136,1,8,0:0:0:0:
256,192,68275,1,8,0:0:0:0:
256,192,68415,1,0,0:0:0:0:
256,192,68555,1,8,0:0:0:0:
256,192,68834,1,0,0:0:0:0:
256,192,68973,1,8,0:0:0:0:
256,192,69252,1,0,0:0:0:0:
256,192,69392,1,8,0:0:0:0:
256,192,69531,1,0,0:0:0:0:
256,192,69671,1,8,0:0:0:0:
256,192,69950,1,0,0:0:0:0:
256,192,70089,1,8,0:0:0:0:
256,192,70229,1,0,0:0:0:0:
256,192,70368,1,0,0:0:0:0:
256,192,70508,1,8,0:0:0:0:
256,192,70648,1,8,0:0:0:0:
256,192,70787,1,0,0:0:0:0:
256,192,71206,1,0,0:0:0:0:
256,192,71345,1,8,0:0:0:0:
256,192,71624,1,8,0:0:0:0:
256,192,71764,1,8,0:0:0:0:
256,192,71903,1,4,0:0:0:0:
256,192,72182,1,8,0:0:0:0:
256,192,72322,1,0,0:0:0:0:
256,192,72461,1,0,0:0:0:0:
256,192,72601,1,0,0:0:0:0:
256,192,72741,1,8,0:0:0:0:
256,192,73020,1,8,0:0:0:0:
256,192,73159,1,0,0:0:0:0:
256,192,73299,1,8,0:0:0:0:
256,192,73438,1,0,0:0:0:0:
256,192,73578,1,0,0:0:0:0:
256,192,73717,1,0,0:0:0:0:
256,192,73857,1,8,0:0:0:0:
256,192,73996,1,8,0:0:0:0:
256,192,74136,1,0,0:0:0:0:
256,192,74415,1,8,0:0:0:0:
256,192,74555,1,0,0:0:0:0:
256,192,74834,1,0,0:0:0:0:
256,192,74973,1,8,0:0:0:0:
256,192,75113,1,8,0:0:0:0:
256,192,75252,1,0,0:0:0:0:
256,192,75671,1,0,0:0:0:0:
256,192,75810,1,8,0:0:0:0:
256,192,76089,1,8,0:0:0:0:
256,192,76229,1,8,0:0:0:0:
256,192,76368,1,0,0:0:0:0:
256,192,76648,1,8,0:0:0:0:
256,192,76787,1,0,0:0:0:0:
256,192,77066,1,0,0:0:0:0:
256,192,77206,1,8,0:0:0:0:
256,192,77345,1,8,0:0:0:0:
256,192,77485,1,0,0:0:0:0:
256,192,77624,1,0,0:0:0:0:
256,192,77694,1,0,0:0:0:0:
256,192,77764,1,0,0:0:0:0:
256,192,77903,1,0,0:0:0:0:
256,192,78043,1,8,0:0:0:0:
256,192,78182,1,0,0:0:0:0:
256,192,78322,1,8,0:0:0:0:
260,192,78601,1,12,0:0:0:0:
260,192,78880,1,8,0:0:0:0:
260,192,79020,1,0,0:0:0:0:
260,192,79299,1,0,0:0:0:0:
260,192,79438,1,8,0:0:0:0:
260,192,79717,1,8,0:0:0:0:
260,192,79857,1,8,0:0:0:0:
260,192,80136,1,0,0:0:0:0:
260,192,80275,1,8,0:0:0:0:
260,192,80555,1,8,0:0:0:0:
260,192,80834,1,0,0:0:0:0:
260,192,81113,1,8,0:0:0:0:
260,192,81252,1,0,0:0:0:0:
260,192,81531,1,0,0:0:0:0:
260,192,81671,1,8,0:0:0:0:
260,192,81950,1,8,0:0:0:0:
260,192,82089,1,0,0:0:0:0:
260,192,82368,1,0,0:0:0:0:
260,192,82508,1,8,0:0:0:0:
260,192,83066,1,4,0:0:0:0:
260,192,83345,1,8,0:0:0:0:
260,192,83485,1,0,0:0:0:0:
260,192,83764,1,0,0:0:0:0:
260,192,83903,1,8,0:0:0:0:
260,192,84182,1,0,0:0:0:0:
260,192,84322,1,8,0:0:0:0:
260,192,84601,1,0,0:0:0:0:
260,192,84741,1,8,0:0:0:0:
260,192,85020,1,8,0:0:0:0:
260,192,85299,5,8,0:0:0:0:
260,192,85578,1,8,0:0:0:0:
260,192,85717,1,0,0:0:0:0:
260,192,85857,1,0,0:0:0:0:
260,192,85996,1,8,0:0:0:0:
260,192,86136,5,0,0:0:0:0:
260,192,86415,1,8,0:0:0:0:
260,192,87252,1,8,0:0:0:0:
260,192,87531,1,12,0:0:0:0:
260,192,87810,1,0,0:0:0:0:
260,192,87950,1,8,0:0:0:0:
260,192,88229,1,8,0:0:0:0:
260,192,88368,1,0,0:0:0:0:
260,192,88508,1,0,0:0:0:0:
260,192,88648,1,8,0:0:0:0:
260,192,88927,1,8,0:0:0:0:
260,192,89066,1,0,0:0:0:0:
260,192,89345,1,0,0:0:0:0:
260,192,89485,1,0,0:0:0:0:
260,192,89624,1,0,0:0:0:0:
260,192,89764,1,8,0:0:0:0:
260,192,90043,1,8,0:0:0:0:
260,192,90182,1,0,0:0:0:0:
260,192,90461,1,0,0:0:0:0:
260,192,90601,1,8,0:0:0:0:
260,192,90741,1,8,0:0:0:0:
260,192,90880,1,0,0:0:0:0:
260,192,91159,1,8,0:0:0:0:
260,192,91299,1,8,0:0:0:0:
260,192,91438,1,0,0:0:0:0:
260,192,91996,1,4,0:0:0:0:
260,192,92275,5,8,0:0:0:0:
260,192,92555,1,0,0:0:0:0:
260,192,92694,1,0,0:0:0:0:
260,192,92834,1,8,0:0:0:0:
260,192,93113,1,0,0:0:0:0:
260,192,93392,1,8,0:0:0:0:
260,192,93671,1,0,0:0:0:0:
260,192,93810,1,0,0:0:0:0:
260,192,93950,1,8,0:0:0:0:
260,192,94229,1,8,0:0:0:0:
260,192,94368,1,0,0:0:0:0:
260,192,94508,1,8,0:0:0:0:
260,192,94648,1,0,0:0:0:0:
260,192,94787,1,8,0:0:0:0:
260,192,94927,1,8,0:0:0:0:
260,192,95066,1,0,0:0:0:0:
260,192,95206,1,0,0:0:0:0:
260,192,95345,1,12,0:0:0:0:
260,192,95624,1,12,0:0:0:0:
260,192,95903,1,12,0:0:0:0:
260,192,96461,1,8,0:0:0:0:
260,192,96741,1,0,0:0:0:0:
260,192,96880,1,8,0:0:0:0:
260,192,97159,1,0,0:0:0:0:
260,192,97299,1,0,0:0:0:0:
260,192,97438,1,0,0:0:0:0:
260,192,97578,1,8,0:0:0:0:
260,192,97857,1,8,0:0:0:0:
260,192,97996,1,0,0:0:0:0:
260,192,98275,1,0,0:0:0:0:
260,192,98415,1,8,0:0:0:0:
260,192,98555,1,0,0:0:0:0:
260,192,98694,1,8,0:0:0:0:
260,192,98834,1,8,0:0:0:0:
260,192,99113,1,8,0:0:0:0:
260,192,99252,1,0,0:0:0:0:
260,192,99392,1,0,0:0:0:0:
260,192,99531,1,8,0:0:0:0:
260,192,99671,1,8,0:0:0:0:
260,192,99810,1,0,0:0:0:0:
260,192,100089,1,8,0:0:0:0:
260,192,100229,1,8,0:0:0:0:
260,192,100368,1,0,0:0:0:0:
260,192,100508,1,0,0:0:0:0:
260,192,100648,1,8,0:0:0:0:
260,192,100787,1,8,0:0:0:0:
260,192,100927,1,4,0:0:0:0:
260,192,101345,5,8,0:0:0:0:
260,192,101764,1,8,0:0:0:0:
260,192,102043,1,8,0:0:0:0:
260,192,102182,1,0,0:0:0:0:
260,192,102322,1,0,0:0:0:0:
260,192,102461,1,8,0:0:0:0:
260,192,102601,1,0,0:0:0:0:
260,192,102741,1,0,0:0:0:0:
260,192,102880,1,8,0:0:0:0:
260,192,103020,1,8,0:0:0:0:
260,192,103159,1,4,0:0:0:0:
260,192,103438,1,8,0:0:0:0:
260,192,103717,1,0,0:0:0:0:
260,192,103857,1,0,0:0:0:0:
260,192,103996,1,8,0:0:0:0:
260,192,104275,1,0,0:0:0:0:
260,192,104555,1,8,0:0:0:0:
260,192,104694,1,0,0:0:0:0:
260,192,104834,1,0,0:0:0:0:
260,192,104973,1,0,0:0:0:0:
260,192,105113,1,8,0:0:0:0:
260,192,105392,1,0,0:0:0:0:
260,192,105671,1,8,0:0:0:0:
260,192,105950,1,0,0:0:0:0:
260,192,106089,1,0,0:0:0:0:
260,192,106229,1,8,0:0:0:0:
260,192,106508,1,0,0:0:0:0:
260,192,106648,1,0,0:0:0:0:
260,192,106787,1,0,0:0:0:0:
260,192,106927,1,8,0:0:0:0:
260,192,107066,1,0,0:0:0:0:
260,192,107624,1,4,0:0:0:0:
260,192,107903,1,0,0:0:0:0:
260,192,108043,1,8,0:0:0:0:
260,192,108322,1,8,0:0:0:0:
260,192,108461,1,0,0:0:0:0:
260,192,108601,1,0,0:0:0:0:
260,192,108741,1,8,0:0:0:0:
260,192,109020,1,0,0:0:0:0:
260,192,109159,1,8,0:0:0:0:
260,192,109438,1,0,0:0:0:0:
260,192,109578,1,8,0:0:0:0:
260,192,109717,1,0,0:0:0:0:
260,192,109857,1,8,0:0:0:0:
260,192,110136,1,0,0:0:0:0:
260,192,110275,1,8,0:0:0:0:
260,192,110555,1,0,0:0:0:0:
260,192,110694,1,0,0:0:0:0:
260,192,110834,1,0,0:0:0:0:
260,192,110973,1,12,0:0:0:0:
260,192,111810,1,0,0:0:0:0:
260,192,112089,1,12,0:0:0:0:
260,192,112508,1,8,0:0:0:0:
260,192,112927,1,8,0:0:0:0:
260,192,113206,1,4,0:0:0:0:
260,192,113624,1,0,0:0:0:0:
260,192,114043,1,8,0:0:0:0:
260,192,114322,1,4,0:0:0:0:
260,192,114741,1,8,0:0:0:0:
260,192,115159,1,0,0:0:0:0:
260,192,115438,1,12,0:0:0:0:
260,192,115857,1,8,0:0:0:0:
260,192,116275,1,8,0:0:0:0:
260,192,116555,1,4,0:0:0:0:
260,192,117392,1,0,0:0:0:0:
260,192,117531,1,0,0:0:0:0:
260,192,117671,1,12,0:0:0:0:
260,192,118089,1,8,0:0:0:0:
260,192,118508,1,0,0:0:0:0:
260,192,118787,1,12,0:0:0:0:
260,192,119206,1,8,0:0:0:0:
260,192,119624,1,0,0:0:0:0:
256,192,119903,5,12,0:0:0:0:
260,192,120322,1,8,0:0:0:0:
256,192,120741,5,8,0:0:0:0:
256,192,121020,5,4,0:0:0:0:
256,192,121857,5,0,0:0:0:0:
256,192,122136,1,4,0:0:0:0:
256,192,122415,1,8,0:0:0:0:
256,192,122555,1,8,0:0:0:0:
256,192,122694,1,0,0:0:0:0:
256,192,122834,1,0,0:0:0:0:
256,192,122973,1,8,0:0:0:0:
256,192,123113,1,8,0:0:0:0:
256,192,123252,1,0,0:0:0:0:
256,192,123531,1,8,0:0:0:0:
256,192,123671,1,8,0:0:0:0:
256,192,123810,1,0,0:0:0:0:
256,192,123950,1,0,0:0:0:0:
256,192,124089,1,8,0:0:0:0:
256,192,124229,1,0,0:0:0:0:
256,192,124368,1,8,0:0:0:0:
256,192,124648,1,0,0:0:0:0:
256,192,124787,1,8,0:0:0:0:
256,192,125066,1,8,0:0:0:0:
256,192,125206,1,0,0:0:0:0:
256,192,125345,1,0,0:0:0:0:
256,192,125485,1,8,0:0:0:0:
256,192,125764,1,0,0:0:0:0:
256,192,125903,1,8,0:0:0:0:
256,192,126043,1,0,0:0:0:0:
256,192,126182,1,0,0:0:0:0:
256,192,126322,1,8,0:0:0:0:
256,192,126461,1,8,0:0:0:0:
256,192,126601,1,0,0:0:0:0:
256,192,127159,1,0,0:0:0:0:
256,192,127299,1,0,0:0:0:0:
256,192,127438,1,8,0:0:0:0:
256,192,127578,1,0,0:0:0:0:
256,192,127717,1,8,0:0:0:0:
256,192,127996,1,0,0:0:0:0:
256,192,128136,1,8,0:0:0:0:
256,192,128415,1,8,0:0:0:0:
256,192,128555,1,8,0:0:0:0:
256,192,128694,1,0,0:0:0:0:
256,192,128834,1,8,0:0:0:0:
256,192,129113,1,0,0:0:0:0:
256,192,129252,1,8,0:0:0:0:
256,192,129531,1,0,0:0:0:0:
256,192,129671,1,8,0:0:0:0:
256,192,129810,1,0,0:0:0:0:
256,192,129950,1,8,0:0:0:0:
256,192,130229,1,0,0:0:0:0:
256,192,130368,1,8,0:0:0:0:
256,192,130508,1,0,0:0:0:0:
256,192,130648,1,0,0:0:0:0:
256,192,130787,1,8,0:0:0:0:
256,192,130927,1,8,0:0:0:0:
256,192,131066,1,0,0:0:0:0:
256,192,131485,1,0,0:0:0:0:
256,192,131624,1,8,0:0:0:0:
256,192,131903,1,8,0:0:0:0:
256,192,132043,1,8,0:0:0:0:
256,192,132182,1,4,0:0:0:0:
256,192,132461,1,8,0:0:0:0:
256,192,132601,1,0,0:0:0:0:
256,192,132741,1,0,0:0:0:0:
256,192,132880,1,0,0:0:0:0:
256,192,133020,1,8,0:0:0:0:
256,192,133299,1,8,0:0:0:0:
256,192,133438,1,0,0:0:0:0:
256,192,133578,1,8,0:0:0:0:
256,192,133717,1,0,0:0:0:0:
256,192,133857,1,0,0:0:0:0:
256,192,133996,1,0,0:0:0:0:
256,192,134136,1,8,0:0:0:0:
256,192,134275,1,8,0:0:0:0:
256,192,134415,1,0,0:0:0:0:
256,192,134694,1,8,0:0:0:0:
256,192,134834,1,0,0:0:0:0:
256,192,135113,1,0,0:0:0:0:
256,192,135252,1,8,0:0:0:0:
256,192,135392,1,8,0:0:0:0:
256,192,135531,1,0,0:0:0:0:
256,192,135810,1,8,0:0:0:0:
256,192,135950,1,0,0:0:0:0:
256,192,136089,1,8,0:0:0:0:
256,192,136648,1,0,0:0:0:0:
256,192,136927,1,8,0:0:0:0:
256,192,137066,1,0,0:0:0:0:
256,192,137345,1,0,0:0:0:0:
256,192,137485,1,8,0:0:0:0:
256,192,137624,1,8,0:0:0:0:
256,192,137764,5,0,0:0:0:0:
256,192,137903,1,8,0:0:0:0:
256,192,137973,1,8,0:0:0:0:
256,192,138043,1,8,0:0:0:0:
256,192,138182,1,8,0:0:0:0:
256,192,138322,1,0,0:0:0:0:
256,192,138461,1,0,0:0:0:0:
256,192,138601,1,8,0:0:0:0:
256,192,138880,1,12,0:0:0:0:
256,192,139020,1,12,0:0:0:0:
256,192,139996,5,4,0:0:0:0:
256,192,140834,1,0,0:0:0:0:
256,192,140973,1,0,0:0:0:0:
256,192,141113,1,12,0:0:0:0:
256,192,141252,1,12,0:0:0:0:
256,192,142229,1,12,0:0:0:0:
256,192,142508,1,0,0:0:0:0:
256,192,142787,1,0,0:0:0:0:
256,192,142927,1,0,0:0:0:0:
256,192,143066,1,0,0:0:0:0:
256,192,143206,1,8,0:0:0:0:
256,192,143345,1,4,0:0:0:0:
256,192,143624,1,8,0:0:0:0:
256,192,143764,1,0,0:0:0:0:
256,192,143903,1,0,0:0:0:0:
256,192,144043,1,0,0:0:0:0:
256,192,144182,1,8,0:0:0:0:
256,192,144461,5,0,0:0:0:0:
256,192,144601,1,8,0:0:0:0:
256,192,144741,1,0,0:0:0:0:
256,192,144880,1,8,0:0:0:0:
256,192,145020,1,0,0:0:0:0:
256,192,145159,1,0,0:0:0:0:
256,192,145299,1,8,0:0:0:0:
256,192,145438,1,0,0:0:0:0:
256,192,145578,1,8,0:0:0:0:
256,192,145857,1,8,0:0:0:0:
256,192,145996,1,0,0:0:0:0:
256,192,146136,1,8,0:0:0:0:
256,192,146275,1,0,0:0:0:0:
256,192,146415,1,8,0:0:0:0:
256,192,146555,1,0,0:0:0:0:
256,192,146694,1,8,0:0:0:0:
256,192,146834,1,8,0:0:0:0:
256,192,146973,1,8,0:0:0:0:
256,192,147113,1,0,0:0:0:0:
256,192,147252,1,8,0:0:0:0:
256,192,147810,1,4,0:0:0:0:
256,192,148089,1,8,0:0:0:0:
256,192,148368,1,0,0:0:0:0:
256,192,148508,1,0,0:0:0:0:
256,192,148648,1,8,0:0:0:0:
256,192,148927,1,0,0:0:0:0:
256,192,149206,1,8,0:0:0:0:
256,192,149345,1,0,0:0:0:0:
256,192,149624,1,0,0:0:0:0:
256,192,149764,1,8,0:0:0:0:
256,192,150043,1,0,0:0:0:0:
256,192,150182,1,0,0:0:0:0:
256,192,150322,1,8,0:0:0:0:
256,192,150601,1,8,0:0:0:0:
256,192,150741,1,0,0:0:0:0:
256,192,150880,1,8,0:0:0:0:
256,192,151159,1,0,0:0:0:0:
256,192,151438,1,8,0:0:0:0:
256,192,151717,1,0,0:0:0:0:
256,192,152275,1,8,0:0:0:0:
256,192,152415,1,0,0:0:0:0:
256,192,152555,1,8,0:0:0:0:
256,192,152694,1,0,0:0:0:0:
256,192,152834,1,0,0:0:0:0:
256,192,152973,1,0,0:0:0:0:
256,192,153113,1,8,0:0:0:0:
256,192,153252,1,8,0:0:0:0:
256,192,153392,1,0,0:0:0:0:
256,192,153671,1,8,0:0:0:0:
256,192,153810,1,8,0:0:0:0:
256,192,153950,1,8,0:0:0:0:
256,192,154089,1,0,0:0:0:0:
256,192,154229,1,8,0:0:0:0:
256,192,154368,1,8,0:0:0:0:
256,192,154508,1,0,0:0:0:0:
256,192,154787,1,8,0:0:0:0:
256,192,155066,1,0,0:0:0:0:
256,192,155206,1,0,0:0:0:0:
256,192,155345,1,8,0:0:0:0:
256,192,155624,1,8,0:0:0:0:
256,192,155764,1,0,0:0:0:0:
256,192,155903,1,0,0:0:0:0:
256,192,156043,1,8,0:0:0:0:
256,192,156182,1,0,0:0:0:0:
256,192,156741,1,12,0:0:0:0:
256,192,156880,1,0,0:0:0:0:
256,192,157020,1,8,0:0:0:0:
256,192,157159,1,0,0:0:0:0:
256,192,157299,1,8,0:0:0:0:
256,192,157438,1,8,0:0:0:0:
256,192,157578,1,0,0:0:0:0:
256,192,157717,1,0,0:0:0:0:
256,192,157857,1,8,0:0:0:0:
256,192,157996,1,0,0:0:0:0:
256,192,158136,1,8,0:0:0:0:
256,192,158275,1,0,0:0:0:0:
256,192,158415,1,8,0:0:0:0:
256,192,158555,1,8,0:0:0:0:
256,192,158694,1,8,0:0:0:0:
256,192,158834,1,0,0:0:0:0:
256,192,158973,1,8,0:0:0:0:
256,192,159113,1,8,0:0:0:0:
256,192,159252,1,0,0:0:0:0:
256,192,159392,1,0,0:0:0:0:
256,192,159531,1,8,0:0:0:0:
256,192,159671,1,0,0:0:0:0:
256,192,159810,1,8,0:0:0:0:
256,192,159950,1,8,0:0:0:0:
256,192,160089,1,0,0:0:0:0:
256,192,160508,1,0,0:0:0:0:
256,192,160648,1,8,0:0:0:0:
256,192,160927,1,8,0:0:0:0:
256,192,161066,1,8,0:0:0:0:
256,192,161206,1,4,0:0:0:0:
256,192,161345,1,8,0:0:0:0:
256,192,161485,1,0,0:0:0:0:
256,192,161624,1,8,0:0:0:0:
256,192,161764,1,0,0:0:0:0:
256,192,161903,1,0,0:0:0:0:
256,192,162043,1,8,0:0:0:0:
256,192,162182,1,8,0:0:0:0:
256,192,162322,1,0,0:0:0:0:
256,192,162601,1,8,0:0:0:0:
256,192,162741,1,0,0:0:0:0:
256,192,162880,1,8,0:0:0:0:
256,192,163020,1,8,0:0:0:0:
256,192,163159,1,0,0:0:0:0:
256,192,163299,1,8,0:0:0:0:
256,192,163438,1,0,0:0:0:0:
256,192,163717,1,8,0:0:0:0:
256,192,163996,1,8,0:0:0:0:
256,192,164136,1,8,0:0:0:0:
256,192,164275,1,0,0:0:0:0:
256,192,164415,1,0,0:0:0:0:
256,192,164555,1,8,0:0:0:0:
256,192,164834,1,8,0:0:0:0:
256,192,164973,1,0,0:0:0:0:
256,192,165113,1,0,0:0:0:0:
256,192,165671,1,4,0:0:0:0:
256,192,165950,1,8,0:0:0:0:
256,192,166089,1,8,0:0:0:0:
256,192,166229,1,8,0:0:0:0:
256,192,166368,1,0,0:0:0:0:
256,192,166508,1,8,0:0:0:0:
256,192,166648,1,8,0:0:0:0:
256,192,166787,1,0,0:0:0:0:
256,192,167066,1,8,0:0:0:0:
256,192,167206,1,0,0:0:0:0:
256,192,167345,1,0,0:0:0:0:
256,192,167485,1,0,0:0:0:0:
256,192,167624,1,8,0:0:0:0:
256,192,167764,1,8,0:0:0:0:
256,192,167903,1,0,0:0:0:0:
256,192,168182,1,8,0:0:0:0:
256,192,168322,1,0,0:0:0:0:
256,192,168461,1,0,0:0:0:0:
256,192,168601,1,8,0:0:0:0:
256,192,168741,1,0,0:0:0:0:
256,192,168880,1,8,0:0:0:0:
256,192,169020,1,0,0:0:0:0:
256,192,169299,1,8,0:0:0:0:
256,192,169438,1,8,0:0:0:0:
256,192,169578,1,0,0:0:0:0:
256,192,170136,1,0,0:0:0:0:
256,192,170275,1,0,0:0:0:0:
256,192,170415,1,8,0:0:0:0:
256,192,170555,1,0,0:0:0:0:
256,192,170694,1,8,0:0:0:0:
256,192,170834,1,0,0:0:0:0:
256,192,170973,1,8,0:0:0:0:
256,192,171113,1,8,0:0:0:0:
256,192,171252,1,0,0:0:0:0:
256,192,171531,1,8,0:0:0:0:
256,192,171671,1,8,0:0:0:0:
256,192,171810,1,0,0:0:0:0:
256,192,171950,1,0,0:0:0:0:
256,192,172089,1,8,0:0:0:0:
256,192,172229,1,8,0:0:0:0:
256,192,172368,1,0,0:0:0:0:
256,192,172648,1,8,0:0:0:0:
256,192,172787,1,0,0:0:0:0:
256,192,172927,1,8,0:0:0:0:
256,192,173066,1,8,0:0:0:0:
256,192,173206,1,8,0:0:0:0:
256,192,173345,1,0,0:0:0:0:
256,192,173485,1,8,0:0:0:0:
256,192,173764,1,0,0:0:0:0:
256,192,173903,1,8,0:0:0:0:
256,192,174043,1,0,0:0:0:0:
256,192,174601,1,0,0:0:0:0:
256,192,174880,1,8,0:0:0:0:
256,192,175020,1,8,0:0:0:0:
256,192,175159,1,0,0:0:0:0:
256,192,175299,1,0,0:0:0:0:
256,192,175438,1,8,0:0:0:0:
256,192,175578,5,0,0:0:0:0:
256,192,175717,1,8,0:0:0:0:
256,192,175996,1,8,0:0:0:0:
256,192,176136,1,0,0:0:0:0:
256,192,176275,1,8,0:0:0:0:
256,192,176415,1,8,0:0:0:0:
256,192,176555,1,0,0:0:0:0:
256,192,176694,5,0,0:0:0:0:
256,192,176834,1,8,0:0:0:0:
256,192,176973,1,0,0:0:0:0:
256,192,177113,1,8,0:0:0:0:
256,192,177252,1,0,0:0:0:0:
256,192,177392,1,0,0:0:0:0:
256,192,177531,1,0,0:0:0:0:
256,192,177671,1,8,0:0:0:0:
256,192,177810,1,0,0:0:0:0:
256,192,177950,1,8,0:0:0:0:
256,192,178229,1,8,0:0:0:0:
256,192,178368,1,8,0:0:0:0:
256,192,178508,1,0,0:0:0:0:
256,192,178787,1,8,0:0:0:0:
256,192,179066,1,12,0:0:0:0:
256,192,179345,1,0,0:0:0:0:
256,192,179485,1,0,0:0:0:0:
256,192,179624,1,8,0:0:0:0:
256,192,179764,1,0,0:0:0:0:
256,192,179903,1,8,0:0:0:0:
256,192,180043,1,0,0:0:0:0:
256,192,180182,1,8,0:0:0:0:
256,192,180322,5,8,0:0:0:0:
256,192,180461,1,0,0:0:0:0:
256,192,180601,1,0,0:0:0:0:
256,192,180741,1,8,0:0:0:0:
256,192,180880,1,8,0:0:0:0:
256,192,181020,1,0,0:0:0:0:
256,192,181299,1,8,0:0:0:0:
256,192,181438,1,0,0:0:0:0:
256,192,181578,1,0,0:0:0:0:
256,192,181717,1,0,0:0:0:0:
256,192,181857,1,8,0:0:0:0:
256,192,181996,1,8,0:0:0:0:
256,192,182136,1,0,0:0:0:0:
256,192,182275,1,0,0:0:0:0:
256,192,182415,1,8,0:0:0:0:
256,192,182555,1,0,0:0:0:0:
256,192,182694,1,8,0:0:0:0:
256,192,182834,1,0,0:0:0:0:
256,192,182973,1,8,0:0:0:0:
256,192,183113,1,8,0:0:0:0:
256,192,183252,1,0,0:0:0:0:
256,192,183392,1,0,0:0:0:0:
260,192,183531,1,12,0:0:0:0:
260,192,183950,1,8,0:0:0:0:
260,192,184368,1,8,0:0:0:0:
260,192,184648,1,4,0:0:0:0:
260,192,185066,1,0,0:0:0:0:
260,192,185485,1,8,0:0:0:0:
260,192,185764,1,4,0:0:0:0:
260,192,186182,1,8,0:0:0:0:
260,192,186601,1,0,0:0:0:0:
260,192,186880,1,12,0:0:0:0:
260,192,187299,1,8,0:0:0:0:
260,192,187717,1,8,0:0:0:0:
260,192,187996,1,4,0:0:0:0:
260,192,188834,1,0,0:0:0:0:
260,192,188973,1,0,0:0:0:0:
260,192,189113,1,12,0:0:0:0:
260,192,189531,1,8,0:0:0:0:
260,192,189950,1,0,0:0:0:0:
260,192,190229,1,12,0:0:0:0:
260,192,190648,1,8,0:0:0:0:
260,192,191066,1,0,0:0:0:0:
256,192,191345,5,12,0:0:0:0:
260,192,191764,1,8,0:0:0:0:
256,192,192182,5,8,0:0:0:0:
256,192,192461,5,4,0:0:0:0:
256,192,193299,5,0,0:0:0:0:
256,192,193578,1,4,0:0:0:0:
256,192,193857,1,8,0:0:0:0:
256,192,193996,1,0,0:0:0:0:
256,192,194136,1,0,0:0:0:0:
256,192,194275,1,0,0:0:0:0:
256,192,194415,1,8,0:0:0:0:
256,192,194555,1,8,0:0:0:0:
256,192,194694,1,0,0:0:0:0:
256,192,194973,1,8,0:0:0:0:
256,192,195113,1,8,0:0:0:0:
256,192,195252,1,0,0:0:0:0:
256,192,195392,1,0,0:0:0:0:
256,192,195531,1,8,0:0:0:0:
256,192,195671,1,0,0:0:0:0:
256,192,195810,1,8,0:0:0:0:
256,192,196089,1,0,0:0:0:0:
256,192,196229,1,8,0:0:0:0:
256,192,196508,1,8,0:0:0:0:
256,192,196648,1,0,0:0:0:0:
256,192,196787,1,0,0:0:0:0:
256,192,196927,1,8,0:0:0:0:
256,192,197206,1,0,0:0:0:0:
256,192,197345,1,8,0:0:0:0:
256,192,197485,1,0,0:0:0:0:
256,192,197624,1,0,0:0:0:0:
256,192,197764,1,8,0:0:0:0:
256,192,197903,1,8,0:0:0:0:
256,192,198043,1,0,0:0:0:0:
256,192,198601,1,0,0:0:0:0:
256,192,198880,1,8,0:0:0:0:
256,192,199020,1,0,0:0:0:0:
256,192,199159,1,8,0:0:0:0:
256,192,199438,1,0,0:0:0:0:
256,192,199578,1,8,0:0:0:0:
256,192,199857,1,8,0:0:0:0:
256,192,199996,1,8,0:0:0:0:
256,192,200136,1,0,0:0:0:0:
256,192,200275,1,8,0:0:0:0:
256,192,200555,1,0,0:0:0:0:
256,192,200694,1,8,0:0:0:0:
256,192,200973,1,0,0:0:0:0:
256,192,201113,1,8,0:0:0:0:
256,192,201252,1,0,0:0:0:0:
256,192,201392,1,8,0:0:0:0:
256,192,201671,1,0,0:0:0:0:
256,192,201810,1,8,0:0:0:0:
256,192,201950,1,0,0:0:0:0:
256,192,202089,1,0,0:0:0:0:
256,192,202229,1,8,0:0:0:0:
256,192,202368,1,8,0:0:0:0:
256,192,202508,1,0,0:0:0:0:
256,192,202927,1,0,0:0:0:0:
256,192,203066,1,8,0:0:0:0:
256,192,203345,1,8,0:0:0:0:
256,192,203485,1,8,0:0:0:0:
256,192,203624,1,4,0:0:0:0:
256,192,203903,1,8,0:0:0:0:
256,192,204043,1,0,0:0:0:0:
256,192,204182,1,0,0:0:0:0:
256,192,204322,1,0,0:0:0:0:
256,192,204461,1,8,0:0:0:0:
256,192,204741,1,8,0:0:0:0:
256,192,204880,1,0,0:0:0:0:
256,192,205020,1,8,0:0:0:0:
256,192,205159,1,0,0:0:0:0:
256,192,205299,1,0,0:0:0:0:
256,192,205438,1,0,0:0:0:0:
256,192,205578,1,8,0:0:0:0:
256,192,205717,1,8,0:0:0:0:
256,192,205857,1,0,0:0:0:0:
256,192,206136,1,8,0:0:0:0:
256,192,206275,1,0,0:0:0:0:
256,192,206555,1,0,0:0:0:0:
256,192,206694,1,8,0:0:0:0:
256,192,206834,1,8,0:0:0:0:
256,192,206973,1,0,0:0:0:0:
256,192,207252,1,8,0:0:0:0:
256,192,207392,1,0,0:0:0:0:
256,192,207531,1,8,0:0:0:0:
256,192,208089,1,0,0:0:0:0:
256,192,208368,1,8,0:0:0:0:
256,192,208508,1,0,0:0:0:0:
256,192,208787,1,0,0:0:0:0:
256,192,208927,1,8,0:0:0:0:
256,192,209066,1,8,0:0:0:0:
256,192,209206,1,0,0:0:0:0:
256,192,209345,1,0,0:0:0:0:
256,192,209415,1,0,0:0:0:0:
256,192,209485,1,0,0:0:0:0:
256,192,209624,1,0,0:0:0:0:
256,192,209764,1,8,0:0:0:0:
256,192,209903,1,0,0:0:0:0:
256,192,210043,1,8,0:0:0:0:
256,192,210322,1,0,0:0:0:0:
256,192,210601,1,8,0:0:0:0:
256,192,210741,1,8,0:0:0:0:
256,192,210880,1,0,0:0:0:0:
256,192,211020,1,0,0:0:0:0:
256,192,211159,1,8,0:0:0:0:
256,192,211299,1,8,0:0:0:0:
256,192,211438,1,0,0:0:0:0:
256,192,211717,1,8,0:0:0:0:
256,192,211857,1,8,0:0:0:0:
256,192,211996,1,0,0:0:0:0:
256,192,212136,1,0,0:0:0:0:
256,192,212275,1,8,0:0:0:0:
256,192,212415,1,0,0:0:0:0:
256,192,212555,1,8,0:0:0:0:
256,192,212834,1,0,0:0:0:0:
256,192,212973,1,8,0:0:0:0:
256,192,213252,1,8,0:0:0:0:
256,192,213392,1,0,0:0:0:0:
256,192,213531,1,0,0:0:0:0:
256,192,213671,1,8,0:0:0:0:
256,192,213950,1,0,0:0:0:0:
256,192,214089,1,8,0:0:0:0:
256,192,214229,1,0,0:0:0:0:
256,192,214368,1,0,0:0:0:0:
256,192,214508,1,8,0:0:0:0:
256,192,214648,1,8,0:0:0:0:
256,192,214787,1,0,0:0:0:0:
256,192,215345,1,0,0:0:0:0:
256,192,215485,1,0,0:0:0:0:
256,192,215624,1,8,0:0:0:0:
256,192,215764,1,0,0:0:0:0:
256,192,215903,1,8,0:0:0:0:
256,192,216182,1,0,0:0:0:0:
256,192,216322,1,8,0:0:0:0:
256,192,216601,1,8,0:0:0:0:
256,192,216741,1,8,0:0:0:0:
256,192,216880,1,0,0:0:0:0:
256,192,217020,1,8,0:0:0:0:
256,192,217299,1,0,0:0:0:0:
256,192,217438,1,8,0:0:0:0:
256,192,217717,1,0,0:0:0:0:
256,192,217857,1,8,0:0:0:0:
256,192,217996,1,0,0:0:0:0:
256,192,218136,1,8,0:0:0:0:
256,192,218415,1,0,0:0:0:0:
256,192,218555,1,8,0:0:0:0:
256,192,218694,1,0,0:0:0:0:
256,192,218834,1,0,0:0:0:0:
256,192,218973,1,8,0:0:0:0:
256,192,219113,1,8,0:0:0:0:
256,192,219252,1,0,0:0:0:0:
256,192,219671,1,0,0:0:0:0:
256,192,219810,1,8,0:0:0:0:
256,192,220089,1,8,0:0:0:0:
256,192,220229,1,8,0:0:0:0:
256,192,220368,1,4,0:0:0:0:
256,192,220648,1,8,0:0:0:0:
256,192,220787,1,0,0:0:0:0:
256,192,220927,1,0,0:0:0:0:
256,192,221066,1,0,0:0:0:0:
256,192,221206,1,8,0:0:0:0:
256,192,221485,1,8,0:0:0:0:
256,192,221624,1,0,0:0:0:0:
256,192,221764,1,8,0:0:0:0:
256,192,221903,1,0,0:0:0:0:
256,192,222043,1,0,0:0:0:0:
256,192,222182,1,0,0:0:0:0:
256,192,222322,1,8,0:0:0:0:
256,192,222461,1,8,0:0:0:0:
256,192,222601,1,0,0:0:0:0:
256,192,222880,1,8,0:0:0:0:
256,192,223020,1,0,0:0:0:0:
256,192,223299,1,0,0:0:0:0:
256,192,223438,1,8,0:0:0:0:
256,192,223578,1,8,0:0:0:0:
256,192,223717,1,0,0:0:0:0:
256,192,223996,1,8,0:0:0:0:
256,192,224136,1,0,0:0:0:0:
256,192,224275,1,8,0:0:0:0:
256,192,224415,1,0,0:0:0:0:
256,192,224555,1,8,0:0:0:0:
256,192,224694,1,8,0:0:0:0:
256,192,224834,5,4,0:0:0:0:
260,192,225950,1,12,0:0:0:0:
260,192,227066,1,4,0:0:0:0:
260,192,227345,1,8,0:0:0:0:
260,192,227485,1,0,0:0:0:0:
260,192,227764,1,0,0:0:0:0:
260,192,227903,1,8,0:0:0:0:
260,192,228182,1,8,0:0:0:0:
260,192,228322,1,8,0:0:0:0:
260,192,228601,1,0,0:0:0:0:
260,192,228741,1,8,0:0:0:0:
260,192,229020,1,8,0:0:0:0:
260,192,229299,1,0,0:0:0:0:
260,192,229578,1,8,0:0:0:0:
260,192,229717,1,0,0:0:0:0:
260,192,229996,1,0,0:0:0:0:
260,192,230136,1,8,0:0:0:0:
260,192,230415,1,8,0:0:0:0:
260,192,230555,1,0,0:0:0:0:
260,192,230834,1,0,0:0:0:0:
260,192,230973,1,8,0:0:0:0:
260,192,231531,1,4,0:0:0:0:
260,192,231810,1,8,0:0:0:0:
260,192,231950,1,0,0:0:0:0:
260,192,232229,1,0,0:0:0:0:
260,192,232368,1,8,0:0:0:0:
260,192,232648,1,8,0:0:0:0:
260,192,232787,1,8,0:0:0:0:
260,192,233066,1,0,0:0:0:0:
260,192,233206,1,8,0:0:0:0:
260,192,233485,1,8,0:0:0:0:
260,192,233764,1,0,0:0:0:0:
260,192,234043,1,8,0:0:0:0:
260,192,234182,1,0,0:0:0:0:
260,192,234461,1,0,0:0:0:0:
260,192,234601,1,8,0:0:0:0:
260,192,234880,1,8,0:0:0:0:
260,192,235020,1,0,0:0:0:0:
260,192,235299,1,0,0:0:0:0:
260,192,235438,1,8,0:0:0:0:
260,192,235996,1,4,0:0:0:0:
260,192,236275,1,8,0:0:0:0:
260,192,236415,1,0,0:0:0:0:
260,192,236694,1,0,0:0:0:0:
260,192,236834,1,8,0:0:0:0:
260,192,237113,1,0,0:0:0:0:
260,192,237252,1,8,0:0:0:0:
260,192,237531,1,0,0:0:0:0:
260,192,237671,1,8,0:0:0:0:
260,192,237950,1,8,0:0:0:0:
260,192,238229,5,8,0:0:0:0:
260,192,238368,1,0,0:0:0:0:
260,192,238508,1,0,0:0:0:0:
260,192,238648,1,8,0:0:0:0:
260,192,238787,1,0,0:0:0:0:
260,192,238927,1,8,0:0:0:0:
260,192,239066,1,0,0:0:0:0:
260,192,239345,5,4,0:0:0:0:
260,192,240182,1,0,0:0:0:0:
260,192,240461,1,0,0:0:0:0:
260,192,240601,1,8,0:0:0:0:
260,192,240741,1,8,0:0:0:0:
260,192,240880,1,0,0:0:0:0:
260,192,241020,1,8,0:0:0:0:
260,192,241159,1,0,0:0:0:0:
260,192,241299,1,8,0:0:0:0:
260,192,241438,1,0,0:0:0:0:
260,192,241578,1,8,0:0:0:0:
260,192,241857,1,0,0:0:0:0:
260,192,241996,1,0,0:0:0:0:
260,192,242136,1,8,0:0:0:0:
260,192,242275,1,0,0:0:0:0:
260,192,242415,1,12,0:0:0:0:
260,192,242694,1,4,0:0:0:0:
260,192,242834,1,4,0:0:0:0:
