osu file format v14

[General]
AudioFilename: UNDEAD CORPORATION - Embraced by the Flame (English ver.).mp3
AudioLeadIn: 0
PreviewTime: 122591
Countdown: 0
SampleSet: None
StackLeniency: 0.7
Mode: 0
LetterboxInBreaks: 1
WidescreenStoryboard: 1

[Editor]
DistanceSpacing: 1.2
BeatDivisor: 4
GridSize: 4
TimelineZoom: 3.699999

[Metadata]
Title:Embraced by the Flame (English ver.)
TitleUnicode:Embraced by the Flame (English ver.)
Artist:UNDEAD CORPORATION
ArtistUnicode:UNDEAD CORPORATION
Creator:luGha
Version:Flame
Source:
Tags:UNDEAD CORPORATION
BeatmapID:1612487
BeatmapSetID:767119

[Difficulty]
HPDrainRate:5
CircleSize:4
OverallDifficulty:9
ApproachRate:9.8
SliderMultiplier:1.8
SliderTickRate:1

[Events]
//Background and Video events
0,0,"bg.jpg",0,0
//Break Periods
2,79605,84577
//Storyboard Layer 0 (Background)
//Storyboard Layer 1 (Fail)
//Storyboard Layer 2 (Pass)
//Storyboard Layer 3 (Foreground)
//Storyboard Sound Samples

[TimingPoints]
1266,279.06976744186,4,3,0,90,1,0
1266,-133.333333333333,4,3,0,90,0,0
8103,-100,4,3,0,90,0,0
9079,-133.333333333333,4,3,0,90,0,0
10196,-133.333333333333,4,3,0,90,0,1
28056,-133.333333333333,4,3,0,90,0,0
62312,-133.333333333333,4,3,0,90,0,1
78638,-100,4,3,0,90,0,1
78707,-133.333333333333,4,3,0,90,0,1
79405,-133.333333333333,4,3,0,90,0,0
93079,-100,4,3,0,90,0,0
122661,-100,4,3,0,90,0,1
139405,-100,4,3,0,90,0,0
194382,-100,4,3,0,90,0,1
225638,-100,4,3,0,90,0,0

[Colours]
Combo1 : 255,0,0
Combo2 : 255,234,185
Combo3 : 238,49,28
Combo4 : 248,178,55
Combo5 : 241,113,45
Combo6 : 255,0,64

[HitObjects]
136,88,1266,5,0,0:0:0:0:
400,276,2940,1,0,0:0:0:0:
232,128,3219,1,0,0:0:0:0:
152,300,3498,1,0,0:0:0:0:
108,100,4754,5,0,0:0:0:0:
160,248,5172,2,0,L|308:200,1,135.000005149842
384,104,5731,6,0,P|308:96|288:104,1,67.5000025749208
280,216,6149,2,0,P|292:160|320:152,1,67.5000025749208
124,212,6568,2,0,P|132:152|120:124,1,67.5000025749208
248,232,6986,2,0,P|304:176|368:184,1,135.000005149842
424,320,7405,1,0,0:0:0:0:
204,288,7684,1,0,0:0:0:0:
224,120,7963,1,0,0:0:0:0:
420,104,8103,6,0,L|288:80,1,90
304,88,8382,2,0,P|285:159|288:188,1,90
292,171,8661,2,0,P|290:228|256:252,1,90
267,247,8940,2,0,P|219:269|187:239,1,90
104,156,9219,1,0,0:0:0:0:
240,72,9359,1,0,0:0:0:0:
216,220,9498,1,0,0:0:0:0:
376,116,9638,2,0,P|308:144|284:200,1,135.000005149842
224,48,10196,5,0,0:0:0:0:
192,74,10265,1,0,0:0:0:0:
181,112,10335,1,0,0:0:0:0:
192,152,10405,1,0,0:0:0:0:
221,180,10475,1,0,0:0:0:0:
261,184,10544,1,0,0:0:0:0:
298,168,10614,1,0,0:0:0:0:
329,190,10684,1,0,0:0:0:0:
331,231,10754,1,0,0:0:0:0:
309,265,10823,1,0,0:0:0:0:
275,288,10893,1,0,0:0:0:0:
235,297,10963,5,0,0:0:0:0:
194,295,11033,1,0,0:0:0:0:
155,283,11102,1,0,0:0:0:0:
121,260,11172,1,0,0:0:0:0:
95,228,11242,1,0,0:0:0:0:
79,191,11312,1,0,0:0:0:0:
124,84,11452,6,0,P|184:84|204:92,1,67.5000025749208
144,260,11731,2,0,P|180:232|212:232,1,67.5000025749208
392,264,12010,2,0,P|352:256|308:284,1,67.5000025749208
224,268,12359,1,0,0:0:0:0:
189,245,12428,1,0,0:0:0:0:
185,204,12498,1,0,0:0:0:0:
205,166,12568,1,0,0:0:0:0:
232,133,12638,1,0,0:0:0:0:
254,96,12707,1,0,0:0:0:0:
229,68,12777,1,0,0:0:0:0:
187,72,12847,1,0,0:0:0:0:
148,91,12917,1,0,0:0:0:0:
119,122,12986,1,0,0:0:0:0:
105,162,13056,1,0,0:0:0:0:
112,204,13126,1,0,0:0:0:0:
139,236,13196,5,0,0:0:0:0:
179,251,13265,1,0,0:0:0:0:
221,252,13335,1,0,0:0:0:0:
263,241,13405,1,0,0:0:0:0:
300,221,13475,1,0,0:0:0:0:
331,191,13545,1,0,0:0:0:0:
353,155,13614,1,0,0:0:0:0:
376,64,13684,6,0,L|280:72,1,67.5000025749208
188,212,13963,2,0,P|220:160|244:144,1,67.5000025749208
376,272,14242,2,0,P|328:224|308:216,1,67.5000025749208
243,160,14660,1,0,0:0:0:0:
246,120,14730,1,0,0:0:0:0:
207,109,14800,1,0,0:0:0:0:
171,131,14869,1,0,0:0:0:0:
175,171,14939,1,0,0:0:0:0:
208,197,15009,1,0,0:0:0:0:
249,209,15079,1,0,0:0:0:0:
292,206,15148,5,0,0:0:0:0:
331,190,15218,1,0,0:0:0:0:
360,159,15288,1,0,0:0:0:0:
373,118,15358,1,0,0:0:0:0:
367,76,15427,1,0,0:0:0:0:
342,42,15497,1,0,0:0:0:0:
300,40,15568,1,0,0:0:0:0:
260,55,15637,1,0,0:0:0:0:
229,85,15707,1,0,0:0:0:0:
204,120,15777,1,0,0:0:0:0:
144,192,15917,6,0,P|104:216|92:260,1,67.5000025749208
204,304,16196,1,0,0:0:0:0:
280,208,16335,1,0,0:0:0:0:
348,312,16475,2,0,P|392:280|396:248,1,67.5000025749208
372,76,16754,5,0,0:0:0:0:
332,88,16824,1,0,0:0:0:0:
294,105,16893,1,0,0:0:0:0:
258,128,16963,1,0,0:0:0:0:
231,161,17033,1,0,0:0:0:0:
221,202,17103,1,0,0:0:0:0:
240,239,17172,1,0,0:0:0:0:
277,260,17242,1,0,0:0:0:0:
319,267,17312,1,0,0:0:0:0:
362,265,17382,1,0,0:0:0:0:
404,256,17452,1,0,0:0:0:0:
416,217,17521,1,0,0:0:0:0:
393,182,17591,1,0,0:0:0:0:
357,159,17661,5,0,0:0:0:0:
316,146,17731,1,0,0:0:0:0:
274,141,17800,1,0,0:0:0:0:
231,143,17870,1,0,0:0:0:0:
189,152,17940,1,0,0:0:0:0:
152,172,18010,1,0,0:0:0:0:
124,204,18079,6,0,L|148:264,12,33.7500012874604
176,276,19126,6,0,L|196:208,1,67.5000025749208
392,260,19405,1,0,0:0:0:0:
128,128,19545,1,0,0:0:0:0:
348,72,19684,1,0,0:0:0:0:
288,256,19824,1,0,0:0:0:0:
136,232,19963,6,0,P|128:184|144:168,1,67.5000025749208
304,212,20242,2,0,P|344:188|376:192,1,67.5000025749208
424,320,20521,1,0,0:0:0:0:
204,196,20661,1,0,0:0:0:0:
100,320,20800,1,0,0:0:0:0:
312,136,20940,1,0,0:0:0:0:
108,120,21079,1,0,0:0:0:0:
200,324,21219,1,0,0:0:0:0:
400,140,21359,1,0,0:0:0:0:
312,56,21498,6,0,P|256:64|240:80,1,67.5000025749208
180,192,21777,2,0,P|220:156|256:156,1,67.5000025749208
184,308,22056,2,0,P|224:280|256:264,1,67.5000025749208
288,76,22335,1,0,0:0:0:0:
376,296,22475,1,0,0:0:0:0:
160,160,22614,1,0,0:0:0:0:
348,192,22754,6,0,P|396:132|404:116,2,67.5000025749208
220,84,23172,1,0,0:0:0:0:
164,280,23312,1,0,0:0:0:0:
180,272,23382,1,0,0:0:0:0:
196,264,23452,1,0,0:0:0:0:
208,256,23521,6,0,L|172:144,1,101.250003862381
344,72,23870,1,0,0:0:0:0:
360,300,24010,1,0,0:0:0:0:
176,104,24149,1,0,0:0:0:0:
128,272,24289,6,0,P|104:216|108:200,1,67.5000025749208
124,60,24568,2,0,P|168:48|200:60,1,67.5000025749208
412,104,24847,2,0,P|360:88|332:88,1,67.5000025749208
184,288,25126,1,0,0:0:0:0:
92,112,25265,1,0,0:0:0:0:
300,64,25405,6,0,P|240:84|224:104,1,67.5000025749208
348,272,25684,1,0,0:0:0:0:
188,164,25824,1,0,0:0:0:0:
120,56,25963,1,0,0:0:0:0:
104,300,26103,1,0,0:0:0:0:
232,68,26242,1,0,0:0:0:0:
232,312,26382,1,0,0:0:0:0:
360,76,26521,1,0,0:0:0:0:
360,320,26661,1,0,0:0:0:0:
464,116,26800,2,0,P|416:120|372:96,1,67.5000025749208
252,44,27079,5,0,0:0:0:0:
240,80,27148,1,0,0:0:0:0:
239,119,27218,1,0,0:0:0:0:
251,156,27288,1,0,0:0:0:0:
276,185,27358,1,0,0:0:0:0:
306,209,27427,1,0,0:0:0:0:
341,227,27497,1,0,0:0:0:0:
380,236,27568,1,0,0:0:0:0:
417,236,27637,5,0,0:0:0:0:
449,257,27707,1,0,0:0:0:0:
465,291,27777,1,0,0:0:0:0:
432,312,27847,2,0,P|396:324|308:320,1,101.250003862381
276,328,28126,1,0,0:0:0:0:
236,320,28196,1,0,0:0:0:0:
196,312,28265,1,0,0:0:0:0:
160,292,28335,1,0,0:0:0:0:
140,256,28405,1,0,0:0:0:0:
132,216,28475,1,0,0:0:0:0:
144,177,28544,1,0,0:0:0:0:
171,148,28614,1,0,0:0:0:0:
208,132,28684,1,0,0:0:0:0:
248,131,28754,5,0,0:0:0:0:
282,152,28823,1,0,0:0:0:0:
290,191,28893,1,0,0:0:0:0:
271,226,28963,1,0,0:0:0:0:
237,248,29033,1,0,0:0:0:0:
198,258,29102,1,0,0:0:0:0:
158,257,29172,1,0,0:0:0:0:
121,242,29242,1,0,0:0:0:0:
92,214,29312,5,0,0:0:0:0:
81,175,29381,5,0,0:0:0:0:
88,136,29452,1,0,0:0:0:0:
112,104,29521,1,0,0:0:0:0:
148,86,29591,1,0,0:0:0:0:
187,75,29661,1,0,0:0:0:0:
227,68,29731,1,0,0:0:0:0:
267,64,29800,1,0,0:0:0:0:
308,62,29870,1,0,0:0:0:0:
348,62,29940,1,0,0:0:0:0:
388,72,30010,6,0,L|424:76,4,33.7500012874604
412,104,30359,1,0,0:0:0:0:
423,142,30428,1,0,0:0:0:0:
421,182,30498,1,0,0:0:0:0:
405,219,30568,1,0,0:0:0:0:
378,249,30638,1,0,0:0:0:0:
342,267,30707,1,0,0:0:0:0:
302,272,30777,1,0,0:0:0:0:
263,264,30847,1,0,0:0:0:0:
224,256,30917,1,0,0:0:0:0:
184,244,30986,1,0,0:0:0:0:
152,220,31056,1,0,0:0:0:0:
128,192,31126,1,0,0:0:0:0:
116,156,31196,5,0,0:0:0:0:
120,116,31265,1,0,0:0:0:0:
140,80,31335,1,0,0:0:0:0:
172,52,31405,5,0,0:0:0:0:
224,52,31475,1,0,0:0:0:0:
272,68,31545,1,0,0:0:0:0:
304,108,31614,1,0,0:0:0:0:
312,160,31684,1,0,0:0:0:0:
312,212,31754,1,0,0:0:0:0:
280,252,31824,1,0,0:0:0:0:
240,280,31893,1,0,0:0:0:0:
188,272,31963,1,0,0:0:0:0:
148,244,32033,1,0,0:0:0:0:
128,192,32103,1,0,0:0:0:0:
144,144,32172,1,0,0:0:0:0:
188,120,32242,1,0,0:0:0:0:
240,120,32312,1,0,0:0:0:0:
292,124,32382,1,0,0:0:0:0:
340,140,32452,1,0,0:0:0:0:
384,164,32521,1,0,0:0:0:0:
376,296,32661,6,0,P|312:280|308:264,1,67.5000025749208
160,264,32940,1,0,0:0:0:0:
256,144,33079,1,0,0:0:0:0:
112,124,33219,2,0,P|116:68|148:56,1,67.5000025749208
232,60,33498,1,0,0:0:0:0:
352,140,33638,1,0,0:0:0:0:
216,240,33777,1,0,0:0:0:0:
360,308,33917,2,0,P|416:284|416:260,1,67.5000025749208
368,72,34196,5,0,0:0:0:0:
288,224,34335,1,0,0:0:0:0:
80,220,34475,2,0,P|104:156|112:144,1,67.5000025749208
216,72,34754,5,0,0:0:0:0:
256,76,34824,1,0,0:0:0:0:
292,92,34893,1,0,0:0:0:0:
324,120,34963,1,0,0:0:0:0:
340,156,35033,1,0,0:0:0:0:
328,196,35103,1,0,0:0:0:0:
288,224,35172,1,0,0:0:0:0:
248,228,35242,1,0,0:0:0:0:
212,212,35312,1,0,0:0:0:0:
180,188,35382,1,0,0:0:0:0:
152,160,35452,1,0,0:0:0:0:
112,152,35521,1,0,0:0:0:0:
76,172,35591,1,0,0:0:0:0:
56,208,35661,1,0,0:0:0:0:
56,248,35731,1,0,0:0:0:0:
108,312,35870,6,0,L|104:240,1,67.5000025749208
200,312,36149,2,0,L|196:240,1,67.5000025749208
292,308,36428,2,0,L|288:236,1,67.5000025749208
384,300,36707,2,0,L|380:228,1,67.5000025749208
392,84,36986,1,0,0:0:0:0:
348,92,37056,1,0,0:0:0:0:
304,96,37126,1,0,0:0:0:0:
264,80,37196,1,0,0:0:0:0:
224,60,37265,1,0,0:0:0:0:
176,40,37335,1,0,0:0:0:0:
132,32,37405,1,0,0:0:0:0:
92,48,37475,1,0,0:0:0:0:
68,84,37545,1,0,0:0:0:0:
52,124,37614,1,0,0:0:0:0:
48,168,37684,5,0,0:0:0:0:
64,208,37754,1,0,0:0:0:0:
100,236,37824,1,0,0:0:0:0:
140,252,37893,1,0,0:0:0:0:
184,252,37963,1,0,0:0:0:0:
224,236,38033,1,0,0:0:0:0:
248,200,38103,1,0,0:0:0:0:
268,164,38172,1,0,0:0:0:0:
288,124,38242,1,0,0:0:0:0:
320,92,38312,1,0,0:0:0:0:
364,92,38382,1,0,0:0:0:0:
404,108,38452,1,0,0:0:0:0:
432,136,38521,1,0,0:0:0:0:
448,172,38591,5,0,0:0:0:0:
452,212,38661,1,0,0:0:0:0:
424,244,38731,1,0,0:0:0:0:
388,264,38800,1,0,0:0:0:0:
348,276,38870,1,0,0:0:0:0:
308,272,38940,1,0,0:0:0:0:
276,244,39010,1,0,0:0:0:0:
248,200,39079,1,0,0:0:0:0:
236,160,39149,1,0,0:0:0:0:
208,132,39219,1,0,0:0:0:0:
168,128,39289,1,0,0:0:0:0:
132,148,39359,1,0,0:0:0:0:
128,188,39428,1,0,0:0:0:0:
124,228,39498,5,0,0:0:0:0:
100,260,39568,1,0,0:0:0:0:
60,248,39638,1,0,0:0:0:0:
44,208,39707,1,0,0:0:0:0:
48,168,39777,1,0,0:0:0:0:
64,128,39847,1,0,0:0:0:0:
92,96,39917,1,0,0:0:0:0:
128,72,39986,1,0,0:0:0:0:
168,56,40056,1,0,0:0:0:0:
212,56,40126,1,0,0:0:0:0:
256,68,40196,1,0,0:0:0:0:
296,88,40265,1,0,0:0:0:0:
328,116,40335,1,0,0:0:0:0:
356,144,40405,5,0,0:0:0:0:
384,176,40475,1,0,0:0:0:0:
400,212,40545,1,0,0:0:0:0:
396,232,40614,1,0,0:0:0:0:
388,252,40684,1,0,0:0:0:0:
376,268,40754,1,0,0:0:0:0:
364,284,40824,1,0,0:0:0:0:
324,300,40893,1,0,0:0:0:0:
280,300,40963,1,0,0:0:0:0:
240,284,41033,1,0,0:0:0:0:
204,260,41103,1,0,0:0:0:0:
180,224,41172,1,0,0:0:0:0:
168,180,41242,1,0,0:0:0:0:
164,136,41312,1,0,0:0:0:0:
148,96,41382,1,0,0:0:0:0:
128,56,41452,1,0,0:0:0:0:
308,80,41870,5,0,0:0:0:0:
344,300,42289,1,0,0:0:0:0:
132,88,42568,1,0,0:0:0:0:
124,112,42638,1,0,0:0:0:0:
116,136,42707,1,0,0:0:0:0:
116,164,42777,1,0,0:0:0:0:
124,192,42847,1,0,0:0:0:0:
140,216,42917,1,0,0:0:0:0:
160,232,42986,1,0,0:0:0:0:
180,248,43056,1,0,0:0:0:0:
204,264,43126,1,0,0:0:0:0:
232,272,43196,1,0,0:0:0:0:
260,276,43265,1,0,0:0:0:0:
288,276,43335,5,0,0:0:0:0:
316,276,43405,1,0,0:0:0:0:
344,272,43475,1,0,0:0:0:0:
368,264,43545,1,0,0:0:0:0:
388,248,43614,1,0,0:0:0:0:
404,228,43684,1,0,0:0:0:0:
352,112,43824,5,0,0:0:0:0:
204,208,43963,1,0,0:0:0:0:
188,84,44103,2,0,L|124:124,1,67.5000025749208
116,300,44382,1,0,0:0:0:0:
276,152,44521,1,0,0:0:0:0:
256,308,44661,1,0,0:0:0:0:
384,276,44800,2,0,P|452:236|464:228,1,67.5000025749208
416,92,45079,6,0,P|364:80|344:84,1,67.5000025749208
244,136,45359,1,0,0:0:0:0:
136,84,45498,2,0,P|80:132|76:148,1,67.5000025749208
84,244,45777,2,0,P|136:260|176:244,1,67.5000025749208
260,220,46056,1,0,0:0:0:0:
112,76,46196,1,0,0:0:0:0:
236,80,46335,2,0,P|296:72|328:88,1,67.5000025749208
364,160,46614,1,0,0:0:0:0:
280,300,46754,5,0,0:0:0:0:
168,284,46893,2,0,P|120:236|120:208,1,67.5000025749208
160,48,47312,6,0,L|236:64,1,67.5000025749208
148,156,47731,2,0,L|240:168,1,67.5000025749208
404,72,48149,5,0,0:0:0:0:
364,104,48219,1,0,0:0:0:0:
332,144,48289,1,0,0:0:0:0:
304,184,48359,1,0,0:0:0:0:
272,224,48428,1,0,0:0:0:0:
224,244,48498,1,0,0:0:0:0:
172,244,48568,1,0,0:0:0:0:
132,216,48638,1,0,0:0:0:0:
116,168,48707,1,0,0:0:0:0:
140,124,48777,1,0,0:0:0:0:
180,92,48847,1,0,0:0:0:0:
232,88,48917,1,0,0:0:0:0:
276,112,48986,1,0,0:0:0:0:
308,152,49056,5,0,0:0:0:0:
308,204,49126,1,0,0:0:0:0:
284,248,49196,1,0,0:0:0:0:
236,256,49265,1,0,0:0:0:0:
192,232,49335,1,0,0:0:0:0:
168,188,49405,1,0,0:0:0:0:
160,136,49475,1,0,0:0:0:0:
148,88,49545,1,0,0:0:0:0:
120,48,49614,1,0,0:0:0:0:
72,60,49684,1,0,0:0:0:0:
60,108,49754,1,0,0:0:0:0:
56,160,49824,1,0,0:0:0:0:
64,212,49893,1,0,0:0:0:0:
96,256,49963,5,0,0:0:0:0:
140,288,50033,1,0,0:0:0:0:
192,296,50103,1,0,0:0:0:0:
244,292,50172,1,0,0:0:0:0:
292,268,50242,1,0,0:0:0:0:
336,240,50312,1,0,0:0:0:0:
368,196,50382,2,0,L|392:168,4,33.7500012874604
212,156,50800,2,0,L|248:124,5,33.7500012874604
112,304,51498,5,0,0:0:0:0:
360,300,52056,5,0,0:0:0:0:
248,100,52196,1,0,0:0:0:0:
200,316,52335,1,0,0:0:0:0:
108,92,52475,1,0,0:0:0:0:
68,296,52614,1,0,0:0:0:0:
376,108,53731,5,0,0:0:0:0:
168,256,54847,5,0,0:0:0:0:
152,72,55963,5,0,0:0:0:0:
284,260,57079,5,0,0:0:0:0:
368,88,58196,5,0,0:0:0:0:
192,288,59312,5,0,0:0:0:0:
160,76,60428,5,0,0:0:0:0:
296,264,61545,5,0,0:0:0:0:
256,88,62312,6,0,L|128:188,1,135.000005149842
148,288,62731,1,0,0:0:0:0:
200,268,62800,1,0,0:0:0:0:
252,244,62870,1,0,0:0:0:0:
288,200,62940,1,0,0:0:0:0:
276,144,63010,1,0,0:0:0:0:
252,92,63079,1,0,0:0:0:0:
208,56,63149,1,0,0:0:0:0:
156,76,63219,1,0,0:0:0:0:
116,120,63289,1,0,0:0:0:0:
128,176,63359,1,0,0:0:0:0:
180,200,63428,1,0,0:0:0:0:
232,224,63498,1,0,0:0:0:0:
288,220,63568,5,0,0:0:0:0:
344,208,63638,1,0,0:0:0:0:
396,184,63707,1,0,0:0:0:0:
452,176,63777,1,0,0:0:0:0:
484,200,63847,1,0,0:0:0:0:
476,256,63917,1,0,0:0:0:0:
432,292,63986,1,0,0:0:0:0:
376,300,64056,1,0,0:0:0:0:
320,300,64126,1,0,0:0:0:0:
264,300,64196,1,0,0:0:0:0:
208,288,64265,1,0,0:0:0:0:
156,260,64335,1,0,0:0:0:0:
128,212,64405,1,0,0:0:0:0:
120,156,64475,5,0,0:0:0:0:
132,100,64545,1,0,0:0:0:0:
180,68,64614,1,0,0:0:0:0:
236,76,64684,1,0,0:0:0:0:
288,104,64754,1,0,0:0:0:0:
340,128,64824,1,0,0:0:0:0:
360,180,64893,1,0,0:0:0:0:
316,220,64963,1,0,0:0:0:0:
260,216,65033,1,0,0:0:0:0:
208,192,65103,1,0,0:0:0:0:
200,136,65172,1,0,0:0:0:0:
240,92,65242,1,0,0:0:0:0:
296,80,65312,1,0,0:0:0:0:
352,96,65382,5,0,0:0:0:0:
396,136,65452,1,0,0:0:0:0:
424,184,65521,1,0,0:0:0:0:
420,240,65591,1,0,0:0:0:0:
384,284,65661,1,0,0:0:0:0:
328,304,65731,1,0,0:0:0:0:
272,300,65800,1,0,0:0:0:0:
216,280,65870,1,0,0:0:0:0:
164,252,65940,1,0,0:0:0:0:
120,216,66010,1,0,0:0:0:0:
104,164,66079,1,0,0:0:0:0:
128,112,66149,1,0,0:0:0:0:
180,88,66219,1,0,0:0:0:0:
236,76,66289,5,0,0:0:0:0:
292,72,66359,1,0,0:0:0:0:
328,116,66428,1,0,0:0:0:0:
336,172,66498,1,0,0:0:0:0:
392,184,66568,1,0,0:0:0:0:
444,156,66638,1,0,0:0:0:0:
464,104,66707,1,0,0:0:0:0:
444,56,66777,1,0,0:0:0:0:
388,48,66847,1,0,0:0:0:0:
332,64,66917,1,0,0:0:0:0:
288,100,66986,1,0,0:0:0:0:
248,140,67056,1,0,0:0:0:0:
212,184,67126,2,0,L|188:220,4,33.7500012874604
284,224,67475,2,0,L|260:260,4,33.7500012874604
256,268,67824,5,0,0:0:0:0:
228,308,67893,1,0,0:0:0:0:
176,312,67963,1,0,0:0:0:0:
128,300,68033,1,0,0:0:0:0:
96,260,68103,1,0,0:0:0:0:
92,212,68172,1,0,0:0:0:0:
100,164,68242,1,0,0:0:0:0:
132,124,68312,1,0,0:0:0:0:
180,108,68382,1,0,0:0:0:0:
220,76,68452,1,0,0:0:0:0:
244,32,68521,1,0,0:0:0:0:
216,0,68591,1,0,0:0:0:0:
164,4,68661,1,0,0:0:0:0:
116,24,68731,5,0,0:0:0:0:
84,60,68800,1,0,0:0:0:0:
88,112,68870,1,0,0:0:0:0:
124,148,68940,1,0,0:0:0:0:
160,184,69010,1,0,0:0:0:0:
204,212,69079,1,0,0:0:0:0:
256,244,69149,1,0,0:0:0:0:
308,252,69219,1,0,0:0:0:0:
360,252,69289,1,0,0:0:0:0:
412,248,69359,1,0,0:0:0:0:
448,284,69428,1,0,0:0:0:0:
412,320,69498,1,0,0:0:0:0:
364,332,69568,1,0,0:0:0:0:
312,336,69638,5,0,0:0:0:0:
264,332,69707,1,0,0:0:0:0:
216,316,69777,1,0,0:0:0:0:
172,292,69847,1,0,0:0:0:0:
136,256,69917,1,0,0:0:0:0:
120,208,69986,1,0,0:0:0:0:
132,160,70056,1,0,0:0:0:0:
172,128,70126,1,0,0:0:0:0:
220,108,70196,1,0,0:0:0:0:
268,124,70265,1,0,0:0:0:0:
304,160,70335,1,0,0:0:0:0:
308,212,70405,1,0,0:0:0:0:
280,256,70475,1,0,0:0:0:0:
236,280,70545,5,0,0:0:0:0:
188,276,70614,1,0,0:0:0:0:
144,248,70684,1,0,0:0:0:0:
96,236,70754,1,0,0:0:0:0:
60,272,70824,1,0,0:0:0:0:
44,320,70893,1,0,0:0:0:0:
92,348,70963,1,0,0:0:0:0:
140,356,71033,1,0,0:0:0:0:
192,356,71103,1,0,0:0:0:0:
244,352,71172,1,0,0:0:0:0:
288,332,71242,1,0,0:0:0:0:
324,296,71312,1,0,0:0:0:0:
360,260,71382,1,0,0:0:0:0:
372,212,71452,5,0,0:0:0:0:
340,176,71521,1,0,0:0:0:0:
296,148,71591,1,0,0:0:0:0:
248,132,71661,1,0,0:0:0:0:
196,132,71731,1,0,0:0:0:0:
152,160,71800,1,0,0:0:0:0:
132,208,71870,1,0,0:0:0:0:
144,256,71940,1,0,0:0:0:0:
180,292,72010,1,0,0:0:0:0:
228,304,72079,1,0,0:0:0:0:
276,284,72149,2,0,L|324:264,1,33.7500012874604
268,236,72289,2,0,L|320:208,1,33.7500012874604
260,184,72428,2,0,L|304:168,1,33.7500012874604
248,132,72568,6,0,L|296:120,1,33.7500012874604
332,132,72707,1,0,0:0:0:0:
376,160,72777,1,0,0:0:0:0:
412,196,72847,1,0,0:0:0:0:
424,248,72917,1,0,0:0:0:0:
400,292,72986,1,0,0:0:0:0:
356,324,73056,1,0,0:0:0:0:
304,340,73126,1,0,0:0:0:0:
252,340,73196,1,0,0:0:0:0:
204,324,73265,1,0,0:0:0:0:
168,288,73335,1,0,0:0:0:0:
140,244,73405,1,0,0:0:0:0:
116,196,73475,1,0,0:0:0:0:
128,144,73545,5,0,0:0:0:0:
168,112,73614,1,0,0:0:0:0:
220,104,73684,1,0,0:0:0:0:
272,112,73754,1,0,0:0:0:0:
320,136,73824,1,0,0:0:0:0:
364,164,73893,1,0,0:0:0:0:
388,212,73963,1,0,0:0:0:0:
376,264,74033,1,0,0:0:0:0:
356,312,74103,1,0,0:0:0:0:
320,352,74172,1,0,0:0:0:0:
268,360,74242,1,0,0:0:0:0:
216,356,74312,1,0,0:0:0:0:
168,332,74382,1,0,0:0:0:0:
140,288,74452,5,0,0:0:0:0:
128,236,74521,1,0,0:0:0:0:
148,188,74591,1,0,0:0:0:0:
188,152,74661,1,0,0:0:0:0:
240,144,74731,1,0,0:0:0:0:
292,140,74800,1,0,0:0:0:0:
344,144,74870,1,0,0:0:0:0:
380,108,74940,1,0,0:0:0:0:
392,56,75010,1,0,0:0:0:0:
352,24,75079,1,0,0:0:0:0:
300,24,75149,1,0,0:0:0:0:
252,48,75219,1,0,0:0:0:0:
224,92,75289,1,0,0:0:0:0:
228,144,75359,5,0,0:0:0:0:
260,184,75428,1,0,0:0:0:0:
300,216,75498,1,0,0:0:0:0:
332,256,75568,1,0,0:0:0:0:
312,304,75638,1,0,0:0:0:0:
264,320,75707,1,0,0:0:0:0:
216,300,75777,1,0,0:0:0:0:
184,260,75847,1,0,0:0:0:0:
188,208,75917,1,0,0:0:0:0:
212,164,75986,1,0,0:0:0:0:
256,136,76056,1,0,0:0:0:0:
296,100,76126,1,0,0:0:0:0:
316,52,76196,1,0,0:0:0:0:
272,24,76265,5,0,0:0:0:0:
220,32,76335,1,0,0:0:0:0:
184,72,76405,1,0,0:0:0:0:
148,112,76475,1,0,0:0:0:0:
124,160,76545,1,0,0:0:0:0:
124,212,76614,1,0,0:0:0:0:
156,252,76684,1,0,0:0:0:0:
240,208,76754,2,0,P|304:200|304:200,1,33.7500012874604
324,196,76893,1,0,0:0:0:0:
368,164,76963,1,0,0:0:0:0:
416,144,77033,1,0,0:0:0:0:
468,156,77103,1,0,0:0:0:0:
492,200,77172,1,0,0:0:0:0:
488,256,77242,5,0,0:0:0:0:
476,308,77312,1,0,0:0:0:0:
432,340,77382,1,0,0:0:0:0:
380,352,77452,1,0,0:0:0:0:
328,344,77521,1,0,0:0:0:0:
280,328,77591,1,0,0:0:0:0:
232,304,77661,1,0,0:0:0:0:
192,268,77731,1,0,0:0:0:0:
168,220,77800,1,0,0:0:0:0:
176,168,77870,1,0,0:0:0:0:
204,124,77940,2,0,L|240:80,5,33.7500012874604
320,148,78428,5,0,0:0:0:0:
320,148,78498,1,0,0:0:0:0:
320,148,78568,1,0,0:0:0:0:
320,148,78638,2,0,L|288:192,1,45
248,256,78777,1,0,0:0:0:0:
248,256,78847,1,0,0:0:0:0:
248,256,78917,1,0,0:0:0:0:
176,112,79405,1,0,0:0:0:0:
256,192,85056,12,0,88056,0:0:0:0:
128,80,88335,5,0,0:0:0:0:
172,96,88405,1,0,0:0:0:0:
212,112,88475,1,0,0:0:0:0:
248,140,88545,1,0,0:0:0:0:
264,180,88614,1,0,0:0:0:0:
268,224,88684,1,0,0:0:0:0:
248,272,88754,1,0,0:0:0:0:
212,296,88824,1,0,0:0:0:0:
168,288,88893,1,0,0:0:0:0:
132,264,88963,1,0,0:0:0:0:
104,228,89033,1,0,0:0:0:0:
72,176,89103,1,0,0:0:0:0:
68,132,89172,1,0,0:0:0:0:
92,96,89242,5,0,0:0:0:0:
132,76,89312,1,0,0:0:0:0:
148,32,89382,1,0,0:0:0:0:
112,4,89452,1,0,0:0:0:0:
68,12,89521,1,0,0:0:0:0:
32,40,89591,1,0,0:0:0:0:
24,84,89661,1,0,0:0:0:0:
20,128,89731,1,0,0:0:0:0:
24,172,89800,1,0,0:0:0:0:
60,200,89870,1,0,0:0:0:0:
104,200,89940,2,0,L|144:184,1,33.7500012874604
184,180,90079,2,0,L|236:188,1,33.7500012874604
276,192,90219,1,0,0:0:0:0:
320,200,90289,5,0,0:0:0:0:
364,188,90359,1,0,0:0:0:0:
404,168,90428,1,0,0:0:0:0:
424,128,90498,1,0,0:0:0:0:
460,100,90568,1,0,0:0:0:0:
472,56,90638,1,0,0:0:0:0:
428,40,90708,1,0,0:0:0:0:
384,52,90778,1,0,0:0:0:0:
344,68,90847,1,0,0:0:0:0:
304,88,90917,1,0,0:0:0:0:
264,108,90986,1,0,0:0:0:0:
228,124,91056,1,0,0:0:0:0:
184,140,91126,1,0,0:0:0:0:
148,152,91196,1,0,0:0:0:0:
108,176,91265,6,0,L|68:208,6,33.7500012874604
72,224,91754,1,0,0:0:0:0:
92,252,91824,1,0,0:0:0:0:
124,264,91893,1,0,0:0:0:0:
156,272,91963,1,0,0:0:0:0:
188,276,92033,1,0,0:0:0:0:
220,272,92103,1,0,0:0:0:0:
252,268,92172,1,0,0:0:0:0:
284,260,92242,2,0,L|340:236,1,33.7500012874604
288,148,92382,6,0,L|336:160,6,33.7500012874604
104,108,93079,2,0,P|112:164|176:280,1,180
276,136,93498,1,0,0:0:0:0:
352,280,93638,2,0,P|408:248|408:136,1,180
188,148,94056,1,0,0:0:0:0:
328,300,94196,1,0,0:0:0:0:
380,120,94335,2,0,P|320:100|292:104,1,90
180,272,94614,1,0,0:0:0:0:
104,104,94754,2,0,P|156:72|248:80,1,135
428,60,95033,5,0,0:0:0:0:
420,96,95103,1,0,0:0:0:0:
408,128,95172,1,0,0:0:0:0:
396,164,95242,1,0,0:0:0:0:
376,192,95312,1,0,0:0:0:0:
356,224,95382,1,0,0:0:0:0:
332,248,95452,1,0,0:0:0:0:
300,260,95521,1,0,0:0:0:0:
264,268,95591,1,0,0:0:0:0:
228,264,95661,1,0,0:0:0:0:
192,256,95731,1,0,0:0:0:0:
164,236,95800,1,0,0:0:0:0:
140,208,95870,1,0,0:0:0:0:
128,172,95940,1,0,0:0:0:0:
124,136,96010,1,0,0:0:0:0:
188,36,96149,6,0,L|304:40,1,90
164,116,96428,2,0,L|280:120,1,90
144,196,96707,2,0,L|260:200,1,90
120,276,96986,2,0,L|236:280,1,90
276,68,97265,5,0,0:0:0:0:
324,92,97335,1,0,0:0:0:0:
368,124,97405,1,0,0:0:0:0:
412,156,97475,1,0,0:0:0:0:
452,192,97545,1,0,0:0:0:0:
472,240,97614,1,0,0:0:0:0:
452,292,97684,1,0,0:0:0:0:
408,324,97754,1,0,0:0:0:0:
356,328,97824,1,0,0:0:0:0:
304,316,97893,1,0,0:0:0:0:
272,224,97963,2,0,P|224:216|192:224,1,45
176,236,98103,1,0,0:0:0:0:
124,248,98172,1,0,0:0:0:0:
88,208,98242,5,0,0:0:0:0:
92,152,98312,1,0,0:0:0:0:
140,128,98382,1,0,0:0:0:0:
192,112,98452,1,0,0:0:0:0:
236,84,98521,1,0,0:0:0:0:
288,72,98591,1,0,0:0:0:0:
340,92,98661,1,0,0:0:0:0:
380,128,98731,1,0,0:0:0:0:
404,176,98800,1,0,0:0:0:0:
416,224,98870,1,0,0:0:0:0:
432,276,98940,1,0,0:0:0:0:
448,328,99010,1,0,0:0:0:0:
400,348,99079,1,0,0:0:0:0:
348,328,99149,5,0,0:0:0:0:
316,284,99219,1,0,0:0:0:0:
292,236,99289,1,0,0:0:0:0:
276,184,99359,1,0,0:0:0:0:
260,132,99428,1,0,0:0:0:0:
208,56,99498,2,0,P|152:64|140:80,1,45
124,92,99638,1,0,0:0:0:0:
120,144,99707,1,0,0:0:0:0:
152,188,99777,1,0,0:0:0:0:
196,220,99847,1,0,0:0:0:0:
244,244,99917,1,0,0:0:0:0:
296,252,99986,1,0,0:0:0:0:
348,256,100056,1,0,0:0:0:0:
404,256,100126,5,0,0:0:0:0:
456,248,100196,1,0,0:0:0:0:
504,228,100265,1,0,0:0:0:0:
496,176,100335,1,0,0:0:0:0:
468,128,100405,1,0,0:0:0:0:
440,80,100475,1,0,0:0:0:0:
396,48,100545,1,0,0:0:0:0:
344,48,100614,1,0,0:0:0:0:
288,52,100684,1,0,0:0:0:0:
136,148,100754,6,0,L|140:68,1,45
236,244,100893,2,0,L|284:224,1,45
192,344,101033,2,0,L|136:352,1,45
104,280,101172,2,0,L|136:232,1,45
304,164,101312,2,0,L|264:124,1,45
136,64,101731,5,0,0:0:0:0:
224,284,102149,1,0,0:0:0:0:
264,144,102568,2,0,P|288:84|400:60,1,180
416,84,102917,1,0,0:0:0:0:
432,116,102986,1,0,0:0:0:0:
444,152,103056,1,0,0:0:0:0:
436,188,103126,1,0,0:0:0:0:
420,220,103196,1,0,0:0:0:0:
396,248,103265,1,0,0:0:0:0:
364,260,103335,1,0,0:0:0:0:
332,280,103405,1,0,0:0:0:0:
300,288,103475,1,0,0:0:0:0:
264,292,103545,1,0,0:0:0:0:
228,296,103614,5,0,0:0:0:0:
192,292,103684,1,0,0:0:0:0:
156,288,103754,1,0,0:0:0:0:
120,276,103824,1,0,0:0:0:0:
92,256,103893,1,0,0:0:0:0:
68,228,103963,1,0,0:0:0:0:
104,88,104103,6,0,P|156:68|208:84,1,90
292,192,104382,1,0,0:0:0:0:
248,32,104521,1,0,0:0:0:0:
428,128,104661,2,0,P|372:88|320:92,1,90
376,316,104940,2,0,P|312:296|280:260,1,90
180,168,105219,1,0,0:0:0:0:
92,280,105359,1,0,0:0:0:0:
268,296,105498,6,0,P|288:244|308:192,1,90
308,72,105777,2,0,P|244:56|208:64,1,90
136,176,106056,1,0,0:0:0:0:
256,264,106196,1,0,0:0:0:0:
388,104,106335,1,0,0:0:0:0:
396,312,106475,1,0,0:0:0:0:
252,88,106614,5,0,0:0:0:0:
136,312,106754,1,0,0:0:0:0:
344,244,106893,1,0,0:0:0:0:
144,176,107033,1,0,0:0:0:0:
384,72,107172,2,0,P|312:72|280:104,1,90
264,100,107382,1,0,0:0:0:0:
228,124,107452,1,0,0:0:0:0:
196,148,107521,1,0,0:0:0:0:
168,176,107591,1,0,0:0:0:0:
152,212,107661,1,0,0:0:0:0:
156,252,107731,1,0,0:0:0:0:
176,288,107800,1,0,0:0:0:0:
208,312,107870,1,0,0:0:0:0:
248,316,107940,5,0,0:0:0:0:
288,312,108010,1,0,0:0:0:0:
328,304,108079,1,0,0:0:0:0:
368,296,108149,2,0,L|416:288,4,45
472,272,108498,1,0,0:0:0:0:
476,236,108568,1,0,0:0:0:0:
472,200,108638,1,0,0:0:0:0:
460,168,108707,1,0,0:0:0:0:
440,136,108777,1,0,0:0:0:0:
412,108,108847,1,0,0:0:0:0:
372,100,108917,1,0,0:0:0:0:
332,100,108986,1,0,0:0:0:0:
292,100,109056,1,0,0:0:0:0:
252,112,109126,5,0,0:0:0:0:
208,124,109196,1,0,0:0:0:0:
168,144,109265,1,0,0:0:0:0:
132,172,109335,1,0,0:0:0:0:
112,212,109405,1,0,0:0:0:0:
116,256,109475,1,0,0:0:0:0:
144,292,109545,1,0,0:0:0:0:
184,312,109614,1,0,0:0:0:0:
228,320,109684,1,0,0:0:0:0:
276,320,109754,1,0,0:0:0:0:
324,320,109824,1,0,0:0:0:0:
364,292,109893,1,0,0:0:0:0:
392,252,109963,1,0,0:0:0:0:
404,204,110033,5,0,0:0:0:0:
408,144,110103,1,0,0:0:0:0:
384,100,110172,1,0,0:0:0:0:
332,92,110242,1,0,0:0:0:0:
276,92,110312,1,0,0:0:0:0:
224,108,110382,1,0,0:0:0:0:
172,128,110452,1,0,0:0:0:0:
132,160,110521,1,0,0:0:0:0:
104,208,110591,1,0,0:0:0:0:
104,284,110661,6,0,L|172:280,1,45
400,272,110800,2,0,L|320:272,1,45
412,172,110940,2,0,L|336:176,1,45
104,184,111079,2,0,L|168:180,1,45
404,32,111219,2,0,L|336:40,1,45
108,64,111359,2,0,L|180:60,1,45
432,152,111498,2,0,L|368:152,1,45
104,164,111638,2,0,L|160:160,1,45
328,32,111777,5,0,0:0:0:0:
152,72,112614,5,0,0:0:0:0:
304,260,112893,1,0,0:0:0:0:
372,68,114010,5,0,0:0:0:0:
116,280,115126,5,0,0:0:0:0:
156,72,116242,5,0,0:0:0:0:
304,304,117359,5,0,0:0:0:0:
280,84,118475,5,0,0:0:0:0:
184,304,119591,5,0,0:0:0:0:
120,104,120707,5,0,0:0:0:0:
368,264,121824,5,0,0:0:0:0:
240,44,122661,6,0,P|204:72|144:204,1,180
224,300,123010,1,0,0:0:0:0:
284,292,123079,1,0,0:0:0:0:
344,268,123149,1,0,0:0:0:0:
400,240,123219,1,0,0:0:0:0:
448,200,123289,1,0,0:0:0:0:
468,140,123359,1,0,0:0:0:0:
452,80,123428,1,0,0:0:0:0:
424,24,123498,1,0,0:0:0:0:
364,8,123568,1,0,0:0:0:0:
300,12,123638,1,0,0:0:0:0:
240,28,123707,1,0,0:0:0:0:
236,92,123777,1,0,0:0:0:0:
244,156,123847,5,0,0:0:0:0:
276,208,123917,1,0,0:0:0:0:
292,268,123986,1,0,0:0:0:0:
260,324,124056,1,0,0:0:0:0:
196,336,124126,1,0,0:0:0:0:
136,312,124196,1,0,0:0:0:0:
92,268,124265,1,0,0:0:0:0:
76,208,124335,1,0,0:0:0:0:
92,148,124405,1,0,0:0:0:0:
140,104,124475,1,0,0:0:0:0:
200,88,124545,1,0,0:0:0:0:
256,60,124614,1,0,0:0:0:0:
316,44,124684,1,0,0:0:0:0:
380,44,124754,5,0,0:0:0:0:
432,76,124824,1,0,0:0:0:0:
468,128,124893,1,0,0:0:0:0:
480,192,124963,1,0,0:0:0:0:
448,248,125033,1,0,0:0:0:0:
392,280,125103,1,0,0:0:0:0:
336,304,125172,1,0,0:0:0:0:
272,312,125242,1,0,0:0:0:0:
212,292,125312,1,0,0:0:0:0:
164,252,125382,1,0,0:0:0:0:
136,196,125452,1,0,0:0:0:0:
132,132,125521,1,0,0:0:0:0:
136,68,125591,1,0,0:0:0:0:
180,24,125661,5,0,0:0:0:0:
244,24,125731,1,0,0:0:0:0:
304,40,125800,1,0,0:0:0:0:
320,100,125870,1,0,0:0:0:0:
276,148,125940,1,0,0:0:0:0:
216,164,126010,1,0,0:0:0:0:
152,168,126079,1,0,0:0:0:0:
104,208,126149,1,0,0:0:0:0:
96,272,126219,1,0,0:0:0:0:
112,332,126289,1,0,0:0:0:0:
164,368,126359,1,0,0:0:0:0:
228,372,126428,1,0,0:0:0:0:
292,364,126498,1,0,0:0:0:0:
352,352,126568,5,0,0:0:0:0:
408,320,126638,1,0,0:0:0:0:
440,268,126707,1,0,0:0:0:0:
456,208,126777,1,0,0:0:0:0:
468,148,126847,1,0,0:0:0:0:
444,88,126917,1,0,0:0:0:0:
404,40,126986,1,0,0:0:0:0:
348,8,127056,1,0,0:0:0:0:
284,12,127126,1,0,0:0:0:0:
228,36,127196,1,0,0:0:0:0:
184,80,127265,1,0,0:0:0:0:
180,144,127335,1,0,0:0:0:0:
264,140,127405,6,0,L|240:204,1,45
204,276,127545,2,0,L|232:212,1,45
328,148,127684,2,0,L|312:204,1,45
280,284,127824,2,0,L|304:216,1,45
392,160,127963,2,0,L|376:212,1,45
340,300,128103,2,0,L|360:252,1,45
404,288,128242,5,0,0:0:0:0:
456,272,128312,1,0,0:0:0:0:
492,232,128382,1,0,0:0:0:0:
496,176,128452,1,0,0:0:0:0:
472,128,128521,1,0,0:0:0:0:
432,92,128591,1,0,0:0:0:0:
388,64,128661,1,0,0:0:0:0:
336,56,128731,1,0,0:0:0:0:
284,60,128800,1,0,0:0:0:0:
232,72,128870,1,0,0:0:0:0:
184,100,128940,1,0,0:0:0:0:
180,152,129010,1,0,0:0:0:0:
184,204,129079,1,0,0:0:0:0:
188,256,129149,5,0,0:0:0:0:
188,308,129219,1,0,0:0:0:0:
224,348,129289,1,0,0:0:0:0:
276,364,129359,1,0,0:0:0:0:
328,356,129428,1,0,0:0:0:0:
380,344,129498,1,0,0:0:0:0:
412,300,129568,2,0,L|440:248,1,45
456,200,129707,1,0,0:0:0:0:
468,136,129777,1,0,0:0:0:0:
452,76,129847,1,0,0:0:0:0:
392,56,129917,1,0,0:0:0:0:
328,56,129986,1,0,0:0:0:0:
268,72,130056,1,0,0:0:0:0:
220,112,130126,5,0,0:0:0:0:
168,144,130196,1,0,0:0:0:0:
128,192,130265,1,0,0:0:0:0:
128,256,130335,1,0,0:0:0:0:
168,308,130405,1,0,0:0:0:0:
228,332,130475,1,0,0:0:0:0:
292,324,130545,1,0,0:0:0:0:
352,304,130614,1,0,0:0:0:0:
376,244,130684,1,0,0:0:0:0:
344,188,130754,1,0,0:0:0:0:
284,168,130824,1,0,0:0:0:0:
220,164,130893,1,0,0:0:0:0:
160,140,130963,1,0,0:0:0:0:
112,100,131033,5,0,0:0:0:0:
136,40,131103,1,0,0:0:0:0:
200,36,131172,1,0,0:0:0:0:
264,44,131242,1,0,0:0:0:0:
316,80,131312,1,0,0:0:0:0:
352,132,131382,1,0,0:0:0:0:
332,192,131452,1,0,0:0:0:0:
300,244,131521,1,0,0:0:0:0:
240,264,131591,1,0,0:0:0:0:
176,260,131661,1,0,0:0:0:0:
124,220,131731,1,0,0:0:0:0:
120,156,131800,1,0,0:0:0:0:
112,100,131870,1,0,0:0:0:0:
136,40,131940,5,0,0:0:0:0:
196,24,132010,1,0,0:0:0:0:
252,52,132079,1,0,0:0:0:0:
292,100,132149,1,0,0:0:0:0:
328,152,132219,1,0,0:0:0:0:
368,200,132289,1,0,0:0:0:0:
388,260,132359,1,0,0:0:0:0:
268,240,132428,2,0,L|216:232,1,45
180,224,132568,1,0,0:0:0:0:
140,204,132638,1,0,0:0:0:0:
108,172,132707,1,0,0:0:0:0:
104,128,132777,1,0,0:0:0:0:
116,84,132847,1,0,0:0:0:0:
148,52,132917,5,0,0:0:0:0:
192,52,132986,1,0,0:0:0:0:
240,156,133056,2,0,L|296:152,1,45
352,152,133196,1,0,0:0:0:0:
412,180,133265,1,0,0:0:0:0:
452,232,133335,1,0,0:0:0:0:
464,296,133405,1,0,0:0:0:0:
408,328,133475,1,0,0:0:0:0:
352,296,133545,1,0,0:0:0:0:
328,236,133614,1,0,0:0:0:0:
332,172,133684,1,0,0:0:0:0:
296,116,133754,1,0,0:0:0:0:
240,84,133824,1,0,0:0:0:0:
176,88,133893,5,0,0:0:0:0:
140,144,133963,1,0,0:0:0:0:
144,208,134033,1,0,0:0:0:0:
184,260,134103,1,0,0:0:0:0:
248,276,134172,1,0,0:0:0:0:
312,276,134242,1,0,0:0:0:0:
376,276,134312,1,0,0:0:0:0:
420,228,134382,1,0,0:0:0:0:
460,176,134452,1,0,0:0:0:0:
484,116,134521,1,0,0:0:0:0:
476,52,134591,1,0,0:0:0:0:
424,12,134661,1,0,0:0:0:0:
360,8,134731,1,0,0:0:0:0:
296,24,134800,5,0,0:0:0:0:
256,76,134870,1,0,0:0:0:0:
240,140,134940,1,0,0:0:0:0:
264,200,135010,1,0,0:0:0:0:
288,260,135079,1,0,0:0:0:0:
268,324,135149,1,0,0:0:0:0:
204,340,135219,1,0,0:0:0:0:
144,336,135289,1,0,0:0:0:0:
92,308,135359,1,0,0:0:0:0:
68,256,135428,1,0,0:0:0:0:
72,196,135498,1,0,0:0:0:0:
96,144,135568,1,0,0:0:0:0:
152,124,135638,1,0,0:0:0:0:
208,132,135707,5,0,0:0:0:0:
268,132,135777,1,0,0:0:0:0:
328,128,135847,1,0,0:0:0:0:
384,140,135917,1,0,0:0:0:0:
432,168,135986,1,0,0:0:0:0:
448,224,136056,1,0,0:0:0:0:
448,284,136126,1,0,0:0:0:0:
424,340,136196,1,0,0:0:0:0:
368,352,136265,1,0,0:0:0:0:
308,344,136335,1,0,0:0:0:0:
256,320,136405,1,0,0:0:0:0:
200,300,136475,1,0,0:0:0:0:
164,256,136545,1,0,0:0:0:0:
140,204,136614,2,0,L|116:156,8,45
248,108,137312,5,0,0:0:0:0:
252,112,137382,1,0,0:0:0:0:
256,116,137452,1,0,0:0:0:0:
268,124,137521,1,0,0:0:0:0:
284,132,137591,1,0,0:0:0:0:
300,148,137661,1,0,0:0:0:0:
324,164,137731,1,0,0:0:0:0:
344,188,137800,1,0,0:0:0:0:
352,224,137870,1,0,0:0:0:0:
344,264,137940,1,0,0:0:0:0:
320,304,138010,1,0,0:0:0:0:
276,328,138079,1,0,0:0:0:0:
224,336,138149,1,0,0:0:0:0:
176,312,138219,1,0,0:0:0:0:
132,280,138289,1,0,0:0:0:0:
112,228,138359,1,0,0:0:0:0:
108,104,138428,5,0,0:0:0:0:
272,192,138568,1,0,0:0:0:0:
432,68,138707,5,0,0:0:0:0:
328,308,138847,1,0,0:0:0:0:
252,64,138986,1,0,0:0:0:0:
92,144,139126,6,0,L|136:144,4,45
372,72,139684,5,0,0:0:0:0:
216,276,139824,1,0,0:0:0:0:
200,76,140800,5,0,0:0:0:0:
148,192,141638,2,0,L|192:188,3,45
332,88,141917,1,0,0:0:0:0:
420,316,142056,1,0,0:0:0:0:
192,64,143033,6,0,P|108:72|104:100,1,90
240,224,143312,2,0,P|256:168|312:152,1,90
400,296,143591,2,0,P|356:256|316:264,1,90
128,256,143870,2,0,P|144:208|184:184,1,90
372,88,144149,5,0,0:0:0:0:
240,260,144289,1,0,0:0:0:0:
128,88,144428,1,0,0:0:0:0:
232,72,144568,2,0,P|288:88|312:148,1,90
364,296,144847,2,0,P|336:236|284:224,1,90
112,272,145126,1,0,0:0:0:0:
228,92,145265,1,0,0:0:0:0:
328,296,145405,2,0,P|368:212|392:204,1,90
456,72,145684,5,0,0:0:0:0:
304,56,145824,2,0,P|232:48|192:64,1,90
108,200,146103,2,0,P|100:244|120:300,1,90
180,36,146382,5,0,0:0:0:0:
120,296,146521,1,0,0:0:0:0:
272,44,146661,5,0,0:0:0:0:
264,312,146800,1,0,0:0:0:0:
384,44,146940,5,0,0:0:0:0:
448,312,147079,1,0,0:0:0:0:
220,112,147219,1,0,0:0:0:0:
84,88,147498,2,0,L|120:132,14,45
360,68,148614,6,0,P|292:76|212:192,1,180
380,200,149172,1,0,0:0:0:0:
240,260,149452,2,0,P|200:216|232:104,1,180
120,88,150010,1,0,0:0:0:0:
80,280,150289,2,0,P|128:232|240:216,1,180
376,280,150847,1,0,0:0:0:0:
152,60,151126,6,0,P|120:108|120:160,1,90
192,216,151405,2,0,P|196:156|180:128,1,90
228,80,151684,2,0,P|264:144|272:196,1,90
336,192,151963,2,0,P|328:120|304:84,1,90
384,80,152242,2,0,P|400:120|408:196,1,90
480,176,152521,2,0,P|472:120|448:68,1,90
168,80,153079,6,0,L|112:140,1,45
200,252,153219,2,0,L|224:180,1,45
300,60,153359,2,0,L|264:120,1,45
320,260,153498,2,0,L|336:200,1,45
440,64,153638,2,0,L|412:128,1,45
476,188,153777,2,0,L|424:188,1,45
408,332,153917,2,0,L|396:272,1,45
216,136,154056,6,0,L|284:168,1,45
240,304,154196,2,0,L|276:256,1,45
352,64,154335,2,0,L|328:144,1,45
120,216,154475,2,0,L|196:212,1,45
404,200,154614,2,0,L|336:200,1,45
232,60,154754,2,0,L|264:116,1,45
296,272,154893,2,0,L|272:208,1,45
168,184,155033,6,0,L|224:168,1,45
388,316,155172,2,0,L|344:268,1,45
364,88,155312,6,0,P|320:80|212:156,1,180
136,84,155870,5,0,0:0:0:0:
240,268,156010,1,0,0:0:0:0:
312,84,156149,1,0,0:0:0:0:
400,288,156289,1,0,0:0:0:0:
436,84,156428,1,0,0:0:0:0:
176,72,156707,6,0,L|164:180,1,90
216,264,157126,2,0,L|264:180,1,90
140,56,157545,5,0,0:0:0:0:
172,288,157684,1,0,0:0:0:0:
324,76,157824,1,0,0:0:0:0:
368,308,157963,1,0,0:0:0:0:
120,148,158103,1,0,0:0:0:0:
432,76,158242,1,0,0:0:0:0:
236,312,158382,1,0,0:0:0:0:
176,44,158521,1,0,0:0:0:0:
424,300,158661,1,0,0:0:0:0:
120,120,158800,1,0,0:0:0:0:
432,184,158940,6,0,P|368:180|328:196,1,90
248,52,159219,1,0,0:0:0:0:
156,260,159359,1,0,0:0:0:0:
100,60,159498,1,0,0:0:0:0:
304,288,159638,1,0,0:0:0:0:
360,80,159777,1,0,0:0:0:0:
388,328,159917,1,0,0:0:0:0:
160,312,160056,1,0,0:0:0:0:
88,32,160196,1,0,0:0:0:0:
188,276,160335,1,0,0:0:0:0:
404,100,160475,1,0,0:0:0:0:
348,336,160614,1,0,0:0:0:0:
232,48,160754,1,0,0:0:0:0:
92,140,160893,6,0,L|140:140,10,45
272,56,161731,2,0,P|224:56|192:112,1,90
92,272,162010,5,0,0:0:0:0:
304,168,162149,1,0,0:0:0:0:
216,360,162289,1,0,0:0:0:0:
140,108,162428,1,0,0:0:0:0:
340,276,162568,1,0,0:0:0:0:
268,88,162707,1,0,0:0:0:0:
168,288,162847,1,0,0:0:0:0:
120,64,162986,1,0,0:0:0:0:
296,272,163126,1,0,0:0:0:0:
400,60,163265,5,0,0:0:0:0:
416,344,163405,1,0,0:0:0:0:
272,64,163545,1,0,0:0:0:0:
180,312,163684,1,0,0:0:0:0:
408,112,163824,1,0,0:0:0:0:
144,72,163963,1,0,0:0:0:0:
288,292,164103,1,0,0:0:0:0:
80,40,164242,6,0,P|112:96|124:160,1,90
212,320,164521,2,0,P|232:248|224:204,1,90
292,40,164800,2,0,P|320:88|336:136,1,90
428,336,165079,2,0,P|436:268|428:224,1,90
420,40,165359,6,0,P|364:52|248:152,1,180
112,56,165777,2,0,L|88:100,6,45
208,156,166475,5,0,0:0:0:0:
248,192,166545,1,0,0:0:0:0:
288,228,166614,1,0,0:0:0:0:
324,268,166684,1,0,0:0:0:0:
376,276,166754,1,0,0:0:0:0:
428,268,166824,1,0,0:0:0:0:
472,240,166893,1,0,0:0:0:0:
496,192,166963,1,0,0:0:0:0:
496,136,167033,1,0,0:0:0:0:
480,84,167103,1,0,0:0:0:0:
432,60,167172,1,0,0:0:0:0:
380,52,167242,1,0,0:0:0:0:
352,68,167312,2,0,L|312:92,1,45
300,264,167452,5,0,0:0:0:0:
288,228,167521,1,0,0:0:0:0:
256,184,167591,1,0,0:0:0:0:
220,144,167661,1,0,0:0:0:0:
172,120,167731,1,0,0:0:0:0:
120,112,167800,1,0,0:0:0:0:
68,132,167870,1,0,0:0:0:0:
56,184,167940,1,0,0:0:0:0:
72,236,168010,1,0,0:0:0:0:
108,276,168079,1,0,0:0:0:0:
160,296,168149,1,0,0:0:0:0:
216,300,168219,1,0,0:0:0:0:
268,288,168289,1,0,0:0:0:0:
320,272,168359,5,0,0:0:0:0:
368,252,168428,1,0,0:0:0:0:
404,212,168498,1,0,0:0:0:0:
420,160,168568,1,0,0:0:0:0:
392,112,168638,1,0,0:0:0:0:
352,76,168707,1,0,0:0:0:0:
312,40,168777,1,0,0:0:0:0:
264,16,168847,1,0,0:0:0:0:
208,16,168917,1,0,0:0:0:0:
160,16,168986,1,0,0:0:0:0:
128,60,169056,1,0,0:0:0:0:
100,108,169126,1,0,0:0:0:0:
104,160,169196,1,0,0:0:0:0:
120,212,169265,5,0,0:0:0:0:
152,256,169335,1,0,0:0:0:0:
188,296,169405,1,0,0:0:0:0:
232,324,169475,1,0,0:0:0:0:
284,336,169545,1,0,0:0:0:0:
336,332,169614,1,0,0:0:0:0:
388,324,169684,1,0,0:0:0:0:
444,320,169754,1,0,0:0:0:0:
468,272,169824,1,0,0:0:0:0:
460,220,169893,1,0,0:0:0:0:
428,176,169963,1,0,0:0:0:0:
380,148,170033,1,0,0:0:0:0:
328,132,170103,1,0,0:0:0:0:
276,124,170172,5,0,0:0:0:0:
220,120,170242,2,0,L|164:120,8,45
144,284,170870,6,0,L|136:208,1,45
192,60,171010,2,0,L|224:124,1,45
352,276,171149,2,0,L|328:212,1,45
96,148,171289,2,0,L|152:140,1,45
364,128,171428,2,0,L|304:132,1,45
224,304,171568,2,0,L|240:240,1,45
332,32,171707,2,0,L|288:104,1,45
136,212,171847,6,0,L|192:180,1,45
408,252,171986,2,0,L|360:216,1,45
188,52,172126,5,0,0:0:0:0:
148,120,172196,1,0,0:0:0:0:
144,196,172265,1,0,0:0:0:0:
164,272,172335,1,0,0:0:0:0:
220,324,172405,1,0,0:0:0:0:
292,348,172475,1,0,0:0:0:0:
368,356,172545,1,0,0:0:0:0:
444,340,172614,1,0,0:0:0:0:
492,280,172684,1,0,0:0:0:0:
448,112,172754,6,0,L|432:164,1,45
256,220,172893,2,0,L|316:184,1,45
312,36,173033,2,0,L|352:80,1,45
420,280,173172,2,0,L|404:228,1,45
220,64,173312,1,0,0:0:0:0:
164,120,173382,1,0,0:0:0:0:
136,192,173452,1,0,0:0:0:0:
164,264,173521,2,0,L|228:288,1,45
336,152,173661,2,0,L|272:152,1,45
128,76,173800,6,0,L|184:128,1,45
312,296,173940,2,0,L|272:252,1,45
396,56,174079,2,0,B|324:64|328:64,1,45
136,60,174219,2,0,L|216:56,1,45
208,264,174359,2,0,L|216:200,1,45
284,20,174498,2,0,L|260:72,1,45
404,240,174638,2,0,L|368:196,1,45
204,92,174777,1,0,0:0:0:0:
164,156,174847,1,0,0:0:0:0:
148,232,174917,1,0,0:0:0:0:
148,308,174986,1,0,0:0:0:0:
272,256,175056,2,0,L|308:208,1,45
416,56,175196,2,0,L|384:96,1,45
428,312,175335,2,0,L|404:252,1,45
392,220,175475,5,0,0:0:0:0:
364,176,175545,1,0,0:0:0:0:
320,144,175614,1,0,0:0:0:0:
268,124,175684,1,0,0:0:0:0:
216,112,175754,1,0,0:0:0:0:
184,68,175824,1,0,0:0:0:0:
144,32,175893,1,0,0:0:0:0:
96,56,175963,1,0,0:0:0:0:
88,108,176033,1,0,0:0:0:0:
132,136,176103,1,0,0:0:0:0:
156,184,176172,1,0,0:0:0:0:
156,240,176242,1,0,0:0:0:0:
132,288,176312,1,0,0:0:0:0:
156,336,176382,5,0,0:0:0:0:
208,344,176452,1,0,0:0:0:0:
260,336,176521,1,0,0:0:0:0:
280,288,176591,1,0,0:0:0:0:
260,236,176661,1,0,0:0:0:0:
276,184,176731,1,0,0:0:0:0:
308,140,176800,1,0,0:0:0:0:
356,116,176870,1,0,0:0:0:0:
408,132,176940,1,0,0:0:0:0:
440,176,177010,1,0,0:0:0:0:
424,320,177079,6,0,L|396:272,1,45
260,72,177219,2,0,L|308:132,1,45
212,316,177359,2,0,L|244:240,1,45
136,80,177498,2,0,L|168:132,1,45
364,248,177638,2,0,L|316:220,1,45
104,304,177777,2,0,L|76:248,1,45
236,80,177917,2,0,L|204:160,1,45
304,316,178056,2,0,L|276:252,1,45
432,88,178196,2,0,L|400:152,1,45
180,160,178335,2,0,L|264:152,1,45
408,280,178475,2,0,L|376:240,1,45
280,48,178614,6,0,L|312:104,1,45
228,328,178754,2,0,L|252:272,1,45
336,168,178893,1,0,0:0:0:0:
296,132,178963,1,0,0:0:0:0:
248,108,179033,1,0,0:0:0:0:
192,108,179103,1,0,0:0:0:0:
144,128,179172,1,0,0:0:0:0:
116,172,179242,1,0,0:0:0:0:
96,328,179312,2,0,L|132:272,1,45
272,112,179452,2,0,L|232:160,1,45
236,304,179591,2,0,L|216:264,1,45
152,40,179731,2,0,L|168:84,1,45
380,224,179870,6,0,P|356:172|80:112,1,360
332,88,180847,6,0,L|280:80,5,45
128,64,181265,6,0,L|172:68,6,45
152,280,181754,2,0,L|192:208,1,45
208,92,181963,1,0,0:0:0:0:
272,136,182033,1,0,0:0:0:0:
320,196,182103,1,0,0:0:0:0:
104,324,182242,5,0,0:0:0:0:
280,68,182382,1,0,0:0:0:0:
360,352,182521,1,0,0:0:0:0:
412,48,182661,1,0,0:0:0:0:
220,288,182800,1,0,0:0:0:0:
60,60,182940,1,0,0:0:0:0:
420,220,183079,1,0,0:0:0:0:
88,344,183219,1,0,0:0:0:0:
316,28,183359,1,0,0:0:0:0:
424,352,183498,1,0,0:0:0:0:
120,64,183638,5,0,0:0:0:0:
440,64,183777,1,0,0:0:0:0:
312,360,183917,1,0,0:0:0:0:
120,64,184056,1,0,0:0:0:0:
108,348,184196,1,0,0:0:0:0:
300,80,184335,1,0,0:0:0:0:
168,192,185452,5,0,0:0:0:0:
396,104,186568,5,0,0:0:0:0:
124,84,187684,5,0,0:0:0:0:
240,272,188800,5,0,0:0:0:0:
400,52,189917,5,0,0:0:0:0:
228,312,191033,5,0,0:0:0:0:
132,84,192149,5,0,0:0:0:0:
324,280,193265,5,0,0:0:0:0:
348,64,194103,6,0,P|268:64|176:136,1,180
176,180,194452,5,0,0:0:0:0:
176,244,194521,1,0,0:0:0:0:
216,292,194591,1,0,0:0:0:0:
268,328,194661,1,0,0:0:0:0:
332,328,194731,1,0,0:0:0:0:
392,308,194800,1,0,0:0:0:0:
440,268,194870,1,0,0:0:0:0:
472,212,194940,1,0,0:0:0:0:
472,148,195010,1,0,0:0:0:0:
460,88,195079,1,0,0:0:0:0:
412,48,195149,1,0,0:0:0:0:
348,52,195219,1,0,0:0:0:0:
316,104,195289,1,0,0:0:0:0:
336,164,195359,5,0,0:0:0:0:
372,216,195428,1,0,0:0:0:0:
352,276,195498,1,0,0:0:0:0:
300,312,195568,1,0,0:0:0:0:
236,312,195638,1,0,0:0:0:0:
176,304,195707,1,0,0:0:0:0:
128,264,195777,1,0,0:0:0:0:
104,204,195847,1,0,0:0:0:0:
120,144,195917,1,0,0:0:0:0:
172,36,195986,2,0,L|212:80,1,45
252,112,196126,1,0,0:0:0:0:
292,160,196196,1,0,0:0:0:0:
308,220,196265,1,0,0:0:0:0:
272,272,196335,5,0,0:0:0:0:
220,308,196405,1,0,0:0:0:0:
160,328,196475,1,0,0:0:0:0:
96,320,196545,1,0,0:0:0:0:
72,264,196614,1,0,0:0:0:0:
68,200,196684,1,0,0:0:0:0:
92,140,196754,1,0,0:0:0:0:
152,116,196824,1,0,0:0:0:0:
208,92,196893,1,0,0:0:0:0:
256,48,196963,1,0,0:0:0:0:
320,48,197033,1,0,0:0:0:0:
372,80,197103,1,0,0:0:0:0:
392,140,197172,1,0,0:0:0:0:
360,192,197242,5,0,0:0:0:0:
300,172,197312,1,0,0:0:0:0:
260,124,197382,1,0,0:0:0:0:
200,104,197452,1,0,0:0:0:0:
148,140,197521,1,0,0:0:0:0:
144,204,197591,1,0,0:0:0:0:
172,260,197661,1,0,0:0:0:0:
276,336,197731,2,0,L|344:296,1,45
372,288,197870,1,0,0:0:0:0:
412,240,197940,1,0,0:0:0:0:
404,176,198010,1,0,0:0:0:0:
388,116,198079,1,0,0:0:0:0:
332,84,198149,1,0,0:0:0:0:
272,104,198219,5,0,0:0:0:0:
232,152,198289,1,0,0:0:0:0:
236,216,198359,1,0,0:0:0:0:
180,240,198428,1,0,0:0:0:0:
120,220,198498,1,0,0:0:0:0:
84,168,198568,1,0,0:0:0:0:
104,108,198638,1,0,0:0:0:0:
152,68,198707,1,0,0:0:0:0:
216,64,198777,1,0,0:0:0:0:
268,100,198847,1,0,0:0:0:0:
316,140,198917,1,0,0:0:0:0:
292,188,198986,2,0,L|268:248,1,45
332,344,199126,2,0,L|348:292,1,45
424,200,199265,6,0,L|412:256,1,45
380,300,199405,1,0,0:0:0:0:
316,312,199475,1,0,0:0:0:0:
252,304,199545,1,0,0:0:0:0:
192,284,199614,1,0,0:0:0:0:
140,248,199684,1,0,0:0:0:0:
100,200,199754,1,0,0:0:0:0:
56,156,199824,1,0,0:0:0:0:
100,112,199893,1,0,0:0:0:0:
156,80,199963,1,0,0:0:0:0:
220,72,200033,1,0,0:0:0:0:
272,112,200103,1,0,0:0:0:0:
304,164,200172,1,0,0:0:0:0:
336,220,200242,5,0,0:0:0:0:
356,280,200312,1,0,0:0:0:0:
324,336,200382,1,0,0:0:0:0:
260,348,200452,1,0,0:0:0:0:
204,316,200521,1,0,0:0:0:0:
220,256,200591,1,0,0:0:0:0:
268,216,200661,1,0,0:0:0:0:
324,188,200731,1,0,0:0:0:0:
376,156,200800,1,0,0:0:0:0:
388,40,200870,2,0,L|340:72,1,45
296,96,201010,1,0,0:0:0:0:
236,120,201079,1,0,0:0:0:0:
208,176,201149,1,0,0:0:0:0:
200,240,201219,5,0,0:0:0:0:
172,296,201289,1,0,0:0:0:0:
128,340,201359,1,0,0:0:0:0:
64,340,201428,1,0,0:0:0:0:
32,284,201498,1,0,0:0:0:0:
44,220,201568,1,0,0:0:0:0:
96,184,201638,1,0,0:0:0:0:
152,152,201707,1,0,0:0:0:0:
188,100,201777,1,0,0:0:0:0:
236,60,201847,1,0,0:0:0:0:
300,60,201917,1,0,0:0:0:0:
352,92,201986,1,0,0:0:0:0:
388,144,202056,1,0,0:0:0:0:
444,176,202126,5,0,0:0:0:0:
496,208,202196,1,0,0:0:0:0:
496,272,202265,1,0,0:0:0:0:
460,324,202335,1,0,0:0:0:0:
408,360,202405,1,0,0:0:0:0:
344,356,202475,1,0,0:0:0:0:
320,300,202545,1,0,0:0:0:0:
352,244,202614,1,0,0:0:0:0:
400,200,202684,1,0,0:0:0:0:
412,136,202754,1,0,0:0:0:0:
376,84,202824,1,0,0:0:0:0:
324,48,202893,1,0,0:0:0:0:
260,40,202963,1,0,0:0:0:0:
212,80,203033,5,0,0:0:0:0:
220,144,203103,1,0,0:0:0:0:
260,192,203172,1,0,0:0:0:0:
304,240,203242,1,0,0:0:0:0:
288,300,203312,1,0,0:0:0:0:
232,328,203382,1,0,0:0:0:0:
172,308,203452,1,0,0:0:0:0:
124,268,203521,1,0,0:0:0:0:
80,220,203591,1,0,0:0:0:0:
88,156,203661,1,0,0:0:0:0:
136,116,203731,1,0,0:0:0:0:
260,24,203800,6,0,L|296:72,1,45
316,96,203940,1,0,0:0:0:0:
340,136,204010,1,0,0:0:0:0:
356,176,204079,1,0,0:0:0:0:
360,220,204149,1,0,0:0:0:0:
344,264,204219,1,0,0:0:0:0:
316,300,204289,1,0,0:0:0:0:
284,324,204359,1,0,0:0:0:0:
140,240,204428,2,0,L|168:200,1,45
192,140,204568,1,0,0:0:0:0:
236,88,204638,1,0,0:0:0:0:
296,60,204707,1,0,0:0:0:0:
364,60,204777,1,0,0:0:0:0:
424,88,204847,5,0,0:0:0:0:
468,140,204917,1,0,0:0:0:0:
480,204,204986,1,0,0:0:0:0:
480,272,205056,1,0,0:0:0:0:
472,340,205126,1,0,0:0:0:0:
408,360,205196,1,0,0:0:0:0:
340,360,205265,1,0,0:0:0:0:
276,332,205335,1,0,0:0:0:0:
236,280,205405,1,0,0:0:0:0:
208,220,205475,1,0,0:0:0:0:
184,56,205545,6,0,L|152:112,1,45
128,148,205684,1,0,0:0:0:0:
104,208,205754,1,0,0:0:0:0:
108,272,205824,1,0,0:0:0:0:
148,320,205893,1,0,0:0:0:0:
200,352,205963,1,0,0:0:0:0:
264,356,206033,1,0,0:0:0:0:
308,312,206103,1,0,0:0:0:0:
320,252,206172,1,0,0:0:0:0:
280,204,206242,1,0,0:0:0:0:
220,184,206312,1,0,0:0:0:0:
192,128,206382,1,0,0:0:0:0:
208,68,206452,1,0,0:0:0:0:
268,48,206521,5,0,0:0:0:0:
332,56,206591,1,0,0:0:0:0:
408,236,206661,2,0,L|344:196,1,45
332,188,206800,1,0,0:0:0:0:
288,176,206870,1,0,0:0:0:0:
244,184,206940,1,0,0:0:0:0:
204,208,207010,1,0,0:0:0:0:
172,240,207079,1,0,0:0:0:0:
132,260,207149,1,0,0:0:0:0:
88,248,207219,1,0,0:0:0:0:
56,216,207289,1,0,0:0:0:0:
48,172,207359,1,0,0:0:0:0:
64,128,207428,1,0,0:0:0:0:
96,96,207498,5,0,0:0:0:0:
140,96,207568,1,0,0:0:0:0:
184,112,207638,1,0,0:0:0:0:
216,140,207707,1,0,0:0:0:0:
236,292,207777,2,0,L|256:248,1,45
344,156,207917,2,0,L|344:220,1,45
404,324,208056,2,0,L|424:272,1,45
436,240,208196,1,0,0:0:0:0:
444,196,208265,1,0,0:0:0:0:
436,152,208335,1,0,0:0:0:0:
416,112,208405,1,0,0:0:0:0:
388,76,208475,1,0,0:0:0:0:
348,52,208545,1,0,0:0:0:0:
304,60,208614,5,0,0:0:0:0:
272,92,208684,1,0,0:0:0:0:
264,136,208754,1,0,0:0:0:0:
268,180,208824,1,0,0:0:0:0:
264,224,208893,1,0,0:0:0:0:
240,260,208963,1,0,0:0:0:0:
200,280,209033,1,0,0:0:0:0:
156,268,209103,1,0,0:0:0:0:
120,244,209172,1,0,0:0:0:0:
112,200,209242,1,0,0:0:0:0:
136,160,209312,1,0,0:0:0:0:
168,128,209382,1,0,0:0:0:0:
200,96,209452,1,0,0:0:0:0:
244,88,209521,5,0,0:0:0:0:
280,112,209591,1,0,0:0:0:0:
312,144,209661,1,0,0:0:0:0:
328,184,209731,1,0,0:0:0:0:
332,228,209800,1,0,0:0:0:0:
324,272,209870,1,0,0:0:0:0:
292,304,209940,1,0,0:0:0:0:
248,320,210010,1,0,0:0:0:0:
204,324,210079,1,0,0:0:0:0:
160,320,210149,1,0,0:0:0:0:
140,280,210219,1,0,0:0:0:0:
124,80,210289,6,0,L|136:164,1,45
156,88,210428,2,0,L|164:148,1,45
200,112,210568,2,0,L|216:168,1,45
252,136,210707,2,0,L|280:188,1,45
316,160,210847,2,0,L|340:204,1,45
380,184,210986,2,0,L|404:232,1,45
376,272,211126,5,0,0:0:0:0:
336,308,211196,1,0,0:0:0:0:
284,320,211265,1,0,0:0:0:0:
232,308,211335,1,0,0:0:0:0:
184,280,211405,1,0,0:0:0:0:
140,248,211475,1,0,0:0:0:0:
88,240,211545,1,0,0:0:0:0:
64,192,211614,1,0,0:0:0:0:
48,140,211684,1,0,0:0:0:0:
72,92,211754,1,0,0:0:0:0:
116,64,211824,1,0,0:0:0:0:
168,76,211893,1,0,0:0:0:0:
212,108,211963,1,0,0:0:0:0:
252,144,212033,5,0,0:0:0:0:
300,164,212103,1,0,0:0:0:0:
352,156,212172,1,0,0:0:0:0:
396,124,212242,1,0,0:0:0:0:
444,96,212312,1,0,0:0:0:0:
480,56,212382,1,0,0:0:0:0:
460,4,212452,1,0,0:0:0:0:
408,8,212521,1,0,0:0:0:0:
360,32,212591,1,0,0:0:0:0:
332,80,212661,1,0,0:0:0:0:
312,132,212731,1,0,0:0:0:0:
296,184,212800,1,0,0:0:0:0:
268,232,212870,1,0,0:0:0:0:
228,268,212940,5,0,0:0:0:0:
176,272,213010,1,0,0:0:0:0:
128,252,213079,1,0,0:0:0:0:
100,204,213149,1,0,0:0:0:0:
108,152,213219,1,0,0:0:0:0:
132,104,213289,1,0,0:0:0:0:
176,72,213359,1,0,0:0:0:0:
228,88,213428,1,0,0:0:0:0:
244,140,213498,1,0,0:0:0:0:
232,192,213568,1,0,0:0:0:0:
200,236,213638,1,0,0:0:0:0:
168,280,213707,1,0,0:0:0:0:
156,332,213777,1,0,0:0:0:0:
188,376,213847,5,0,0:0:0:0:
240,372,213917,1,0,0:0:0:0:
292,360,213986,1,0,0:0:0:0:
340,336,214056,1,0,0:0:0:0:
388,308,214126,1,0,0:0:0:0:
436,332,214196,1,0,0:0:0:0:
484,352,214265,1,0,0:0:0:0:
504,300,214335,1,0,0:0:0:0:
500,248,214405,1,0,0:0:0:0:
432,116,214475,6,0,L|412:164,1,45
376,196,214614,1,0,0:0:0:0:
332,228,214684,1,0,0:0:0:0:
240,100,214754,2,0,L|224:180,1,45
220,196,214893,1,0,0:0:0:0:
208,248,214963,1,0,0:0:0:0:
228,300,215033,1,0,0:0:0:0:
276,328,215103,1,0,0:0:0:0:
328,328,215172,1,0,0:0:0:0:
368,292,215242,1,0,0:0:0:0:
376,240,215312,1,0,0:0:0:0:
344,196,215382,1,0,0:0:0:0:
296,172,215452,1,0,0:0:0:0:
244,168,215521,5,0,0:0:0:0:
196,144,215591,1,0,0:0:0:0:
160,104,215661,1,0,0:0:0:0:
168,52,215731,1,0,0:0:0:0:
212,24,215800,1,0,0:0:0:0:
264,36,215870,1,0,0:0:0:0:
432,72,215940,6,0,L|380:128,1,45
372,152,216079,1,0,0:0:0:0:
348,200,216149,1,0,0:0:0:0:
340,252,216219,1,0,0:0:0:0:
308,296,216289,1,0,0:0:0:0:
256,312,216359,1,0,0:0:0:0:
204,300,216428,1,0,0:0:0:0:
172,256,216498,1,0,0:0:0:0:
196,208,216568,1,0,0:0:0:0:
224,160,216638,1,0,0:0:0:0:
260,120,216707,1,0,0:0:0:0:
308,100,216777,1,0,0:0:0:0:
328,52,216847,1,0,0:0:0:0:
296,8,216917,5,0,0:0:0:0:
244,16,216986,1,0,0:0:0:0:
196,44,217056,1,0,0:0:0:0:
164,88,217126,1,0,0:0:0:0:
160,144,217196,1,0,0:0:0:0:
124,184,217265,1,0,0:0:0:0:
92,228,217335,1,0,0:0:0:0:
64,272,217405,1,0,0:0:0:0:
72,324,217475,1,0,0:0:0:0:
120,348,217545,1,0,0:0:0:0:
172,348,217614,1,0,0:0:0:0:
220,324,217684,1,0,0:0:0:0:
256,284,217754,1,0,0:0:0:0:
276,232,217824,5,0,0:0:0:0:
296,184,217893,1,0,0:0:0:0:
316,132,217963,1,0,0:0:0:0:
360,104,218033,1,0,0:0:0:0:
416,108,218103,1,0,0:0:0:0:
452,148,218172,1,0,0:0:0:0:
472,200,218242,1,0,0:0:0:0:
468,256,218312,1,0,0:0:0:0:
436,300,218382,1,0,0:0:0:0:
384,320,218452,1,0,0:0:0:0:
332,320,218521,1,0,0:0:0:0:
276,320,218591,1,0,0:0:0:0:
220,316,218661,1,0,0:0:0:0:
168,324,218731,5,0,0:0:0:0:
120,304,218800,1,0,0:0:0:0:
96,256,218870,1,0,0:0:0:0:
132,216,218940,1,0,0:0:0:0:
184,196,219010,1,0,0:0:0:0:
236,196,219079,1,0,0:0:0:0:
276,156,219149,1,0,0:0:0:0:
276,100,219219,1,0,0:0:0:0:
236,60,219289,1,0,0:0:0:0:
184,44,219359,1,0,0:0:0:0:
136,68,219428,1,0,0:0:0:0:
100,108,219498,1,0,0:0:0:0:
100,164,219568,1,0,0:0:0:0:
124,212,219638,5,0,0:0:0:0:
160,248,219707,1,0,0:0:0:0:
208,272,219777,1,0,0:0:0:0:
256,292,219847,1,0,0:0:0:0:
312,292,219917,1,0,0:0:0:0:
360,268,219986,1,0,0:0:0:0:
392,224,220056,1,0,0:0:0:0:
408,172,220126,1,0,0:0:0:0:
384,124,220196,1,0,0:0:0:0:
348,84,220265,1,0,0:0:0:0:
296,72,220335,1,0,0:0:0:0:
244,88,220405,1,0,0:0:0:0:
128,224,220475,6,0,L|116:156,1,45
120,152,220614,1,0,0:0:0:0:
132,128,220684,1,0,0:0:0:0:
152,108,220754,1,0,0:0:0:0:
180,100,220824,1,0,0:0:0:0:
208,104,220893,1,0,0:0:0:0:
232,116,220963,1,0,0:0:0:0:
256,128,221033,1,0,0:0:0:0:
280,144,221103,1,0,0:0:0:0:
300,160,221172,1,0,0:0:0:0:
304,312,221242,2,0,L|256:284,1,45
196,304,221382,1,0,0:0:0:0:
128,316,221452,1,0,0:0:0:0:
80,272,221521,5,0,0:0:0:0:
76,204,221591,1,0,0:0:0:0:
104,144,221661,1,0,0:0:0:0:
156,100,221731,1,0,0:0:0:0:
216,76,221800,1,0,0:0:0:0:
284,72,221870,1,0,0:0:0:0:
340,108,221940,1,0,0:0:0:0:
408,96,222010,1,0,0:0:0:0:
468,124,222079,1,0,0:0:0:0:
492,188,222149,1,0,0:0:0:0:
484,256,222219,1,0,0:0:0:0:
428,296,222289,1,0,0:0:0:0:
364,276,222359,1,0,0:0:0:0:
360,208,222428,5,0,0:0:0:0:
340,144,222498,1,0,0:0:0:0:
276,124,222568,1,0,0:0:0:0:
216,152,222638,1,0,0:0:0:0:
204,216,222707,1,0,0:0:0:0:
176,280,222777,1,0,0:0:0:0:
120,320,222847,1,0,0:0:0:0:
64,284,222917,1,0,0:0:0:0:
52,220,222986,1,0,0:0:0:0:
60,152,223056,1,0,0:0:0:0:
148,24,223126,6,0,L|188:56,1,45
224,84,223265,1,0,0:0:0:0:
276,124,223335,1,0,0:0:0:0:
300,172,223405,1,0,0:0:0:0:
312,224,223475,1,0,0:0:0:0:
308,276,223545,1,0,0:0:0:0:
268,312,223614,1,0,0:0:0:0:
212,312,223684,1,0,0:0:0:0:
164,284,223754,1,0,0:0:0:0:
160,228,223824,1,0,0:0:0:0:
200,192,223893,1,0,0:0:0:0:
252,176,223963,1,0,0:0:0:0:
304,172,224033,1,0,0:0:0:0:
356,152,224103,5,0,0:0:0:0:
408,144,224172,1,0,0:0:0:0:
456,168,224242,1,0,0:0:0:0:
480,216,224312,1,0,0:0:0:0:
484,272,224382,1,0,0:0:0:0:
436,296,224452,1,0,0:0:0:0:
384,292,224521,6,0,P|288:288|216:204,1,180
216,200,224870,1,0,0:0:0:0:
196,172,224940,1,0,0:0:0:0:
188,136,225010,1,0,0:0:0:0:
196,100,225079,1,0,0:0:0:0:
224,76,225149,1,0,0:0:0:0:
260,68,225219,1,0,0:0:0:0:
296,72,225289,1,0,0:0:0:0:
332,76,225359,1,0,0:0:0:0:
364,88,225428,1,0,0:0:0:0:
400,100,225498,1,0,0:0:0:0:
432,120,225568,1,0,0:0:0:0:
452,152,225638,1,0,0:0:0:0:
148,132,226754,5,0,0:0:0:0:
216,56,227870,6,0,P|164:64|136:100,1,90
140,128,228079,1,0,0:0:0:0:
156,160,228149,1,0,0:0:0:0:
360,96,228289,2,0,L|340:140,2,45
236,264,228568,2,0,L|184:264,2,45
172,40,228847,2,0,L|216:68,2,45
440,72,229126,6,0,P|384:76|284:184,1,180
277,162,229545,2,0,P|240:228|200:252,1,90
212,232,229824,2,0,P|150:239|108:208,1,90
140,48,230103,6,0,L|172:116,1,45
316,204,230312,2,0,L|296:248,2,45
120,208,230591,2,0,L|148:244,2,45
324,72,230940,6,0,P|268:72|192:180,1,180
336,224,231359,2,0,L|376:268,2,45
264,104,231777,2,0,P|212:84|112:152,1,180
432,116,232335,6,0,P|364:112|280:200,1,180
272,208,232754,2,0,P|252:268|124:312,1,180
148,60,233172,2,0,P|200:88|216:184,1,135
392,140,233591,2,0,L|444:112,2,45
184,232,233870,2,0,L|200:280,2,45
240,60,234289,6,0,L|172:64,1,45
400,120,234568,2,0,P|348:112|252:200,1,180
336,304,234986,1,0,0:0:0:0:
216,232,235056,2,0,L|196:276,1,45
212,64,235405,2,0,P|156:52|76:156,1,180
224,184,235824,6,0,L|204:228,2,45
116,40,236103,2,0,L|96:84,2,45
104,268,236382,2,0,L|84:312,2,45
368,76,236800,6,0,P|300:72|212:148,1,180
324,240,237219,2,0,L|304:284,2,45
132,100,237498,2,0,L|112:144,2,45
360,100,237777,2,0,L|340:140,2,45
152,300,238056,2,0,P|136:220|152:188,1,90
92,36,238335,2,0,L|72:80,2,45
368,144,238754,2,0,P|316:140|248:236,1,180
128,112,239172,2,0,L|108:156,10,45
244,280,240149,1,0,0:0:0:0:
332,124,240986,5,0,0:0:0:0:
120,96,241265,1,0,0:0:0:0:
112,164,241335,1,0,0:0:0:0:
132,228,241405,1,0,0:0:0:0:
188,264,241475,1,0,0:0:0:0:
256,256,241545,1,0,0:0:0:0:
316,228,241614,1,0,0:0:0:0:
296,164,241684,1,0,0:0:0:0:
248,116,241754,1,0,0:0:0:0:
376,48,241824,2,0,L|400:96,1,45
412,156,241963,1,0,0:0:0:0:
428,224,242033,1,0,0:0:0:0:
404,288,242103,1,0,0:0:0:0:
352,332,242172,5,0,0:0:0:0:
284,324,242242,1,0,0:0:0:0:
220,304,242312,1,0,0:0:0:0:
160,272,242382,1,0,0:0:0:0:
136,208,242452,1,0,0:0:0:0:
160,144,242521,1,0,0:0:0:0:
252,56,242591,2,0,L|284:104,1,45
316,148,242731,1,0,0:0:0:0:
352,204,242800,1,0,0:0:0:0:
336,272,242870,1,0,0:0:0:0:
272,292,242940,1,0,0:0:0:0:
224,244,243010,1,0,0:0:0:0:
204,180,243079,1,0,0:0:0:0:
148,144,243149,5,0,0:0:0:0:
80,148,243219,1,0,0:0:0:0:
64,216,243289,1,0,0:0:0:0:
84,280,243359,1,0,0:0:0:0:
136,324,243428,1,0,0:0:0:0:
204,328,243498,5,0,0:0:0:0:
324,108,243638,1,0,0:0:0:0:
