osu file format v14

[General]
AudioFilename: audio.mp3
AudioLeadIn: 0
PreviewTime: 10017
Countdown: 0
SampleSet: None
StackLeniency: 0.9
Mode: 0
LetterboxInBreaks: 0
WidescreenStoryboard: 1

[Editor]
DistanceSpacing: 1.1
BeatDivisor: 4
GridSize: 16
TimelineZoom: 1.8

[Metadata]
Title:Embraced by the Flame (English ver.) (Short Ver.)
TitleUnicode:Embraced by the Flame (English ver.) (Short Ver.)
Artist:UNDEAD CORPORATION
ArtistUnicode:UNDEAD CORPORATION
Creator:MintyBusiness
Version:beem2137's Hard
Source:東方地霊殿 ~ Subterranean Animism.
Tags:touhou death metal english deathstream shortened doujin
BeatmapID:2095404
BeatmapSetID:993681

[Difficulty]
HPDrainRate:3.5
CircleSize:3.4
OverallDifficulty:5
ApproachRate:7.8
SliderMultiplier:1.6
SliderTickRate:1

[Events]
//Background and Video events
0,0,"embracebg.jpg",0,0
//Break Periods
2,19426,27377
//Storyboard Layer 0 (Background)
//Storyboard Layer 1 (Fail)
//Storyboard Layer 2 (Pass)
//Storyboard Layer 3 (Foreground)
//Storyboard Layer 4 (Overlay)
//Storyboard Sound Samples

[TimingPoints]
1366,279.06976744186,4,3,1,65,1,0
3040,-100,4,3,1,65,0,0
10296,-100,4,3,1,65,0,0
11970,-100,4,3,1,65,0,0
12528,-100,4,3,1,65,0,0
14203,-100,4,3,1,65,0,0
14761,-100,4,3,1,65,0,0
15179,-100,4,3,1,65,0,0
15738,-100,4,3,1,65,0,0
16435,-100,4,3,1,65,0,0
16993,-100,4,3,1,65,0,0
18110,-100,4,3,1,65,0,0
18668,-100,4,3,1,65,0,0
18947,-100,4,3,1,65,0,0
19226,-100,4,3,1,65,0,0
28156,-100,4,3,1,65,0,0
30110,-100,4,3,1,65,0,0
30389,-100,4,3,1,65,0,0
31505,-100,4,3,1,65,0,0
32063,-100,4,3,1,65,0,0
35970,-100,4,3,1,65,0,0
41552,-100,4,3,1,65,0,0
43784,-100,4,3,1,65,0,0
46017,-100,4,3,1,65,0,0
47552,-100,4,3,1,65,0,0
47970,-100,4,3,1,65,0,0
48249,-100,4,3,1,65,0,0
52156,-100,4,1,2,65,0,0
52714,-100,4,1,2,75,0,0
52784,-100,4,1,2,5,0,0
53831,-100,4,1,2,75,0,0
53901,-100,4,1,2,5,0,0
54947,-100,4,1,2,75,0,0
55017,-100,4,1,2,5,0,0
56063,-100,4,1,2,75,0,0
56133,-100,4,1,2,5,0,0
57179,-100,4,1,2,75,0,0
57249,-100,4,1,2,5,0,0
58295,-100,4,1,2,75,0,0
58365,-100,4,1,2,5,0,0
59411,-100,4,1,2,75,0,0
59481,-100,4,1,2,5,0,0
60527,-100,4,1,2,75,0,0
60597,-100,4,1,2,5,0,0
61643,-100,4,1,2,75,0,0
61713,-100,4,1,2,5,0,0
62482,-100,4,3,1,65,0,0
62761,-100,4,3,1,65,0,1
70993,-100,4,3,1,65,0,1
71691,-100,4,3,1,65,0,1
77272,-100,4,3,1,65,0,1
79505,-100,4,3,1,65,0,0
88429,279.06976744186,4,3,1,65,1,0
88429,-100,4,3,1,65,0,0

[Colours]
Combo1 : 210,2,33
Combo2 : 235,18,72
Combo3 : 251,223,140
Combo4 : 244,68,17

[HitObjects]
150,293,1366,6,0,P|208:278|266:175,1,160,4|0,0:0|0:0,0:0:0:0:
197,142,1784,2,0,L|371:198,1,160,0|0,0:0|0:0,0:0:0:0:
408,256,2203,2,0,P|374:220|379:101,1,160,0|0,0:0|0:0,0:0:0:0:
437,57,2621,2,0,P|318:91|272:76,1,160,0|0,0:0|0:0,0:0:0:0:
217,27,3040,5,4,0:0:0:0:
370,114,3319,1,4,0:0:0:0:
440,275,3598,6,0,L|267:237,1,160,4|0,0:0|0:0,0:0:0:0:
304,326,4017,2,0,L|192:187,1,160,0|0,0:0|0:0,0:0:0:0:
174,284,4435,2,0,L|166:113,1,160,0|0,0:0|0:0,0:0:0:0:
88,83,4854,2,0,P|153:98|257:76,1,160,4|0,0:0|0:0,0:0:0:0:
318,36,5272,5,2,0:0:0:0:
166,124,5552,1,2,0:0:0:0:
214,293,5831,6,0,L|100:322,2,80,2|0|0,0:0|0:0|0:0,0:0:0:0:
301,293,6249,2,0,L|415:322,2,80,2|0|0,0:0|0:0|0:0,0:0:0:0:
255,217,6668,2,0,L|256:120,2,80,2|0|0,0:0|0:0|0:0,0:0:0:0:
339,194,7086,2,0,P|392:222|394:136,1,160,2|0,0:0|0:0,0:0:0:0:
496,120,7505,2,0,P|510:202|452:289,1,160,4|4,0:0|0:0,0:0:0:0:
313,333,8063,6,0,L|479:314,1,160,0|0,0:0|0:0,0:0:0:0:
393,275,8482,2,0,P|354:296|277:224,1,160,0|0,0:0|0:0,0:0:0:0:
209,286,8900,2,0,L|297:140,1,160,0|8,0:0|0:0,0:0:0:0:
378,131,9319,2,0,B|290:144|290:144|289:53,1,160,2|0,0:0|0:0,0:0:0:0:
372,43,9738,5,0,0:0:0:0:
452,199,10017,1,0,0:0:0:0:
325,320,10296,6,0,L|138:281,1,160,10|8,0:2|0:0,0:0:0:0:
250,255,10714,1,2,0:2:0:0:
334,228,10854,2,0,L|282:145,1,80,8|0,0:0|0:0,0:0:0:0:
357,101,11133,2,0,L|275:58,1,80,10|0,0:2|0:0,0:0:0:0:
200,43,11412,6,0,L|219:140,1,80,8|2,0:0|0:2,0:0:0:0:
129,102,11691,2,0,L|192:167,1,80,8|0,0:0|0:0,0:0:0:0:
105,198,11970,2,0,L|201:206,1,80,10|0,0:2|0:0,0:0:0:0:
147,284,12249,2,0,L|220:232,1,80,10|0,0:2|0:0,0:0:0:0:
245,319,12528,6,0,P|267:221|323:181,1,160,10|8,0:2|0:0,0:0:0:0:
307,97,12947,2,0,P|319:157|403:209,1,160,2|0,0:2|0:0,0:0:0:0:
438,286,13365,2,0,L|401:114,1,160,10|8,0:2|0:0,0:0:0:0:
469,189,13784,1,2,0:2:0:0:
296,224,14063,1,0,0:0:0:0:
351,292,14203,2,0,P|309:267|195:280,1,160,10|10,0:2|0:2,0:0:0:0:
35,333,14761,6,0,L|104:166,1,160,10|8,0:2|0:0,0:0:0:0:
13,154,15179,1,2,0:2:0:0:
96,185,15319,2,0,L|200:220,1,80,8|0,0:0|0:0,0:0:0:0:
184,123,15598,2,0,P|196:183|282:241,1,160,10|0,0:2|0:0,0:0:0:0:
301,165,16017,2,0,L|260:268,1,80,2|8,0:2|0:0,0:0:0:0:
241,313,16296,2,0,L|282:210,1,80,0|10,0:0|0:2,0:0:0:0:
356,259,16575,2,0,L|441:285,2,80,0|10|0,0:0|0:2|0:0,0:0:0:0:
401,183,16993,6,0,P|457:153|384:101,1,160,8|0,0:0|3:1,0:0:0:0:
323,86,17412,2,0,P|267:116|340:168,1,160,0|8,3:1|0:0,0:0:0:0:
235,135,17831,1,8,0:0:0:0:
76,59,18110,2,0,B|115:202|32:288|32:288|83:243|152:191|225:262|222:338|222:338|244:274|252:248|252:248|289:299,1,640,2|4,0:0|0:0,0:0:0:0:
98,298,28156,6,0,P|149:277|166:180,1,160,8|8,0:0|0:0,0:0:0:0:
186,95,28575,2,0,L|247:263,1,160,0|0,0:0|0:0,0:0:0:0:
277,324,28993,1,8,0:0:0:0:
449,290,29272,2,0,P|405:297|321:216,2,160,8|8|8,0:0|0:0|0:0,0:0:0:0:
346,145,30110,1,8,0:0:0:0:
172,172,30389,6,0,L|310:62,2,160,8|0|8,0:0|0:0|0:0,0:0:0:0:
271,317,31226,1,8,0:0:0:0:
95,320,31505,2,0,L|132:230,1,80,8|8,0:0|0:0,0:0:0:0:
42,216,31784,2,0,L|23:134,1,80,8|8,0:0|0:0,0:0:0:0:
77,67,32063,2,0,P|124:98|237:76,1,160,0|0,0:0|0:0,0:0:0:0:
210,261,32621,6,0,L|401:241,1,160,2|0,0:0|0:0,0:0:0:0:
444,290,33040,1,0,0:0:0:0:
450,202,33179,2,0,P|424:136|455:53,1,160,2|2,0:0|0:0,0:0:0:0:
301,145,33738,2,0,L|257:69,1,80,0|0,0:0|0:0,0:0:0:0:
301,145,34017,2,0,L|207:200,1,80,0|0,0:0|0:0,0:0:0:0:
301,145,34296,2,0,L|349:237,1,80,2|2,0:0|0:0,0:0:0:0:
264,265,34575,1,2,0:0:0:0:
264,265,34714,1,0,0:0:0:0:
333,319,34854,6,0,P|228:298|180:319,1,160,8|8,0:0|0:0,0:0:0:0:
96,336,35272,2,0,P|149:301|100:226,1,160,0|0,0:0|0:0,0:0:0:0:
24,213,35691,2,0,L|119:173,1,80,8|0,0:0|0:0,0:0:0:0:
50,107,35970,2,0,P|105:92|183:182,1,160,8|8,2:2|2:2,0:0:0:0:
352,183,36528,2,0,L|184:244,1,160,8|8,2:2|2:2,0:0:0:0:
374,269,37086,6,0,P|424:238|422:130,1,160,8|8,0:0|0:0,0:0:0:0:
433,55,37505,2,0,P|375:70|359:100,1,80,0|8,0:0|0:0,0:0:0:0:
288,41,37784,2,0,P|279:101|293:136,1,80,0|8,0:0|0:0,0:0:0:0:
253,201,38063,1,0,0:0:0:0:
165,210,38203,2,0,L|317:271,1,160,8|8,0:0|0:0,0:0:0:0:
393,233,38621,2,0,P|402:306|335:360,1,160,0|0,0:0|0:0,0:0:0:0:
255,339,39040,1,8,0:0:0:0:
89,279,39319,6,0,P|161:243|249:268,2,160,8|8|8,0:0|0:0|0:0,0:0:0:0:
223,164,40156,1,0,0:0:0:0:
368,262,40435,2,0,L|279:206,1,80,8|8,0:0|0:0,0:0:0:0:
368,163,40714,2,0,L|457:219,1,80,2|2,1:1|1:1,0:0:0:0:
506,152,40993,2,0,L|417:96,1,80,0|0,0:0|0:0,0:0:0:0:
360,68,41272,1,0,0:0:0:0:
360,68,41412,1,0,0:0:0:0:
290,14,41552,6,0,P|270:60|337:149,1,160,4|0,0:0|0:0,0:0:0:0:
410,159,41970,2,0,L|243:210,1,160,4|0,2:2|0:0,0:0:0:0:
293,286,42389,2,0,P|233:294|205:277,1,80,4|0,2:2|0:0,0:0:0:0:
174,363,42668,2,0,P|193:309|144:213,1,160,0|0,0:0|0:0,0:0:0:0:
22,101,43226,2,0,P|96:139|188:121,1,160,0|0,0:0|0:0,0:0:0:0:
333,64,43784,6,0,B|392:128|392:128|318:191,1,160,0|8,0:0|0:0,0:0:0:0:
258,216,44203,2,0,P|304:207|420:234,1,160,0|0,0:0|0:0,0:0:0:0:
459,156,44621,2,0,L|457:263,1,80,8|0,0:0|0:0,0:0:0:0:
426,318,44900,1,0,0:0:0:0:
459,156,45179,1,8,0:0:0:0:
308,63,45459,2,0,L|227:109,1,80,0|0,0:0|0:0,0:0:0:0:
171,45,45738,2,0,L|133:129,1,80,8|0,0:0|0:0,0:0:0:0:
62,72,46017,6,0,P|116:163|100:230,1,160,0|8,0:0|0:0,0:0:0:0:
20,207,46435,2,0,P|27:260|148:286,1,160,0|0,0:0|0:0,0:0:0:0:
188,251,46854,2,0,L|233:343,1,80,8|0,0:0|0:0,0:0:0:0:
292,267,47133,2,0,L|459:317,1,160,8|0,2:2|0:0,0:0:0:0:
503,246,47552,2,0,P|436:264|364:206,1,160,8|0,2:2|0:0,0:0:0:0:
447,177,47970,1,8,2:2:0:0:
309,67,48249,6,0,L|232:124,1,80,8|0,0:0|0:0,0:0:0:0:
174,167,48528,1,2,2:2:0:0:
174,167,48668,1,0,0:0:0:0:
126,102,48807,6,0,L|183:179,1,80,2|0,2:2|0:0,0:0:0:0:
226,237,49086,1,8,0:0:0:0:
226,237,49226,1,0,0:0:0:0:
184,314,49365,6,0,L|339:194,1,160,8|8,0:0|0:0,0:0:0:0:
310,127,49784,2,0,P|331:210|407:273,1,160,0|0,0:0|0:0,0:0:0:0:
429,335,50203,2,0,P|467:280|464:253,1,80,8|8,0:0|0:0,0:0:0:0:
436,186,50482,2,0,L|482:104,2,80,2|2|2,0:0|0:0|0:0,0:0:0:0:
405,77,50900,2,0,L|487:123,2,80,8|8|8,0:0|0:0|0:0,0:0:0:0:
317,64,51319,2,0,P|271:88|222:77,1,80,0|0,0:0|0:0,0:0:0:0:
253,174,51598,2,0,B|163:160|112:87|112:87|163:254|163:254|102:207|12:202|-1:296|134:316|134:316|112:347,1,640,0|4,0:0|0:0,0:0:0:0:
256,320,53831,5,4,0:0:0:0:
384,192,54947,1,4,0:0:0:0:
256,64,56063,1,4,0:0:0:0:
128,192,57179,1,4,0:0:0:0:
316,305,58296,5,4,0:0:0:0:
369,131,59412,1,4,0:0:0:0:
195,78,60528,1,4,0:0:0:0:
142,252,61644,1,4,0:0:0:0:
448,318,62761,6,0,L|276:289,1,160,8|0,0:0|0:0,0:0:0:0:
206,266,63179,2,0,P|302:250|344:190,1,160,0|0,0:0|0:0,0:0:0:0:
426,192,63598,2,0,P|403:140|369:125,1,80,8|0,0:0|0:0,0:0:0:0:
437,58,63877,2,0,P|386:90|286:76,1,160,8|8,0:0|0:0,0:0:0:0:
242,4,64296,2,0,L|265:185,1,160,0|0,0:0|0:0,0:0:0:0:
175,176,64714,1,8,0:0:0:0:
32,278,64993,2,0,L|271:248,2,240,8|0|8,0:0|0:0|0:0,0:0:0:0:
198,338,66110,6,0,P|255:345|344:286,1,160,8|0,0:0|0:0,0:0:0:0:
402,353,66528,2,0,P|359:298|368:198,1,160,0|0,0:0|0:0,0:0:0:0:
443,242,66947,1,8,0:0:0:0:
276,184,67226,2,0,P|308:142|424:151,1,160,8|0,0:0|0:0,0:0:0:0:
485,95,67645,1,0,0:0:0:0:
408,137,67784,2,0,L|352:298,1,160,0|2,0:0|2:2,0:0:0:0:
267,299,68203,1,2,2:2:0:0:
194,348,68342,6,0,L|134:259,1,80,8|0,0:0|0:0,0:0:0:0:
62,265,68621,2,0,L|127:177,1,80,8|0,0:0|0:0,0:0:0:0:
128,114,68900,2,0,L|207:176,2,80,8|0|8,0:0|0:0|0:0,0:0:0:0:
45,144,69319,1,0,0:0:0:0:
60,57,69459,2,0,P|117:82|223:55,1,160,8|8,0:0|0:0,0:0:0:0:
283,15,69877,2,0,P|240:66|270:182,1,160,0|0,0:0|0:0,0:0:0:0:
183,215,70296,2,0,P|233:244|286:234,1,80,8|0,0:0|0:0,0:0:0:0:
239,331,70575,2,0,L|365:120,2,240,8|0|8,0:0|0:0|0:0,0:0:0:0:
412,362,71691,6,0,L|375:267,1,80,8|0,0:0|0:0,0:0:0:0:
466,260,71970,2,0,L|400:192,1,80,0|0,0:0|0:0,0:0:0:0:
322,200,72249,1,0,0:0:0:0:
322,200,72389,1,8,0:0:0:0:
267,131,72528,2,0,L|174:196,1,80,8|8,0:0|0:0,0:0:0:0:
170,259,72807,6,0,L|139:70,1,160,8|8,0:0|0:0,0:0:0:0:
66,59,73226,2,0,P|113:99|54:149,1,160,0|0,0:0|0:0,0:0:0:0:
9,225,73645,2,0,L|117:257,1,80,8|0,0:0|0:0,0:0:0:0:
31,317,73924,2,0,L|205:247,1,160,8|0,0:0|0:0,0:0:0:0:
192,344,74342,2,0,P|190:301|293:303,1,160,0|0,0:0|0:0,0:0:0:0:
281,374,74761,1,8,0:0:0:0:
442,305,75040,6,0,L|469:142,1,160,8|8,0:3|0:3,0:0:0:0:
407,82,75459,1,0,0:0:0:0:
468,147,75598,2,0,P|381:166|321:93,1,160,8|0,0:3|0:0,0:0:0:0:
155,126,76156,2,0,L|309:218,1,160,8|8,0:0|2:2,0:0:0:0:
174,339,76714,2,0,L|232:257,1,80,8|8,0:0|0:0,0:0:0:0:
144,227,76993,1,8,0:0:0:0:
144,227,77133,1,0,0:0:0:0:
74,280,77272,6,0,P|102:225|81:116,1,160,8|8,0:0|0:0,0:0:0:0:
35,60,77691,2,0,L|199:144,1,160,0|0,0:0|0:0,0:0:0:0:
237,68,78110,2,0,P|267:125|260:156,1,80,8|0,0:0|0:0,0:0:0:0:
352,120,78389,2,0,P|233:276|237:338,1,240,8|2,0:0|0:0,0:0:0:0:
148,282,78947,2,0,P|209:306|393:267,1,240,2|2,0:0|0:0,0:0:0:0:
433,345,79505,6,0,P|407:286|437:165,1,160,8|0,0:0|0:0,0:0:0:0:
409,105,79924,2,0,P|370:180|293:141,1,160,0|0,0:0|0:0,0:0:0:0:
247,102,80342,2,0,L|270:203,2,80,8|0|0,0:0|0:0|0:0,0:0:0:0:
174,51,80761,1,0,0:0:0:0:
128,125,80900,2,0,L|151:226,1,80,8|0,0:0|0:0,0:0:0:0:
57,205,81179,2,0,L|80:306,1,80,0|0,0:0|0:0,0:0:0:0:
163,287,81459,1,8,0:0:0:0:
163,287,81598,1,0,0:0:0:0:
228,227,81738,6,0,P|263:266|370:237,1,160,0|8,0:0|0:0,0:0:0:0:
400,327,82156,2,0,P|447:272|399:176,1,160,0|0,0:0|0:0,0:0:0:0:
480,124,82575,2,0,L|312:179,1,160,8|0,0:0|0:0,0:0:0:0:
309,88,82993,1,0,0:0:0:0:
236,37,83133,2,0,L|218:120,1,80,8|0,0:0|0:0,0:0:0:0:
130,121,83412,2,0,L|166:203,1,80,0|0,0:0|0:0,0:0:0:0:
88,242,83691,2,0,L|157:296,1,80,8|0,0:0|0:0,0:0:0:0:
88,353,83970,6,0,P|149:321|255:337,1,160,4|0,0:0|0:0,0:0:0:0:
249,240,84389,2,0,P|310:268|396:216,1,160,0|0,0:0|0:0,0:0:0:0:
438,301,84807,2,0,L|423:125,1,160,8|0,0:0|0:0,0:0:0:0:
480,73,85226,1,0,0:0:0:0:
394,51,85365,2,0,L|330:103,1,80,8|0,0:0|0:0,0:0:0:0:
259,50,85645,1,0,0:0:0:0:
259,50,85784,1,0,0:0:0:0:
240,136,85924,2,0,L|311:204,1,80,0|0,0:0|0:0,0:0:0:0:
373,236,86203,6,0,P|278:239|230:366,2,240,8|8|0,0:0|0:0|0:0,0:0:0:0:
197,239,87319,2,0,B|310:269|413:88|294:-48|-20:208|296:290|390:223|343:18,1,560,8|0,2:2|0:0,0:0:0:0:
428,15,88429,6,0,L|440:102,1,80,8|8,0:0|0:0,0:0:0:0:
500,158,88708,2,0,L|420:192,1,80,8|0,0:0|0:0,0:0:0:0:
419,277,88987,2,0,L|329:242,1,80,8|0,0:0|0:0,0:0:0:0:
308,328,89266,1,8,0:0:0:0:
308,328,89405,1,0,0:0:0:0:
222,350,89545,6,0,L|176:276,1,80,0|0,0:0|0:0,0:0:0:0:
96,254,89824,2,0,L|155:178,1,80,0|0,0:0|0:0,0:0:0:0:
93,119,90103,2,0,L|192:86,1,80,0|0,0:0|0:0,0:0:0:0:
232,32,90382,2,0,L|286:101,1,80,4|0,0:0|0:0,0:0:0:0:
224,162,90661,5,8,0:0:0:0:
288,222,90801,1,8,0:0:0:0:
