osu file format v14

[General]
AudioFilename: audio.mp3
AudioLeadIn: 0
PreviewTime: 10017
Countdown: 0
SampleSet: None
StackLeniency: 0.9
Mode: 0
LetterboxInBreaks: 0
WidescreenStoryboard: 1

[Editor]
DistanceSpacing: 1
BeatDivisor: 4
GridSize: 32
TimelineZoom: 1

[Metadata]
Title:Embraced by the Flame (English ver.) (Short Ver.)
TitleUnicode:Embraced by the Flame (English ver.) (Short Ver.)
Artist:UNDEAD CORPORATION
ArtistUnicode:UNDEAD CORPORATION
Creator:MintyBusiness
Version:Yuhdj's Normal
Source:東方地霊殿 ~ Subterranean Animism.
Tags:touhou death metal english deathstream shortened doujin
BeatmapID:2143406
BeatmapSetID:993681

[Difficulty]
HPDrainRate:3
CircleSize:3.7
OverallDifficulty:3
ApproachRate:5
SliderMultiplier:0.6
SliderTickRate:1

[Events]
//Background and Video events
0,0,"KaenbyouRin2.png",0,0
//Break Periods
//Storyboard Layer 0 (Background)
//Storyboard Layer 1 (Fail)
//Storyboard Layer 2 (Pass)
//Storyboard Layer 3 (Foreground)
//Storyboard Layer 4 (Overlay)
//Storyboard Sound Samples

[TimingPoints]
1366,279.06976744186,4,3,1,65,1,0
1366,-100,4,3,1,65,0,0
1466,-100,4,2,1,65,0,0
62482,-100,4,3,1,65,0,0
62761,-90.9090909090909,4,3,1,65,0,1
79505,-100,4,2,1,65,0,0
88429,279.06976744186,4,3,1,65,1,0
88429,-100,4,3,1,65,0,0

[HitObjects]
79,293,1366,6,0,B|156:259|171:336|256:292,1,180,4|0,0:0|0:0,0:0:0:0:
328,246,2621,1,0,0:0:0:0:
306,162,3040,2,0,P|311:110|362:70,1,120,4|4,0:0|0:0,0:0:0:0:
390,155,4017,1,0,0:0:0:0:
353,237,4435,2,0,P|304:252|250:230,1,90,0|4,0:0|0:0,0:0:0:0:
194,189,5272,1,2,0:0:0:0:
154,234,5552,1,2,0:0:0:0:
160,293,5831,6,0,L|57:284,1,90,2|2,0:0|0:0,0:0:0:0:
65,195,6668,2,0,L|168:186,1,90,2|2,0:0|0:0,0:0:0:0:
244,181,7505,2,0,B|252:128|252:128|232:48,1,120,4|4,0:0|0:0,0:0:0:0:
147,47,8482,1,2,0:0:0:0:
89,116,8900,2,0,L|98:224,1,90,2|4,0:0|0:0,0:0:0:0:
156,274,9738,1,2,0:0:0:0:
196,319,10017,1,2,0:0:0:0:
175,375,10296,6,0,P|224:379|278:367,1,90,10|0,0:2|0:0,0:0:0:0:
346,336,11133,1,8,0:0:0:0:
428,372,11552,1,8,0:0:0:0:
428,372,11970,2,0,L|430:301,1,60,8|10,0:0|0:0,0:0:0:0:
401,258,12528,6,0,L|406:147,1,90,10|8,0:0|0:0,0:0:0:0:
409,77,13365,1,8,0:0:0:0:
326,115,13784,1,8,0:0:0:0:
326,115,14203,2,0,B|292:116|292:116|245:106,1,60,8|10,0:0|0:0,0:0:0:0:
209,93,14761,6,0,B|163:81|163:81|93:82,2,90,10|8|8,0:0|0:0|0:0,0:0:0:0:
242,176,16017,1,8,0:0:0:0:
242,176,16435,2,0,P|246:213|239:253,1,60,8|10,0:0|0:0,0:0:0:0:
235,295,16993,2,0,P|185:289|126:301,1,90,10|8,0:0|0:0,0:0:0:0:
69,347,17831,1,8,0:0:0:0:
69,347,18110,2,0,B|25:229|138:231|69:94,1,240,10|10,0:0|0:0,0:0:0:0:
87,56,19505,5,2,0:0:0:0:
196,105,20063,2,0,P|249:120|321:101,1,120,10|10,0:0|0:0,0:0:0:0:
367,85,20900,1,2,0:0:0:0:
367,85,21179,1,10,0:0:0:0:
449,172,21738,5,10,0:0:0:0:
382,271,22296,2,0,B|325:285|325:285|252:273,1,120,10|10,0:0|0:0,0:0:0:0:
207,257,23133,1,2,0:0:0:0:
148,242,23412,2,0,B|87:232|87:232|30:246,1,120,8|10,0:0|0:0,0:0:0:0:
90,349,24528,1,8,0:0:0:0:
95,229,25086,2,0,B|106:169|71:172|93:91,1,120,10|8,0:0|0:0,0:0:0:0:
134,71,25924,6,0,P|165:61|199:68,1,60,4|10,0:0|0:0,0:0:0:0:
236,104,26482,2,0,P|265:107|293:97,1,60,4|10,0:0|0:0,0:0:0:0:
352,86,27040,2,0,P|353:153|361:219,2,120,4|2|8,0:0|0:0|0:0,0:0:0:0:
440,103,28575,1,8,0:0:0:0:
458,190,28993,2,0,P|459:232|456:273,1,60,8|8,0:0|0:0,0:0:0:0:
402,320,29691,2,0,P|355:315|296:320,1,90,8|8,0:0|0:0,0:0:0:0:
256,340,30389,6,0,P|209:345|150:340,1,90,8|8,0:0|0:0,0:0:0:0:
79,366,31226,1,8,0:0:0:0:
79,366,31505,2,0,B|65:307|105:312|78:227,1,120,8|8,0:0|0:0,0:0:0:0:
68,189,32342,1,8,0:0:0:0:
49,131,32621,2,0,B|45:87|45:87|55:35,2,90,8|8|8,0:0|0:0|0:0,0:0:0:0:
97,166,33738,6,0,P|141:173|203:154,1,90,8|0,0:0|0:0,0:0:0:0:
213,152,34296,2,0,P|256:142|300:149,1,90,8|0,0:0|0:0,0:0:0:0:
328,160,34854,2,0,P|376:205|268:303,1,240,8|8,0:0|0:0,0:0:0:0:
218,297,36249,1,8,0:0:0:0:
152,286,36528,2,0,P|116:283|75:286,1,60,8|8,0:0|0:0,0:0:0:0:
40,324,37086,6,0,P|43:254|38:216,1,90,8|8,0:0|0:0,0:0:0:0:
32,135,37924,1,8,0:0:0:0:
32,135,38203,2,0,P|29:65|34:27,1,90,8|8,0:0|0:0,0:0:0:0:
129,33,39040,1,8,0:0:0:0:
129,33,39319,2,0,P|186:27|235:40,1,90,8|8,0:0|0:0,0:0:0:0:
304,58,40156,1,8,0:0:0:0:
358,83,40435,2,0,P|365:142|356:216,1,120,8|8,0:0|0:0,0:0:0:0:
345,260,41272,5,8,0:0:0:0:
291,284,41552,2,0,L|190:282,1,90,8|8,0:0|0:0,0:0:0:0:
118,319,42389,1,8,0:0:0:0:
100,261,42668,2,0,P|93:222|106:178,1,60,8|2,0:0|0:0,0:0:0:0:
115,145,43226,2,0,P|122:106|109:62,1,60,8|2,0:0|0:0,0:0:0:0:
164,47,43784,6,0,L|271:37,1,90,8|8,0:0|0:0,0:0:0:0:
336,73,44621,1,8,0:0:0:0:
379,31,44900,2,0,L|509:19,2,120,8|8|8,0:0|0:0|0:0,0:0:0:0:
335,109,46435,2,0,P|333:165|335:220,1,90,8|8,0:0|0:0,0:0:0:0:
329,259,47133,2,0,P|281:249|225:262,2,90,8|8|8,0:0|0:0|0:0,0:0:0:0:
386,277,48249,6,0,P|427:288|474:279,1,90,8|8,0:0|0:0,0:0:0:0:
431,199,49086,1,8,0:0:0:0:
431,199,49365,2,0,B|419:136|455:146|427:58,2,120,8|8|8,0:0|0:0|0:0,0:0:0:0:
371,267,50900,2,0,P|298:273|272:269,1,90,8|8,0:0|0:0,0:0:0:0:
222,260,51598,1,8,0:0:0:0:
110,310,52156,6,0,L|102:257,1,30,8|2,0:0|0:0,0:0:0:0:
125,257,52435,2,0,L|130:203,1,30,8|8,0:0|0:0,0:0:0:0:
145,207,52714,2,0,P|191:198|251:205,2,90,4|0|0,0:0|0:0|0:0,0:0:0:0:
101,165,53831,2,0,P|90:119|95:59,2,90,4|0|0,0:0|0:0|0:0,0:0:0:0:
88,217,54947,2,0,P|42:226|-18:219,2,90,4|0|0,0:0|0:0|0:0,0:0:0:0:
137,239,56063,2,0,P|147:284|142:344,2,90,4|0|0,0:0|0:0|0:0,0:0:0:0:
161,190,57179,6,0,B|249:167|246:227|352:193,1,180,4|8,0:0|0:0,0:0:0:0:
367,192,58156,1,8,0:0:0:0:
389,171,58296,2,0,P|394:122|406:77,2,90,4|0|0,0:0|0:0|0:0,0:0:0:0:
418,223,59412,2,0,P|412:271|401:317,2,90,4|0|0,0:0|0:0|0:0,0:0:0:0:
360,204,60528,2,0,P|304:205|254:202,2,90,4|0|0,0:0|0:0|0:0,0:0:0:0:
420,202,61645,1,4,0:0:0:0:
219,321,62482,5,4,0:0:0:0:
199,237,62761,2,0,P|195:205|208:145,1,66.0000020141602,8|8,0:0|0:0,0:0:0:0:
233,146,63179,2,0,P|237:114|224:54,1,66.0000020141602,2|0,0:0|0:0,0:0:0:0:
226,38,63598,1,8,0:0:0:0:
140,37,63877,2,0,L|62:41,1,66.0000020141602,8|8,0:0|0:0,0:0:0:0:
45,72,64296,2,0,B|51:109|51:109|47:153,1,66.0000020141602,2|0,0:0|0:0,0:0:0:0:
47,180,64714,1,8,0:0:0:0:
130,199,64993,6,0,P|181:202|237:191,2,99.0000030212403,8|2|8,0:0|0:0|0:0,0:0:0:0:
107,282,66110,2,0,P|56:285|0:274,2,99.0000030212403,8|2|8,0:0|0:0|0:0,0:0:0:0:
187,312,67226,2,0,B|299:274|273:349|394:305,1,198.000006042481,4|8,0:0|0:0,0:0:0:0:
416,286,68203,1,8,0:0:0:0:
450,260,68342,6,0,L|442:176,1,66.0000020141602,8|2,0:0|0:0,0:0:0:0:
481,174,68761,2,0,L|489:100,1,66.0000020141602,8|0,0:0|0:0,0:0:0:0:
496,66,69179,1,8,0:0:0:0:
413,40,69459,2,0,P|364:35|336:42,1,66.0000020141602,8|2,0:0|0:0,0:0:0:0:
334,78,69877,2,0,P|285:83|257:76,1,66.0000020141602,8|0,0:0|0:0,0:0:0:0:
226,70,70296,1,8,0:0:0:0:
151,113,70575,2,0,P|143:151|147:182,1,66.0000020141602,8|2,0:0|0:0,0:0:0:0:
183,198,70993,2,0,P|191:236|187:267,1,66.0000020141602,8|0,0:0|0:0,0:0:0:0:
178,304,71412,1,8,0:0:0:0:
99,337,71691,5,8,0:0:0:0:
29,286,71970,1,8,0:0:0:0:
16,201,72249,1,8,0:0:0:0:
67,132,72528,1,8,0:0:0:0:
149,108,72807,6,0,L|226:89,1,66.0000020141602,4|2,0:0|0:0,0:0:0:0:
226,132,73226,2,0,L|309:147,1,66.0000020141602,8|0,0:0|0:0,0:0:0:0:
312,180,73645,1,8,0:0:0:0:
386,136,73924,2,0,P|395:173|388:213,1,66.0000020141602,8|2,0:0|0:0,0:0:0:0:
377,240,74342,2,0,P|368:277|375:317,1,66.0000020141602,8|0,0:0|0:0,0:0:0:0:
377,346,74761,1,8,0:0:0:0:
295,372,75040,6,0,P|251:373|201:365,1,66.0000020141602,8|2,0:0|0:0,0:0:0:0:
193,346,75459,2,0,P|160:343|127:344,1,66.0000020141602,8|0,0:0|0:0,0:0:0:0:
86,356,75877,1,8,0:0:0:0:
29,291,76156,5,8,0:0:0:0:
86,226,76435,1,8,0:0:0:0:
29,161,76714,1,8,0:0:0:0:
86,96,76993,1,8,0:0:0:0:
29,31,77272,6,0,B|59:24|59:24|104:28,1,66.0000020141602,4|2,0:0|0:0,0:0:0:0:
126,55,77691,2,0,B|156:62|156:62|198:58,1,66.0000020141602,8|0,0:0|0:0,0:0:0:0:
233,50,78110,1,0,0:0:0:0:
295,108,78389,2,0,P|319:139|291:201,1,99.0000030212403,8|0,0:0|0:0,0:0:0:0:
276,225,78947,2,0,P|252:256|280:318,1,99.0000030212403,8|0,0:0|0:0,0:0:0:0:
300,331,79505,6,0,P|345:330|401:331,1,90,4|8,0:0|0:0,0:0:0:0:
470,289,80342,1,8,0:0:0:0:
418,215,80761,1,8,0:0:0:0:
418,215,81179,2,0,L|420:137,1,60,8|8,0:0|0:0,0:0:0:0:
466,117,81738,6,0,B|474:74|474:74|469:21,1,90,8|8,0:0|0:0,0:0:0:0:
387,65,82575,1,8,0:0:0:0:
309,20,82993,1,8,0:0:0:0:
309,20,83412,2,0,P|265:15|240:21,1,60,8|8,0:0|0:0,0:0:0:0:
210,63,83970,6,0,P|135:70|107:61,1,90,8|8,0:0|0:0,0:0:0:0:
41,25,84807,1,8,0:0:0:0:
11,110,85226,1,8,0:0:0:0:
11,110,85645,2,0,L|6:181,1,60,8|8,0:0|0:0,0:0:0:0:
48,212,86203,6,0,L|53:283,1,60,8|2,0:0|0:0,0:0:0:0:
48,301,86621,2,0,P|89:292|129:296,1,60,8|0,0:0|0:0,0:0:0:0:
136,295,87040,1,8,0:0:0:0:
180,335,87319,2,0,P|177:268|190:142,1,180,4|0,0:0|0:0,0:0:0:0:
234,95,88429,6,0,P|272:91|301:95,1,60,8|8,0:0|0:0,0:0:0:0:
280,170,88987,2,0,P|318:174|347:170,1,60,8|8,0:0|0:0,0:0:0:0:
400,219,89545,2,0,L|389:265,2,30,8|8|8,0:0|0:0|0:0,0:0:0:0:
473,245,90103,2,0,L|480:296,2,30,8|8|8,0:0|0:0|0:0,0:0:0:0:
457,168,90661,2,0,L|450:117,1,30,8|12,0:0|0:0,0:0:0:0:
