osu file format v14

[General]
AudioFilename: audio.mp3
AudioLeadIn: 0
PreviewTime: 10017
Countdown: 0
SampleSet: Soft
StackLeniency: 0.7
Mode: 0
LetterboxInBreaks: 0
WidescreenStoryboard: 1

[Editor]
Bookmarks: 1366,10296,19226,28156,37086,43784,47133,52714,62761,79505,88429
DistanceSpacing: 0.9
BeatDivisor: 4
GridSize: 32
TimelineZoom: 2.799999

[Metadata]
Title:Embraced by the Flame (English ver.) (Short Ver.)
TitleUnicode:Embraced by the Flame (English ver.) (Short Ver.)
Artist:UNDEAD CORPORATION
ArtistUnicode:UNDEAD CORPORATION
Creator:MintyBusiness
Version:LosPedros' Insane
Source:東方地霊殿 ~ Subterranean Animism.
Tags:touhou death metal english deathstream shortened doujin
BeatmapID:2082214
BeatmapSetID:993681

[Difficulty]
HPDrainRate:4
CircleSize:4
OverallDifficulty:8
ApproachRate:9
SliderMultiplier:1.4
SliderTickRate:1

[Events]
//Background and Video events
0,0,"embracebg.jpg",0,0
//Break Periods
//Storyboard Layer 0 (Background)
//Storyboard Layer 1 (Fail)
//Storyboard Layer 2 (Pass)
//Storyboard Layer 3 (Foreground)
//Storyboard Layer 4 (Overlay)
//Storyboard Sound Samples

[TimingPoints]
1366,279.06976744186,4,2,1,70,1,0
3040,-66.6666666666667,4,2,1,70,0,0
10296,-66.6666666666667,4,2,1,70,0,0
11970,-57.1428571428571,4,2,1,70,0,0
12528,-66.6666666666667,4,2,1,70,0,0
14203,-57.1428571428571,4,2,1,70,0,0
14761,-66.6666666666667,4,2,1,70,0,0
15179,-44.4444444444445,4,2,1,70,0,0
15738,-66.6666666666667,4,2,1,70,0,0
16435,-57.1428571428571,4,2,1,70,0,0
16993,-66.6666666666667,4,2,1,70,0,0
18110,-50,4,2,1,70,0,0
18668,-66.6666666666667,4,2,1,70,0,0
18947,-57.1428571428571,4,2,1,70,0,0
19226,-66.6666666666667,4,2,1,70,0,0
28156,-66.6666666666667,4,2,1,70,0,0
30110,-57.1428571428571,4,2,1,70,0,0
30389,-66.6666666666667,4,2,1,70,0,0
31505,-57.1428571428571,4,2,1,70,0,0
32063,-66.6666666666667,4,2,1,70,0,0
35970,-57.1428571428571,4,2,1,70,0,0
41552,-66.6666666666667,4,2,1,70,0,0
43784,-66.6666666666667,4,2,1,70,0,0
46017,-57.1428571428571,4,2,1,70,0,0
47552,-50,4,2,1,70,0,0
47970,-44.4444444444445,4,2,1,70,0,0
48249,-66.6666666666667,4,2,1,70,0,0
62482,-100,4,2,1,70,0,0
62761,-66.6666666666667,4,2,1,70,0,1
70993,-57.1428571428571,4,2,1,70,0,1
71691,-66.6666666666667,4,2,1,70,0,1
77272,-57.1428571428571,4,2,1,70,0,1
79505,-66.6666666666667,4,2,1,70,0,0
88429,279.06976744186,4,2,1,70,1,0
88429,-66.6666666666667,4,2,1,70,0,0

[Colours]
Combo1 : 210,2,33
Combo2 : 235,18,72
Combo3 : 251,223,140
Combo4 : 244,68,17

[HitObjects]
124,92,1366,5,10,0:0:0:0:
128,96,3040,6,0,B|161:118|161:118|291:108,1,157.500006008148,10|0,0:0|0:0,0:0:0:0:
287,98,3319,2,0,P|276:157|345:234,1,157.500006008148,10|0,0:0|0:0,0:0:0:0:
348,225,3598,1,10,0:0:0:0:
352,229,4854,5,10,3:3:0:0:
356,233,5272,6,0,B|292:229|292:229|289:226|289:226|265:235|265:235|262:233|262:233|202:229,1,157.500006008148,10|0,0:0|0:0,0:0:0:0:
194,216,5552,2,0,P|203:285|142:344,1,157.500006008148,10|0,0:0|0:0,0:0:0:0:
127,340,5831,6,0,B|83:299|83:299|74:203|74:203|81:192|81:192|58:147|58:147|65:141|65:141|58:51,3,315.000012016297,10|10|10|10,0:0|0:0|0:0|0:0,0:0:0:0:
63,57,7505,6,0,B|122:64|122:64|148:102|148:102|210:109,1,157.500006008148,10|0,0:0|0:0,0:0:0:0:
216,100,7784,2,0,P|202:158|258:252,1,157.500006008148,10|0,0:0|0:0,0:0:0:0:
262,236,8063,5,12,0:0:0:0:
473,192,8482,1,12,0:0:0:0:
301,161,8900,1,4,0:0:0:0:
345,229,9040,1,8,0:0:0:0:
349,233,9110,1,8,0:0:0:0:
353,237,9179,2,0,P|348:268|334:297,1,52.5000020027161,8|0,0:0|0:0,0:0:0:0:
281,336,9319,6,0,B|235:325|195:332|175:369|175:369|166:346|175:318|175:318|123:331|70:319|38:283,1,315.000012016297,0|2,0:0|0:0,0:0:0:0:
43,270,10017,2,0,P|54:229|47:194,3,52.5000020027161,2|0|14|0,0:0|0:0|0:0|0:0,0:0:0:0:
40,192,10296,6,0,P|19:137|97:16,1,210.000008010865,6|4,0:0|0:0,0:0:0:0:
177,23,10714,1,2,0:0:0:0:
126,90,10854,2,0,P|162:126|247:132,1,105.000004005432,4|0,0:0|0:0,0:0:0:0:
282,99,11133,2,0,L|345:88,3,52.5000020027161,6|0|0|0,0:0|0:0|0:0|0:0,0:0:0:0:
402,132,11412,1,4,0:0:0:0:
327,170,11552,6,0,P|346:227|243:323,1,210.000008010865,2|0,0:0|0:0,0:0:0:0:
162,323,11970,2,0,B|152:244|152:244|159:231|159:231|128:186|128:186|137:175|137:175|129:93,1,245.000002336502,10|10,0:0|0:0,0:0:0:0:
181,27,12389,1,8,0:0:0:0:
257,25,12528,2,0,P|283:10|313:2,5,52.5000020027161,6|0|0|0|4|0,0:0|0:0|0:0|0:0|0:0|0:0,0:0:0:0:
383,37,12947,2,0,P|409:51|439:59,5,52.5000020027161,2|0|4|0|0|0,0:0|0:0|0:0|0:0|0:0|0:0,0:0:0:0:
511,33,13365,2,0,L|501:172,1,105.000004005432,6|0,0:0|0:0,0:0:0:0:
455,195,13645,5,4,0:0:0:0:
459,199,13714,1,0,0:0:0:0:
463,202,13784,2,0,P|456:231|464:261,1,52.5000020027161,2|0,0:0|0:0,0:0:0:0:
509,315,13924,2,0,P|451:329|400:298,1,105.000004005432,4|0,0:0|0:0,0:0:0:0:
364,241,14203,6,0,P|298:217|233:348,1,245.000002336502,6|6,0:0|0:0,0:0:0:0:
308,301,14621,1,0,0:0:0:0:
368,245,14761,2,0,P|375:193|358:144,1,105.000004005432,6|0,0:0|0:0,0:0:0:0:
300,87,15040,1,4,0:0:0:0:
282,161,15179,2,0,B|243:178|198:174|164:150|164:150|147:135|145:110|159:93|159:93|173:77|198:74|215:88|215:88|233:101|236:126|222:144|222:144|209:162|184:165|166:152|166:152|131:125|81:125|47:154,1,472.500018024445,2|6,0:0|0:0,0:0:0:0:
21,196,15738,1,0,0:0:0:0:
98,210,15877,1,4,0:0:0:0:
137,278,16017,6,0,P|215:339|309:299,1,210.000008010865,2|0,0:0|0:0,0:0:0:0:
341,233,16435,5,10,0:0:0:0:
353,123,16575,1,8,0:0:0:0:
434,209,16714,5,10,0:0:0:0:
416,79,16854,1,8,0:0:0:0:
509,149,16993,6,0,L|483:41,2,105.000004005432,6|0|4,0:0|0:0|0:0,0:0:0:0:
504,230,17412,5,2,0:0:0:0:
431,203,17552,2,0,L|373:214,3,52.5000020027161,4|0|0|0,0:0|0:0|0:0|0:0,0:0:0:0:
309,173,17831,2,0,L|251:162,3,52.5000020027161,6|0|0|0,0:0|0:0|0:0|0:0,0:0:0:0:
220,228,18110,6,0,B|133:240|133:240|153:259|155:290|137:309|137:309|119:330|88:332|68:315|68:315|47:297|44:267|62:245|62:245|77:228|82:205|78:183|78:183|73:161|60:141,1,420,14|0,0:0|0:0,0:0:0:0:
14,92,18668,2,0,P|8:59|19:25,3,52.5000020027161,12|0|0|0,0:0|0:0|0:0|0:0,0:0:0:0:
84,18,18947,6,0,P|152:58|231:42,1,163.333334891001,12|8,0:0|0:0,0:0:0:0:
267,16,19226,6,0,P|322:20|372:56,1,105.000004005432,4|2,0:0|0:0,0:0:0:0:
430,147,19505,2,0,P|385:174|333:177,1,105.000004005432,4|2,0:0|0:0,0:0:0:0:
234,149,19784,1,4,0:0:0:0:
269,234,19924,1,2,0:0:0:0:
302,87,20063,2,0,P|260:58|208:56,1,105.000004005432,4|2,0:0|0:0,0:0:0:0:
139,110,20342,5,4,0:0:0:0:
127,193,20482,1,2,0:0:0:0:
26,269,20621,5,4,0:0:0:0:
15,186,20761,1,2,0:0:0:0:
147,182,20900,6,0,L|133:303,1,105.000004005432,4|2,0:0|0:0,0:0:0:0:
23,363,21179,2,0,L|10:258,1,105.000004005432,4|2,0:0|0:0,0:0:0:0:
125,295,21459,5,4,0:0:0:0:
207,308,21598,1,2,0:0:0:0:
289,290,21738,1,4,0:0:0:0:
357,241,21877,1,2,0:0:0:0:
380,159,22017,5,4,0:0:0:0:
430,293,22156,1,2,0:0:0:0:
299,176,22296,2,0,P|306:125|341:87,1,105.000004005432,4|2,0:0|0:0,0:0:0:0:
428,94,22575,6,0,L|445:-10,1,105.000004005432,4|2,0:0|0:0,0:0:0:0:
278,80,22854,2,0,L|295:184,1,105.000004005432,4|2,0:0|0:0,0:0:0:0:
128,94,23133,5,4,0:0:0:0:
268,72,23272,1,2,0:0:0:0:
102,165,23412,2,0,P|79:150|63:130,3,52.5000020027161,4|0|2|0,0:0|0:0|0:0|0:0,0:0:0:0:
175,149,23691,6,0,P|200:194|195:245,1,105.000004005432,4|2,0:0|0:0,0:0:0:0:
88,351,23970,2,0,P|83:299|108:254,1,105.000004005432,4|2,0:0|0:0,0:0:0:0:
274,260,24249,5,4,0:0:0:0:
158,310,24389,1,2,0:0:0:0:
301,190,24528,2,0,P|338:224|345:275,1,105.000004005432,4|2,0:0|0:0,0:0:0:0:
293,334,24807,6,0,B|334:365|334:365|386:372,1,105.000004005432,8|0,0:0|0:0,0:0:0:0:
508,263,25086,2,0,B|456:270|456:270|414:301,1,105.000004005432,8|0,0:0|0:0,0:0:0:0:
506,345,25365,5,8,0:0:0:0:
473,185,25505,1,0,0:0:0:0:
342,286,25645,1,8,0:0:0:0:
346,290,25924,6,0,L|336:225,3,52.5000020027161,12|0|10|0,0:0|0:0|0:0|0:0,0:0:0:0:
268,211,26203,2,0,L|261:263,3,52.5000020027161,12|0|10|0,0:0|0:0|0:0|0:0,0:0:0:0:
190,289,26482,2,0,L|183:238,3,52.5000020027161,12|0|10|0,0:0|0:0|0:0|0:0,0:0:0:0:
112,211,26761,2,0,L|105:263,3,52.5000020027161,12|0|10|0,0:0|0:0|0:0|0:0,0:0:0:0:
34,289,27040,5,12,0:0:0:0:
30,206,27179,1,8,0:0:0:0:
34,210,27249,1,8,0:0:0:0:
38,214,27319,2,0,P|17:167|20:115,1,105.000004005432,8|8,0:0|0:0,0:0:0:0:
67,47,27598,6,0,L|126:38,3,52.5000020027161,8|8|8|8,0:0|0:0|0:0|0:0,0:0:0:0:
177,89,27877,2,0,L|228:96,3,52.5000020027161,8|8|8|8,0:0|0:0|0:0|0:0,0:0:0:0:
289,46,28156,6,0,P|390:55|450:137,1,210.000008010865,6|4,0:0|0:0,0:0:0:0:
421,216,28575,1,2,0:0:0:0:
371,283,28714,2,0,P|316:297|244:271,1,105.000004005432,4|0,0:0|0:0,0:0:0:0:
200,238,28993,1,6,0:0:0:0:
190,321,29133,1,2,0:0:0:0:
276,201,29272,6,0,P|192:150|116:212,1,210.000008010865,6|4,0:0|0:0,0:0:0:0:
204,242,29691,1,2,0:0:0:0:
289,211,29831,2,0,P|324:155|317:92,1,105.000004005432,4|0,0:0|0:0,0:0:0:0:
287,41,30110,2,0,L|214:30,3,61.2500005841255,6|0|0|0,0:0|0:0|0:0|0:0,0:0:0:0:
367,49,30389,6,0,P|399:40|431:42,1,52.5000020027161,6|0,0:0|0:0,0:0:0:0:
407,113,30528,2,0,P|431:121|458:122,3,52.5000020027161,2|0|4|0,0:0|0:0|0:0|0:0,0:0:0:0:
495,187,30807,6,0,P|507:210|512:235,5,52.5000020027161,2|0|4|0|0|0,0:0|0:0|0:0|0:0|0:0|0:0,0:0:0:0:
434,238,31226,2,0,P|422:261|417:287,3,52.5000020027161,6|0|0|0,0:0|0:0|0:0|0:0,0:0:0:0:
427,362,31505,6,0,B|380:370|352:351|352:351|344:346|344:346|305:349|305:349|298:344|298:344|265:325|222:335|222:335|184:373|120:358|120:358|100:318|21:305,1,428.750004088879,6|0,0:0|0:0,0:0:0:0:
19,319,32063,6,0,P|58:260|44:172,1,157.500006008148,6|0,0:0|0:0,0:0:0:0:
83,186,32342,2,0,P|44:127|58:39,1,157.500006008148,6|0,0:0|0:0,0:0:0:0:
61,61,32621,6,0,P|139:47|235:125,1,210.000008010865,2|0,0:0|0:0,0:0:0:0:
208,273,33179,5,2,0:0:0:0:
287,244,33319,1,2,0:0:0:0:
363,280,33459,2,0,P|413:268|448:230,1,105.000004005432,0|0,0:0|0:0,0:0:0:0:
379,73,33738,2,0,P|367:142|472:233,1,210.000008010865,2|0,0:0|0:0,0:0:0:0:
512,81,34296,5,2,0:0:0:0:
442,31,34435,1,0,0:0:0:0:
370,87,34575,1,0,0:0:0:0:
170,49,34854,6,0,L|178:105,3,52.5000020027161,4|0|0|0,0:0|0:0|0:0|0:0,0:0:0:0:
229,156,35133,2,0,L|221:212,3,52.5000020027161,4|0|0|0,0:0|0:0|0:0|0:0,0:0:0:0:
146,226,35412,2,0,L|154:282,3,52.5000020027161,4|0|0|0,0:0|0:0|0:0|0:0,0:0:0:0:
205,333,35691,2,0,L|197:389,3,52.5000020027161,4|0|0|0,0:0|0:0|0:0|0:0,0:0:0:0:
281,376,35970,6,0,B|312:359|324:339|324:339|319:318|296:302|296:302|320:283|328:253|328:253|306:222|325:175,3,245.000002336502,14|14|14|14,0:0|0:0|0:0|0:0,0:0:0:0:
67,141,37086,6,0,P|122:178|238:78,1,245.000002336502,6|4,0:0|0:0,0:0:0:0:
146,84,37505,1,2,0:0:0:0:
53,131,37645,2,0,P|52:211|87:262,1,122.500001168251,4|0,0:0|0:0,0:0:0:0:
162,273,37924,2,0,P|157:314|137:345,3,61.2500005841255,6|0|0|0,0:0|0:0|0:0|0:0,0:0:0:0:
238,247,38203,6,0,P|304:210|453:277,1,245.000002336502,6|4,0:0|0:0,0:0:0:0:
478,351,38621,1,2,0:0:0:0:
428,268,38761,2,0,P|413:209|439:155,1,122.500001168251,4|0,0:0|0:0,0:0:0:0:
504,106,39040,2,0,P|494:75|469:52,3,61.2500005841255,6|0|0|0,0:0|0:0|0:0|0:0,0:0:0:0:
399,65,39319,6,0,P|372:80|342:87,1,61.2500005841255,6|0,0:0|0:0,0:0:0:0:
308,21,39459,2,0,P|281:6|251:0,3,61.2500005841255,2|0|4|0,0:0|0:0|0:0|0:0,0:0:0:0:
216,65,39738,6,0,P|189:79|159:86,5,61.2500005841255,2|0|4|0|0|0,0:0|0:0|0:0|0:0|0:0|0:0,0:0:0:0:
101,26,40156,6,0,P|78:111|143:169,1,183.750001752377,6|0,0:0|0:0,0:0:0:0:
167,161,40435,6,0,P|184:202|175:246,3,61.2500005841255,6|0|0|0,0:0|0:0|0:0|0:0,0:0:0:0:
135,283,40714,6,0,L|150:363,1,61.2500005841255,4|0,0:0|0:0,0:0:0:0:
262,374,40854,2,0,L|273:313,1,61.2500005841255,0|0,0:0|0:0,0:0:0:0:
389,283,40993,6,0,P|401:313|400:343,3,61.2500005841255,6|0|0|0,0:0|0:0|0:0|0:0,0:0:0:0:
312,249,41272,2,0,P|311:218|323:190,3,61.2500005841255,6|0|0|0,0:0|0:0|0:0|0:0,0:0:0:0:
405,198,41552,6,0,B|425:157|425:157|397:114|397:114|413:69|413:69|380:22|380:22|316:50|237:31,2,315.000012016297,12|14|12,0:0|0:0|0:0,0:0:0:0:
268,136,42668,6,0,P|203:120|95:207,1,210.000008010865,10|8,0:0|0:0,0:0:0:0:
129,300,43086,1,8,0:0:0:0:
227,338,43226,2,0,L|293:346,3,52.5000020027161,10|8|8|8,0:0|0:0|0:0|0:0,0:0:0:0:
135,309,43505,2,0,L|69:317,3,52.5000020027161,10|8|8|8,0:0|0:0|0:0|0:0,0:0:0:0:
216,352,43784,6,0,B|285:363|285:363|340:335|340:335|417:348,1,210.000008010865,14|0,0:0|0:0,0:0:0:0:
512,383,44203,2,0,P|492:285|398:247,1,210.000008010865,2|2,0:0|0:0,0:0:0:0:
317,269,44621,2,0,P|321:217|352:177,1,105.000004005432,10|0,0:0|0:0,0:0:0:0:
435,157,44900,5,10,0:0:0:0:
373,99,45040,1,0,0:0:0:0:
291,81,45179,1,2,0:0:0:0:
208,100,45319,1,2,0:0:0:0:
145,156,45459,2,0,P|78:146|50:119,1,105.000004005432,10|2,0:0|0:0,0:0:0:0:
224,177,45738,5,2,0:0:0:0:
228,181,46017,6,0,B|232:235|232:235|236:241|236:241|224:296|224:296|231:303|231:303|243:384|243:384|151:357|151:357|56:370,2,367.500003504753,10|2|10,0:0|0:0|0:0,0:0:0:0:
242,192,47133,6,0,B|283:189|323:201|323:201|371:161|371:161|420:182|471:174,1,241.875009226799,4|0,0:0|0:0,0:0:0:0:
477,160,47552,6,0,B|423:171|368:147|368:147|361:72|259:27,1,280,4|2,0:0|0:0,0:0:0:0:
287,11,47970,6,0,B|326:33|351:58|351:58|386:48|403:20|403:20|436:49|499:39,1,236.250009012223,6|0,0:0|0:0,0:0:0:0:
497,30,48249,6,0,P|511:53|517:78,5,52.5000020027161,6|0|0|0|4|0,0:0|0:0|0:0|0:0|0:0|0:0,0:0:0:0:
475,145,48668,2,0,P|461:167|455:192,5,52.5000020027161,2|0|4|0|0|0,0:0|0:0|0:0|0:0|0:0|0:0,0:0:0:0:
493,262,49086,6,0,P|506:284|512:309,3,52.5000020027161,6|0|0|0,0:0|0:0|0:0|0:0,0:0:0:0:
460,363,49365,6,0,P|401:338|336:342,1,105.000004005432,6|0,0:0|0:0,0:0:0:0:
280,378,49645,1,4,0:0:0:0:
121,306,49924,6,0,P|108:279|105:245,3,52.5000020027161,6|0|0|0,0:0|0:0|0:0|0:0,0:0:0:0:
195,215,50203,2,0,P|208:188|211:154,3,52.5000020027161,4|0|0|0,0:0|0:0|0:0|0:0,0:0:0:0:
154,105,50482,5,6,0:0:0:0:
250,40,50621,2,0,L|310:31,2,52.5000020027161,0|0|12,0:0|0:0|0:0,0:0:0:0:
76,71,50900,1,10,0:0:0:0:
80,75,50970,1,8,0:0:0:0:
84,79,51040,2,0,P|85:130|119:169,1,105.000004005432,12|8,0:0|0:0,0:0:0:0:
217,155,51319,1,14,0:0:0:0:
221,159,51598,6,0,B|267:229|279:308|245:360|165:359|131:327|138:260|196:239,1,315.000012016297,14|0,0:0|0:0,0:0:0:0:
316,190,52156,5,8,0:0:0:0:
358,293,52296,1,8,0:0:0:0:
404,160,52435,5,10,0:0:0:0:
369,286,52575,1,0,0:0:0:0:
486,183,52714,5,14,0:0:0:0:
485,202,53831,5,14,0:0:0:0:
484,221,54947,5,14,0:0:0:0:
483,240,56063,5,14,0:0:0:0:
482,259,57179,5,14,0:0:0:0:
481,278,58296,5,14,0:0:0:0:
480,297,59412,5,14,0:0:0:0:
479,316,60528,5,14,0:0:0:0:
478,335,61644,5,14,0:0:0:0:
399,366,62482,6,0,P|353:341|297:342,1,105.000004005432,0|0,0:0|0:0,0:0:0:0:
292,350,62761,6,0,P|230:314|250:179,1,210.000008010865,6|4,0:0|0:0,0:0:0:0:
308,144,63179,1,2,0:0:0:0:
327,61,63319,2,0,P|294:15|231:-2,1,105.000004005432,4|0,0:0|0:0,0:0:0:0:
169,21,63598,2,0,P|191:89|140:168,1,157.500006008148,6|0,0:0|0:0,0:0:0:0:
139,152,63877,6,0,P|74:152|15:281,1,210.000008010865,6|4,0:0|0:0,0:0:0:0:
61,334,64296,1,2,0:0:0:0:
138,366,64435,2,0,P|190:338|254:341,1,105.000004005432,4|0,0:0|0:0,0:0:0:0:
305,382,64714,2,0,P|356:378|401:352,1,105.000004005432,6|0,0:0|0:0,0:0:0:0:
435,278,64993,6,0,P|424:254|423:227,5,52.5000020027161,6|0|0|0|4|0,0:0|0:0|0:0|0:0|0:0|0:0,0:0:0:0:
479,168,65412,2,0,P|489:144|490:117,5,52.5000020027161,2|0|4|0|0|0,0:0|0:0|0:0|0:0|0:0|0:0,0:0:0:0:
430,74,65831,6,0,L|365:66,3,52.5000020027161,6|0|0|0,0:0|0:0|0:0|0:0,0:0:0:0:
317,114,66110,6,0,P|295:128|269:133,5,52.5000020027161,6|0|0|0|4|0,0:0|0:0|0:0|0:0|0:0|0:0,0:0:0:0:
201,89,66529,2,0,P|175:82|149:86,5,52.5000020027161,2|0|4|0|0|0,0:0|0:0|0:0|0:0|0:0|0:0,0:0:0:0:
92,143,66947,6,0,L|86:215,3,52.5000020027161,6|0|0|0,0:0|0:0|0:0|0:0,0:0:0:0:
131,264,67226,6,0,P|152:278|178:283,3,52.5000020027161,6|0|0|0,0:0|0:0|0:0|0:0,0:0:0:0:
237,225,67505,2,0,P|258:210|284:205,3,52.5000020027161,4|0|0|0,0:0|0:0|0:0|0:0,0:0:0:0:
343,264,67784,2,0,P|364:278|390:283,3,52.5000020027161,4|0|0|0,0:0|0:0|0:0|0:0,0:0:0:0:
459,255,68063,5,6,0:0:0:0:
485,165,68203,1,2,0:0:0:0:
423,102,68342,2,0,P|363:127|259:42,1,210.000008010865,6|4,0:0|0:0,0:0:0:0:
358,25,68761,1,2,0:0:0:0:
436,90,68900,2,0,P|414:157|361:192,1,105.000004005432,4|0,0:0|0:0,0:0:0:0:
323,231,69179,6,0,P|255:193|178:200,1,157.500006008148,6|0,0:0|0:0,0:0:0:0:
159,208,69459,2,0,P|174:282|299:333,1,210.000008010865,6|4,0:0|0:0,0:0:0:0:
387,305,69877,1,2,0:0:0:0:
432,210,70017,2,0,P|427:140|397:95,1,105.000004005432,4|0,0:0|0:0,0:0:0:0:
322,51,70296,6,0,P|280:143|319:237,1,210.000008010865,6|6,0:0|0:0,0:0:0:0:
398,298,70714,1,0,0:0:0:0:
320,368,70854,1,4,0:0:0:0:
215,372,70993,6,0,B|186:333|136:318|74:333|74:333|97:298|133:293|133:293|89:263|61:208|96:149,1,367.500003504753,2|6,0:0|0:0,0:0:0:0:
134,99,71552,1,0,0:0:0:0:
224,136,71691,6,0,P|263:124|292:125,3,52.5000020027161,6|0|0|0,0:0|0:0|0:0|0:0,0:0:0:0:
324,177,71970,2,0,P|363:189|392:188,3,52.5000020027161,4|0|0|0,0:0|0:0|0:0|0:0,0:0:0:0:
447,156,72249,5,4,0:0:0:0:
451,160,72319,1,0,0:0:0:0:
455,164,72389,1,0,0:0:0:0:
421,83,72528,2,0,P|399:96|383:117,3,52.5000020027161,4|0|0|0,0:0|0:0|0:0|0:0,0:0:0:0:
497,98,72807,6,0,P|451:12|357:35,1,210.000008010865,6|6,0:0|0:0,0:0:0:0:
425,87,73226,1,2,0:0:0:0:
368,24,73365,2,0,P|302:6|245:32,1,105.000004005432,0|0,0:0|0:0,0:0:0:0:
239,93,73645,2,0,P|198:147|81:142,1,157.500006008148,6|0,0:0|0:0,0:0:0:0:
98,146,73924,6,0,P|155:230|119:325,1,210.000008010865,6|4,0:0|0:0,0:0:0:0:
46,357,74342,1,2,0:0:0:0:
21,228,74482,2,0,P|38:179|79:147,1,105.000004005432,4|0,0:0|0:0,0:0:0:0:
224,214,74761,2,0,P|300:227|369:193,1,157.500006008148,6|0,0:0|0:0,0:0:0:0:
384,176,75040,6,0,P|373:152|371:125,5,52.5000020027161,6|0|0|0|4|0,0:0|0:0|0:0|0:0|0:0|0:0,0:0:0:0:
465,175,75459,2,0,P|462:201|452:225,5,52.5000020027161,2|0|4|0|0|0,0:0|0:0|0:0|0:0|0:0|0:0,0:0:0:0:
381,253,75877,5,6,0:0:0:0:
384,256,76156,6,0,L|390:309,3,52.5000020027161,6|0|0|0,0:0|0:0|0:0|0:0,0:0:0:0:
312,298,76435,2,0,L|292:250,3,52.5000020027161,4|0|0|0,0:0|0:0|0:0|0:0,0:0:0:0:
231,296,76714,2,0,L|237:349,3,52.5000020027161,4|0|0|0,0:0|0:0|0:0|0:0,0:0:0:0:
159,337,76993,5,6,0:0:0:0:
121,233,77133,1,2,0:0:0:0:
164,131,77272,2,0,P|280:158|373:85,1,245.000002336502,6|4,0:0|0:0,0:0:0:0:
377,2,77691,1,2,0:0:0:0:
263,76,77831,2,0,P|315:104|390:87,1,122.500001168251,4|0,0:0|0:0,0:0:0:0:
472,48,78110,2,0,L|448:236,1,183.750001752377,6|0,0:0|0:0,0:0:0:0:
427,224,78389,6,0,L|432:303,5,61.2500005841255,6|0|0|0|4|0,0:0|0:0|0:0|0:0|0:0|0:0,0:0:0:0:
371,337,78807,1,0,0:0:0:0:
375,341,78877,1,0,0:0:0:0:
379,345,78947,2,0,L|317:356,1,61.2500005841255,14|8,0:0|0:0,0:0:0:0:
285,291,79086,2,0,L|223:280,5,61.2500005841255,8|8|12|8|8|8,0:0|0:0|0:0|0:0|0:0|0:0,0:0:0:0:
168,342,79505,6,0,P|106:260|126:160,1,210.000008010865,14|0,0:0|0:0,0:0:0:0:
204,106,79924,1,2,0:0:0:0:
284,155,80063,1,0,0:0:0:0:
367,109,80203,1,0,0:0:0:0:
440,166,80342,6,0,P|458:118|448:67,1,105.000004005432,2|0,0:0|0:0,0:0:0:0:
362,103,80621,1,4,0:0:0:0:
281,146,80761,2,0,P|229:201|240:342,1,210.000008010865,2|0,0:0|0:0,0:0:0:0:
291,382,81179,5,6,0:0:0:0:
446,283,81319,1,0,0:0:0:0:
458,384,81459,5,6,0:0:0:0:
340,259,81598,1,0,0:0:0:0:
296,370,81738,6,0,L|190:337,2,105.000004005432,6|0|4,0:0|0:0|0:0,0:0:0:0:
335,245,82156,2,0,L|441:212,2,105.000004005432,2|0|0,0:0|0:0|0:0,0:0:0:0:
224,220,82575,6,0,P|194:170|201:95,1,105.000004005432,6|0,0:0|0:0,0:0:0:0:
234,32,82854,1,4,0:0:0:0:
291,113,82993,2,0,P|337:135|389:132,1,105.000004005432,2|0,0:0|0:0,0:0:0:0:
475,90,83272,1,0,0:0:0:0:
465,196,83412,6,0,P|425:242|435:348,1,157.500006008148,6|0,0:0|0:0,0:0:0:0:
445,349,83691,2,0,P|399:309|293:319,1,157.500006008148,6|0,0:0|0:0,0:0:0:0:
299,297,83970,6,0,P|225:358|120:335,1,210.000008010865,6|4,0:0|0:0,0:0:0:0:
73,255,84389,1,2,0:0:0:0:
124,178,84528,2,0,P|140:122|119:72,1,105.000004005432,4|0,0:0|0:0,0:0:0:0:
43,24,84807,5,6,0:0:0:0:
47,28,85086,5,4,0:0:0:0:
114,90,85226,2,0,P|163:107|215:106,1,105.000004005432,2|4,0:0|0:0,0:0:0:0:
297,62,85505,1,0,0:0:0:0:
394,87,85645,2,0,B|405:162|405:162|383:206|383:206|396:289,1,210.000008010865,6|6,0:0|0:0,0:0:0:0:
413,375,86063,1,0,0:0:0:0:
309,335,86203,5,6,0:0:0:0:
207,371,86342,2,0,L|150:365,2,52.5000020027161,0|0|4,0:0|0:0|0:0,0:0:0:0:
313,339,86621,5,2,0:0:0:0:
176,280,86761,2,0,L|119:274,2,52.5000020027161,4|0|0,0:0|0:0|0:0,0:0:0:0:
317,343,87040,5,6,0:0:0:0:
282,251,87179,1,0,0:0:0:0:
307,149,87319,1,6,0:0:0:0:
256,192,87389,12,0,88156,0:0:0:0:
352,102,88429,5,0,0:0:0:0:
369,212,88568,1,0,0:0:0:0:
275,152,88708,5,0,0:0:0:0:
258,262,88847,1,0,0:0:0:0:
175,184,88987,6,0,P|114:183|75:162,1,105,0|0,0:0|0:0,0:0:0:0:
206,80,89266,2,0,P|252:57|304:58,1,105,0|0,0:0|0:0,0:0:0:0:
427,126,89545,5,0,0:0:0:0:
444,29,89684,1,0,0:0:0:0:
512,189,89824,5,0,0:0:0:0:
495,92,89963,1,0,0:0:0:0:
408,134,90103,6,0,P|396:195|412:253,1,105.000004005432,0|0,0:0|0:0,0:0:0:0:
468,311,90382,1,0,0:0:0:0:
365,367,90522,1,0,0:0:0:0:
476,316,90661,5,0,0:0:0:0:
267,274,90801,1,0,0:0:0:0:
