osu file format v14

[General]
AudioFilename: audio.mp3
AudioLeadIn: 0
PreviewTime: 121805
Countdown: 0
SampleSet: Drum
StackLeniency: 0.7
Mode: 2
LetterboxInBreaks: 0
WidescreenStoryboard: 1

[Editor]
DistanceSpacing: 0.3
BeatDivisor: 4
GridSize: 8
TimelineZoom: 2.6

[Metadata]
Title:Embraced by the Flame
TitleUnicode:Embraced by the Flame
Artist:UNDEAD CORPORATION
ArtistUnicode:UNDEAD CORPORATION
Creator:Daletto
Version:Rain
Source:osu!
Tags:兵-つはもの- symphonic 東方Project touhou bullet hell lullaby of deserted hell 天外冬黄 fuyuki tenge fuki commune The Kasha screams in the night stage 5 theme zun c87 comiket team shanghai get in the ring unlucky morpheus alice anco-0013 shunsatsu 瞬殺 reitaisai12 みぃ pinetree パインツリー mie 廃獄ララバイ 火車の叫ぶ夜に no Sakebu Yoru ni 東方地霊殿 ~ Subterranean Animism sawacy Kissing the Mirror Chireiden english death metal xr featured artist fa mappers guild idu5t du5t idust dust -Hex- Hex 羽々斬
BeatmapID:2460433
BeatmapSetID:1179938

[Difficulty]
HPDrainRate:5
CircleSize:4
OverallDifficulty:9.1
ApproachRate:9.1
SliderMultiplier:1.7
SliderTickRate:2

[Events]
//Background and Video events
0,0,"bg.jpg",0,0
//Break Periods
//Storyboard Layer 0 (Background)
//Storyboard Layer 1 (Fail)
//Storyboard Layer 2 (Pass)
//Storyboard Layer 3 (Foreground)
//Storyboard Layer 4 (Overlay)
//Storyboard Sound Samples

[TimingPoints]
480,279.06976744186,4,3,1,35,1,0
480,-100,4,3,1,35,0,0
4945,-100,4,3,1,40,0,0
7177,-100,4,3,1,45,0,0
8293,-100,4,3,1,50,0,0
9410,-100,4,3,2,75,0,1
9479,-100,4,3,1,75,0,0
18340,-100,4,3,1,65,0,0
25038,-100,4,3,1,70,0,0
26154,-100,4,3,1,65,0,0
26712,-100,4,3,1,60,0,0
27270,-100,4,3,2,70,0,0
27340,-100,4,3,1,70,0,0
31735,-100,4,3,1,60,0,0
33968,-100,4,3,1,65,0,0
35084,-100,4,3,1,60,0,0
35293,-100,4,3,1,5,0,0
35363,-100,4,3,1,60,0,0
35573,-100,4,3,1,5,0,0
35642,-100,4,3,1,60,0,0
35852,-100,4,3,1,5,0,0
35921,-100,4,3,1,60,0,0
36131,-100,4,3,1,5,0,0
36200,-100,4,3,1,70,0,0
40666,-100,4,3,1,75,0,0
41782,-100,4,3,1,65,0,0
42898,-100,4,3,1,60,0,0
47363,-100,4,3,1,65,0,0
49596,-100,4,3,1,70,0,0
50712,-100,4,3,1,75,0,0
51270,-100,4,3,1,50,0,0
51828,-100,4,3,1,70,0,0
61596,-100,4,2,1,80,0,0
61805,-100,4,3,1,5,0,0
61875,-90.9090909090909,4,3,2,90,0,1
61945,-90.9090909090909,4,3,1,90,0,1
71363,-90.9090909090909,4,3,1,80,0,1
71921,-90.9090909090909,4,3,1,90,0,1
77503,-90.9090909090909,4,3,1,85,0,1
78061,-90.9090909090909,4,3,1,80,0,1
78549,-90.9090909090909,4,3,1,90,0,0
78619,-100,4,3,1,70,0,1
78689,-100,4,3,1,70,0,0
85317,-100,4,3,1,60,0,0
86433,-100,4,3,1,65,0,0
87549,-100,4,3,2,70,0,0
87619,-100,4,3,1,70,0,0
92014,-100,4,3,1,60,0,0
94247,-100,4,3,1,65,0,0
95363,-100,4,3,1,60,0,0
95573,-100,4,3,1,5,0,0
95642,-100,4,3,1,60,0,0
95852,-100,4,3,1,5,0,0
95921,-100,4,3,1,60,0,0
96131,-100,4,3,1,5,0,0
96200,-100,4,3,1,60,0,0
96410,-100,4,3,1,5,0,0
96479,-100,4,3,1,70,0,0
100945,-100,4,3,1,75,0,0
102061,-100,4,3,1,65,0,0
103177,-100,4,3,1,60,0,0
107642,-100,4,3,1,65,0,0
109875,-100,4,3,1,70,0,0
110991,-100,4,3,1,75,0,0
111828,-100,4,3,1,65,0,0
112107,-100,4,3,1,70,0,0
121875,-100,4,2,1,80,0,0
122084,-100,4,3,1,5,0,0
122154,-90.9090909090909,4,3,2,90,0,1
122224,-90.9090909090909,4,3,1,90,0,1
131642,-90.9090909090909,4,3,1,80,0,1
132200,-90.9090909090909,4,3,1,90,0,1
136666,-90.9090909090909,4,3,1,85,0,1
137224,-90.9090909090909,4,3,1,80,0,1
137782,-100,4,3,1,80,0,0
138340,-100,4,3,1,70,0,0
138898,-100,4,3,1,80,0,0
140014,-100,4,3,1,70,0,0
140852,-100,4,3,1,50,0,0
141131,-100,4,3,1,80,0,0
142247,-100,4,3,1,70,0,0
142526,-100,4,3,1,60,0,0
143363,-100,4,3,1,70,0,0
145596,-100,4,3,1,75,0,0
147270,-100,4,3,1,50,0,0
147828,-100,4,3,1,70,0,0
152293,-100,4,3,1,75,0,0
154526,-100,4,3,1,70,0,0
155642,-100,4,3,1,75,0,0
156759,-100,4,3,1,80,0,0
160107,-100,4,3,1,75,0,0
161224,-100,4,3,1,80,0,0
163456,-100,4,3,1,70,0,0
164573,-100,4,3,1,75,0,0
165689,-90.9090909090909,4,3,2,85,0,1
165759,-90.9090909090909,4,3,1,85,0,1
180200,-90.9090909090909,4,3,1,80,0,1
181317,-90.9090909090909,4,3,1,75,0,1
183549,-100,4,3,1,70,0,0
193317,-100,4,2,1,80,0,0
193526,-90.9090909090909,4,3,1,5,0,0
193596,-90.9090909090909,4,3,2,90,0,1
193666,-90.9090909090909,4,3,1,90,0,1
203084,-90.9090909090909,4,3,1,80,0,1
203642,-90.9090909090909,4,3,1,90,0,1
209224,-90.9090909090909,4,3,1,85,0,1
209782,-90.9090909090909,4,3,1,80,0,1
210270,-100,4,3,1,90,0,0
210340,-90.9090909090909,4,3,2,95,0,1
210410,-90.9090909090909,4,3,1,95,0,1
219828,-90.9090909090909,4,3,1,80,0,1
220386,-90.9090909090909,4,3,1,95,0,1
223735,-90.9090909090909,4,3,1,80,0,1
224573,-90.9090909090909,4,3,1,85,0,1
224852,-90.9090909090909,4,3,1,80,0,0
226526,-90.9090909090909,4,3,1,70,0,0
227014,-90.9090909090909,4,3,1,5,0,0
227084,-90.9090909090909,4,3,2,75,0,1
227154,-90.9090909090909,4,3,1,75,0,0
236014,-90.9090909090909,4,3,1,80,0,0
239363,-90.9090909090909,4,3,1,85,0,0
240200,-90.9090909090909,4,3,1,70,0,0
240479,-90.9090909090909,4,3,1,85,0,0
242712,-90.9090909090909,4,3,1,90,0,0
242991,-90.9090909090909,4,3,1,75,0,0
243270,-90.9090909090909,4,3,1,60,0,0
243549,-90.9090909090909,4,3,1,50,0,0
243828,-90.9090909090909,4,3,1,40,0,0
244107,-90.9090909090909,4,3,1,30,0,0
244386,-90.9090909090909,4,3,1,20,0,0
244666,-90.9090909090909,4,3,1,10,0,0
244945,-90.9090909090909,4,3,1,5,0,0

[Colours]
Combo1 : 170,223,255
Combo2 : 255,128,0
Combo3 : 170,170,0
Combo4 : 128,0,0
Combo5 : 85,85,85
Combo6 : 128,64,64

[HitObjects]
256,192,480,5,6,0:0:0:0:
344,208,2154,2,0,P|392:208|392:104,1,170,2|2,0:0|0:0,0:0:0:0:
168,208,2712,5,6,0:0:0:0:
288,192,3968,2,0,L|464:192,1,170,2|0,0:0|0:0,0:0:0:0:
368,128,4386,1,2,0:0:0:0:
136,128,4666,1,2,0:0:0:0:
368,312,4945,6,0,L|376:56,1,255,4|4,0:0|0:0,0:0:0:0:
208,304,5782,2,0,L|200:48,1,255,4|4,0:0|0:0,0:0:0:0:
352,176,6619,2,0,P|384:144|304:144,1,170,2|2,0:0|0:0,0:0:0:0:
72,208,7177,6,0,P|120:208|256:72,2,255,6|2|2,0:0|0:0|0:0,0:0:0:0:
72,208,8154,1,8,0:0:0:0:
80,200,8224,1,8,0:0:0:0:
88,192,8293,1,8,0:0:0:0:
400,184,8433,6,0,P|432:152|320:40,1,255,6|6,0:0|0:0,0:0:0:0:
88,48,9131,1,6,0:0:0:0:
424,224,9410,6,0,L|472:224,1,42.5,4|0,0:0|0:0,0:0:0:0:
424,224,9549,2,0,L|336:224,1,85,0|8,0:0|0:0,0:0:0:0:
224,176,9828,2,0,L|224:128,1,42.5,2|0,0:0|0:0,0:0:0:0:
264,176,9968,2,0,L|352:176,1,85,8|0,0:0|0:0,0:0:0:0:
232,144,10247,1,10,0:0:0:0:
184,120,10317,1,0,0:0:0:0:
168,72,10386,1,0,0:0:0:0:
184,120,10456,1,0,0:0:0:0:
344,120,10526,5,8,0:0:0:0:
440,120,10666,2,0,L|440:24,1,85,2|8,0:0|0:0,0:0:0:0:
344,120,10945,1,0,0:0:0:0:
120,184,11084,2,0,L|112:136,1,42.5,10|0,0:0|0:0,0:0:0:0:
168,160,11224,2,0,L|176:112,1,42.5,0|0,0:0|0:0,0:0:0:0:
48,144,11363,2,0,L|40:96,1,42.5,10|0,0:0|0:0,0:0:0:0:
96,120,11503,2,0,L|144:120,1,42.5,0|0,0:0|0:0,0:0:0:0:
368,152,11642,6,0,L|368:104,1,42.5,10|0,0:0|0:0,0:0:0:0:
328,144,11782,2,0,L|232:144,1,85,0|8,0:0|0:0,0:0:0:0:
128,208,12061,2,0,L|128:160,1,42.5,2|0,0:0|0:0,0:0:0:0:
168,192,12200,2,0,L|256:192,1,85,8|0,0:0|0:0,0:0:0:0:
368,184,12479,1,10,0:0:0:0:
416,160,12549,1,0,0:0:0:0:
432,112,12618,1,0,0:0:0:0:
416,160,12688,1,0,0:0:0:0:
288,168,12759,5,8,0:0:0:0:
384,168,12898,2,0,L|384:80,1,85,2|8,0:0|0:0,0:0:0:0:
288,168,13177,1,0,0:0:0:0:
64,144,13317,2,0,L|56:96,1,42.5,10|0,0:0|0:0,0:0:0:0:
112,120,13457,2,0,L|160:120,1,42.5,0|0,0:0|0:0,0:0:0:0:
288,128,13596,2,0,L|320:96,1,42.5,10|0,0:0|0:0,0:0:0:0:
184,160,13735,2,0,L|144:120,1,42.5,0|0,0:0|0:0,0:0:0:0:
368,224,13875,5,14,0:0:0:0:
416,192,13945,1,0,0:0:0:0:
432,160,14015,2,0,L|336:160,1,85,0|8,0:0|0:0,0:0:0:0:
232,144,14293,2,0,L|232:96,1,42.5,2|0,0:0|0:0,0:0:0:0:
272,128,14433,2,0,L|376:128,1,85,8|0,0:0|0:0,0:0:0:0:
240,160,14712,2,0,L|232:112,1,42.5,10|0,0:0|0:0,0:0:0:0:
280,144,14852,2,0,L|288:96,1,42.5,0|0,0:0|0:0,0:0:0:0:
112,192,14991,5,8,0:0:0:0:
200,160,15131,2,0,L|201:57,1,85,2|8,0:0|0:0,0:0:0:0:
112,128,15410,1,0,0:0:0:0:
376,168,15549,2,0,L|424:168,1,42.5,10|0,0:0|0:0,0:0:0:0:
464,168,15689,2,0,L|464:120,1,42.5,0|0,0:0|0:0,0:0:0:0:
328,232,15828,2,0,L|328:184,1,42.5,10|0,0:0|0:0,0:0:0:0:
376,208,15968,2,0,L|424:208,1,42.5,0|0,0:0|0:0,0:0:0:0:
200,224,16107,5,2,0:0:0:0:
152,192,16177,1,0,0:0:0:0:
136,160,16247,2,0,L|232:160,1,85,0|0,0:0|0:0,0:0:0:0:
336,160,16526,2,0,L|336:112,1,42.5,2|0,0:0|0:0,0:0:0:0:
176,192,16666,1,8,0:0:0:0:
128,168,16736,1,8,0:0:0:0:
112,120,16805,1,8,0:0:0:0:
128,168,16875,1,8,0:0:0:0:
264,144,16945,2,0,L|272:96,1,42.5,10|0,0:0|0:0,0:0:0:0:
224,144,17084,2,0,L|216:96,1,42.5,0|0,0:0|0:0,0:0:0:0:
352,288,17224,5,10,0:0:0:0:
400,256,17293,1,8,0:0:0:0:
440,208,17363,1,8,0:0:0:0:
456,152,17433,1,8,0:0:0:0:
400,160,17503,2,0,L|392:112,1,42.5,8|8,0:0|0:0,0:0:0:0:
448,112,17642,2,0,L|400:112,1,42.5,8|8,0:0|0:0,0:0:0:0:
272,192,17782,2,0,L|264:104,1,85,2|0,0:0|0:0,0:0:0:0:
376,168,18061,2,0,L|384:80,1,85,2|0,0:0|0:0,0:0:0:0:
112,192,18340,6,0,P|48:128|96:80,1,170,4|8,0:0|0:0,0:0:0:0:
176,80,18759,1,0,0:0:0:0:
56,104,18898,2,0,L|48:192,1,85,0|0,0:0|0:0,0:0:0:0:
160,104,19177,2,0,L|64:104,1,85,8|0,0:0|0:0,0:0:0:0:
336,224,19456,6,0,P|384:224|384:120,1,170,2|8,0:0|0:0,0:0:0:0:
304,120,19875,1,0,0:0:0:0:
96,200,20014,2,0,L|272:200,1,170,0|8,0:0|0:0,0:0:0:0:
176,200,20433,1,0,0:0:0:0:
392,224,20573,5,2,0:0:0:0:
432,224,20712,1,0,0:0:0:0:
392,224,20852,1,8,0:0:0:0:
280,224,20991,1,0,0:0:0:0:
72,208,21131,2,0,L|64:120,1,85,0|0,0:0|0:0,0:0:0:0:
176,136,21410,2,0,L|80:136,1,85,8|0,0:0|0:0,0:0:0:0:
320,192,21689,6,0,L|328:104,1,85,2|0,0:0|0:0,0:0:0:0:
224,184,21968,2,0,L|224:96,1,85,8|0,0:0|0:0,0:0:0:0:
120,184,22247,2,0,L|112:96,1,85,0|0,0:0|0:0,0:0:0:0:
328,216,22526,2,0,L|384:216,1,42.5,8|8,0:0|0:0,0:0:0:0:
424,216,22666,2,0,L|424:168,1,42.5,8|8,0:0|0:0,0:0:0:0:
264,232,22805,6,0,P|200:168|248:120,1,170,6|8,0:0|0:0,0:0:0:0:
328,120,23224,1,0,0:0:0:0:
208,136,23363,2,0,L|200:48,1,85,0|0,0:0|0:0,0:0:0:0:
88,144,23642,2,0,L|96:56,1,85,8|0,0:0|0:0,0:0:0:0:
304,184,23921,6,0,L|128:184,1,170,2|8,0:0|0:0,0:0:0:0:
224,184,24340,1,0,0:0:0:0:
432,168,24479,2,0,L|440:80,1,85,0|0,0:0|0:0,0:0:0:0:
328,104,24759,2,0,L|424:104,1,85,8|0,0:0|0:0,0:0:0:0:
176,192,25038,6,0,B|144:160|144:160|176:128,1,85,10|0,0:0|0:0,0:0:0:0:
224,128,25247,1,0,0:0:0:0:
272,128,25317,2,0,L|368:128,1,85,10|0,0:0|0:0,0:0:0:0:
304,128,25526,1,0,0:0:0:0:
144,216,25596,2,0,L|144:128,1,85,10|0,0:0|0:0,0:0:0:0:
200,224,25805,1,0,0:0:0:0:
256,216,25875,2,0,L|256:128,1,85,10|0,0:0|0:0,0:0:0:0:
200,224,26084,1,0,0:0:0:0:
360,176,26154,5,10,0:0:0:0:
448,168,26293,2,0,L|456:120,2,42.5,8|8|8,0:0|0:0|0:0,0:0:0:0:
360,176,26573,1,8,0:0:0:0:
232,184,26712,1,2,0:0:0:0:
184,160,26782,1,0,0:0:0:0:
168,112,26851,1,0,0:0:0:0:
184,160,26921,1,0,0:0:0:0:
240,144,26991,2,0,L|248:96,1,42.5,0|0,0:0|0:0,0:0:0:0:
184,104,27131,2,0,L|176:56,1,42.5,0|0,0:0|0:0,0:0:0:0:
376,272,27270,6,0,P|440:208|376:144,1,170,4|8,0:0|0:0,0:0:0:0:
296,144,27689,2,0,L|288:96,2,42.5,2|0|8,0:0|0:0|0:0,0:0:0:0:
400,152,27968,1,0,0:0:0:0:
176,192,28107,2,0,L|168:104,1,85,10|2,0:0|0:0,0:0:0:0:
392,192,28386,6,0,L|208:192,1,170,10|8,0:0|0:0,0:0:0:0:
328,176,28805,2,0,L|336:128,2,42.5,2|0|8,0:0|0:0|0:0,0:0:0:0:
224,160,29084,1,0,0:0:0:0:
448,192,29224,2,0,L|456:104,1,85,10|0,0:0|0:0,0:0:0:0:
232,208,29503,5,10,0:0:0:0:
120,208,29642,2,0,L|120:120,1,85,2|8,0:0|0:0,0:0:0:0:
240,176,29921,1,2,0:0:0:0:
152,176,30061,1,8,0:0:0:0:
64,176,30200,1,0,0:0:0:0:
280,152,30340,2,0,L|288:64,1,85,10|0,0:0|0:0,0:0:0:0:
72,216,30619,6,0,L|64:168,1,42.5,10|0,0:0|0:0,0:0:0:0:
120,176,30759,2,0,L|168:176,1,42.5,0|0,0:0|0:0,0:0:0:0:
216,176,30898,2,0,L|224:128,1,42.5,0|0,0:0|0:0,0:0:0:0:
168,120,31038,2,0,L|120:120,1,42.5,0|0,0:0|0:0,0:0:0:0:
280,136,31177,5,2,0:0:0:0:
336,136,31247,1,0,0:0:0:0:
344,136,31317,1,0,0:0:0:0:
288,136,31386,1,0,0:0:0:0:
128,128,31456,1,2,0:0:0:0:
72,128,31526,1,0,0:0:0:0:
64,128,31596,1,0,0:0:0:0:
120,128,31665,1,0,0:0:0:0:
296,192,31735,6,0,P|344:192|344:88,1,170,6|8,0:0|0:0,0:0:0:0:
232,96,32154,2,0,P|184:96|184:200,1,170,0|0,0:0|0:0,0:0:0:0:
296,200,32573,2,0,L|304:112,1,85,8|0,0:0|0:0,0:0:0:0:
80,224,32852,6,0,P|40:184|112:112,1,170,2|8,0:0|0:0,0:0:0:0:
336,160,33410,2,0,L|152:160,1,170,2|8,0:0|0:0,0:0:0:0:
168,120,33828,1,0,0:0:0:0:
392,184,33968,5,14,0:0:0:0:
440,160,34038,1,0,0:0:0:0:
456,112,34107,1,0,0:0:0:0:
440,160,34177,1,0,0:0:0:0:
376,112,34247,2,0,L|368:64,1,42.5,10|0,0:0|0:0,0:0:0:0:
432,80,34386,2,0,L|440:32,1,42.5,0|0,0:0|0:0,0:0:0:0:
280,200,34526,5,10,0:0:0:0:
232,176,34596,1,0,0:0:0:0:
216,128,34665,1,0,0:0:0:0:
232,176,34735,1,0,0:0:0:0:
296,192,34805,2,0,L|304:144,1,42.5,10|0,0:0|0:0,0:0:0:0:
240,144,34945,2,0,L|184:144,1,42.5,0|0,0:0|0:0,0:0:0:0:
368,224,35084,6,0,P|416:224|504:136,3,170,6|6|6|6,0:0|0:0|0:0|0:0,0:0:0:0:
80,272,36200,6,0,P|48:240|128:160,1,170,14|8,0:0|0:0,0:0:0:0:
216,144,36619,2,0,L|224:96,2,42.5,2|0|8,0:0|0:0|0:0,0:0:0:0:
104,128,36898,1,0,0:0:0:0:
312,136,37038,2,0,L|216:136,1,85,10|0,0:0|0:0,0:0:0:0:
424,272,37317,6,0,P|456:240|376:160,1,170,10|8,0:0|0:0,0:0:0:0:
288,152,37735,2,0,L|280:104,1,42.5,2|0,0:0|0:0,0:0:0:0:
336,152,37875,2,0,L|240:152,1,85,8|0,0:0|0:0,0:0:0:0:
448,168,38154,2,0,L|456:80,1,85,10|0,0:0|0:0,0:0:0:0:
232,176,38433,5,10,0:0:0:0:
320,176,38573,2,0,L|320:88,1,85,2|8,0:0|0:0,0:0:0:0:
208,136,38852,2,0,L|304:136,2,85,2|8|0,0:0|0:0|0:0,0:0:0:0:
416,192,39270,2,0,L|424:104,1,85,10|0,0:0|0:0,0:0:0:0:
216,192,39549,6,0,L|168:192,1,42.5,2|0,0:0|0:0,0:0:0:0:
120,192,39689,2,0,L|112:144,1,42.5,0|0,0:0|0:0,0:0:0:0:
248,168,39828,2,0,L|280:136,1,42.5,2|2,0:0|0:0,0:0:0:0:
144,128,39968,2,0,L|112:96,1,42.5,2|2,0:0|0:0,0:0:0:0:
248,224,40107,2,0,L|296:224,1,42.5,10|8,0:0|0:0,0:0:0:0:
344,224,40247,2,0,L|352:176,1,42.5,8|8,0:0|0:0,0:0:0:0:
288,168,40386,2,0,L|280:120,1,42.5,10|8,0:0|0:0,0:0:0:0:
336,136,40526,2,0,L|384:136,1,42.5,8|8,0:0|0:0,0:0:0:0:
224,264,40666,6,0,P|176:264|40:128,2,255,6|6|6,0:0|0:0|0:0,0:0:0:0:
408,280,41782,6,0,L|416:232,1,42.5,14|8,0:0|0:0,0:0:0:0:
360,280,41921,2,0,L|312:280,1,42.5,8|8,0:0|0:0,0:0:0:0:
264,280,42061,2,0,L|256:232,1,42.5,0|0,0:0|0:0,0:0:0:0:
320,224,42200,2,0,L|328:176,1,42.5,0|0,0:0|0:0,0:0:0:0:
192,240,42340,5,0,0:0:0:0:
136,208,42410,1,0,0:0:0:0:
104,160,42479,1,0,0:0:0:0:
96,112,42549,1,0,0:0:0:0:
160,104,42619,2,0,L|160:56,1,42.5,0|0,0:0|0:0,0:0:0:0:
96,56,42759,2,0,L|64:24,1,42.5,0|0,0:0|0:0,0:0:0:0:
240,216,42898,6,0,P|304:152|256:104,1,170,4|8,0:0|0:0,0:0:0:0:
144,208,43317,2,0,L|136:32,1,170,0|0,0:0|0:0,0:0:0:0:
248,64,43735,2,0,L|160:64,1,85,8|0,0:0|0:0,0:0:0:0:
368,224,44014,6,0,P|416:224|416:120,1,170,2|8,0:0|0:0,0:0:0:0:
304,192,44433,2,0,P|256:192|256:88,1,170,0|0,0:0|0:0,0:0:0:0:
360,144,44852,2,0,L|368:232,1,85,8|0,0:0|0:0,0:0:0:0:
160,216,45131,6,0,P|96:152|144:104,1,170,2|8,0:0|0:0,0:0:0:0:
256,184,45549,2,0,P|320:120|272:72,1,170,0|0,0:0|0:0,0:0:0:0:
168,112,45968,2,0,L|160:200,1,85,8|0,0:0|0:0,0:0:0:0:
368,192,46247,6,0,P|456:192|456:128,1,170,10|0,0:0|0:0,0:0:0:0:
256,192,46666,2,0,P|168:192|168:128,1,170,10|0,0:0|0:0,0:0:0:0:
248,136,47084,1,10,0:0:0:0:
168,144,47224,1,0,0:0:0:0:
384,232,47363,5,14,0:0:0:0:
432,200,47433,1,0,0:0:0:0:
448,160,47503,1,0,0:0:0:0:
432,200,47573,1,0,0:0:0:0:
384,232,47642,1,8,0:0:0:0:
264,192,47782,2,0,L|200:128,2,85,2|8|0,0:0|0:0|0:0,0:0:0:0:
384,152,48200,2,0,L|392:64,1,85,10|0,0:0|0:0,0:0:0:0:
192,216,48479,5,10,0:0:0:0:
144,184,48549,1,0,0:0:0:0:
128,144,48619,1,0,0:0:0:0:
144,184,48689,1,0,0:0:0:0:
192,216,48759,2,0,L|288:216,1,85,8|0,0:0|0:0,0:0:0:0:
152,136,49038,2,0,L|144:48,1,85,10|0,0:0|0:0,0:0:0:0:
240,80,49317,1,8,0:0:0:0:
336,96,49456,1,0,0:0:0:0:
136,216,49596,5,10,0:0:0:0:
88,184,49666,1,8,0:0:0:0:
72,144,49736,1,8,0:0:0:0:
88,184,49806,1,8,0:0:0:0:
136,216,49875,1,2,0:0:0:0:
344,208,50014,5,8,0:0:0:0:
392,176,50084,1,8,0:0:0:0:
416,128,50154,1,8,0:0:0:0:
392,176,50224,1,8,0:0:0:0:
336,184,50293,2,0,L|328:136,1,42.5,2|0,0:0|0:0,0:0:0:0:
392,144,50433,2,0,L|400:96,1,42.5,0|0,0:0|0:0,0:0:0:0:
336,152,50573,1,0,0:0:0:0:
128,280,50712,6,0,P|64:216|208:72,1,340,6|8,0:0|0:0,0:0:0:0:
288,72,51410,1,8,0:0:0:0:
264,72,51549,1,8,0:0:0:0:
176,72,51689,1,8,0:0:0:0:
392,280,51828,6,0,L|192:80,2,255,6|0|0,0:0|0:0|0:0,0:0:0:0:
160,280,52945,2,0,L|360:80,2,255,6|0|0,0:0|0:0|0:0,0:0:0:0:
392,336,54061,6,0,B|480:336|480:336|216:336|216:336|376:336,1,510,6|0,0:0|0:0,0:0:0:0:
168,304,55177,2,0,P|216:304|352:168,2,255,6|0|0,0:0|0:0|0:0,0:0:0:0:
392,248,56293,5,6,0:0:0:0:
400,248,57131,2,0,L|408:160,1,85,0|0,0:0|0:0,0:0:0:0:
208,224,57410,6,0,L|24:40,2,255,6|0|0,0:0|0:0|0:0,0:0:0:0:
440,232,58526,2,0,P|440:184|280:184,2,255,6|0|0,0:0|0:0|0:0,0:0:0:0:
208,232,59642,6,0,P|208:184|368:184,2,255,6|0|0,0:0|0:0|0:0,0:0:0:0:
440,344,60759,2,0,B|448:88|448:88|456:344,1,510,6|2,0:0|0:0,0:0:0:0:
112,216,61875,5,4,0:0:0:0:
56,184,61945,1,0,0:0:0:0:
40,144,62014,1,0,0:0:0:0:
56,184,62084,1,0,0:0:0:0:
112,216,62154,1,8,0:0:0:0:
240,216,62293,2,0,L|144:216,2,93.5000028533936,2|8|0,0:0|0:0|0:0,0:0:0:0:
112,152,62712,2,0,L|104:56,1,93.5000028533936,10|0,0:0|0:0,0:0:0:0:
344,152,62991,6,0,L|400:152,1,46.7500014266968,10|0,0:0|0:0,0:0:0:0:
328,120,63131,2,0,L|320:72,1,46.7500014266968,0|0,0:0|0:0,0:0:0:0:
384,80,63270,1,8,0:0:0:0:
264,144,63410,2,0,L|256:48,1,93.5000028533936,2|8,0:0|0:0,0:0:0:0:
352,112,63689,1,0,0:0:0:0:
144,112,63828,2,0,L|24:112,1,93.5000028533936,10|0,0:0|0:0,0:0:0:0:
288,208,64107,6,0,L|296:160,1,46.7500014266968,10|0,0:0|0:0,0:0:0:0:
232,176,64247,2,0,L|224:128,1,46.7500014266968,0|0,0:0|0:0,0:0:0:0:
288,128,64386,1,8,0:0:0:0:
176,112,64526,1,2,0:0:0:0:
248,112,64666,1,8,0:0:0:0:
320,112,64805,1,0,0:0:0:0:
200,144,64945,2,0,L|192:48,1,93.5000028533936,10|0,0:0|0:0,0:0:0:0:
432,216,65224,6,0,L|432:160,1,46.7500014266968,10|0,0:0|0:0,0:0:0:0:
376,216,65363,2,0,L|376:168,1,46.7500014266968,0|0,0:0|0:0,0:0:0:0:
432,216,65503,1,8,0:0:0:0:
232,184,65642,2,0,L|224:88,1,93.5000028533936,2|8,0:0|0:0,0:0:0:0:
320,144,65921,1,0,0:0:0:0:
120,168,66061,2,0,L|216:168,1,93.5000028533936,10|0,0:0|0:0,0:0:0:0:
424,176,66340,5,10,0:0:0:0:
456,176,66410,1,0,0:0:0:0:
424,176,66479,2,0,L|336:88,1,93.5000028533936,0|10,0:0|0:0,0:0:0:0:
392,168,66689,1,0,0:0:0:0:
440,168,66759,2,0,L|352:80,1,93.5000028533936,0|10,0:0|0:0,0:0:0:0:
408,160,66969,1,0,0:0:0:0:
456,160,67038,1,0,0:0:0:0:
248,152,67177,2,0,L|240:104,1,46.7500014266968,10|0,0:0|0:0,0:0:0:0:
384,152,67317,2,0,L|424:112,1,46.7500014266968,2|0,0:0|0:0,0:0:0:0:
232,288,67456,6,0,P|160:216|224:152,1,187.000005706787,10|8,0:0|0:0,0:0:0:0:
328,176,67875,1,2,0:0:0:0:
376,144,67945,1,0,0:0:0:0:
392,96,68014,1,8,0:0:0:0:
376,144,68084,1,0,0:0:0:0:
328,176,68154,1,0,0:0:0:0:
120,184,68293,2,0,L|112:88,1,93.5000028533936,10|0,0:0|0:0,0:0:0:0:
352,312,68573,6,0,P|424:240|360:176,1,187.000005706787,10|8,0:0|0:0,0:0:0:0:
256,200,68992,1,2,0:0:0:0:
208,168,69062,1,0,0:0:0:0:
192,120,69131,1,8,0:0:0:0:
208,168,69201,1,0,0:0:0:0:
256,200,69271,1,0,0:0:0:0:
464,208,69410,2,0,L|368:208,1,93.5000028533936,10|0,0:0|0:0,0:0:0:0:
128,280,69689,6,0,L|120:88,1,187.000005706787,10|8,0:0|0:0,0:0:0:0:
248,160,70107,2,0,L|248:112,1,46.7500014266968,2|0,0:0|0:0,0:0:0:0:
192,160,70247,2,0,L|152:120,2,46.7500014266968,8|0|0,0:0|0:0|0:0,0:0:0:0:
398,190,70526,2,0,L|406:94,1,93.5000028533936,10|0,0:0|0:0,0:0:0:0:
166,222,70805,6,0,L|166:174,1,46.7500014266968,10|0,0:0|0:0,0:0:0:0:
230,190,70945,2,0,L|326:190,1,93.5000028533936,0|8,0:0|0:0,0:0:0:0:
382,190,71154,2,0,L|382:142,1,46.7500014266968,0|0,0:0|0:0,0:0:0:0:
174,198,71363,5,8,0:0:0:0:
126,174,71433,1,0,0:0:0:0:
110,126,71502,1,0,0:0:0:0:
126,174,71572,1,0,0:0:0:0:
262,150,71642,2,0,L|310:102,1,46.7500014266968,0|0,0:0|0:0,0:0:0:0:
158,126,71782,2,0,L|118:86,1,46.7500014266968,0|0,0:0|0:0,0:0:0:0:
312,240,71921,5,14,0:0:0:0:
368,216,71991,1,0,0:0:0:0:
400,176,72061,1,0,0:0:0:0:
408,128,72131,1,0,0:0:0:0:
400,176,72200,1,10,0:0:0:0:
272,144,72340,2,0,L|176:144,2,93.5000028533936,2|8|0,0:0|0:0|0:0,0:0:0:0:
400,160,72759,2,0,L|408:256,1,93.5000028533936,10|0,0:0|0:0,0:0:0:0:
168,240,73038,5,10,0:0:0:0:
112,216,73108,1,0,0:0:0:0:
80,176,73178,1,0,0:0:0:0:
72,128,73248,1,0,0:0:0:0:
80,176,73317,1,8,0:0:0:0:
208,160,73456,2,0,L|216:64,1,93.5000028533936,2|8,0:0|0:0,0:0:0:0:
128,152,73735,1,0,0:0:0:0:
264,104,73875,2,0,L|168:104,1,93.5000028533936,10|0,0:0|0:0,0:0:0:0:
408,200,74154,6,0,L|416:152,1,46.7500014266968,10|0,0:0|0:0,0:0:0:0:
360,144,74293,2,0,L|352:96,1,46.7500014266968,0|0,0:0|0:0,0:0:0:0:
408,104,74433,1,8,0:0:0:0:
288,200,74573,2,0,L|280:8,1,187.000005706787,2|0,0:0|0:0,0:0:0:0:
400,136,74991,2,0,L|480:56,1,93.5000028533936,10|0,0:0|0:0,0:0:0:0:
232,144,75270,5,10,0:0:0:0:
184,144,75340,1,0,0:0:0:0:
152,144,75410,2,0,L|248:144,1,93.5000028533936,0|8,0:0|0:0,0:0:0:0:
216,144,75619,1,0,0:0:0:0:
168,144,75689,2,0,L|160:48,1,93.5000028533936,0|8,0:0|0:0,0:0:0:0:
192,88,75898,1,0,0:0:0:0:
240,88,75968,1,0,0:0:0:0:
448,184,76107,2,0,L|456:128,1,46.7500014266968,10|0,0:0|0:0,0:0:0:0:
312,168,76247,2,0,L|256:168,1,46.7500014266968,0|0,0:0|0:0,0:0:0:0:
128,200,76386,5,10,0:0:0:0:
80,168,76456,1,0,0:0:0:0:
64,120,76526,1,0,0:0:0:0:
80,168,76596,1,0,0:0:0:0:
120,200,76666,1,8,0:0:0:0:
240,184,76805,2,0,L|248:136,1,46.7500014266968,2|0,0:0|0:0,0:0:0:0:
192,144,76945,2,0,L|184:96,1,46.7500014266968,8|0,0:0|0:0,0:0:0:0:
240,88,77084,1,0,0:0:0:0:
120,128,77224,2,0,L|112:80,2,46.7500014266968,10|0|0,0:0|0:0|0:0,0:0:0:0:
344,208,77503,6,0,L|392:208,1,46.7500014266968,10|0,0:0|0:0,0:0:0:0:
448,208,77642,2,0,L|440:160,1,46.7500014266968,0|0,0:0|0:0,0:0:0:0:
384,152,77782,2,0,L|328:152,1,46.7500014266968,0|0,0:0|0:0,0:0:0:0:
280,152,77921,2,0,L|288:104,1,46.7500014266968,0|0,0:0|0:0,0:0:0:0:
416,192,78061,5,2,0:0:0:0:
448,192,78131,1,0,0:0:0:0:
416,192,78200,1,0,0:0:0:0:
360,192,78270,1,0,0:0:0:0:
304,192,78340,2,0,L|296:144,1,46.7500014266968,0|0,0:0|0:0,0:0:0:0:
352,168,78479,2,0,L|360:120,1,46.7500014266968,0|0,0:0|0:0,0:0:0:0:
192,208,78619,6,0,P|144:208|144:104,1,170,4|8,0:0|0:0,0:0:0:0:
248,152,79038,2,0,P|296:152|296:48,1,170,0|0,0:0|0:0,0:0:0:0:
192,88,79456,2,0,L|128:152,2,85,8|0|0,0:0|0:0|0:0,0:0:0:0:
400,216,79875,6,0,P|464:152|416:104,1,170,0|0,0:0|0:0,0:0:0:0:
216,128,80293,2,0,L|208:216,1,85,2|0,0:0|0:0,0:0:0:0:
328,120,80573,2,0,L|432:120,1,85,10|0,0:0|0:0,0:0:0:0:
200,208,80852,6,0,L|24:208,1,170,2|8,0:0|0:0,0:0:0:0:
144,176,81270,2,0,L|320:176,1,170,0|0,0:0|0:0,0:0:0:0:
200,144,81689,2,0,L|96:144,2,85,8|0|0,0:0|0:0|0:0,0:0:0:0:
408,232,82107,6,0,P|440:200|368:128,1,170,0|0,0:0|0:0,0:0:0:0:
160,192,82526,2,0,L|152:104,1,85,2|0,0:0|0:0,0:0:0:0:
272,136,82805,2,0,L|160:136,1,85,10|0,0:0|0:0,0:0:0:0:
400,216,83084,6,0,L|224:216,1,170,6|8,0:0|0:0,0:0:0:0:
344,192,83503,2,0,P|408:128|360:80,1,170,0|0,0:0|0:0,0:0:0:0:
256,96,83921,2,0,L|248:184,1,85,8|0,0:0|0:0,0:0:0:0:
336,96,84200,1,0,0:0:0:0:
120,192,84340,6,0,P|56:128|104:80,1,170,0|0,0:0|0:0,0:0:0:0:
304,112,84759,2,0,L|392:112,1,85,2|0,0:0|0:0,0:0:0:0:
272,80,85038,2,0,L|184:80,1,85,10|0,0:0|0:0,0:0:0:0:
400,216,85317,6,0,L|408:128,1,85,6|0,0:0|0:0,0:0:0:0:
368,152,85503,1,0,0:0:0:0:
328,152,85549,1,0,0:0:0:0:
288,152,85596,1,0,0:0:0:0:
168,160,85735,2,0,L|160:120,1,28.3333333333333,2|0,0:0|0:0,0:0:0:0:
240,176,85875,5,0,0:0:0:0:
280,144,85921,1,0,0:0:0:0:
296,96,85968,1,0,0:0:0:0:
280,144,86014,1,0,0:0:0:0:
168,176,86154,1,2,0:0:0:0:
128,144,86200,1,0,0:0:0:0:
112,96,86247,1,0,0:0:0:0:
128,144,86293,1,0,0:0:0:0:
360,368,86433,6,0,B|448:368|448:368|272:192|464:0,1,510,6|8,0:0|0:0,0:0:0:0:
120,248,87549,6,0,P|72:248|72:144,1,170,4|8,0:0|0:0,0:0:0:0:
184,176,87968,1,0,0:0:0:0:
232,176,88038,1,0,0:0:0:0:
256,176,88107,2,0,L|264:88,1,85,8|0,0:0|0:0,0:0:0:0:
144,120,88386,2,0,L|56:120,1,85,8|0,0:0|0:0,0:0:0:0:
272,248,88666,6,0,P|320:248|264:192,1,170,10|8,0:0|0:0,0:0:0:0:
160,144,89084,1,0,0:0:0:0:
208,144,89154,1,0,0:0:0:0:
240,144,89224,2,0,L|248:56,1,85,8|0,0:0|0:0,0:0:0:0:
128,136,89503,2,0,L|120:224,1,85,8|0,0:0|0:0,0:0:0:0:
368,256,89782,6,0,P|432:192|376:136,1,170,10|8,0:0|0:0,0:0:0:0:
264,216,90200,2,0,P|200:152|256:96,1,170,0|0,0:0|0:0,0:0:0:0:
368,160,90619,2,0,L|376:72,1,85,8|0,0:0|0:0,0:0:0:0:
144,240,90898,6,0,L|320:240,1,170,10|8,0:0|0:0,0:0:0:0:
232,160,91317,1,0,0:0:0:0:
440,176,91456,2,0,L|448:128,1,42.5,8|8,0:0|0:0,0:0:0:0:
400,168,91596,1,8,0:0:0:0:
352,168,91666,1,8,0:0:0:0:
224,128,91735,2,0,L|216:80,1,42.5,8|8,0:0|0:0,0:0:0:0:
264,120,91875,1,8,0:0:0:0:
312,120,91945,1,8,0:0:0:0:
160,264,92014,6,0,P|96:200|160:136,1,170,6|8,0:0|0:0,0:0:0:0:
256,176,92433,2,0,L|264:0,1,170,0|0,0:0|0:0,0:0:0:0:
144,104,92852,2,0,L|56:104,1,85,8|0,0:0|0:0,0:0:0:0:
288,248,93131,6,0,P|336:248|336:144,1,170,2|8,0:0|0:0,0:0:0:0:
264,144,93549,1,0,0:0:0:0:
56,168,93689,2,0,L|232:168,1,170,2|8,0:0|0:0,0:0:0:0:
144,176,94107,1,0,0:0:0:0:
376,208,94247,5,10,0:0:0:0:
424,176,94317,1,0,0:0:0:0:
448,128,94386,1,0,0:0:0:0:
424,176,94456,1,0,0:0:0:0:
368,176,94526,2,0,L|360:128,1,42.5,8|0,0:0|0:0,0:0:0:0:
416,144,94666,2,0,L|424:96,1,42.5,0|0,0:0|0:0,0:0:0:0:
296,208,94805,5,10,0:0:0:0:
248,176,94875,1,0,0:0:0:0:
224,128,94944,1,0,0:0:0:0:
248,176,95014,1,0,0:0:0:0:
376,152,95084,2,0,L|384:104,1,42.5,8|0,0:0|0:0,0:0:0:0:
248,136,95224,2,0,L|192:136,1,42.5,0|0,0:0|0:0,0:0:0:0:
368,208,95363,6,0,P|416:208|504:120,3,170,6|6|6|6,0:0|0:0|0:0|0:0,0:0:0:0:
112,224,96479,6,0,P|48:160|104:104,1,170,6|8,0:0|0:0,0:0:0:0:
208,128,96898,1,0,0:0:0:0:
256,128,96968,1,0,0:0:0:0:
288,128,97038,2,0,L|200:128,1,85,8|0,0:0|0:0,0:0:0:0:
400,184,97317,2,0,L|408:96,1,85,8|0,0:0|0:0,0:0:0:0:
192,248,97596,6,0,P|144:248|144:144,1,170,10|8,0:0|0:0,0:0:0:0:
256,144,98014,1,0,0:0:0:0:
208,144,98084,1,0,0:0:0:0:
176,144,98154,2,0,L|168:232,1,85,8|0,0:0|0:0,0:0:0:0:
368,160,98433,2,0,L|464:160,1,85,8|0,0:0|0:0,0:0:0:0:
248,200,98712,6,0,L|432:200,1,170,10|8,0:0|0:0,0:0:0:0:
296,152,99131,2,0,L|296:104,1,42.5,0|0,0:0|0:0,0:0:0:0:
344,120,99270,2,0,L|432:120,1,85,8|0,0:0|0:0,0:0:0:0:
232,168,99549,2,0,L|224:256,1,85,8|0,0:0|0:0,0:0:0:0:
448,192,99828,6,0,L|456:144,1,42.5,10|0,0:0|0:0,0:0:0:0:
408,176,99968,2,0,L|400:128,1,42.5,0|0,0:0|0:0,0:0:0:0:
448,144,100107,1,0,0:0:0:0:
232,160,100247,1,10,0:0:0:0:
184,160,100317,1,0,0:0:0:0:
168,160,100386,1,0,0:0:0:0:
184,160,100456,1,0,0:0:0:0:
240,160,100526,1,0,0:0:0:0:
296,160,100596,1,0,0:0:0:0:
128,200,100666,2,0,L|120:72,1,127.5,10|0,0:0|0:0,0:0:0:0:
288,264,100945,6,0,P|336:264|472:128,2,255,6|6|6,0:0|0:0|0:0,0:0:0:0:
112,200,102061,5,6,0:0:0:0:
64,200,102131,1,0,0:0:0:0:
112,200,102201,1,0,0:0:0:0:
152,168,102270,1,0,0:0:0:0:
168,120,102340,1,0,0:0:0:0:
152,168,102410,1,0,0:0:0:0:
112,200,102480,1,0,0:0:0:0:
64,200,102549,1,0,0:0:0:0:
200,176,102619,5,0,0:0:0:0:
248,152,102689,1,0,0:0:0:0:
272,104,102759,1,0,0:0:0:0:
248,152,102828,1,0,0:0:0:0:
200,176,102898,1,0,0:0:0:0:
152,176,102968,1,0,0:0:0:0:
104,176,103038,1,0,0:0:0:0:
152,176,103107,1,0,0:0:0:0:
320,240,103177,6,0,P|368:240|368:136,1,170,6|8,0:0|0:0,0:0:0:0:
256,176,103596,2,0,P|208:176|208:72,1,170,0|0,0:0|0:0,0:0:0:0:
320,128,104014,2,0,L|328:40,1,85,8|0,0:0|0:0,0:0:0:0:
112,216,104293,6,0,L|296:216,1,170,2|8,0:0|0:0,0:0:0:0:
168,176,104712,2,0,P|104:112|152:64,1,170,0|0,0:0|0:0,0:0:0:0:
256,80,105131,2,0,L|168:80,1,85,8|0,0:0|0:0,0:0:0:0:
384,232,105410,6,0,L|392:56,1,170,2|8,0:0|0:0,0:0:0:0:
272,200,105828,2,0,L|264:24,1,170,0|0,0:0|0:0,0:0:0:0:
384,152,106247,2,0,L|288:152,1,85,8|0,0:0|0:0,0:0:0:0:
64,184,106526,5,10,0:0:0:0:
40,152,106596,1,0,0:0:0:0:
64,184,106666,1,0,0:0:0:0:
112,184,106735,1,0,0:0:0:0:
160,184,106805,1,0,0:0:0:0:
368,168,106945,2,0,L|416:168,1,42.5,10|0,0:0|0:0,0:0:0:0:
464,168,107084,2,0,L|472:120,1,42.5,0|0,0:0|0:0,0:0:0:0:
416,120,107224,2,0,L|368:120,1,42.5,0|0,0:0|0:0,0:0:0:0:
232,144,107363,2,0,L|224:96,1,42.5,10|8,0:0|0:0,0:0:0:0:
368,88,107503,2,0,L|376:144,1,42.5,8|8,0:0|0:0,0:0:0:0:
200,208,107642,5,6,0:0:0:0:
152,184,107712,1,0,0:0:0:0:
120,144,107782,1,0,0:0:0:0:
112,96,107852,1,0,0:0:0:0:
120,144,107921,1,8,0:0:0:0:
248,144,108061,2,0,L|312:80,2,85,0|0|0,0:0|0:0|0:0,0:0:0:0:
120,112,108479,2,0,L|112:24,1,85,8|0,0:0|0:0,0:0:0:0:
328,152,108759,5,2,0:0:0:0:
336,200,108828,1,0,0:0:0:0:
328,152,108898,1,0,0:0:0:0:
296,112,108968,1,0,0:0:0:0:
248,88,109038,2,0,L|160:88,1,85,8|0,0:0|0:0,0:0:0:0:
296,128,109317,2,0,L|304:40,1,85,0|0,0:0|0:0,0:0:0:0:
392,96,109596,2,0,L|384:184,1,85,8|0,0:0|0:0,0:0:0:0:
160,192,109875,5,10,0:0:0:0:
104,192,109945,1,8,0:0:0:0:
48,192,110014,1,8,0:0:0:0:
104,192,110084,1,8,0:0:0:0:
160,192,110154,1,2,0:0:0:0:
368,176,110293,6,0,L|376:128,1,42.5,8|8,0:0|0:0,0:0:0:0:
328,136,110433,2,0,L|320:88,1,42.5,8|8,0:0|0:0,0:0:0:0:
368,112,110573,2,0,L|376:64,1,42.5,2|0,0:0|0:0,0:0:0:0:
232,128,110712,1,0,0:0:0:0:
184,128,110782,1,0,0:0:0:0:
136,128,110852,1,0,0:0:0:0:
88,128,110921,1,0,0:0:0:0:
248,352,110991,6,0,P|376:352|376:48,1,510,6|8,0:0|0:0,0:0:0:0:
24,264,112107,6,0,L|208:80,2,255,6|0|0,0:0|0:0|0:0,0:0:0:0:
368,192,113224,5,6,0:0:0:0:
272,192,113363,2,0,L|264:104,1,85,0|0,0:0|0:0,0:0:0:0:
360,176,113642,2,0,P|448:176|448:40,1,255,0|0,0:0|0:0,0:0:0:0:
224,336,114340,6,0,P|224:288|384:288,2,255,6|0|0,0:0|0:0|0:0,0:0:0:0:
448,328,115456,6,0,P|448:280|288:280,2,255,6|0|0,0:0|0:0|0:0,0:0:0:0:
224,240,116573,5,6,0:0:0:0:
184,224,117410,2,0,L|88:224,1,85
296,208,117689,6,0,P|344:208|480:72,2,255,6|0|0,0:0|0:0|0:0,0:0:0:0:
72,224,118805,6,0,P|120:224|256:88,2,255,6|0|0,0:0|0:0|0:0,0:0:0:0:
296,192,119921,6,0,L|112:8,2,255,6|0|0,0:0|0:0|0:0,0:0:0:0:
72,344,121038,6,0,B|64:88|64:88|56:344,1,510,6|2,0:0|0:0,0:0:0:0:
400,216,122154,5,4,0:0:0:0:
416,184,122224,1,0,0:0:0:0:
400,216,122293,1,0,0:0:0:0:
344,216,122363,1,0,0:0:0:0:
288,216,122433,1,8,0:0:0:0:
160,168,122573,2,0,L|168:72,1,93.5000028533936,2|8,0:0|0:0,0:0:0:0:
264,112,122852,1,0,0:0:0:0:
136,144,122991,2,0,L|128:48,1,93.5000028533936,10|0,0:0|0:0,0:0:0:0:
336,152,123270,6,0,L|344:104,1,46.7500014266968,10|0,0:0|0:0,0:0:0:0:
296,88,123410,2,0,L|288:40,1,46.7500014266968,0|0,0:0|0:0,0:0:0:0:
336,40,123549,1,8,0:0:0:0:
464,64,123689,2,0,L|384:144,2,93.5000028533936,2|8|0,0:0|0:0|0:0,0:0:0:0:
256,152,124107,2,0,L|144:152,1,93.5000028533936,10|0,0:0|0:0,0:0:0:0:
384,224,124386,5,10,0:0:0:0:
432,192,124456,1,0,0:0:0:0:
448,144,124526,1,0,0:0:0:0:
432,192,124596,1,0,0:0:0:0:
384,224,124666,1,8,0:0:0:0:
256,176,124805,1,2,0:0:0:0:
336,176,124945,1,8,0:0:0:0:
416,176,125084,1,0,0:0:0:0:
288,120,125224,2,0,L|384:120,1,93.5000028533936,10|0,0:0|0:0,0:0:0:0:
168,168,125503,5,10,0:0:0:0:
112,144,125573,1,0,0:0:0:0:
80,104,125642,1,0,0:0:0:0:
72,56,125712,1,0,0:0:0:0:
80,104,125782,1,8,0:0:0:0:
208,104,125921,2,0,L|216:8,1,93.5000028533936,2|8,0:0|0:0,0:0:0:0:
120,64,126200,1,0,0:0:0:0:
328,128,126340,2,0,L|424:128,1,93.5000028533936,10|0,0:0|0:0,0:0:0:0:
200,160,126619,5,10,0:0:0:0:
184,160,126689,1,0,0:0:0:0:
200,160,126759,2,0,L|296:160,1,93.5000028533936,0|8,0:0|0:0,0:0:0:0:
312,144,126968,1,0,0:0:0:0:
296,120,127038,2,0,L|192:120,1,93.5000028533936,0|8,0:0|0:0,0:0:0:0:
184,88,127247,1,0,0:0:0:0:
200,88,127317,1,0,0:0:0:0:
424,136,127456,2,0,L|432:88,1,46.7500014266968,10|0,0:0|0:0,0:0:0:0:
368,80,127596,2,0,L|312:80,1,46.7500014266968,2|0,0:0|0:0,0:0:0:0:
184,216,127735,6,0,P|144:176|224:96,1,187.000005706787,10|10,0:0|0:0,0:0:0:0:
336,176,128154,1,2,0:0:0:0:
384,152,128224,1,0,0:0:0:0:
400,104,128293,1,8,0:0:0:0:
384,152,128363,1,0,0:0:0:0:
336,176,128433,1,0,0:0:0:0:
120,128,128573,2,0,L|48:56,1,93.5000028533936,10|0,0:0|0:0,0:0:0:0:
288,232,128852,6,0,P|344:232|344:120,1,187.000005706787,10|8,0:0|0:0,0:0:0:0:
224,112,129270,2,0,L|216:64,1,46.7500014266968,2|0,0:0|0:0,0:0:0:0:
272,88,129410,2,0,L|280:40,1,46.7500014266968,8|0,0:0|0:0,0:0:0:0:
224,48,129549,1,0,0:0:0:0:
472,144,129689,2,0,L|480:48,1,93.5000028533936,10|0,0:0|0:0,0:0:0:0:
240,256,129968,6,0,L|440:256,1,187.000005706787,10|8,0:0|0:0,0:0:0:0:
296,208,130386,1,2,0:0:0:0:
256,176,130456,1,0,0:0:0:0:
240,128,130526,1,8,0:0:0:0:
296,128,130596,1,0,0:0:0:0:
352,128,130666,1,0,0:0:0:0:
136,240,130805,2,0,L|128:144,1,93.5000028533936,10|0,0:0|0:0,0:0:0:0:
368,184,131084,5,10,0:0:0:0:
384,184,131154,1,0,0:0:0:0:
368,184,131224,2,0,L|272:184,1,93.5000028533936,0|8,0:0|0:0,0:0:0:0:
320,176,131433,1,0,0:0:0:0:
368,176,131503,1,0,0:0:0:0:
152,176,131642,5,8,0:0:0:0:
96,144,131712,1,0,0:0:0:0:
80,96,131782,1,0,0:0:0:0:
96,144,131852,1,0,0:0:0:0:
240,120,131921,2,0,L|248:72,1,46.7500014266968,0|0,0:0|0:0,0:0:0:0:
104,96,132061,2,0,L|56:48,1,46.7500014266968,0|0,0:0|0:0,0:0:0:0:
296,152,132200,6,0,L|352:152,1,46.7500014266968,14|0,0:0|0:0,0:0:0:0:
392,144,132340,2,0,L|400:96,1,46.7500014266968,0|0,0:0|0:0,0:0:0:0:
352,96,132479,1,8,0:0:0:0:
224,168,132619,2,0,L|128:168,2,93.5000028533936,2|8|0,0:0|0:0|0:0,0:0:0:0:
352,192,133038,2,0,L|360:96,1,93.5000028533936,10|0,0:0|0:0,0:0:0:0:
144,208,133317,6,0,L|88:208,1,46.7500014266968,10|0,0:0|0:0,0:0:0:0:
48,200,133457,2,0,L|40:152,1,46.7500014266968,0|0,0:0|0:0,0:0:0:0:
88,152,133596,1,8,0:0:0:0:
216,160,133735,2,0,L|224:64,1,93.5000028533936,2|8,0:0|0:0,0:0:0:0:
128,96,134014,1,0,0:0:0:0:
256,120,134154,2,0,L|360:120,1,93.5000028533936,10|0,0:0|0:0,0:0:0:0:
128,200,134433,6,0,L|120:152,1,46.7500014266968,10|0,0:0|0:0,0:0:0:0:
176,152,134573,2,0,L|184:104,1,46.7500014266968,0|0,0:0|0:0,0:0:0:0:
128,112,134712,1,8,0:0:0:0:
256,160,134852,2,0,P|304:160|304:48,1,187.000005706787,2|0,0:0|0:0,0:0:0:0:
184,224,135270,2,0,L|176:128,1,93.5000028533936,10|0,0:0|0:0,0:0:0:0:
408,208,135549,5,10,0:0:0:0:
424,184,135619,1,0,0:0:0:0:
408,208,135689,2,0,L|304:208,1,93.5000028533936,0|8,0:0|0:0,0:0:0:0:
296,192,135898,1,0,0:0:0:0:
312,192,135968,2,0,L|416:192,1,93.5000028533936,0|8,0:0|0:0,0:0:0:0:
360,192,136177,1,0,0:0:0:0:
312,192,136247,1,0,0:0:0:0:
80,152,136386,2,0,L|72:104,1,46.7500014266968,10|0,0:0|0:0,0:0:0:0:
200,128,136526,2,0,L|264:128,1,46.7500014266968,0|0,0:0|0:0,0:0:0:0:
112,280,136666,5,8,0:0:0:0:
64,248,136735,1,0,0:0:0:0:
48,200,136805,1,0,0:0:0:0:
64,248,136875,1,0,0:0:0:0:
120,280,136945,1,0,0:0:0:0:
176,280,137014,1,0,0:0:0:0:
320,264,137084,6,0,L|328:216,1,46.7500014266968,2|0,0:0|0:0,0:0:0:0:
280,216,137224,2,0,L|272:168,1,46.7500014266968,0|0,0:0|0:0,0:0:0:0:
320,168,137363,2,0,L|328:120,1,46.7500014266968,0|0,0:0|0:0,0:0:0:0:
184,128,137503,5,2,0:0:0:0:
136,128,137573,1,0,0:0:0:0:
88,128,137642,1,0,0:0:0:0:
40,128,137712,1,0,0:0:0:0:
208,120,137782,5,14,0:0:0:0:
256,120,137921,1,8,0:0:0:0:
208,120,138061,1,8,0:0:0:0:
112,120,138200,1,8,0:0:0:0:
312,224,138340,2,0,L|352:184,2,42.5,2|0|0,0:0|0:0|0:0,0:0:0:0:
216,224,138619,1,2,0:0:0:0:
312,224,138759,1,0,0:0:0:0:
96,232,138898,5,6,0:0:0:0:
312,232,139038,1,6,0:0:0:0:
264,344,140014,2,0,B|176:344|176:344|264:336|264:336|96:336|96:96,1,510,6|0,0:0|0:0,0:0:0:0:
120,88,140921,1,0,0:0:0:0:
176,88,140991,1,0,0:0:0:0:
392,176,141131,5,6,0:0:0:0:
176,176,141271,1,6,0:0:0:0:
336,296,142247,6,0,P|400:232|344:176,1,170,6|0,0:0|0:0,0:0:0:0:
280,176,142666,1,0,0:0:0:0:
200,176,142805,2,0,L|192:88,1,85,2|0,0:0|0:0,0:0:0:0:
272,176,143084,2,0,L|280:88,1,85,2|0,0:0|0:0,0:0:0:0:
72,184,143363,6,0,L|64:96,1,85,6|0,0:0|0:0,0:0:0:0:
144,120,143642,1,8,0:0:0:0:
224,120,143782,1,0,0:0:0:0:
360,136,143921,1,0,0:0:0:0:
272,136,144061,1,0,0:0:0:0:
280,136,144200,1,8,0:0:0:0:
368,136,144340,1,0,0:0:0:0:
232,216,144479,6,0,L|224:128,1,85,2|0,0:0|0:0,0:0:0:0:
312,160,144759,2,0,L|320:72,1,85,8|0,0:0|0:0,0:0:0:0:
176,152,145038,1,0,0:0:0:0:
128,152,145177,1,0,0:0:0:0:
176,152,145317,1,8,0:0:0:0:
272,152,145456,1,0,0:0:0:0:
64,240,145596,6,0,L|56:152,1,85,10|0,0:0|0:0,0:0:0:0:
104,176,145805,1,0,0:0:0:0:
152,176,145875,2,0,L|56:176,1,85,10|0,0:0|0:0,0:0:0:0:
288,216,146154,2,0,L|376:216,1,85,10|0,0:0|0:0,0:0:0:0:
328,192,146363,1,0,0:0:0:0:
280,176,146433,2,0,L|368:176,1,85,10|0,0:0|0:0,0:0:0:0:
144,304,146712,6,0,B|56:304|56:304|144:296|144:296|56:296|56:184|208:32,1,510,10|0,0:0|0:0,0:0:0:0:
216,80,147619,1,0,0:0:0:0:
192,80,147689,1,0,0:0:0:0:
144,80,147759,1,0,0:0:0:0:
288,200,147828,6,0,B|376:200|376:200|288:192|288:192|376:192|376:72,1,340,6|0,0:0|0:0,0:0:0:0:
240,128,148666,1,10,0:0:0:0:
472,144,148945,6,0,L|296:144,1,170,2|8,0:0|0:0,0:0:0:0:
72,216,149503,2,0,L|64:40,1,170,2|8,0:0|0:0,0:0:0:0:
296,240,150061,6,0,P|328:208|264:144,1,127.5,2|0,0:0|0:0,0:0:0:0:
248,144,150340,2,0,L|344:144,1,85,10|0,0:0|0:0,0:0:0:0:
200,184,150619,2,0,L|192:56,1,127.5,2|0,0:0|0:0,0:0:0:0:
280,168,151038,1,0,0:0:0:0:
152,200,151177,6,0,P|200:200|280:120,2,127.5,2|0|0,0:0|0:0|0:0,0:0:0:0:
288,224,151735,2,0,P|336:224|336:64,1,255,2|0,0:0|0:0,0:0:0:0:
128,208,152293,5,6,0:0:0:0:
80,176,152363,1,0,0:0:0:0:
64,128,152433,1,0,0:0:0:0:
80,176,152503,1,0,0:0:0:0:
128,208,152573,2,0,L|224:208,1,85,10|0,0:0|0:0,0:0:0:0:
344,176,152852,6,0,L|352:88,1,85,2|0,0:0|0:0,0:0:0:0:
296,152,153061,1,0,0:0:0:0:
240,136,153131,2,0,L|232:48,1,85,10|0,0:0|0:0,0:0:0:0:
432,256,153410,5,2,0:0:0:0:
448,248,153479,1,0,0:0:0:0:
432,256,153549,1,0,0:0:0:0:
376,256,153619,1,0,0:0:0:0:
320,256,153689,2,0,L|424:256,1,85,10|0,0:0|0:0,0:0:0:0:
272,208,153968,6,0,L|264:120,1,85,2|0,0:0|0:0,0:0:0:0:
320,144,154177,1,0,0:0:0:0:
376,144,154247,2,0,L|440:80,1,85,10|0,0:0|0:0,0:0:0:0:
216,272,154526,6,0,P|120:176|208:88,1,255,2|0,0:0|0:0,0:0:0:0:
304,168,155084,2,0,L|432:168,1,127.5,2|0,0:0|0:0,0:0:0:0:
360,168,155456,1,0,0:0:0:0:
96,152,155642,6,0,L|192:152,2,85,10|0|0,0:0|0:0|0:0,0:0:0:0:
296,176,156061,1,10,0:0:0:0:
200,176,156200,1,0,0:0:0:0:
104,176,156340,2,0,L|112:128,1,42.5,0|0,0:0|0:0,0:0:0:0:
264,128,156479,2,0,L|400:128,1,127.5,10|0,0:0|0:0,0:0:0:0:
216,192,156759,6,0,L|208:104,1,85,14|0,0:0|0:0,0:0:0:0:
328,96,157038,2,0,L|240:96,1,85,8|0,0:0|0:0,0:0:0:0:
448,224,157317,2,0,L|456:136,1,85,8|0,0:0|0:0,0:0:0:0:
336,128,157596,2,0,L|424:128,1,85,8|0,0:0|0:0,0:0:0:0:
216,192,157875,5,10,0:0:0:0:
168,192,158014,1,0,0:0:0:0:
216,192,158154,1,8,0:0:0:0:
312,192,158293,1,0,0:0:0:0:
104,136,158433,2,0,L|192:136,1,85,8|0,0:0|0:0,0:0:0:0:
408,136,158712,2,0,L|288:136,1,85,8|0,0:0|0:0,0:0:0:0:
88,240,158991,6,0,L|80:152,1,85,10|0,0:0|0:0,0:0:0:0:
200,184,159270,2,0,L|208:96,1,85,8|0,0:0|0:0,0:0:0:0:
424,168,159549,2,0,L|336:168,1,85,8|0,0:0|0:0,0:0:0:0:
216,96,159828,2,0,L|312:96,1,85,8|0,0:0|0:0,0:0:0:0:
96,272,160107,6,0,B|96:184|96:184|184:184|184:184|184:264|184:264|96:264|96:264|32:200|112:120,1,510,10|8,0:0|0:0,0:0:0:0:
200,128,161084,1,0,0:0:0:0:
440,192,161224,6,0,L|448:104,1,85,14|0,0:0|0:0,0:0:0:0:
328,112,161503,2,0,L|424:112,1,85,8|0,0:0|0:0,0:0:0:0:
216,208,161782,2,0,L|128:208,1,85,8|0,0:0|0:0,0:0:0:0:
248,184,162061,2,0,L|256:96,1,85,8|0,0:0|0:0,0:0:0:0:
56,144,162340,6,0,L|176:144,1,85,10|0,0:0|0:0,0:0:0:0:
264,144,162619,2,0,L|176:144,1,85,8|0,0:0|0:0,0:0:0:0:
376,168,162898,1,8,0:0:0:0:
328,168,163037,1,0,0:0:0:0:
376,168,163177,1,8,0:0:0:0:
472,168,163316,1,0,0:0:0:0:
264,240,163456,6,0,P|312:240|368:184,2,127.5,10|0|0,0:0|0:0|0:0,0:0:0:0:
400,232,164014,2,0,P|352:232|296:176,2,127.5,10|0|0,0:0|0:0|0:0,0:0:0:0:
184,208,164573,5,10,0:0:0:0:
136,208,164642,1,0,0:0:0:0:
104,208,164712,2,0,L|112:160,1,42.5,0|0,0:0|0:0,0:0:0:0:
248,200,164852,6,0,L|336:200,1,85,10|0,0:0|0:0,0:0:0:0:
384,200,165061,1,0,0:0:0:0:
416,200,165131,2,0,L|424:152,1,42.5,0|0,0:0|0:0,0:0:0:0:
288,120,165270,6,0,L|192:120,1,85,10|0,0:0|0:0,0:0:0:0:
160,112,165479,1,0,0:0:0:0:
120,112,165549,1,0,0:0:0:0:
160,112,165619,1,0,0:0:0:0:
320,192,165689,6,0,L|128:192,1,187.000005706787,4|8,0:0|0:0,0:0:0:0:
72,184,166107,1,0,0:0:0:0:
136,160,166247,1,0,0:0:0:0:
240,160,166386,1,0,0:0:0:0:
88,152,166526,2,0,L|80:56,1,93.5000028533936,10|0,0:0|0:0,0:0:0:0:
320,224,166805,6,0,P|360:184|280:104,1,187.000005706787,2|8,0:0|0:0,0:0:0:0:
192,104,167224,1,0,0:0:0:0:
424,152,167363,2,0,P|376:152|312:88,2,140.25000428009,2|2|2,0:0|0:0|0:0,0:0:0:0:
280,224,167921,6,0,L|272:96,1,124.666670471192,2|0,0:0|0:0,0:0:0:0:
360,208,168340,1,2,0:0:0:0:
216,184,168479,2,0,P|264:184|328:120,2,140.25000428009,2|2|2,0:0|0:0|0:0,0:0:0:0:
456,232,169038,6,0,B|352:232|352:232|456:224|456:64,1,280.500008560181,2|0,0:0|0:0,0:0:0:0:
408,104,169526,1,0,0:0:0:0:
360,104,169596,2,0,L|352:200,1,93.5000028533936,2|0,0:0|0:0,0:0:0:0:
400,128,169805,1,0,0:0:0:0:
448,112,169875,2,0,L|456:208,1,93.5000028533936,10|0,0:0|0:0,0:0:0:0:
216,176,170154,6,0,L|176:136,1,46.7500014266968,6|0,0:0|0:0,0:0:0:0:
240,128,170293,2,0,L|248:80,1,46.7500014266968,0|0,0:0|0:0,0:0:0:0:
200,80,170433,1,8,0:0:0:0:
152,80,170503,1,0,0:0:0:0:
104,80,170573,2,0,L|96:128,1,46.7500014266968,0|0,0:0|0:0,0:0:0:0:
248,200,170712,6,0,L|360:200,1,93.5000028533936,2|0,0:0|0:0,0:0:0:0:
200,128,170991,2,0,L|96:128,1,93.5000028533936,8|0,0:0|0:0,0:0:0:0:
344,232,171270,5,2,0:0:0:0:
384,208,171340,1,0,0:0:0:0:
400,168,171410,1,0,0:0:0:0:
384,208,171479,1,0,0:0:0:0:
344,232,171549,2,0,L|248:232,1,93.5000028533936,8|0,0:0|0:0,0:0:0:0:
384,120,171828,6,0,L|424:80,2,46.7500014266968,2|0|0,0:0|0:0|0:0,0:0:0:0:
248,112,172107,1,8,0:0:0:0:
296,112,172177,1,0,0:0:0:0:
344,112,172247,1,0,0:0:0:0:
112,208,172386,6,0,L|104:160,1,46.7500014266968,2|0,0:0|0:0,0:0:0:0:
160,160,172526,2,0,L|168:112,1,46.7500014266968,0|0,0:0|0:0,0:0:0:0:
112,112,172666,2,0,L|192:32,1,93.5000028533936,8|0,0:0|0:0,0:0:0:0:
320,200,172945,6,0,L|328:152,1,46.7500014266968,2|0,0:0|0:0,0:0:0:0:
272,152,173084,2,0,L|264:104,1,46.7500014266968,0|0,0:0|0:0,0:0:0:0:
312,120,173224,1,8,0:0:0:0:
360,120,173294,1,0,0:0:0:0:
408,120,173364,1,0,0:0:0:0:
176,304,173503,6,0,L|168:256,1,46.7500014266968,2|0,0:0|0:0,0:0:0:0:
224,256,173642,2,0,L|232:208,1,46.7500014266968,0|0,0:0|0:0,0:0:0:0:
288,216,173782,2,0,L|280:168,1,46.7500014266968,8|0,0:0|0:0,0:0:0:0:
336,232,173921,2,0,L|344:280,1,46.7500014266968,0|0,0:0|0:0,0:0:0:0:
176,240,174061,6,0,L|168:144,1,93.5000028533936,2|0,0:0|0:0,0:0:0:0:
320,184,174340,2,0,L|416:184,1,93.5000028533936,8|0,0:0|0:0,0:0:0:0:
184,152,174619,5,6,0:0:0:0:
160,128,174689,1,0,0:0:0:0:
184,152,174759,2,0,L|288:152,1,93.5000028533936,0|8,0:0|0:0,0:0:0:0:
304,120,174968,1,0,0:0:0:0:
277,152,175038,1,0,0:0:0:0:
128,232,175177,5,2,0:0:0:0:
88,208,175247,1,0,0:0:0:0:
72,168,175317,1,0,0:0:0:0:
88,208,175386,1,0,0:0:0:0:
144,216,175456,2,0,L|152:168,1,46.7500014266968,8|0,0:0|0:0,0:0:0:0:
96,136,175596,2,0,L|88:88,1,46.7500014266968,0|0,0:0|0:0,0:0:0:0:
272,136,175735,5,2,0:0:0:0:
320,136,175805,1,0,0:0:0:0:
368,136,175875,1,0,0:0:0:0:
320,136,175945,1,0,0:0:0:0:
272,136,176014,2,0,L|168:136,1,93.5000028533936,8|0,0:0|0:0,0:0:0:0:
320,224,176293,6,0,L|328:176,1,46.7500014266968,2|0,0:0|0:0,0:0:0:0:
272,176,176433,2,0,L|176:176,1,93.5000028533936,0|8,0:0|0:0,0:0:0:0:
128,168,176642,2,0,L|120:216,1,46.7500014266968,0|0,0:0|0:0,0:0:0:0:
360,160,176852,5,2,0:0:0:0:
264,160,176991,2,0,L|224:120,2,46.7500014266968,0|0|8,0:0|0:0|0:0,0:0:0:0:
360,160,177270,1,0,0:0:0:0:
224,128,177410,6,0,L|216:32,1,93.5000028533936,2|0,0:0|0:0,0:0:0:0:
272,120,177619,1,0,0:0:0:0:
328,120,177689,2,0,L|400:48,1,93.5000028533936,8|0,0:0|0:0,0:0:0:0:
336,64,177898,1,0,0:0:0:0:
184,184,177968,6,0,L|88:184,1,93.5000028533936,2|0,0:0|0:0,0:0:0:0:
72,160,178177,1,0,0:0:0:0:
88,136,178247,2,0,L|184:136,1,93.5000028533936,8|0,0:0|0:0,0:0:0:0:
328,176,178526,5,2,0:0:0:0:
376,176,178596,1,0,0:0:0:0:
368,176,178666,1,0,0:0:0:0:
320,176,178735,1,0,0:0:0:0:
264,152,178805,2,0,L|256:104,1,46.7500014266968,8|0,0:0|0:0,0:0:0:0:
312,112,178945,2,0,L|352:72,1,46.7500014266968,0|0,0:0|0:0,0:0:0:0:
176,320,179084,6,0,B|80:320|80:320|176:312|176:312|88:312|88:72,1,467.500014266968,14|0,0:0|0:0,0:0:0:0:
136,80,179852,1,0,0:0:0:0:
184,80,179921,2,0,L|88:80,1,93.5000028533936,8|0,0:0|0:0,0:0:0:0:
320,208,180200,5,2,0:0:0:0:
392,176,180293,2,0,L|400:112,1,62.3333352355958,0|0,0:0|0:0,0:0:0:0:
328,208,180479,1,0,0:0:0:0:
256,176,180572,2,0,L|248:112,1,62.3333352355958,0|0,0:0|0:0,0:0:0:0:
408,120,180759,6,0,L|472:120,2,62.3333352355958,10|8|8,0:0|0:0|0:0,0:0:0:0:
248,80,181038,1,10,0:0:0:0:
312,80,181131,1,8,0:0:0:0:
376,80,181224,1,8,0:0:0:0:
216,208,181317,6,0,L|112:208,1,93.5000028533936,6|0,0:0|0:0,0:0:0:0:
224,184,181596,2,0,L|232:88,1,93.5000028533936,0|0,0:0|0:0,0:0:0:0:
96,184,181875,2,0,L|200:184,1,93.5000028533936,2|0,0:0|0:0,0:0:0:0:
88,160,182154,2,0,L|80:64,1,93.5000028533936,0|0,0:0|0:0,0:0:0:0:
312,192,182433,5,2,0:0:0:0:
360,192,182572,1,2,0:0:0:0:
312,192,182712,1,2,0:0:0:0:
216,192,182851,1,2,0:0:0:0:
456,176,182991,2,0,L|360:176,1,93.5000028533936,2|2,0:0|0:0,0:0:0:0:
160,144,183270,2,0,L|272:144,1,93.5000028533936,2|0,0:0|0:0,0:0:0:0:
480,224,183549,6,0,P|480:176|344:40,2,255,6|0|0,0:0|0:0|0:0,0:0:0:0:
136,160,184666,5,6,0:0:0:0:
40,160,184805,2,0,L|48:72,1,85,0|0,0:0|0:0,0:0:0:0:
144,160,185084,2,0,P|176:128|64:16,1,255,0|0,0:0|0:0,0:0:0:0:
288,208,185782,6,0,P|336:208|472:72,2,255,6|0|0,0:0|0:0|0:0,0:0:0:0:
64,232,186898,6,0,L|256:40,2,255,6|0|0,0:0|0:0|0:0,0:0:0:0:
288,192,188014,5,6,0:0:0:0:
288,192,188852,2,0,L|296:104,1,85,0|0,0:0|0:0,0:0:0:0:
96,200,189131,6,0,L|280:16,2,255,6|0|0,0:0|0:0|0:0,0:0:0:0:
320,208,190247,6,0,P|272:208|136:72,2,255,6|0|0,0:0|0:0|0:0,0:0:0:0:
96,224,191363,6,0,P|144:224|280:88,2,255,6|0|0,0:0|0:0|0:0,0:0:0:0:
320,304,192479,6,0,B|408:304|408:304|408:88|408:88|416:304,1,510,6|2,0:0|0:0,0:0:0:0:
40,192,193596,6,0,L|32:144,1,46.7500014266968,4|0,0:0|0:0,0:0:0:0:
80,160,193735,2,0,L|88:112,1,46.7500014266968,0|0,0:0|0:0,0:0:0:0:
40,120,193875,1,8,0:0:0:0:
168,152,194014,2,0,L|176:56,1,93.5000028533936,2|8,0:0|0:0,0:0:0:0:
80,120,194293,1,0,0:0:0:0:
208,96,194433,2,0,L|112:96,1,93.5000028533936,10|0,0:0|0:0,0:0:0:0:
352,184,194712,5,10,0:0:0:0:
400,168,194782,1,0,0:0:0:0:
424,144,194852,1,0,0:0:0:0:
376,144,194921,1,0,0:0:0:0:
328,144,194991,1,8,0:0:0:0:
200,152,195131,2,0,L|272:80,2,93.5000028533936,2|8|0,0:0|0:0|0:0,0:0:0:0:
432,168,195549,2,0,L|440:72,1,93.5000028533936,10|0,0:0|0:0,0:0:0:0:
200,176,195828,6,0,L|160:136,1,46.7500014266968,10|0,0:0|0:0,0:0:0:0:
216,136,195968,2,0,L|224:88,1,46.7500014266968,0|0,0:0|0:0,0:0:0:0:
176,96,196107,1,8,0:0:0:0:
304,128,196247,2,0,L|376:56,2,93.5000028533936,2|8|0,0:0|0:0|0:0,0:0:0:0:
176,144,196666,2,0,L|96:64,1,93.5000028533936,10|0,0:0|0:0,0:0:0:0:
344,160,196945,6,0,L|392:160,1,46.7500014266968,10|0,0:0|0:0,0:0:0:0:
448,160,197084,2,0,L|456:112,1,46.7500014266968,0|0,0:0|0:0,0:0:0:0:
400,104,197224,1,8,0:0:0:0:
272,120,197363,1,2,0:0:0:0:
344,120,197503,1,8,0:0:0:0:
416,120,197642,1,0,0:0:0:0:
184,136,197782,2,0,L|80:136,1,93.5000028533936,10|0,0:0|0:0,0:0:0:0:
328,192,198061,5,10,0:0:0:0:
344,192,198131,1,0,0:0:0:0:
328,192,198200,2,0,L|216:192,1,93.5000028533936,0|8,0:0|0:0,0:0:0:0:
280,184,198410,1,0,0:0:0:0:
328,184,198479,2,0,L|336:88,1,93.5000028533936,0|8,0:0|0:0,0:0:0:0:
304,112,198689,1,0,0:0:0:0:
248,112,198759,1,0,0:0:0:0:
472,168,198898,2,0,L|480:120,1,46.7500014266968,10|0,0:0|0:0,0:0:0:0:
336,120,199038,2,0,L|288:120,1,46.7500014266968,2|0,0:0|0:0,0:0:0:0:
144,200,199177,6,0,P|72:128|128:72,1,187.000005706787,10|8,0:0|0:0,0:0:0:0:
240,144,199596,2,0,L|248:96,1,46.7500014266968,2|0,0:0|0:0,0:0:0:0:
192,104,199735,2,0,L|184:56,1,46.7500014266968,8|0,0:0|0:0,0:0:0:0:
240,56,199875,1,0,0:0:0:0:
112,144,200014,2,0,L|104:48,1,93.5000028533936,10|0,0:0|0:0,0:0:0:0:
344,200,200293,6,0,P|416:128|360:72,1,187.000005706787,10|8,0:0|0:0,0:0:0:0:
248,136,200712,2,0,L|240:88,1,46.7500014266968,2|0,0:0|0:0,0:0:0:0:
296,96,200852,2,0,L|336:56,2,46.7500014266968,8|0|0,0:0|0:0|0:0,0:0:0:0:
168,96,201131,2,0,L|160:192,1,93.5000028533936,10|0,0:0|0:0,0:0:0:0:
400,176,201410,6,0,L|208:176,1,187.000005706787,10|8,0:0|0:0,0:0:0:0:
336,152,201828,1,2,0:0:0:0:
384,120,201898,1,0,0:0:0:0:
400,72,201968,1,8,0:0:0:0:
384,120,202038,1,0,0:0:0:0:
336,152,202108,1,0,0:0:0:0:
208,144,202247,2,0,L|312:144,1,93.5000028533936,10|0,0:0|0:0,0:0:0:0:
64,216,202526,6,0,L|56:168,1,46.7500014266968,10|0,0:0|0:0,0:0:0:0:
112,176,202666,2,0,L|216:176,1,93.5000028533936,0|8,0:0|0:0,0:0:0:0:
160,176,202875,1,0,0:0:0:0:
112,176,202945,1,0,0:0:0:0:
336,240,203084,5,8,0:0:0:0:
392,240,203154,1,0,0:0:0:0:
424,240,203224,1,0,0:0:0:0:
392,240,203293,1,0,0:0:0:0:
336,216,203363,2,0,L|328:168,1,46.7500014266968,0|0,0:0|0:0,0:0:0:0:
384,168,203503,2,0,L|424:128,1,46.7500014266968,0|0,0:0|0:0,0:0:0:0:
256,168,203642,6,0,L|208:120,1,46.7500014266968,14|0,0:0|0:0,0:0:0:0:
280,120,203782,2,0,L|288:72,1,46.7500014266968,0|0,0:0|0:0,0:0:0:0:
232,72,203921,1,10,0:0:0:0:
464,200,204061,2,0,L|472:104,1,93.5000028533936,2|8,0:0|0:0,0:0:0:0:
376,144,204340,1,0,0:0:0:0:
248,112,204479,2,0,L|360:112,1,93.5000028533936,10|0,0:0|0:0,0:0:0:0:
112,152,204759,6,0,L|72:112,1,46.7500014266968,10|0,0:0|0:0,0:0:0:0:
128,104,204898,2,0,L|136:56,1,46.7500014266968,0|0,0:0|0:0,0:0:0:0:
88,56,205038,1,8,0:0:0:0:
216,136,205177,2,0,L|288:64,2,93.5000028533936,2|8|0,0:0|0:0|0:0,0:0:0:0:
88,176,205596,2,0,L|80:80,1,93.5000028533936,10|0,0:0|0:0,0:0:0:0:
312,224,205875,5,10,0:0:0:0:
328,192,205945,1,0,0:0:0:0:
312,224,206014,1,0,0:0:0:0:
272,224,206084,1,0,0:0:0:0:
216,224,206154,1,8,0:0:0:0:
344,160,206293,2,0,L|352:64,1,93.5000028533936,2|8,0:0|0:0,0:0:0:0:
248,112,206573,1,0,0:0:0:0:
376,104,206712,2,0,L|480:104,1,93.5000028533936,10|0,0:0|0:0,0:0:0:0:
208,136,206991,5,10,0:0:0:0:
152,136,207061,1,0,0:0:0:0:
120,136,207131,2,0,L|224:136,1,93.5000028533936,0|8,0:0|0:0,0:0:0:0:
168,136,207340,1,0,0:0:0:0:
128,128,207410,2,0,L|120:224,1,93.5000028533936,0|8,0:0|0:0,0:0:0:0:
168,216,207619,1,0,0:0:0:0:
216,216,207689,1,0,0:0:0:0:
448,176,207828,2,0,L|456:128,1,46.7500014266968,10|0,0:0|0:0,0:0:0:0:
312,144,207968,2,0,L|272:104,1,46.7500014266968,2|0,0:0|0:0,0:0:0:0:
432,224,208107,6,0,L|440:32,1,187.000005706787,10|8,0:0|0:0,0:0:0:0:
312,208,208526,2,0,P|272:168|352:88,1,187.000005706787,2|0,0:0|0:0,0:0:0:0:
472,96,208945,2,0,L|480:192,1,93.5000028533936,10|0,0:0|0:0,0:0:0:0:
240,264,209224,5,10,0:0:0:0:
192,264,209293,1,0,0:0:0:0:
240,264,209363,1,0,0:0:0:0:
256,232,209433,1,0,0:0:0:0:
240,264,209502,1,0,0:0:0:0:
208,264,209572,1,0,0:0:0:0:
168,264,209642,1,0,0:0:0:0:
120,264,209712,1,0,0:0:0:0:
248,192,209782,6,0,L|256:144,1,46.7500014266968,0|0,0:0|0:0,0:0:0:0:
200,144,209921,2,0,L|192:96,1,46.7500014266968,0|0,0:0|0:0,0:0:0:0:
336,104,210061,2,0,L|376:64,1,46.7500014266968,0|0,0:0|0:0,0:0:0:0:
224,96,210200,2,0,L|176:48,1,46.7500014266968,0|0,0:0|0:0,0:0:0:0:
360,232,210340,5,4,0:0:0:0:
416,208,210410,1,0,0:0:0:0:
456,160,210479,1,0,0:0:0:0:
480,120,210549,1,0,0:0:0:0:
456,160,210619,1,8,0:0:0:0:
328,152,210759,2,0,L|320:56,1,93.5000028533936,2|0,0:0|0:0,0:0:0:0:
416,128,211038,1,0,0:0:0:0:
288,112,211177,2,0,L|408:112,1,93.5000028533936,8|0,0:0|0:0,0:0:0:0:
152,176,211456,6,0,L|104:176,1,46.7500014266968,10|0,0:0|0:0,0:0:0:0:
48,144,211596,2,0,L|56:96,1,46.7500014266968,0|0,0:0|0:0,0:0:0:0:
112,120,211735,1,8,0:0:0:0:
240,120,211875,2,0,L|312:48,2,93.5000028533936,2|8|0,0:0|0:0|0:0,0:0:0:0:
112,160,212293,2,0,L|104:64,1,93.5000028533936,10|2,0:0|0:0,0:0:0:0:
336,216,212573,6,0,L|376:176,1,46.7500014266968,10|0,0:0|0:0,0:0:0:0:
312,160,212712,2,0,L|320:112,1,46.7500014266968,0|0,0:0|0:0,0:0:0:0:
376,112,212852,1,8,0:0:0:0:
248,152,212991,2,0,L|176:80,1,93.5000028533936,0|8,0:0|0:0,0:0:0:0:
280,88,213270,1,0,0:0:0:0:
152,160,213410,2,0,L|144:64,1,93.5000028533936,10|0,0:0|0:0,0:0:0:0:
384,208,213689,6,0,L|432:208,1,46.7500014266968,10|0,0:0|0:0,0:0:0:0:
376,176,213828,2,0,L|368:128,1,46.7500014266968,0|0,0:0|0:0,0:0:0:0:
424,144,213968,1,10,0:0:0:0:
296,120,214107,1,2,0:0:0:0:
368,120,214247,1,8,0:0:0:0:
440,120,214386,1,0,0:0:0:0:
312,160,214526,2,0,L|304:64,1,93.5000028533936,10|0,0:0|0:0,0:0:0:0:
64,168,214805,6,0,L|56:120,1,46.7500014266968,10|0,0:0|0:0,0:0:0:0:
112,112,214945,2,0,L|208:112,1,93.5000028533936,0|8,0:0|0:0,0:0:0:0:
224,96,215154,1,0,0:0:0:0:
208,120,215224,2,0,L|104:120,1,93.5000028533936,0|8,0:0|0:0,0:0:0:0:
144,72,215433,1,0,0:0:0:0:
192,72,215503,1,0,0:0:0:0:
416,160,215642,2,0,L|424:112,1,46.7500014266968,10|0,0:0|0:0,0:0:0:0:
280,136,215782,2,0,L|224:136,1,46.7500014266968,0|0,0:0|0:0,0:0:0:0:
384,208,215921,6,0,L|392:16,1,187.000005706787,10|8,0:0|0:0,0:0:0:0:
264,176,216340,1,2,0:0:0:0:
248,144,216410,1,0,0:0:0:0:
264,176,216479,1,8,0:0:0:0:
296,176,216549,1,0,0:0:0:0:
344,176,216619,1,0,0:0:0:0:
216,104,216759,2,0,L|112:104,1,93.5000028533936,10|0,0:0|0:0,0:0:0:0:
352,248,217038,6,0,P|392:208|296:112,1,187.000005706787,10|8,0:0|0:0,0:0:0:0:
216,160,217456,2,0,L|208:112,1,46.7500014266968,2|0,0:0|0:0,0:0:0:0:
264,120,217596,2,0,L|272:72,1,46.7500014266968,8|0,0:0|0:0,0:0:0:0:
216,64,217735,1,0,0:0:0:0:
344,64,217875,2,0,L|440:64,1,93.5000028533936,10|0,0:0|0:0,0:0:0:0:
208,256,218154,6,0,L|16:256,1,187.000005706787,10|8,0:0|0:0,0:0:0:0:
144,216,218573,2,0,L|152:168,1,46.7500014266968,2|0,0:0|0:0,0:0:0:0:
96,160,218712,2,0,L|56:120,2,46.7500014266968,8|0|0,0:0|0:0|0:0,0:0:0:0:
224,136,218991,2,0,L|128:136,1,93.5000028533936,8|0,0:0|0:0,0:0:0:0:
360,168,219270,5,10,0:0:0:0:
416,168,219340,1,0,0:0:0:0:
448,168,219410,2,0,L|448:72,1,93.5000028533936,0|8,0:0|0:0,0:0:0:0:
416,168,219619,1,0,0:0:0:0:
360,168,219689,1,0,0:0:0:0:
128,192,219828,6,0,L|120:136,1,46.7500014266968,8|0,0:0|0:0,0:0:0:0:
176,144,219968,2,0,L|216:104,1,46.7500014266968,0|0,0:0|0:0,0:0:0:0:
64,112,220107,2,0,L|56:64,1,46.7500014266968,0|0,0:0|0:0,0:0:0:0:
200,88,220247,2,0,L|256:88,1,46.7500014266968,0|0,0:0|0:0,0:0:0:0:
392,168,220386,5,14,0:0:0:0:
440,136,220456,1,0,0:0:0:0:
456,88,220526,1,0,0:0:0:0:
440,136,220596,1,0,0:0:0:0:
392,168,220666,1,10,0:0:0:0:
176,192,220805,2,0,L|168:96,1,93.5000028533936,2|8,0:0|0:0,0:0:0:0:
264,144,221084,1,0,0:0:0:0:
136,88,221224,2,0,L|32:88,1,93.5000028533936,10|0,0:0|0:0,0:0:0:0:
272,216,221503,6,0,L|280:168,1,46.7500014266968,10|0,0:0|0:0,0:0:0:0:
224,176,221642,2,0,L|216:128,1,46.7500014266968,0|0,0:0|0:0,0:0:0:0:
272,128,221782,1,8,0:0:0:0:
144,136,221921,2,0,L|72:64,2,93.5000028533936,2|8|0,0:0|0:0|0:0,0:0:0:0:
272,112,222340,2,0,L|168:112,1,93.5000028533936,10|0,0:0|0:0,0:0:0:0:
408,224,222619,6,0,L|456:224,1,46.7500014266968,10|0,0:0|0:0,0:0:0:0:
400,192,222759,2,0,L|400:144,1,46.7500014266968,0|0,0:0|0:0,0:0:0:0:
456,152,222898,1,8,0:0:0:0:
328,128,223038,1,2,0:0:0:0:
400,128,223177,1,8,0:0:0:0:
472,128,223317,1,0,0:0:0:0:
344,176,223456,2,0,L|336:272,1,93.5000028533936,10|0,0:0|0:0,0:0:0:0:
64,224,223735,6,0,L|56:168,1,46.7500014266968,10|0,0:0|0:0,0:0:0:0:
112,176,223875,2,0,L|152:136,1,46.7500014266968,0|0,0:0|0:0,0:0:0:0:
88,128,224014,2,0,L|40:128,1,46.7500014266968,0|0,0:0|0:0,0:0:0:0:
88,128,224154,1,0,0:0:0:0:
136,128,224224,1,0,0:0:0:0:
280,152,224293,6,0,L|328:152,1,46.7500014266968,0|0,0:0|0:0,0:0:0:0:
280,152,224433,1,0,0:0:0:0:
232,152,224503,1,0,0:0:0:0:
88,224,224573,2,0,L|80:176,1,46.7500014266968,2|0,0:0|0:0,0:0:0:0:
224,208,224712,2,0,L|264:168,1,46.7500014266968,0|0,0:0|0:0,0:0:0:0:
40,272,224852,6,0,P|88:272|248:112,2,280.500008560181,6|6|6,0:0|0:0|0:0,0:0:0:0:
376,48,225968,1,6,0:0:0:0:
136,224,226526,2,0,L|128:32,1,187.000005706787,2|0,0:0|0:0,0:0:0:0:
464,192,227084,6,0,L|360:192,1,93.5000028533936,4|0,0:0|0:0,0:0:0:0:
400,192,227293,1,0,0:0:0:0:
448,192,227363,1,8,0:0:0:0:
312,152,227503,1,2,0:0:0:0:
296,136,227573,1,0,0:0:0:0:
312,152,227642,2,0,L|408:152,1,93.5000028533936,8|0,0:0|0:0,0:0:0:0:
272,112,227921,2,0,L|280:16,1,93.5000028533936,10|0,0:0|0:0,0:0:0:0:
312,40,228131,1,0,0:0:0:0:
360,40,228200,1,8,0:0:0:0:
120,240,228340,6,0,P|72:240|72:128,1,187.000005706787,2|0,0:0|0:0,0:0:0:0:
208,184,228759,2,0,L|216:88,1,93.5000028533936,10|0,0:0|0:0,0:0:0:0:
152,160,228968,1,0,0:0:0:0:
88,160,229038,2,0,L|80:64,1,93.5000028533936,10|0,0:0|0:0,0:0:0:0:
328,168,229317,6,0,L|424:168,1,93.5000028533936,10|0,0:0|0:0,0:0:0:0:
392,160,229526,1,0,0:0:0:0:
344,160,229596,1,8,0:0:0:0:
208,128,229735,1,2,0:0:0:0:
160,128,229805,1,0,0:0:0:0:
128,128,229875,2,0,L|224:128,1,93.5000028533936,8|0,0:0|0:0,0:0:0:0:
360,152,230154,2,0,L|368:56,1,93.5000028533936,10|0,0:0|0:0,0:0:0:0:
336,64,230363,1,0,0:0:0:0:
288,64,230433,1,8,0:0:0:0:
48,208,230573,6,0,L|240:208,1,187.000005706787,2|0,0:0|0:0,0:0:0:0:
96,160,230991,2,0,L|88:64,1,93.5000028533936,10|0,0:0|0:0,0:0:0:0:
144,104,231200,1,0,0:0:0:0:
200,96,231270,2,0,L|96:96,1,93.5000028533936,10|0,0:0|0:0,0:0:0:0:
368,184,231549,6,0,L|376:88,1,93.5000028533936,14|0,0:0|0:0,0:0:0:0:
328,96,231759,1,0,0:0:0:0:
280,96,231828,1,8,0:0:0:0:
144,184,231968,2,0,L|136:88,1,93.5000028533936,2|8,0:0|0:0,0:0:0:0:
184,96,232178,1,0,0:0:0:0:
232,96,232247,1,0,0:0:0:0:
96,176,232386,2,0,L|24:104,1,93.5000028533936,10|0,0:0|0:0,0:0:0:0:
64,120,232596,1,0,0:0:0:0:
120,120,232666,1,8,0:0:0:0:
368,176,232805,6,0,P|440:104|384:48,1,187.000005706787,2|0,0:0|0:0,0:0:0:0:
264,112,233224,2,0,L|192:40,1,93.5000028533936,10|0,0:0|0:0,0:0:0:0:
256,64,233433,1,0,0:0:0:0:
312,104,233503,2,0,L|384:32,1,93.5000028533936,10|0,0:0|0:0,0:0:0:0:
144,208,233782,6,0,L|48:208,1,93.5000028533936,10|0,0:0|0:0,0:0:0:0:
80,200,233991,1,0,0:0:0:0:
128,200,234061,1,8,0:0:0:0:
264,184,234200,2,0,L|272:88,1,93.5000028533936,2|8,0:0|0:0,0:0:0:0:
240,96,234410,1,0,0:0:0:0:
192,96,234479,1,0,0:0:0:0:
328,208,234619,2,0,L|424:208,1,93.5000028533936,10|0,0:0|0:0,0:0:0:0:
392,200,234828,1,0,0:0:0:0:
344,200,234898,1,8,0:0:0:0:
104,224,235038,6,0,P|64:184|144:104,1,187.000005706787,2|0,0:0|0:0,0:0:0:0:
264,184,235456,2,0,L|272:88,1,93.5000028533936,10|0,0:0|0:0,0:0:0:0:
216,96,235666,1,0,0:0:0:0:
160,88,235735,2,0,L|64:88,1,93.5000028533936,10|0,0:0|0:0,0:0:0:0:
304,232,236014,6,0,L|352:232,1,46.7500014266968,14|0,0:0|0:0,0:0:0:0:
296,208,236154,2,0,L|288:160,1,46.7500014266968,0|0,0:0|0:0,0:0:0:0:
344,176,236293,1,8,0:0:0:0:
216,208,236433,5,2,0:0:0:0:
200,176,236503,1,0,0:0:0:0:
216,208,236572,1,8,0:0:0:0:
248,208,236642,1,0,0:0:0:0:
296,208,236712,1,0,0:0:0:0:
168,192,236852,6,0,L|120:192,1,46.7500014266968,10|0,0:0|0:0,0:0:0:0:
176,168,236992,2,0,L|184:120,1,46.7500014266968,0|0,0:0|0:0,0:0:0:0:
128,136,237131,1,8,0:0:0:0:
368,160,237270,6,0,L|376:112,1,46.7500014266968,2|0,0:0|0:0,0:0:0:0:
320,112,237410,2,0,L|312:64,1,46.7500014266968,8|0,0:0|0:0,0:0:0:0:
368,80,237549,1,0,0:0:0:0:
128,112,237689,2,0,L|224:112,1,93.5000028533936,10|0,0:0|0:0,0:0:0:0:
456,120,237968,2,0,L|344:120,1,93.5000028533936,10|0,0:0|0:0,0:0:0:0:
120,176,238247,5,10,0:0:0:0:
72,176,238317,1,8,0:0:0:0:
80,176,238386,1,8,0:0:0:0:
128,176,238456,1,8,0:0:0:0:
272,144,238526,2,0,L|176:144,1,93.5000028533936,2|8,0:0|0:0,0:0:0:0:
408,192,238805,5,8,0:0:0:0:
456,192,238875,1,8,0:0:0:0:
448,192,238944,1,2,0:0:0:0:
400,192,239014,1,0,0:0:0:0:
256,168,239084,2,0,L|248:120,1,46.7500014266968,2|0,0:0|0:0,0:0:0:0:
392,152,239224,2,0,L|400:104,1,46.7500014266968,0|0,0:0|0:0,0:0:0:0:
232,320,239363,6,0,B|136:320|136:320|232:312|232:312|40:312|40:48,1,561.000017120362,6|8,0:0|0:0,0:0:0:0:
416,192,240479,6,0,L|280:192,1,93.5000028533936,6|8,0:0|0:0,0:0:0:0:
304,176,240689,1,8,0:0:0:0:
336,176,240759,1,8,0:0:0:0:
384,176,240828,1,8,0:0:0:0:
440,176,240898,1,0,0:0:0:0:
384,176,240968,1,0,0:0:0:0:
240,208,241038,6,0,L|336:208,1,93.5000028533936,2|0,0:0|0:0,0:0:0:0:
208,184,241317,2,0,L|200:88,1,93.5000028533936,2|0,0:0|0:0,0:0:0:0:
440,168,241596,6,0,L|448:72,1,93.5000028533936,6|0,0:0|0:0,0:0:0:0:
400,80,241805,1,0,0:0:0:0:
352,80,241875,2,0,L|344:32,1,46.7500014266968,0|0,0:0|0:0,0:0:0:0:
392,64,242014,2,0,L|400:112,1,46.7500014266968,0|0,0:0|0:0,0:0:0:0:
248,168,242154,6,0,L|240:72,1,93.5000028533936,2|0,0:0|0:0,0:0:0:0:
368,160,242433,1,6,0:0:0:0:
320,160,242503,1,0,0:0:0:0:
272,160,242573,1,0,0:0:0:0:
40,192,242712,5,6,0:0:0:0:
256,192,242852,1,6,0:0:0:0:
256,192,242991,12,0,244945,0:0:0:0:
