osu file format v14

[General]
AudioFilename: audio.mp3
AudioLeadIn: 0
PreviewTime: 193197
Countdown: 0
SampleSet: Soft
StackLeniency: 0.7
Mode: 0
LetterboxInBreaks: 0
WidescreenStoryboard: 0

[Editor]
DistanceSpacing: 0.1
BeatDivisor: 4
GridSize: 32
TimelineZoom: 2.3

[Metadata]
Title:Embraced by the Flame
TitleUnicode:Embraced by the Flame
Artist:UNDEAD CORPORATION
ArtistUnicode:UNDEAD CORPORATION
Creator:Akenoi
Version:There is no way back
Source:東方地霊殿 ~ Subterranean Animism.
Tags:touhou project lullaby of deserted hell stage 5 theme deathstreams shunsatsu sawacy metal japanese female voice rsi Unlucky Morpheus GET IN THE RING Kasha no Sakebu Yoru ni where kasha screams in night
BeatmapID:1498618
BeatmapSetID:708850

[Difficulty]
HPDrainRate:5.5
CircleSize:3.8
OverallDifficulty:9.3
ApproachRate:9.7
SliderMultiplier:2
SliderTickRate:1

[Events]
//Background and Video events
0,0,"BG.jpg",0,0
//Break Periods
//Storyboard Layer 0 (Background)
//Storyboard Layer 1 (Fail)
//Storyboard Layer 2 (Pass)
//Storyboard Layer 3 (Foreground)
//Storyboard Layer 4 (Overlay)
//Storyboard Sound Samples

[TimingPoints]
360,279.06976744186,4,1,0,100,1,0
360,-133.333333333333,4,2,1,70,0,0
9429,-111.111111111111,4,2,1,70,0,0
17941,-99.9999999999999,4,2,1,70,0,0
27150,-125,4,2,1,70,0,0
36080,-125,4,2,1,70,0,0
39429,-111.111111111111,4,2,1,70,0,0
40546,-100,4,2,1,70,0,0
42778,-111.111111111111,4,2,1,70,0,0
46127,-125,4,2,1,70,0,0
46546,-99.9999999999999,4,2,1,70,0,0
46964,-111.111111111111,4,2,1,70,0,0
47243,-125,4,2,1,70,0,0
50592,-111.111111111111,4,2,1,70,0,0
51708,-125,4,2,1,70,0,0
52825,-111.111111111111,4,2,1,70,0,0
53941,-200,4,2,1,70,0,0
55057,-142.857142857143,4,2,1,70,0,0
56173,-125,4,2,1,70,0,0
57290,-142.857142857143,4,2,1,70,0,0
58406,-166.666666666667,4,2,1,70,0,0
59522,-125,4,2,1,70,0,0
60639,-200,4,2,1,70,0,0
61476,-200,4,2,1,70,0,0
61755,-100,4,2,1,70,0,1
78499,-100,4,2,1,70,0,0
86313,-200,4,2,1,70,0,0
87429,-111.111111111111,4,2,1,70,0,0
91894,-142.857142857143,4,2,1,70,0,0
92453,-166.666666666666,4,2,1,70,0,0
93011,-142.857142857143,4,2,1,70,0,0
93290,-200,4,2,1,70,0,0
93569,-142.857142857143,4,2,1,70,0,0
94127,-125,4,2,1,70,0,0
95243,-125,4,2,1,70,0,0
103057,-100,4,2,1,70,0,0
105290,-111.111111111111,4,2,1,70,0,0
107522,-100,4,2,1,70,0,0
110871,-133.333333333333,4,2,1,70,0,0
111987,-125,4,2,1,70,0,0
113104,-111.111111111111,4,2,1,70,0,0
114220,-125,4,2,1,70,0,0
115336,-142.857142857143,4,2,1,70,0,0
116453,-125,4,2,1,70,0,0
117569,-142.857142857143,4,2,1,70,0,0
118685,-125,4,2,1,70,0,0
119801,-111.111111111111,4,2,1,70,0,0
120918,-125,4,2,1,70,0,0
121755,-333.333333333332,4,2,1,70,0,0
122034,-99.9999999999999,4,2,1,70,0,1
137662,-99.9999999999999,4,2,1,70,0,0
139894,-166.666666666667,4,2,1,70,0,0
142127,-125,4,2,1,70,0,0
143243,-111.111111111111,4,2,1,70,0,0
147708,-100,4,2,1,70,0,0
165569,-111.111111111111,4,2,1,70,0,0
193197,-200,4,2,1,70,0,0
193476,-99.9999999999999,4,2,1,70,0,1
209662,-99.9999999999999,4,2,1,70,0,0
210220,-90.9090909090909,4,2,1,70,0,1
224732,-100,4,2,1,70,0,0
226964,-100,4,2,1,70,0,0
239243,-111.111111111111,4,2,1,70,0,0
240359,-100,4,2,1,70,0,0

[HitObjects]
113,164,360,5,0,0:0:0:0:
125,176,778,1,0,0:0:0:0:
137,188,1197,1,0,0:0:0:0:
149,200,1615,1,0,0:0:0:0:
126,301,2034,5,0,0:0:0:0:
386,83,2313,1,0,0:0:0:0:
399,220,2592,5,0,0:0:0:0:
387,208,3011,1,0,0:0:0:0:
375,196,3429,1,0,0:0:0:0:
363,184,3848,1,0,0:0:0:0:
386,83,4266,5,0,0:0:0:0:
126,301,4546,1,0,0:0:0:0:
224,359,4825,6,0,P|286:312|372:350,1,150.000005722046
436,288,5243,2,0,B|462:260|462:260|468:197|441:137,1,150.000005722046
386,83,5662,1,0,0:0:0:0:
198,161,6080,1,0,0:0:0:0:
224,359,6499,6,0,P|239:309|229:266,1,75.0000028610231
122,109,6778,2,0,P|107:159|117:202,1,75.0000028610231
101,305,7057,5,0,0:0:0:0:
198,161,7197,1,0,0:0:0:0:
198,161,7266,1,0,0:0:0:0:
198,161,7336,2,0,P|235:161|269:148,1,75.0000028610231
217,71,7615,5,0,0:0:0:0:
328,250,7755,1,0,0:0:0:0:
328,250,7825,1,0,0:0:0:0:
328,250,7894,2,0,P|290:249|256:262,1,75.0000028610231
309,340,8173,5,0,0:0:0:0:
396,311,8313,2,0,P|422:234|388:174,1,150.000005722046
238,119,8732,2,0,P|288:134|331:124,1,75.0000028610231
488,17,9011,2,0,P|438:2|395:12,1,75.0000028610231
287,41,9290,5,0,0:0:0:0:
271,73,9359,1,0,0:0:0:0:
268,108,9429,1,0,0:0:0:0:
278,143,9499,1,0,0:0:0:0:
293,175,9569,1,0,0:0:0:0:
296,210,9639,1,0,0:0:0:0:
286,245,9708,1,0,0:0:0:0:
267,275,9778,1,0,0:0:0:0:
237,294,9848,5,0,0:0:0:0:
201,296,9918,1,0,0:0:0:0:
169,281,9987,1,0,0:0:0:0:
147,253,10057,1,0,0:0:0:0:
141,218,10127,1,0,0:0:0:0:
153,184,10197,1,0,0:0:0:0:
166,156,10266,1,0,0:0:0:0:
158,127,10336,1,0,0:0:0:0:
131,112,10406,5,0,0:0:0:0:
101,119,10476,1,0,0:0:0:0:
84,144,10546,2,0,L|111:192,5,44.999998626709
192,42,10964,2,0,L|219:-6,3,44.999998626709
300,144,11243,2,0,L|273:192,3,44.999998626709
440,188,11522,5,0,0:0:0:0:
478,177,11592,1,0,0:0:0:0:
503,146,11662,1,0,0:0:0:0:
504,106,11732,1,0,0:0:0:0:
482,73,11801,1,0,0:0:0:0:
444,60,11871,1,0,0:0:0:0:
406,71,11941,1,0,0:0:0:0:
370,98,12011,1,0,0:0:0:0:
328,112,12080,5,0,0:0:0:0:
283,111,12150,1,0,0:0:0:0:
241,95,12220,1,0,0:0:0:0:
207,75,12290,1,0,0:0:0:0:
167,80,12359,1,0,0:0:0:0:
139,108,12429,1,0,0:0:0:0:
134,147,12499,1,0,0:0:0:0:
154,182,12569,1,0,0:0:0:0:
168,220,12639,1,0,0:0:0:0:
160,260,12708,1,0,0:0:0:0:
125,348,12778,5,0,0:0:0:0:
125,348,12848,1,0,0:0:0:0:
125,348,12918,2,0,L|66:320,3,44.999998626709
241,280,13197,6,0,L|300:252,3,44.999998626709
83,217,13476,2,0,L|24:189,3,44.999998626709
207,139,13755,5,0,0:0:0:0:
236,118,13825,1,0,0:0:0:0:
251,86,13894,1,0,0:0:0:0:
248,50,13964,1,0,0:0:0:0:
227,21,14034,1,0,0:0:0:0:
195,7,14104,1,0,0:0:0:0:
159,10,14173,1,0,0:0:0:0:
130,31,14243,1,0,0:0:0:0:
116,63,14313,5,0,0:0:0:0:
147,61,14383,1,0,0:0:0:0:
179,59,14453,1,0,0:0:0:0:
210,57,14522,1,0,0:0:0:0:
241,55,14592,1,0,0:0:0:0:
273,53,14662,1,0,0:0:0:0:
304,51,14732,1,0,0:0:0:0:
336,49,14801,1,0,0:0:0:0:
367,47,14871,1,0,0:0:0:0:
398,44,14941,1,0,0:0:0:0:
428,40,15011,2,0,L|436:-13,5,44.999998626709
387,119,15429,5,0,0:0:0:0:
391,145,15499,1,0,0:0:0:0:
396,172,15569,1,0,0:0:0:0:
401,198,15639,1,0,0:0:0:0:
442,277,15708,5,0,0:0:0:0:
437,303,15778,1,0,0:0:0:0:
432,330,15848,1,0,0:0:0:0:
427,356,15918,1,0,0:0:0:0:
421,381,15987,6,0,B|362:368|362:368|341:338,1,89.9999972534181
300,167,16266,1,0,0:0:0:0:
170,308,16406,1,0,0:0:0:0:
170,308,16476,1,0,0:0:0:0:
170,308,16546,2,0,P|205:315|248:290,3,44.999998626709
193,216,16825,2,0,P|226:204|251:161,1,44.999998626709
166,124,16964,2,0,P|189:97|189:47,1,44.999998626709
96,57,17104,6,0,P|45:53|0:76,2,89.9999972534181
62,151,17522,1,0,0:0:0:0:
0,225,17662,6,0,P|-10:275|8:322,1,89.9999972534181
220,268,17941,5,0,0:0:0:0:
183,223,18011,1,0,0:0:0:0:
137,257,18080,1,0,0:0:0:0:
169,305,18150,1,0,0:0:0:0:
178,264,18220,6,0,P|117:253|69:275,1,100
136,384,18499,1,0,0:0:0:0:
263,183,18639,1,0,0:0:0:0:
349,306,18778,6,0,L|448:293,1,100
223,284,19057,1,0,0:0:0:0:
319,82,19197,1,0,0:0:0:0:
139,135,19336,6,0,L|33:124,1,100
194,1,19615,1,0,0:0:0:0:
252,172,19755,1,0,0:0:0:0:
409,87,19894,6,0,P|397:30|352:-2,1,100
478,185,20173,1,0,0:0:0:0:
319,88,20313,1,0,0:0:0:0:
139,135,20453,6,0,L|151:238,1,100
358,188,20732,2,0,L|346:291,1,100
260,356,21011,6,0,L|248:253,1,100
41,303,21290,2,0,L|53:200,1,100
70,58,21569,5,0,0:0:0:0:
244,155,21708,1,0,0:0:0:0:
76,96,21848,1,0,0:0:0:0:
269,144,21987,1,0,0:0:0:0:
180,44,22127,5,0,0:0:0:0:
183,278,22266,1,0,0:0:0:0:
396,175,22406,1,0,0:0:0:0:
400,146,22476,1,0,0:0:0:0:
397,116,22546,1,0,0:0:0:0:
386,88,22615,1,0,0:0:0:0:
369,64,22685,6,0,B|453:64|453:64|442:79|442:79,1,100
291,146,22964,1,0,0:0:0:0:
369,64,23104,1,0,0:0:0:0:
375,209,23243,5,0,0:0:0:0:
275,155,23383,1,0,0:0:0:0:
372,96,23522,1,0,0:0:0:0:
339,237,23662,5,0,0:0:0:0:
257,159,23801,1,0,0:0:0:0:
366,127,23941,1,0,0:0:0:0:
178,316,24080,5,0,0:0:0:0:
360,158,24220,1,0,0:0:0:0:
148,310,24359,1,0,0:0:0:0:
354,189,24499,1,0,0:0:0:0:
213,158,24639,5,0,0:0:0:0:
306,356,24778,1,0,0:0:0:0:
447,239,24918,5,0,0:0:0:0:
447,239,24987,1,0,0:0:0:0:
447,239,25057,2,0,L|462:147,1,50
372,135,25197,5,0,0:0:0:0:
372,135,25266,1,0,0:0:0:0:
372,135,25336,2,0,L|338:47,1,50
255,82,25476,5,0,0:0:0:0:
255,82,25546,1,0,0:0:0:0:
255,82,25615,2,0,L|182:23,1,50
127,94,25755,5,0,0:0:0:0:
127,94,25825,1,0,0:0:0:0:
127,94,25894,2,0,L|35:79,1,50
24,193,26034,5,0,0:0:0:0:
196,297,26173,1,0,0:0:0:0:
196,297,26243,1,0,0:0:0:0:
196,297,26313,6,0,L|268:252,3,50
165,202,26592,6,0,L|90:162,3,50
99,277,26871,6,0,L|101:361,3,50
197,382,27150,5,0,0:0:0:0:
216,351,27220,1,0,0:0:0:0:
245,330,27290,1,0,0:0:0:0:
279,322,27359,1,0,0:0:0:0:
315,328,27429,1,0,0:0:0:0:
350,345,27499,1,0,0:0:0:0:
389,338,27569,1,0,0:0:0:0:
416,310,27639,1,0,0:0:0:0:
434,277,27708,6,0,L|428:204,1,40
401,122,27848,1,0,0:0:0:0:
397,103,27918,1,0,0:0:0:0:
398,83,27987,2,0,P|426:72|472:78,3,40
313,162,28266,5,0,0:0:0:0:
282,180,28336,1,0,0:0:0:0:
246,184,28406,1,0,0:0:0:0:
212,172,28476,1,0,0:0:0:0:
186,148,28546,1,0,0:0:0:0:
167,118,28615,1,0,0:0:0:0:
138,97,28685,1,0,0:0:0:0:
103,89,28755,1,0,0:0:0:0:
68,96,28825,6,0,P|37:107|11:105,3,40
151,11,29104,2,0,P|182:0|208:2,3,40
101,186,29383,5,0,0:0:0:0:
87,223,29453,1,0,0:0:0:0:
93,262,29522,1,0,0:0:0:0:
118,292,29592,1,0,0:0:0:0:
134,328,29662,1,0,0:0:0:0:
116,361,29732,1,0,0:0:0:0:
77,366,29801,1,0,0:0:0:0:
51,339,29871,5,0,0:0:0:0:
57,300,29941,1,0,0:0:0:0:
89,277,30011,1,0,0:0:0:0:
128,270,30080,1,0,0:0:0:0:
167,280,30150,1,0,0:0:0:0:
197,305,30220,1,0,0:0:0:0:
231,326,30290,1,0,0:0:0:0:
270,323,30359,1,0,0:0:0:0:
301,299,30429,1,0,0:0:0:0:
314,262,30499,6,0,L|316:206,3,40
428,145,30778,2,0,L|372:142,3,40
314,29,31057,2,0,L|311:84,3,40
197,145,31336,2,0,L|252:147,3,40
115,188,31615,6,0,P|86:239|94:287,1,80
131,377,31894,2,0,P|200:349|197:263,1,160
85,258,32313,1,0,0:0:0:0:
141,362,32453,1,0,0:0:0:0:
260,315,32592,1,0,0:0:0:0:
252,182,32732,6,0,P|201:190|168:227,1,80
260,315,33011,1,0,0:0:0:0:
348,182,33150,1,0,0:0:0:0:
242,63,33290,2,0,L|149:72,1,80
344,0,33569,2,0,L|437:9,1,80
342,111,33848,5,0,0:0:0:0:
344,134,33918,1,0,0:0:0:0:
346,158,33987,1,0,0:0:0:0:
348,182,34057,1,0,0:0:0:0:
421,245,34127,5,0,0:0:0:0:
419,268,34197,1,0,0:0:0:0:
417,292,34266,1,0,0:0:0:0:
415,316,34336,1,0,0:0:0:0:
335,366,34406,5,0,0:0:0:0:
295,372,34476,1,0,0:0:0:0:
258,358,34546,1,0,0:0:0:0:
233,327,34615,1,0,0:0:0:0:
226,288,34685,1,0,0:0:0:0:
231,250,34755,1,0,0:0:0:0:
205,221,34825,1,0,0:0:0:0:
166,223,34894,1,0,0:0:0:0:
142,254,34964,6,0,B|126:288|126:288|125:324|155:342,1,80
142,118,35243,2,0,B|157:83|157:83|158:47|128:29,1,80
74,186,35522,2,0,B|39:170|39:170|3:169|-14:199,1,80
209,186,35801,2,0,B|243:201|243:201|279:202|297:172,1,80
400,123,36080,5,0,0:0:0:0:
428,95,36150,1,0,0:0:0:0:
467,90,36220,1,0,0:0:0:0:
501,110,36290,1,0,0:0:0:0:
512,146,36359,1,0,0:0:0:0:
506,184,36429,1,0,0:0:0:0:
475,208,36499,1,0,0:0:0:0:
436,209,36569,1,0,0:0:0:0:
397,217,36639,1,0,0:0:0:0:
371,246,36708,1,0,0:0:0:0:
366,285,36778,1,0,0:0:0:0:
384,320,36848,1,0,0:0:0:0:
420,337,36918,2,0,L|474:326,3,40
288,263,37197,5,0,0:0:0:0:
249,254,37266,1,0,0:0:0:0:
209,261,37336,1,0,0:0:0:0:
175,281,37406,1,0,0:0:0:0:
150,312,37476,1,0,0:0:0:0:
131,346,37546,1,0,0:0:0:0:
94,357,37615,1,0,0:0:0:0:
60,338,37685,1,0,0:0:0:0:
49,301,37755,1,0,0:0:0:0:
68,267,37825,1,0,0:0:0:0:
88,233,37894,1,0,0:0:0:0:
87,193,37964,1,0,0:0:0:0:
66,160,38034,2,0,P|39:152|1:174,3,40
178,212,38313,5,0,0:0:0:0:
216,220,38383,1,0,0:0:0:0:
254,209,38453,1,0,0:0:0:0:
283,182,38522,1,0,0:0:0:0:
296,145,38592,1,0,0:0:0:0:
290,106,38662,1,0,0:0:0:0:
266,74,38732,2,0,P|260:43|270:2,5,40
379,188,39150,2,0,P|385:219|375:260,3,40
469,301,39429,5,0,0:0:0:0:
434,329,39499,1,0,0:0:0:0:
391,340,39569,1,0,0:0:0:0:
347,332,39639,1,0,0:0:0:0:
311,306,39708,2,0,P|307:344|319:384,1,44.999998626709
229,215,39848,2,0,P|225:177|237:137,1,44.999998626709
147,306,39987,2,0,P|143:344|155:384,1,44.999998626709
65,215,40127,2,0,P|61:177|73:137,1,44.999998626709
108,51,40266,5,0,0:0:0:0:
126,26,40336,1,0,0:0:0:0:
156,22,40406,1,0,0:0:0:0:
180,41,40476,1,0,0:0:0:0:
184,71,40546,2,0,B|236:106|275:73|275:73|296:81|296:81|332:57|385:81,1,200
385,161,40964,2,0,P|448:127|412:0,1,200
385,161,41383,2,0,P|376:227|389:277,1,100
465,327,41662,5,0,0:0:0:0:
433,351,41732,1,0,0:0:0:0:
395,362,41801,1,0,0:0:0:0:
355,359,41871,1,0,0:0:0:0:
319,343,41941,1,0,0:0:0:0:
290,315,42011,1,0,0:0:0:0:
273,279,42080,1,0,0:0:0:0:
260,247,42150,1,0,0:0:0:0:
231,231,42220,1,0,0:0:0:0:
197,236,42290,1,0,0:0:0:0:
170,258,42359,5,0,0:0:0:0:
168,272,42429,1,0,0:0:0:0:
165,287,42499,1,0,0:0:0:0:
163,302,42569,1,0,0:0:0:0:
160,317,42639,1,0,0:0:0:0:
158,332,42708,1,0,0:0:0:0:
156,346,42778,6,0,L|61:324,1,89.9999972534181
32,145,43057,1,0,0:0:0:0:
87,245,43197,1,0,0:0:0:0:
147,75,43336,2,0,P|196:49|248:58,1,89.9999972534181
272,195,43615,2,0,P|224:165|206:116,1,89.9999972534181
313,26,43894,6,0,P|311:81|277:121,1,89.9999972534181
229,50,44173,1,0,0:0:0:0:
356,169,44313,1,0,0:0:0:0:
189,219,44453,1,0,0:0:0:0:
292,109,44592,1,0,0:0:0:0:
252,278,44732,1,0,0:0:0:0:
125,158,44871,1,0,0:0:0:0:
345,261,45011,6,0,P|320:341|203:358,1,179.999994506836
125,158,45429,2,0,B|144:286|144:286|118:337,1,179.999994506836
49,264,45848,2,0,L|35:174,1,89.9999972534181
123,85,46127,6,0,P|170:148|106:141,1,160
250,45,46546,2,0,P|270:143|189:242,1,200
166,311,46964,2,0,B|211:321|211:321|234:371,1,89.9999972534181
333,307,47243,5,0,0:0:0:0:
360,335,47313,1,0,0:0:0:0:
398,345,47383,1,0,0:0:0:0:
436,334,47453,1,0,0:0:0:0:
462,305,47522,1,0,0:0:0:0:
470,266,47592,1,0,0:0:0:0:
456,229,47662,1,0,0:0:0:0:
425,204,47732,1,0,0:0:0:0:
386,202,47801,5,0,0:0:0:0:
354,179,47871,1,0,0:0:0:0:
340,142,47941,1,0,0:0:0:0:
347,103,48011,1,0,0:0:0:0:
375,75,48080,1,0,0:0:0:0:
413,66,48150,1,0,0:0:0:0:
450,78,48220,1,0,0:0:0:0:
475,109,48290,1,0,0:0:0:0:
465,148,48359,5,0,0:0:0:0:
425,141,48429,1,0,0:0:0:0:
385,135,48499,1,0,0:0:0:0:
346,129,48569,1,0,0:0:0:0:
306,123,48639,1,0,0:0:0:0:
267,117,48708,1,0,0:0:0:0:
227,111,48778,1,0,0:0:0:0:
188,105,48848,1,0,0:0:0:0:
193,65,48918,5,0,0:0:0:0:
176,29,48987,1,0,0:0:0:0:
143,8,49057,1,0,0:0:0:0:
104,7,49127,1,0,0:0:0:0:
70,28,49197,1,0,0:0:0:0:
53,64,49266,1,0,0:0:0:0:
57,103,49336,1,0,0:0:0:0:
82,134,49406,1,0,0:0:0:0:
102,168,49476,6,0,P|111:192|110:229,1,40
96,324,49615,1,0,0:0:0:0:
96,324,49685,1,0,0:0:0:0:
96,324,49755,2,0,L|152:325,1,40
244,300,49894,1,0,0:0:0:0:
267,294,49964,1,0,0:0:0:0:
291,297,50034,1,0,0:0:0:0:
313,306,50104,1,0,0:0:0:0:
330,322,50173,1,0,0:0:0:0:
342,343,50243,1,0,0:0:0:0:
346,358,50313,2,0,L|315:386,3,40
253,255,50592,6,0,P|230:176|387:149,1,269.999991760254
314,195,51150,1,0,0:0:0:0:
169,59,51290,1,0,0:0:0:0:
329,210,51429,2,0,P|359:226|422:215,1,89.9999972534181
354,107,51708,6,0,B|314:78|262:81|221:108|204:152|206:202|206:202|200:276|144:296|88:284|60:248|64:196|64:196|72:144|124:128|160:144,1,560
304,184,52825,6,0,B|384:232|464:168|464:96|432:52|404:32|404:32|356:96|356:96|260:48|188:120|184:168|200:240,1,629.999980773926
368,280,53941,6,0,B|312:280|284:264|284:264|256:328|160:360|115:290|104:272|104:216,1,350
184,40,55057,6,0,B|220:120|200:228|200:228|252:160|332:192|332:192|392:204|420:176|416:136|416:136|412:108|384:96,1,489.999985046387
288,264,56173,6,0,B|368:320|428:284|428:284|364:248|256:336|256:336|196:376|128:360|100:320|97:305|97:305|160:316,1,560
220,192,57290,6,0,B|280:160|340:188|340:188|408:212|442:188|442:188|400:180|352:136|364:84|392:32|436:24|476:36|500:56,1,489.999985046387
480,256,58406,6,0,B|400:300|288:256|288:256|192:296|140:240|140:240|152:300,1,419.999987182618
200,176,59522,6,0,B|164:140|100:132|48:172|40:264|40:264|100:184|68:124|68:124|20:72|56:32|88:24|120:28|136:80,1,560
292,160,60639,6,0,P|290:233|215:269,1,150
312,365,61476,6,0,P|351:349|379:314,1,75
391,294,61755,5,0,0:0:0:0:
407,247,61825,1,0,0:0:0:0:
396,199,61894,1,0,0:0:0:0:
361,165,61964,1,0,0:0:0:0:
312,156,62034,1,0,0:0:0:0:
267,175,62104,1,0,0:0:0:0:
239,216,62173,1,0,0:0:0:0:
207,253,62243,1,0,0:0:0:0:
160,269,62313,5,0,0:0:0:0:
112,258,62383,1,0,0:0:0:0:
75,224,62453,1,0,0:0:0:0:
62,177,62522,1,0,0:0:0:0:
74,129,62592,1,0,0:0:0:0:
109,94,62662,1,0,0:0:0:0:
155,77,62732,1,0,0:0:0:0:
204,85,62801,1,0,0:0:0:0:
241,117,62871,5,0,0:0:0:0:
257,164,62941,1,0,0:0:0:0:
248,212,63011,1,0,0:0:0:0:
215,249,63080,1,0,0:0:0:0:
167,264,63150,1,0,0:0:0:0:
130,278,63220,1,0,0:0:0:0:
109,311,63290,1,0,0:0:0:0:
111,350,63359,1,0,0:0:0:0:
137,380,63429,5,0,0:0:0:0:
175,389,63499,1,0,0:0:0:0:
211,373,63569,1,0,0:0:0:0:
245,344,63639,1,0,0:0:0:0:
286,326,63708,1,0,0:0:0:0:
331,322,63778,1,0,0:0:0:0:
374,332,63848,1,0,0:0:0:0:
412,354,63918,1,0,0:0:0:0:
441,383,63987,6,0,L|457:330,3,50
369,246,64266,2,0,L|353:193,3,50
469,149,64546,6,0,L|485:96,3,50
356,61,64825,6,0,L|340:8,3,50
290,204,65104,5,0,0:0:0:0:
338,196,65173,1,0,0:0:0:0:
376,164,65243,1,0,0:0:0:0:
392,117,65313,1,0,0:0:0:0:
381,69,65383,1,0,0:0:0:0:
347,33,65452,1,0,0:0:0:0:
299,21,65522,1,0,0:0:0:0:
251,34,65592,1,0,0:0:0:0:
208,59,65662,1,0,0:0:0:0:
175,101,65732,1,0,0:0:0:0:
144,140,65801,1,0,0:0:0:0:
109,167,65871,1,0,0:0:0:0:
65,170,65941,5,0,0:0:0:0:
27,148,66011,1,0,0:0:0:0:
8,107,66080,1,0,0:0:0:0:
16,64,66150,1,0,0:0:0:0:
47,32,66220,2,0,L|85:82,7,50
184,93,66778,6,0,L|178:43,3,50
312,97,67057,2,0,L|322:48,3,50
282,123,67336,5,0,0:0:0:0:
265,159,67406,1,0,0:0:0:0:
236,186,67476,1,0,0:0:0:0:
199,200,67546,1,0,0:0:0:0:
159,198,67615,1,0,0:0:0:0:
123,181,67685,1,0,0:0:0:0:
83,164,67755,1,0,0:0:0:0:
40,174,67825,1,0,0:0:0:0:
12,208,67894,5,0,0:0:0:0:
10,253,67964,1,0,0:0:0:0:
36,289,68034,1,0,0:0:0:0:
78,302,68104,1,0,0:0:0:0:
112,283,68173,1,0,0:0:0:0:
150,292,68243,1,0,0:0:0:0:
171,325,68313,1,0,0:0:0:0:
164,364,68383,1,0,0:0:0:0:
132,387,68453,5,0,0:0:0:0:
98,345,68522,1,0,0:0:0:0:
98,292,68592,1,0,0:0:0:0:
119,245,68662,1,0,0:0:0:0:
99,196,68732,1,0,0:0:0:0:
54,173,68801,1,0,0:0:0:0:
25,132,68871,1,0,0:0:0:0:
21,83,68941,1,0,0:0:0:0:
44,39,69011,5,0,0:0:0:0:
85,13,69081,1,0,0:0:0:0:
135,12,69150,1,0,0:0:0:0:
177,37,69220,1,0,0:0:0:0:
201,80,69290,1,0,0:0:0:0:
232,119,69359,1,0,0:0:0:0:
275,144,69429,1,0,0:0:0:0:
324,151,69499,1,0,0:0:0:0:
372,139,69569,5,0,0:0:0:0:
412,110,69638,1,0,0:0:0:0:
432,76,69708,1,0,0:0:0:0:
427,36,69778,1,0,0:0:0:0:
401,7,69848,1,0,0:0:0:0:
363,0,69918,1,0,0:0:0:0:
327,13,69987,1,0,0:0:0:0:
313,48,70057,1,0,0:0:0:0:
316,84,70127,6,0,L|293:149,3,50
390,230,70406,2,0,L|406:277,3,50
223,64,70685,5,0,0:0:0:0:
219,78,70755,1,0,0:0:0:0:
215,92,70825,1,0,0:0:0:0:
211,107,70894,1,0,0:0:0:0:
207,121,70964,1,0,0:0:0:0:
203,136,71034,1,0,0:0:0:0:
199,150,71104,1,0,0:0:0:0:
195,165,71173,1,0,0:0:0:0:
191,185,71243,6,0,L|240:191,3,50
133,282,71522,6,0,L|68:273,3,50
311,347,71801,5,0,0:0:0:0:
311,347,71871,1,0,0:0:0:0:
311,347,71941,2,0,L|367:341,1,50
183,288,72080,5,0,0:0:0:0:
183,288,72150,1,0,0:0:0:0:
183,288,72220,2,0,L|127:282,1,50
311,229,72359,5,0,0:0:0:0:
311,229,72429,1,0,0:0:0:0:
311,229,72499,2,0,L|367:223,1,50
183,170,72639,5,0,0:0:0:0:
183,170,72708,1,0,0:0:0:0:
183,170,72778,2,0,L|127:164,1,50
306,81,72918,5,0,0:0:0:0:
306,81,72987,1,0,0:0:0:0:
306,81,73057,2,0,L|362:87,1,50
494,150,73197,5,0,0:0:0:0:
494,150,73266,1,0,0:0:0:0:
494,150,73336,2,0,L|438:156,1,50
306,219,73476,5,0,0:0:0:0:
306,219,73546,1,0,0:0:0:0:
306,219,73615,2,0,L|362:225,1,50
494,288,73755,5,0,0:0:0:0:
494,288,73825,1,0,0:0:0:0:
494,288,73894,2,0,L|438:294,1,50
302,355,74034,5,0,0:0:0:0:
262,355,74104,1,0,0:0:0:0:
224,342,74173,1,0,0:0:0:0:
192,319,74243,1,0,0:0:0:0:
169,286,74313,1,0,0:0:0:0:
157,248,74383,1,0,0:0:0:0:
139,283,74453,1,0,0:0:0:0:
105,304,74522,1,0,0:0:0:0:
66,306,74592,5,0,0:0:0:0:
30,288,74662,1,0,0:0:0:0:
9,255,74732,1,0,0:0:0:0:
6,216,74801,1,0,0:0:0:0:
24,180,74871,1,0,0:0:0:0:
56,158,74941,1,0,0:0:0:0:
101,155,75011,1,0,0:0:0:0:
138,130,75080,1,0,0:0:0:0:
157,90,75150,1,0,0:0:0:0:
153,46,75220,1,0,0:0:0:0:
120,17,75290,1,0,0:0:0:0:
76,23,75359,1,0,0:0:0:0:
40,51,75429,6,0,L|65:119,3,50
170,202,75708,2,0,L|195:134,3,50
300,51,75987,5,0,0:0:0:0:
308,74,76057,1,0,0:0:0:0:
317,97,76127,1,0,0:0:0:0:
325,121,76197,1,0,0:0:0:0:
334,144,76266,5,0,0:0:0:0:
284,140,76336,1,0,0:0:0:0:
243,167,76406,1,0,0:0:0:0:
227,213,76476,1,0,0:0:0:0:
241,260,76546,1,0,0:0:0:0:
281,288,76615,1,0,0:0:0:0:
330,287,76685,1,0,0:0:0:0:
369,256,76755,1,0,0:0:0:0:
409,228,76825,5,0,0:0:0:0:
457,236,76894,1,0,0:0:0:0:
485,275,76964,1,0,0:0:0:0:
479,324,77034,1,0,0:0:0:0:
440,353,77104,1,0,0:0:0:0:
392,347,77173,1,0,0:0:0:0:
348,324,77243,1,0,0:0:0:0:
299,310,77313,1,0,0:0:0:0:
250,307,77383,5,0,0:0:0:0:
211,345,77453,1,0,0:0:0:0:
158,356,77522,1,0,0:0:0:0:
108,336,77592,1,0,0:0:0:0:
77,291,77662,1,0,0:0:0:0:
75,237,77732,1,0,0:0:0:0:
104,191,77801,1,0,0:0:0:0:
153,168,77871,1,0,0:0:0:0:
199,198,77941,5,0,0:0:0:0:
253,199,78011,1,0,0:0:0:0:
299,171,78080,1,0,0:0:0:0:
323,122,78150,1,0,0:0:0:0:
317,68,78220,1,0,0:0:0:0:
283,26,78290,1,0,0:0:0:0:
231,9,78359,1,0,0:0:0:0:
179,22,78429,1,0,0:0:0:0:
141,61,78499,5,0,0:0:0:0:
200,263,78639,1,0,0:0:0:0:
153,168,78778,2,0,P|97:157|41:177,1,100
269,349,79057,1,0,0:0:0:0:
365,152,79197,1,0,0:0:0:0:
200,263,79336,2,0,P|144:274|88:254,1,100
268,111,79615,5,0,0:0:0:0:
153,168,79755,1,0,0:0:0:0:
218,10,79894,1,0,0:0:0:0:
299,222,80034,1,0,0:0:0:0:
62,111,80173,6,0,B|41:158|41:158|53:238,1,100
118,379,80453,2,0,B|139:332|139:332|127:252,1,100
232,106,80732,5,0,0:0:0:0:
51,319,80871,1,0,0:0:0:0:
286,210,81011,2,0,P|329:201|394:225,1,100
457,125,81290,5,0,0:0:0:0:
326,311,81429,1,0,0:0:0:0:
317,68,81569,1,0,0:0:0:0:
381,216,81708,1,0,0:0:0:0:
199,102,81848,6,0,P|191:57|210:1,2,100
381,216,82266,1,0,0:0:0:0:
199,102,82406,2,0,P|132:140|123:169,1,100
228,284,82685,2,0,P|228:206|207:184,1,100
55,218,82964,5,0,0:0:0:0:
291,133,83104,1,0,0:0:0:0:
146,338,83243,2,0,P|182:372|230:375,1,100
216,192,83522,1,0,0:0:0:0:
392,298,83662,1,0,0:0:0:0:
369,66,83801,2,0,L|380:179,1,100
491,221,84080,5,0,0:0:0:0:
279,115,84220,1,0,0:0:0:0:
392,298,84359,1,0,0:0:0:0:
199,102,84499,1,0,0:0:0:0:
360,64,84639,6,0,B|369:117|369:117|353:187,1,100
228,282,84918,2,0,B|219:229|219:229|235:159,1,100
328,235,85197,5,0,0:0:0:0:
179,378,85336,1,0,0:0:0:0:
136,353,85406,1,0,0:0:0:0:
122,306,85476,1,0,0:0:0:0:
106,259,85545,1,0,0:0:0:0:
68,229,85615,1,0,0:0:0:0:
51,72,85755,2,0,P|9:70|-18:87,2,50
196,64,86034,5,0,0:0:0:0:
197,88,86103,1,0,0:0:0:0:
193,113,86173,1,0,0:0:0:0:
183,136,86243,1,0,0:0:0:0:
167,156,86313,6,0,P|239:131|243:280,1,275
229,207,87150,1,0,0:0:0:0:
229,207,87429,5,0,0:0:0:0:
239,177,87499,1,0,0:0:0:0:
264,158,87569,1,0,0:0:0:0:
295,155,87639,1,0,0:0:0:0:
322,169,87708,1,0,0:0:0:0:
352,180,87778,1,0,0:0:0:0:
382,175,87848,1,0,0:0:0:0:
406,155,87918,1,0,0:0:0:0:
417,126,87987,2,0,L|439:64,3,44.999998626709
326,46,88266,2,0,L|313:-18,3,44.999998626709
196,45,88546,5,0,0:0:0:0:
180,71,88615,1,0,0:0:0:0:
153,87,88685,1,0,0:0:0:0:
122,89,88755,1,0,0:0:0:0:
94,75,88825,1,0,0:0:0:0:
102,105,88894,1,0,0:0:0:0:
110,136,88964,1,0,0:0:0:0:
119,166,89034,1,0,0:0:0:0:
127,196,89104,2,0,L|200:205,3,44.999998626709
69,299,89383,2,0,L|-3:307,3,44.999998626709
162,357,89662,5,0,0:0:0:0:
197,352,89732,1,0,0:0:0:0:
227,332,89801,1,0,0:0:0:0:
244,301,89871,1,0,0:0:0:0:
247,266,89941,1,0,0:0:0:0:
233,233,90011,1,0,0:0:0:0:
206,210,90080,1,0,0:0:0:0:
171,201,90150,1,0,0:0:0:0:
127,196,90220,2,0,L|54:187,3,44.999998626709
185,93,90499,2,0,L|257:85,3,44.999998626709
26,65,90778,5,0,0:0:0:0:
28,109,90848,1,0,0:0:0:0:
30,154,90918,1,0,0:0:0:0:
33,199,90987,1,0,0:0:0:0:
35,244,91057,2,0,L|76:323,1,44.999998626709
141,244,91197,2,0,L|151:331,1,44.999998626709
240,279,91336,2,0,L|220:364,1,44.999998626709
331,364,91476,1,0,0:0:0:0:
331,364,91546,1,0,0:0:0:0:
331,364,91615,1,0,0:0:0:0:
331,364,91685,1,0,0:0:0:0:
331,364,91755,1,0,0:0:0:0:
331,364,91825,1,0,0:0:0:0:
331,364,91894,6,0,P|315:304|359:216,1,139.999995727539
489,221,92313,1,0,0:0:0:0:
466,311,92453,2,0,L|393:305,2,59.9999981689454
429,154,92871,1,0,0:0:0:0:
318,232,93011,6,0,B|296:193|296:193|285:103,1,104.999996795654
299,108,93290,2,0,L|303:43,1,50
184,54,93569,1,0,0:0:0:0:
429,154,93708,1,0,0:0:0:0:
162,51,93848,2,0,B|123:52|123:52|83:72,1,69.9999978637696
166,169,94127,5,0,0:0:0:0:
182,204,94197,1,0,0:0:0:0:
175,243,94266,1,0,0:0:0:0:
147,271,94336,1,0,0:0:0:0:
108,278,94406,2,0,P|72:266|59:253,3,40
166,169,94685,5,0,0:0:0:0:
150,134,94755,1,0,0:0:0:0:
157,94,94825,1,0,0:0:0:0:
185,67,94894,1,0,0:0:0:0:
224,61,94964,2,0,P|260:73|273:86,3,40
350,273,95243,6,0,P|296:255|277:236,1,80
224,61,95522,2,0,P|277:78|296:97,1,80
393,104,95801,2,0,P|375:157|356:176,1,80
181,230,96080,2,0,P|198:176|217:157,1,80
280,239,96359,5,0,0:0:0:0:
266,277,96429,1,0,0:0:0:0:
239,306,96499,1,0,0:0:0:0:
203,322,96569,1,0,0:0:0:0:
163,323,96639,1,0,0:0:0:0:
126,308,96708,1,0,0:0:0:0:
98,280,96778,1,0,0:0:0:0:
82,244,96848,1,0,0:0:0:0:
88,204,96918,6,0,L|34:198,3,40
173,92,97197,2,0,L|227:86,3,40
320,177,97476,5,0,0:0:0:0:
342,185,97546,1,0,0:0:0:0:
366,186,97615,1,0,0:0:0:0:
389,181,97685,1,0,0:0:0:0:
410,169,97755,1,0,0:0:0:0:
427,153,97825,1,0,0:0:0:0:
439,132,97894,1,0,0:0:0:0:
445,109,97964,1,0,0:0:0:0:
443,85,98034,6,0,P|396:66|345:72,1,80
244,158,98313,2,0,P|291:177|342:171,1,80
226,280,98592,1,0,0:0:0:0:
129,109,98732,6,0,P|114:156|142:212,1,80
306,62,99011,1,0,0:0:0:0:
42,42,99150,2,0,L|-28:28,3,40
218,154,99429,2,0,L|288:140,3,40
82,250,99708,5,0,0:0:0:0:
71,295,99778,1,0,0:0:0:0:
91,338,99848,1,0,0:0:0:0:
133,359,99918,1,0,0:0:0:0:
179,349,99987,5,0,0:0:0:0:
214,356,100057,1,0,0:0:0:0:
247,341,100127,1,0,0:0:0:0:
264,308,100197,1,0,0:0:0:0:
256,272,100266,5,0,0:0:0:0:
251,229,100336,1,0,0:0:0:0:
276,194,100406,1,0,0:0:0:0:
317,184,100476,1,0,0:0:0:0:
355,205,100546,5,0,0:0:0:0:
404,192,100615,1,0,0:0:0:0:
441,157,100685,1,0,0:0:0:0:
455,107,100755,1,0,0:0:0:0:
449,52,100825,6,0,P|351:41|384:123,1,200
361,111,101243,2,0,P|285:54|285:110,1,200
279,100,101662,2,0,B|221:146|221:146|178:143|167:116,1,120
66,27,101941,5,0,0:0:0:0:
61,66,102011,1,0,0:0:0:0:
56,106,102080,1,0,0:0:0:0:
51,146,102150,1,0,0:0:0:0:
124,197,102220,5,0,0:0:0:0:
119,228,102290,1,0,0:0:0:0:
115,260,102359,1,0,0:0:0:0:
111,292,102429,1,0,0:0:0:0:
195,340,102499,5,0,0:0:0:0:
199,314,102569,1,0,0:0:0:0:
202,288,102639,1,0,0:0:0:0:
205,263,102708,1,0,0:0:0:0:
295,213,102778,5,0,0:0:0:0:
298,234,102848,1,0,0:0:0:0:
300,256,102918,1,0,0:0:0:0:
303,276,102987,1,0,0:0:0:0:
305,294,103057,5,0,0:0:0:0:
423,83,103197,1,0,0:0:0:0:
441,344,103336,2,0,P|420:291|412:239,1,100
265,84,103615,5,0,0:0:0:0:
147,295,103755,1,0,0:0:0:0:
129,34,103894,2,0,P|150:87|158:139,1,100
40,330,104173,5,0,0:0:0:0:
223,197,104313,1,0,0:0:0:0:
36,121,104453,1,0,0:0:0:0:
253,302,104592,1,0,0:0:0:0:
188,52,104732,5,0,0:3:0:0:
152,275,104871,1,0,0:3:0:0:
338,196,105011,1,0,0:3:0:0:
57,222,105150,1,0,0:3:0:0:
241,215,105290,6,0,P|257:281|238:332,1,89.9999972534181
413,128,105569,1,0,0:0:0:0:
370,299,105708,1,0,0:0:0:0:
152,275,105848,6,0,P|151:207|181:161,1,89.9999972534181
296,68,106127,1,0,0:0:0:0:
253,239,106266,1,0,0:0:0:0:
115,72,106406,6,0,L|58:38,5,44.999998626709
160,143,106825,2,0,L|159:209,1,44.999998626709
114,258,106964,2,0,L|57:292,3,44.999998626709
206,258,107243,2,0,L|263:292,3,44.999998626709
339,332,107522,5,0,0:0:0:0:
376,345,107592,1,0,0:0:0:0:
415,338,107662,1,0,0:0:0:0:
445,313,107732,1,0,0:0:0:0:
460,276,107801,1,0,0:0:0:0:
454,237,107871,1,0,0:0:0:0:
430,206,107941,1,0,0:0:0:0:
394,190,108011,1,0,0:0:0:0:
356,203,108080,1,0,0:0:0:0:
317,196,108150,1,0,0:0:0:0:
287,171,108220,1,0,0:0:0:0:
272,134,108290,1,0,0:0:0:0:
278,95,108359,1,0,0:0:0:0:
302,64,108429,1,0,0:0:0:0:
338,48,108499,2,0,P|342:108|340:112,1,50
255,250,108639,6,0,P|255:290|271:329,7,50
144,213,109197,2,0,P|144:173|128:134,7,50
383,204,109755,5,0,0:0:0:0:
347,199,109825,1,0,0:0:0:0:
316,210,109894,1,0,0:0:0:0:
290,233,109964,1,0,0:0:0:0:
276,268,110034,2,0,P|237:280|195:277,1,50
133,339,110173,5,0,0:0:0:0:
133,339,110243,1,0,0:0:0:0:
133,339,110313,1,0,0:0:0:0:
133,339,110383,1,0,0:0:0:0:
133,339,110453,2,0,P|93:339|54:323,3,50
217,190,110732,5,0,0:0:0:0:
221,142,110801,1,0,0:0:0:0:
193,103,110871,2,0,B|94:50|21:182|98:249|98:249|139:238|170:263|170:263|214:300|285:265,1,450.000017166138
367,142,111987,6,0,B|432:138|392:23|334:19|255:65|237:184|312:236|390:223|390:223|313:247|285:307|285:307|285:277|263:246,1,560
179,232,113104,6,0,B|91:190|110:102|136:70|136:70|174:163|155:237|50:211|27:321|35:404|217:404|179:287,1,629.999980773926
288,351,114220,6,0,B|304:330|298:295|298:295|333:348|389:356|447:316|435:217|343:220|343:220|354:165|389:107|477:126|477:126|447:149|446:189,1,560
368,56,115336,6,0,B|286:93|264:187|264:187|251:85|191:43|191:43|179:144|112:169,1,489.999985046387
125,281,116453,6,0,P|21:233|230:171,1,560
284,323,117569,6,0,B|351:242|368:124|368:124|442:211|437:330|437:330|383:292,1,489.999985046387
388,41,118685,6,0,B|343:33|314:53|314:53|270:30|254:-1|254:-1|226:25|224:62|224:62|140:44|92:183|175:247|311:217|276:106,1,560
114,12,119801,6,0,P|72:191|366:84,1,629.999980773926
295,149,120918,6,0,P|378:207|327:60,1,400
208,216,121755,6,0,P|179:222|156:221,1,44.999998626709
121,216,122034,5,0,0:0:0:0:
76,195,122104,1,0,0:0:0:0:
55,151,122173,1,0,0:0:0:0:
68,103,122243,1,0,0:0:0:0:
108,75,122313,1,0,0:0:0:0:
157,80,122383,1,0,0:0:0:0:
201,103,122453,1,0,0:0:0:0:
240,132,122522,1,0,0:0:0:0:
289,135,122592,1,0,0:0:0:0:
332,110,122662,1,0,0:0:0:0:
355,66,122732,1,0,0:0:0:0:
349,17,122801,1,0,0:0:0:0:
301,3,122871,2,0,L|268:59,3,50
352,198,123150,5,0,0:0:0:0:
331,231,123220,1,0,0:0:0:0:
329,271,123290,1,0,0:0:0:0:
347,306,123359,1,0,0:0:0:0:
380,328,123429,1,0,0:0:0:0:
419,332,123499,1,0,0:0:0:0:
455,316,123569,1,0,0:0:0:0:
479,284,123639,1,0,0:0:0:0:
484,244,123708,2,0,L|491:186,3,50
386,175,123987,2,0,L|379:117,3,50
235,123,124266,5,0,0:0:0:0:
188,137,124336,1,0,0:0:0:0:
162,178,124406,1,0,0:0:0:0:
168,227,124476,1,0,0:0:0:0:
205,260,124546,1,0,0:0:0:0:
246,272,124615,1,0,0:0:0:0:
269,309,124685,1,0,0:0:0:0:
264,353,124755,1,0,0:0:0:0:
231,383,124825,5,0,0:0:0:0:
220,370,124894,1,0,0:0:0:0:
212,359,124964,1,0,0:0:0:0:
202,347,125034,1,0,0:0:0:0:
193,335,125104,1,0,0:0:0:0:
179,347,125173,1,0,0:0:0:0:
167,354,125243,1,0,0:0:0:0:
156,364,125313,1,0,0:0:0:0:
143,373,125383,5,0,0:0:0:0:
96,357,125453,1,0,0:0:0:0:
66,318,125522,1,0,0:0:0:0:
62,269,125592,1,0,0:0:0:0:
87,226,125662,1,0,0:0:0:0:
131,204,125732,1,0,0:0:0:0:
180,206,125801,1,0,0:0:0:0:
227,216,125871,1,0,0:0:0:0:
276,203,125941,6,0,L|284:278,3,50
218,88,126220,2,0,L|210:13,3,50
361,86,126499,5,0,0:0:0:0:
403,72,126569,1,0,0:0:0:0:
446,83,126639,1,0,0:0:0:0:
476,116,126708,1,0,0:0:0:0:
484,159,126778,1,0,0:0:0:0:
468,201,126848,1,0,0:0:0:0:
432,226,126918,1,0,0:0:0:0:
391,247,126987,1,0,0:0:0:0:
355,272,127057,1,0,0:0:0:0:
348,315,127127,1,0,0:0:0:0:
374,350,127197,1,0,0:0:0:0:
418,355,127266,1,0,0:0:0:0:
452,328,127336,6,0,L|458:383,1,50
355,272,127476,2,0,L|349:217,1,50
252,166,127615,6,0,L|257:116,3,50
148,272,127894,5,0,0:0:0:0:
148,272,127964,1,0,0:0:0:0:
148,272,128034,2,0,L|153:222,3,50
49,117,128313,5,0,0:0:0:0:
49,117,128383,1,0,0:0:0:0:
49,117,128453,2,0,L|54:166,3,50
50,332,128732,5,0,0:0:0:0:
85,366,128801,1,0,0:0:0:0:
132,382,128871,1,0,0:0:0:0:
181,375,128941,1,0,0:0:0:0:
223,349,129011,1,0,0:0:0:0:
249,306,129080,1,0,0:0:0:0:
254,257,129150,1,0,0:0:0:0:
237,210,129220,1,0,0:0:0:0:
203,175,129290,5,0,0:0:0:0:
255,189,129359,1,0,0:0:0:0:
308,204,129429,1,0,0:0:0:0:
361,219,129499,1,0,0:0:0:0:
414,233,129569,5,0,0:0:0:0:
400,179,129639,1,0,0:0:0:0:
386,126,129708,1,0,0:0:0:0:
372,73,129778,1,0,0:0:0:0:
359,19,129848,5,0,0:0:0:0:
406,27,129918,1,0,0:0:0:0:
434,67,129987,1,0,0:0:0:0:
425,115,130057,1,0,0:0:0:0:
385,143,130127,1,0,0:0:0:0:
337,134,130197,1,0,0:0:0:0:
310,93,130266,1,0,0:0:0:0:
273,61,130336,1,0,0:0:0:0:
224,57,130406,6,0,L|235:149,3,50
105,180,130685,2,0,L|115:88,3,50
28,285,130964,5,0,0:0:0:0:
67,305,131034,1,0,0:0:0:0:
112,311,131104,1,0,0:0:0:0:
155,301,131173,1,0,0:0:0:0:
193,278,131243,1,0,0:0:0:0:
231,255,131313,1,0,0:0:0:0:
274,245,131383,1,0,0:0:0:0:
319,251,131453,1,0,0:0:0:0:
373,291,131522,5,0,0:0:0:0:
373,291,131592,1,0,0:0:0:0:
373,291,131662,1,0,0:0:0:0:
373,291,131732,1,0,0:0:0:0:
373,291,131801,1,0,0:0:0:0:
373,291,131871,1,0,0:0:0:0:
373,291,131941,2,0,L|368:218,1,50
360,120,132080,5,0,0:0:0:0:
388,114,132150,1,0,0:0:0:0:
416,109,132220,2,0,L|475:103,1,50
334,30,132359,5,0,0:0:0:0:
300,29,132429,1,0,0:0:0:0:
273,43,132499,2,0,L|216:58,1,50
90,135,132639,5,0,0:0:0:0:
90,135,132708,1,0,0:0:0:0:
90,135,132778,2,0,L|31:129,1,50
213,197,132918,5,0,0:0:0:0:
213,197,132987,1,0,0:0:0:0:
213,197,133057,2,0,L|272:191,1,50
137,291,133197,6,0,L|84:303,3,50
89,134,133476,2,0,L|78:86,3,50
246,86,133755,2,0,L|299:74,3,50
293,243,134034,2,0,L|305:292,3,50
96,192,134313,5,0,0:0:0:0:
146,192,134383,1,0,0:0:0:0:
196,192,134453,1,0,0:0:0:0:
246,192,134522,1,0,0:0:0:0:
298,192,134592,5,0,0:0:0:0:
256,162,134662,1,0,0:0:0:0:
216,132,134732,1,0,0:0:0:0:
176,101,134801,1,0,0:0:0:0:
135,74,134871,5,0,0:0:0:0:
152,120,134941,1,0,0:0:0:0:
167,169,135011,1,0,0:0:0:0:
181,216,135080,1,0,0:0:0:0:
198,265,135150,5,0,0:0:0:0:
213,216,135220,1,0,0:0:0:0:
230,170,135290,1,0,0:0:0:0:
246,121,135359,1,0,0:0:0:0:
259,74,135429,6,0,L|273:26,3,50
135,74,135708,2,0,L|122:26,3,50
298,192,135987,2,0,L|333:226,3,50
96,192,136266,2,0,L|60:226,3,50
198,265,136546,5,0,0:0:0:0:
228,303,136615,1,0,0:0:0:0:
273,325,136685,1,0,0:0:0:0:
323,324,136755,1,0,0:0:0:0:
367,303,136825,1,0,0:0:0:0:
346,259,136894,1,0,0:0:0:0:
345,209,136964,1,0,0:0:0:0:
367,164,137034,1,0,0:0:0:0:
405,134,137104,5,0,0:0:0:0:
361,155,137173,1,0,0:0:0:0:
311,156,137243,1,0,0:0:0:0:
266,134,137313,1,0,0:0:0:0:
236,96,137383,1,0,0:0:0:0:
206,58,137453,1,0,0:0:0:0:
161,36,137522,2,0,P|112:32|84:44,1,50
30,103,137662,5,0,0:0:0:0:
186,342,137801,1,0,0:0:0:0:
142,131,137941,1,0,0:0:0:0:
76,280,138080,1,0,0:0:0:0:
345,59,138220,5,0,0:0:0:0:
345,59,138290,1,0,0:0:0:0:
345,59,138359,1,0,0:0:0:0:
199,352,138499,1,0,0:0:0:0:
142,131,138639,1,0,0:0:0:0:
142,131,138708,1,0,0:0:0:0:
142,131,138778,5,0,0:0:0:0:
408,263,138918,1,0,0:0:0:0:
286,45,139894,6,0,L|229:355,1,299.999990844727
63,196,140732,5,0,0:0:0:0:
66,216,140801,1,0,0:0:0:0:
69,237,140871,1,0,0:0:0:0:
72,258,140941,1,0,0:0:0:0:
75,279,141011,5,0,0:0:0:0:
418,139,141150,1,0,0:0:0:0:
147,77,142127,6,0,B|89:140|129:226|129:226|195:181|195:181|226:255|226:255|281:244|292:174,1,400
260,106,142964,1,0,0:0:0:0:
260,106,143104,1,0,0:0:0:0:
410,46,143243,6,0,L|388:159,1,89.9999972534181
359,274,143522,1,0,0:0:0:0:
359,274,143662,2,0,B|305:263|305:263|228:275,2,89.9999972534181
440,365,144080,5,0,0:0:0:0:
476,219,144220,1,0,0:0:0:0:
286,363,144359,2,0,P|239:358|196:333,1,89.9999972534181
102,205,144639,1,0,0:0:0:0:
102,205,144778,2,0,B|107:273|107:273|95:314,2,89.9999972534181
16,358,145197,5,0,0:0:0:0:
216,229,145336,1,0,0:0:0:0:
94,79,145476,6,0,L|52:123,2,44.999998626709
329,243,145755,2,0,L|371:287,2,44.999998626709
418,79,146034,2,0,L|460:123,2,44.999998626709
183,243,146313,2,0,L|141:287,2,44.999998626709
329,243,146592,5,0,0:0:0:0:
329,243,146662,1,0,0:0:0:0:
329,243,146732,1,0,0:0:0:0:
256,343,146871,5,0,0:0:0:0:
256,343,147011,1,0,0:0:0:0:
177,133,147150,5,0,0:0:0:0:
177,133,147220,1,0,0:0:0:0:
177,133,147290,1,0,0:0:0:0:
362,59,147429,5,0,0:0:0:0:
362,59,147569,1,0,0:0:0:0:
362,59,147708,6,0,B|314:130|337:195|397:232|397:232|297:229|297:229|372:295|372:295|275:262|229:332|229:332,1,550
320,382,148546,2,0,B|318:325|276:296|276:296|240:313|216:345,1,150
122,321,148825,2,0,P|72:340|139:239,1,350
240,233,149383,6,0,B|218:136|101:106|101:106|196:11|345:98|345:98|280:118,1,500
446,110,150220,2,0,P|429:151|360:188,1,100
240,233,150499,2,0,B|156:231|156:231|89:198,2,150
338,341,151057,2,0,B|422:339|422:339|489:306,2,150
249,257,151615,2,0,P|177:249|130:269,2,100
82,352,152173,5,0,0:0:0:0:
49,294,152266,5,0,0:0:0:0:
48,228,152359,5,0,0:0:0:0:
80,170,152453,5,0,0:0:0:0:
112,180,152522,1,0,0:0:0:0:
147,177,152592,1,0,0:0:0:0:
177,159,152662,1,0,0:0:0:0:
197,131,152732,5,0,0:0:0:0:
220,156,152801,1,0,0:0:0:0:
251,170,152871,1,0,0:0:0:0:
286,170,152941,1,0,0:0:0:0:
318,156,153011,5,0,0:0:0:0:
350,142,153080,1,0,0:0:0:0:
385,142,153150,1,0,0:0:0:0:
416,156,153220,1,0,0:0:0:0:
439,181,153290,6,0,L|450:240,3,50
274,71,153569,2,0,L|263:12,3,50
362,241,153848,2,0,L|373:300,3,50
197,131,154127,2,0,L|186:72,3,50
185,329,154406,6,0,P|135:280|69:284,2,100
261,221,154825,1,0,0:0:0:0:
156,155,154964,6,0,P|206:106|272:110,2,100
337,113,155383,1,0,0:0:0:0:
455,263,155522,6,0,B|441:223|453:183|453:183|444:163|444:163|465:109|431:38,1,200
261,221,155941,2,0,P|257:279|281:337,1,100
7,254,156220,1,0,0:0:0:0:
31,257,156290,1,0,0:0:0:0:
52,267,156359,2,0,P|105:243|145:194,1,100
103,39,156639,5,0,0:0:0:0:
176,295,156778,1,0,0:0:0:0:
91,58,156918,1,0,0:0:0:0:
100,341,157057,1,0,0:0:0:0:
71,68,157197,1,0,0:0:0:0:
178,384,157336,1,0,0:0:0:0:
200,138,157476,5,0,0:0:0:0:
54,265,157615,1,0,0:0:0:0:
311,280,157755,5,0,0:0:0:0:
242,42,157894,1,0,0:0:0:0:
283,301,158034,1,0,0:0:0:0:
367,27,158173,1,0,0:0:0:0:
248,305,158313,1,0,0:0:0:0:
487,86,158453,1,0,0:0:0:0:
450,266,158592,5,0,0:0:0:0:
200,138,158732,1,0,0:0:0:0:
375,160,158871,5,0,0:0:0:0:
137,224,159011,1,0,0:0:0:0:
426,237,159150,1,0,0:0:0:0:
85,146,159290,1,0,0:0:0:0:
403,231,159429,5,0,0:0:0:0:
108,152,159569,1,0,0:0:0:0:
458,137,159708,1,0,0:0:0:0:
52,245,159848,1,0,0:0:0:0:
212,334,159987,6,0,B|308:334|286:205|197:218|197:218|228:300|378:267|323:178|323:178|411:227|503:114|385:14|328:82,1,700
245,50,161104,5,0,0:0:0:0:
82,297,161243,1,0,0:0:0:0:
379,153,161383,1,0,0:0:0:0:
80,140,161522,1,0,0:0:0:0:
186,293,161662,5,0,0:0:0:0:
245,50,161801,1,0,0:0:0:0:
257,352,161941,5,0,0:0:0:0:
379,153,162080,1,0,0:0:0:0:
176,381,162220,5,0,0:0:0:0:
10,185,162359,1,0,0:0:0:0:
297,185,162499,1,0,0:0:0:0:
82,297,162639,1,0,0:0:0:0:
75,115,162778,5,0,0:0:0:0:
339,66,162918,1,0,0:0:0:0:
98,205,163057,5,0,0:0:0:0:
375,248,163197,1,0,0:0:0:0:
165,138,163336,5,0,0:0:0:0:
307,323,163476,1,0,0:0:0:0:
307,323,163546,1,0,0:0:0:0:
307,323,163615,2,0,L|269:202,1,100
213,57,163894,1,0,0:0:0:0:
80,191,164034,1,0,0:0:0:0:
80,191,164104,1,0,0:0:0:0:
80,191,164173,2,0,P|155:235|207:227,1,100
256,192,164453,12,0,165499,0:0:0:0:
260,304,165569,5,0,0:0:0:0:
221,294,165639,1,0,0:0:0:0:
190,270,165708,1,0,0:0:0:0:
171,234,165778,1,0,0:0:0:0:
169,195,165848,1,0,0:0:0:0:
183,158,165918,1,0,0:0:0:0:
212,130,165987,1,0,0:0:0:0:
237,94,166057,1,0,0:0:0:0:
238,50,166127,1,0,0:0:0:0:
212,14,166197,1,0,0:0:0:0:
170,0,166266,1,0,0:0:0:0:
128,11,166336,1,0,0:0:0:0:
100,46,166406,2,0,P|121:68|150:73,3,44.999998626709
65,156,166685,6,0,P|44:177|15:182,7,44.999998626709
300,141,167243,6,0,L|359:125,2,44.999998626709
226,242,167453,2,0,L|167:226,2,44.999998626709
350,255,167662,1,0,0:0:0:0:
350,255,167732,1,0,0:0:0:0:
350,255,167801,6,0,L|365:314,2,44.999998626709
197,140,168011,2,0,L|137:123,2,44.999998626709
373,64,168220,1,0,0:0:0:0:
373,64,168290,1,0,0:0:0:0:
373,64,168359,2,0,L|416:20,2,44.999998626709
228,108,168569,6,0,L|184:151,2,44.999998626709
200,253,168778,1,0,0:0:0:0:
162,255,168848,1,0,0:0:0:0:
137,243,168918,6,0,L|93:199,3,44.999998626709
338,191,169197,5,0,0:0:0:0:
338,191,169266,1,0,0:0:0:0:
338,191,169336,1,0,0:0:0:0:
338,191,169406,1,0,0:0:0:0:
338,191,169476,6,0,P|349:245|345:274,1,44.999998626709
280,384,169615,2,0,P|269:330|273:301,1,44.999998626709
212,260,169755,2,0,P|266:249|295:253,1,44.999998626709
405,318,169894,2,0,P|351:329|322:325,1,44.999998626709
161,360,170034,5,0,0:0:0:0:
131,332,170104,1,0,0:0:0:0:
112,297,170173,1,0,0:0:0:0:
106,257,170243,1,0,0:0:0:0:
114,217,170313,1,0,0:0:0:0:
135,183,170383,1,0,0:0:0:0:
154,150,170453,1,0,0:0:0:0:
162,113,170522,1,0,0:0:0:0:
156,76,170592,5,0,0:0:0:0:
134,104,170662,1,0,0:0:0:0:
126,139,170732,1,0,0:0:0:0:
133,174,170801,1,0,0:0:0:0:
153,203,170871,1,0,0:0:0:0:
184,221,170941,1,0,0:0:0:0:
220,224,171011,1,0,0:0:0:0:
254,213,171080,1,0,0:0:0:0:
280,188,171150,5,0,0:0:0:0:
304,212,171220,1,0,0:0:0:0:
335,222,171290,1,0,0:0:0:0:
369,219,171359,1,0,0:0:0:0:
398,202,171429,1,0,0:0:0:0:
418,175,171499,1,0,0:0:0:0:
424,142,171569,1,0,0:0:0:0:
416,109,171639,1,0,0:0:0:0:
396,83,171708,5,0,0:0:0:0:
374,95,171778,1,0,0:0:0:0:
351,104,171848,1,0,0:0:0:0:
327,110,171918,1,0,0:0:0:0:
302,112,171987,1,0,0:0:0:0:
278,110,172057,1,0,0:0:0:0:
254,105,172127,1,0,0:0:0:0:
231,96,172197,1,0,0:0:0:0:
208,89,172266,1,0,0:0:0:0:
185,80,172336,1,0,0:0:0:0:
161,75,172406,1,0,0:0:0:0:
137,73,172476,1,0,0:0:0:0:
112,75,172546,1,0,0:0:0:0:
88,81,172615,1,0,0:0:0:0:
65,90,172685,1,0,0:0:0:0:
44,103,172755,1,0,0:0:0:0:
26,120,172825,5,0,0:0:0:0:
46,143,172894,1,0,0:0:0:0:
62,170,172964,1,0,0:0:0:0:
72,200,173034,1,0,0:0:0:0:
76,231,173104,1,0,0:0:0:0:
74,263,173173,1,0,0:0:0:0:
65,293,173243,1,0,0:0:0:0:
51,321,173313,1,0,0:0:0:0:
30,344,173383,5,0,0:0:0:0:
29,308,173453,1,0,0:0:0:0:
39,273,173522,1,0,0:0:0:0:
60,244,173592,1,0,0:0:0:0:
88,222,173662,1,0,0:0:0:0:
122,211,173732,1,0,0:0:0:0:
158,210,173801,1,0,0:0:0:0:
192,221,173871,1,0,0:0:0:0:
222,241,173941,6,0,P|267:259|279:260,1,44.999998626709
451,243,174080,2,0,P|406:225|394:224,1,44.999998626709
228,271,174220,2,0,P|272:288|284:289,1,44.999998626709
456,272,174359,2,0,P|411:254|399:253,1,44.999998626709
329,384,174499,5,0,0:0:0:0:
343,341,174569,1,0,0:0:0:0:
346,297,174639,1,0,0:0:0:0:
340,254,174708,1,0,0:0:0:0:
325,213,174778,1,0,0:0:0:0:
300,177,174848,1,0,0:0:0:0:
269,146,174918,1,0,0:0:0:0:
230,124,174987,1,0,0:0:0:0:
232,173,175057,5,0,0:0:0:0:
213,218,175127,1,0,0:0:0:0:
178,252,175197,1,0,0:0:0:0:
132,268,175266,1,0,0:0:0:0:
85,265,175336,1,0,0:0:0:0:
41,242,175406,1,0,0:0:0:0:
12,204,175476,1,0,0:0:0:0:
0,156,175546,1,0,0:0:0:0:
7,108,175615,5,0,0:0:0:0:
56,122,175685,1,0,0:0:0:0:
106,109,175755,1,0,0:0:0:0:
141,73,175825,1,0,0:0:0:0:
176,36,175894,1,0,0:0:0:0:
225,23,175964,1,0,0:0:0:0:
274,37,176034,1,0,0:0:0:0:
308,74,176104,1,0,0:0:0:0:
323,120,176173,5,0,0:0:0:0:
282,154,176243,1,0,0:0:0:0:
268,205,176313,1,0,0:0:0:0:
286,254,176383,1,0,0:0:0:0:
330,283,176453,6,0,P|382:289|399:284,1,44.999998626709
468,209,176592,2,0,P|416:203|399:208,1,44.999998626709
253,332,176732,5,0,0:0:0:0:
204,327,176801,1,0,0:0:0:0:
164,299,176871,1,0,0:0:0:0:
143,254,176941,1,0,0:0:0:0:
147,205,177011,1,0,0:0:0:0:
174,165,177080,1,0,0:0:0:0:
184,117,177150,1,0,0:0:0:0:
167,71,177220,1,0,0:0:0:0:
129,40,177290,1,0,0:0:0:0:
81,32,177359,1,0,0:0:0:0:
36,50,177429,1,0,0:0:0:0:
6,89,177499,1,0,0:0:0:0:
0,137,177569,1,0,0:0:0:0:
19,182,177639,1,0,0:0:0:0:
63,204,177708,1,0,0:0:0:0:
112,212,177778,1,0,0:0:0:0:
160,203,177848,5,0,0:0:0:0:
174,155,177918,1,0,0:0:0:0:
204,117,177987,1,0,0:0:0:0:
247,93,178057,1,0,0:0:0:0:
296,88,178127,1,0,0:0:0:0:
344,101,178197,1,0,0:0:0:0:
382,131,178266,1,0,0:0:0:0:
407,174,178336,1,0,0:0:0:0:
421,222,178406,5,0,0:0:0:0:
374,195,178476,1,0,0:0:0:0:
321,189,178546,1,0,0:0:0:0:
271,206,178615,1,0,0:0:0:0:
231,242,178685,1,0,0:0:0:0:
210,291,178755,1,0,0:0:0:0:
210,344,178825,2,0,P|255:359|279:355,1,44.999998626709
231,242,178964,5,0,0:0:0:0:
170,228,179034,1,0,0:0:0:0:
109,243,179104,1,0,0:0:0:0:
63,285,179173,1,0,0:0:0:0:
47,346,179243,5,0,0:0:0:0:
98,310,179313,1,0,0:0:0:0:
126,255,179383,1,0,0:0:0:0:
126,192,179453,1,0,0:0:0:0:
96,137,179522,5,0,0:0:0:0:
131,85,179592,1,0,0:0:0:0:
186,57,179662,1,0,0:0:0:0:
249,57,179732,1,0,0:0:0:0:
304,87,179801,5,0,0:0:0:0:
259,128,179871,1,0,0:0:0:0:
268,188,179941,1,0,0:0:0:0:
322,214,180011,1,0,0:0:0:0:
375,185,180080,5,0,0:0:0:0:
343,168,180150,1,0,0:0:0:0:
308,164,180220,1,0,0:0:0:0:
273,173,180290,1,0,0:0:0:0:
244,194,180359,1,0,0:0:0:0:
225,224,180429,1,0,0:0:0:0:
217,259,180499,1,0,0:0:0:0:
223,294,180569,1,0,0:0:0:0:
241,322,180639,6,0,L|252:398,3,44.999998626709
343,305,180918,6,0,L|318:232,1,44.999998626709
189,218,181057,2,0,L|214:292,1,44.999998626709
121,341,181197,5,0,0:0:0:0:
322,145,181336,1,0,0:0:0:0:
44,184,181476,1,0,0:0:0:0:
293,316,181615,1,0,0:0:0:0:
164,64,181755,5,0,0:0:0:0:
9,297,181894,1,0,0:0:0:0:
271,200,182034,1,0,0:0:0:0:
0,123,182173,1,0,0:0:0:0:
168,341,182313,5,0,0:0:0:0:
178,39,182453,1,0,0:0:0:0:
347,290,182592,1,0,0:0:0:0:
61,185,182732,1,0,0:0:0:0:
388,52,182871,5,0,0:0:0:0:
269,362,183011,1,0,0:0:0:0:
178,39,183150,1,0,0:0:0:0:
444,247,183290,1,0,0:0:0:0:
107,236,183429,1,0,0:0:0:0:
99,232,184546,5,0,0:0:0:0:
418,204,185662,5,0,0:0:0:0:
418,204,186778,5,0,0:0:0:0:
143,39,187894,5,0,0:0:0:0:
143,39,189011,5,0,0:0:0:0:
269,334,190127,5,0,0:0:0:0:
269,334,191243,5,0,0:0:0:0:
341,21,192359,5,0,0:0:0:0:
341,21,193197,6,0,P|323:58|328:110,1,75
333,127,193476,5,0,0:0:0:0:
350,173,193546,1,0,0:0:0:0:
386,208,193615,1,0,0:0:0:0:
419,244,193685,1,0,0:0:0:0:
429,292,193755,1,0,0:0:0:0:
411,338,193825,1,0,0:0:0:0:
372,369,193894,1,0,0:0:0:0:
323,374,193964,1,0,0:0:0:0:
279,352,194034,1,0,0:0:0:0:
252,311,194104,1,0,0:0:0:0:
251,261,194173,1,0,0:0:0:0:
272,218,194243,1,0,0:0:0:0:
293,173,194313,1,0,0:0:0:0:
293,123,194383,1,0,0:0:0:0:
273,78,194453,1,0,0:0:0:0:
236,45,194522,1,0,0:0:0:0:
188,32,194592,5,0,0:0:0:0:
197,65,194662,1,0,0:0:0:0:
190,99,194732,1,0,0:0:0:0:
167,126,194801,1,0,0:0:0:0:
135,139,194871,1,0,0:0:0:0:
96,135,194941,1,0,0:0:0:0:
60,153,195011,1,0,0:0:0:0:
39,186,195080,1,0,0:0:0:0:
39,226,195150,1,0,0:0:0:0:
58,260,195220,1,0,0:0:0:0:
93,279,195290,1,0,0:0:0:0:
132,285,195359,1,0,0:0:0:0:
169,272,195429,2,0,L|159:341,3,50
269,179,195708,5,0,0:0:0:0:
308,149,195778,1,0,0:0:0:0:
357,152,195848,1,0,0:0:0:0:
392,186,195918,1,0,0:0:0:0:
397,235,195987,1,0,0:0:0:0:
369,275,196057,1,0,0:0:0:0:
322,288,196127,1,0,0:0:0:0:
271,268,196197,1,0,0:0:0:0:
216,268,196266,1,0,0:0:0:0:
165,287,196336,1,0,0:0:0:0:
123,323,196406,2,0,P|115:361|123:388,1,50
162,193,196546,5,0,0:0:0:0:
161,144,196615,1,0,0:0:0:0:
125,110,196685,1,0,0:0:0:0:
77,112,196755,1,0,0:0:0:0:
44,148,196825,5,0,0:0:0:0:
45,158,196894,1,0,0:0:0:0:
46,168,196964,1,0,0:0:0:0:
48,178,197034,1,0,0:0:0:0:
49,188,197104,1,0,0:0:0:0:
50,198,197173,1,0,0:0:0:0:
52,222,197243,5,0,0:0:0:0:
58,262,197313,1,0,0:0:0:0:
81,298,197383,1,0,0:0:0:0:
117,318,197453,1,0,0:0:0:0:
160,322,197522,1,0,0:0:0:0:
199,308,197592,1,0,0:0:0:0:
228,277,197662,5,0,0:0:0:0:
255,262,197732,1,0,0:0:0:0:
284,254,197801,1,0,0:0:0:0:
315,252,197871,1,0,0:0:0:0:
422,291,197941,5,0,0:0:0:0:
422,291,198011,1,0,0:0:0:0:
422,291,198080,2,0,L|411:352,1,50
495,189,198220,5,0,0:0:0:0:
495,189,198290,1,0,0:0:0:0:
495,189,198359,2,0,L|509:252,1,50
394,169,198499,6,0,L|405:108,3,50
276,126,198778,2,0,L|265:65,3,50
74,263,199057,5,0,0:0:0:0:
74,263,199127,1,0,0:0:0:0:
74,263,199197,2,0,L|63:324,1,50
185,204,199336,5,0,0:0:0:0:
185,204,199406,1,0,0:0:0:0:
185,204,199476,2,0,L|196:265,1,50
204,81,199615,5,0,0:0:0:0:
204,81,199685,1,0,0:0:0:0:
204,81,199755,2,0,L|215:20,1,50
93,140,199894,5,0,0:0:0:0:
93,140,199964,1,0,0:0:0:0:
93,140,200034,2,0,L|82:79,1,50
185,204,200173,5,0,0:0:0:0:
229,182,200243,1,0,0:0:0:0:
279,175,200313,1,0,0:0:0:0:
328,184,200383,1,0,0:0:0:0:
371,207,200453,1,0,0:0:0:0:
420,199,200522,1,0,0:0:0:0:
454,163,200592,1,0,0:0:0:0:
460,115,200662,1,0,0:0:0:0:
435,72,200732,1,0,0:0:0:0:
390,53,200801,1,0,0:0:0:0:
342,65,200871,1,0,0:0:0:0:
296,83,200941,1,0,0:0:0:0:
246,86,201011,1,0,0:0:0:0:
198,72,201080,1,0,0:0:0:0:
151,56,201150,1,0,0:0:0:0:
102,64,201220,1,0,0:0:0:0:
63,94,201290,5,0,0:0:0:0:
101,134,201359,1,0,0:0:0:0:
121,185,201429,1,0,0:0:0:0:
119,239,201499,1,0,0:0:0:0:
96,289,201569,1,0,0:0:0:0:
61,330,201639,1,0,0:0:0:0:
11,349,201708,5,0,0:0:0:0:
21,295,201778,1,0,0:0:0:0:
54,252,201848,1,0,0:0:0:0:
103,227,201918,1,0,0:0:0:0:
157,227,201987,1,0,0:0:0:0:
211,239,202057,1,0,0:0:0:0:
266,241,202127,1,0,0:0:0:0:
318,215,202197,1,0,0:0:0:0:
332,158,202266,1,0,0:0:0:0:
299,111,202336,1,0,0:0:0:0:
241,104,202406,5,0,0:0:0:0:
234,158,202476,1,0,0:0:0:0:
256,208,202546,1,0,0:0:0:0:
300,239,202615,1,0,0:0:0:0:
354,243,202685,1,0,0:0:0:0:
402,218,202755,1,0,0:0:0:0:
431,172,202825,1,0,0:0:0:0:
438,118,202894,1,0,0:0:0:0:
416,68,202964,1,0,0:0:0:0:
372,37,203034,1,0,0:0:0:0:
318,33,203104,1,0,0:0:0:0:
269,57,203173,1,0,0:0:0:0:
241,104,203243,5,0,0:0:0:0:
230,126,203313,1,0,0:0:0:0:
220,149,203383,1,0,0:0:0:0:
210,172,203453,1,0,0:0:0:0:
184,242,203522,5,0,0:0:0:0:
226,266,203592,1,0,0:0:0:0:
274,257,203662,2,0,P|308:219|313:191,1,50
137,183,203801,5,0,0:0:0:0:
94,208,203871,1,0,0:0:0:0:
78,253,203941,2,0,P|93:301|114:319,1,50
210,172,204080,5,0,0:0:0:0:
211,123,204150,1,0,0:0:0:0:
179,87,204220,2,0,P|128:76|102:85,1,50
184,242,204359,5,0,0:0:0:0:
226,266,204429,1,0,0:0:0:0:
274,257,204499,2,0,P|308:219|313:191,1,50
367,152,204639,6,0,L|399:110,3,50
145,152,204918,2,0,L|113:110,3,50
393,245,205197,2,0,L|441:224,3,50
119,245,205476,2,0,L|70:224,3,50
255,319,205755,5,0,0:0:0:0:
269,270,205825,1,0,0:0:0:0:
268,220,205894,1,0,0:0:0:0:
250,175,205964,1,0,0:0:0:0:
218,135,206034,5,0,0:0:0:0:
231,182,206104,1,0,0:0:0:0:
261,221,206173,1,0,0:0:0:0:
301,250,206243,1,0,0:0:0:0:
351,263,206313,5,0,0:0:0:0:
313,231,206383,1,0,0:0:0:0:
265,216,206453,1,0,0:0:0:0:
215,218,206522,1,0,0:0:0:0:
168,234,206592,5,0,0:0:0:0:
216,238,206662,1,0,0:0:0:0:
263,224,206732,1,0,0:0:0:0:
303,193,206801,1,0,0:0:0:0:
333,153,206871,6,0,P|347:103|344:82,3,50
217,134,207150,2,0,P|218:82|227:63,3,50
350,263,207429,2,0,P|394:289|405:307,3,50
167,234,207708,2,0,P|116:245|100:258,3,50
255,319,207987,5,0,0:0:0:0:
205,315,208057,1,0,0:0:0:0:
155,320,208127,1,0,0:0:0:0:
107,333,208197,1,0,0:0:0:0:
62,355,208266,5,0,0:0:0:0:
17,335,208336,1,0,0:0:0:0:
0,290,208406,1,0,0:0:0:0:
21,246,208476,1,0,0:0:0:0:
67,230,208546,5,0,0:0:0:0:
112,211,208615,1,0,0:0:0:0:
139,170,208685,1,0,0:0:0:0:
139,120,208755,1,0,0:0:0:0:
111,80,208825,5,0,0:0:0:0:
65,67,208894,1,0,0:0:0:0:
26,98,208964,2,0,P|36:140|68:153,1,50
164,214,209104,6,0,L|216:201,1,50
246,47,209243,2,0,L|194:60,1,50
359,171,209383,2,0,L|411:158,1,50
441,4,209522,2,0,L|389:17,1,50
276,152,209662,5,0,0:0:0:0:
278,177,209732,1,0,0:0:0:0:
281,204,209801,1,0,0:0:0:0:
284,231,209871,1,0,0:0:0:0:
286,258,209941,1,0,0:0:0:0:
290,285,210011,1,0,0:0:0:0:
293,312,210080,1,0,0:0:0:0:
296,339,210150,1,0,0:0:0:0:
366,363,210220,5,0,0:0:0:0:
404,324,210290,1,0,0:0:0:0:
418,272,210359,1,0,0:0:0:0:
404,220,210429,1,0,0:0:0:0:
365,182,210499,1,0,0:0:0:0:
312,170,210569,1,0,0:0:0:0:
260,186,210639,1,0,0:0:0:0:
224,227,210708,1,0,0:0:0:0:
172,243,210778,1,0,0:0:0:0:
119,231,210848,1,0,0:0:0:0:
80,193,210918,1,0,0:0:0:0:
66,141,210987,1,0,0:0:0:0:
80,89,211057,1,0,0:0:0:0:
119,51,211127,1,0,0:0:0:0:
176,39,211197,2,0,P|214:45|234:59,1,55.0000016784668
260,186,211336,5,0,0:0:0:0:
277,238,211406,1,0,0:0:0:0:
317,275,211476,1,0,0:0:0:0:
369,288,211546,1,0,0:0:0:0:
422,275,211615,1,0,0:0:0:0:
462,237,211685,1,0,0:0:0:0:
478,185,211755,1,0,0:0:0:0:
468,132,211825,1,0,0:0:0:0:
433,90,211894,5,0,0:0:0:0:
383,111,211964,1,0,0:0:0:0:
328,117,212034,1,0,0:0:0:0:
275,107,212104,1,0,0:0:0:0:
226,81,212173,1,0,0:0:0:0:
172,71,212243,1,0,0:0:0:0:
118,76,212313,1,0,0:0:0:0:
68,98,212383,1,0,0:0:0:0:
35,154,212453,6,0,L|43:241,1,55.0000016784668
83,338,212592,1,0,0:0:0:0:
128,330,212662,1,0,0:0:0:0:
163,296,212732,2,0,L|155:223,3,55.0000016784668
276,326,213011,5,0,0:0:0:0:
281,284,213080,1,0,0:0:0:0:
288,243,213150,2,0,L|296:170,1,55.0000016784668
388,319,213290,2,0,L|380:392,1,55.0000016784668
488,243,213429,2,0,L|480:170,1,55.0000016784668
468,46,213569,5,0,0:0:0:0:
416,28,213639,1,0,0:0:0:0:
361,33,213708,1,0,0:0:0:0:
314,60,213778,1,0,0:0:0:0:
281,104,213848,1,0,0:0:0:0:
249,148,213918,1,0,0:0:0:0:
202,175,213987,1,0,0:0:0:0:
148,180,214057,1,0,0:0:0:0:
96,162,214127,5,0,0:0:0:0:
80,117,214197,1,0,0:0:0:0:
105,76,214266,1,0,0:0:0:0:
153,71,214336,1,0,0:0:0:0:
187,108,214406,5,0,0:0:0:0:
213,127,214476,1,0,0:0:0:0:
244,138,214546,1,0,0:0:0:0:
277,138,214615,1,0,0:0:0:0:
324,108,214685,6,0,L|303:45,3,55.0000016784668
446,153,214964,2,0,L|467:90,3,55.0000016784668
424,275,215243,5,0,0:0:0:0:
424,275,215313,1,0,0:0:0:0:
424,275,215383,2,0,L|445:338,1,55.0000016784668
322,240,215522,5,0,0:0:0:0:
322,240,215592,1,0,0:0:0:0:
322,240,215662,2,0,L|301:303,1,55.0000016784668
202,354,215801,5,0,0:0:0:0:
190,346,215871,1,0,0:0:0:0:
180,337,215941,1,0,0:0:0:0:
171,326,216011,1,0,0:0:0:0:
166,314,216080,1,0,0:0:0:0:
162,300,216150,1,0,0:0:0:0:
161,287,216220,1,0,0:0:0:0:
163,273,216290,1,0,0:0:0:0:
168,260,216359,6,0,L|232:243,3,55.0000016784668
102,162,216639,2,0,L|38:145,3,55.0000016784668
197,74,216918,5,0,0:0:0:0:
249,57,216987,1,0,0:0:0:0:
303,60,217057,1,0,0:0:0:0:
353,81,217127,1,0,0:0:0:0:
393,119,217197,1,0,0:0:0:0:
437,149,217266,1,0,0:0:0:0:
486,131,217336,1,0,0:0:0:0:
501,80,217406,1,0,0:0:0:0:
469,38,217476,5,0,0:0:0:0:
429,83,217546,1,0,0:0:0:0:
388,128,217615,1,0,0:0:0:0:
348,173,217685,1,0,0:0:0:0:
308,218,217755,5,0,0:0:0:0:
265,177,217825,1,0,0:0:0:0:
247,120,217894,1,0,0:0:0:0:
259,61,217964,1,0,0:0:0:0:
298,15,218034,5,0,0:0:0:0:
317,60,218104,1,0,0:0:0:0:
314,109,218173,1,0,0:0:0:0:
289,151,218243,1,0,0:0:0:0:
247,177,218313,1,0,0:0:0:0:
199,181,218383,1,0,0:0:0:0:
153,163,218453,1,0,0:0:0:0:
122,125,218522,1,0,0:0:0:0:
110,77,218592,6,0,P|165:61|180:63,3,55.0000016784668
74,201,218871,2,0,P|19:184|4:186,3,55.0000016784668
93,313,219150,5,0,0:0:0:0:
140,327,219220,1,0,0:0:0:0:
189,327,219290,1,0,0:0:0:0:
236,312,219359,1,0,0:0:0:0:
277,284,219429,1,0,0:0:0:0:
318,256,219499,1,0,0:0:0:0:
365,241,219569,1,0,0:0:0:0:
414,241,219639,1,0,0:0:0:0:
462,256,219708,6,0,L|514:330,1,55.0000016784668
313,170,219848,2,0,L|261:96,1,55.0000016784668
412,321,219987,6,0,L|396:410,1,55.0000016784668
363,105,220127,2,0,L|378:15,1,55.0000016784668
466,142,220266,5,0,0:0:0:0:
404,180,220336,1,0,0:0:0:0:
333,183,220406,2,0,P|291:164|274:149,1,55.0000016784668
197,55,220546,5,0,0:0:0:0:
159,117,220615,1,0,0:0:0:0:
156,188,220685,2,0,P|175:230|190:247,1,55.0000016784668
284,324,220825,5,0,0:0:0:0:
222,362,220894,1,0,0:0:0:0:
151,365,220964,2,0,P|109:346|92:331,1,55.0000016784668
23,229,221104,5,0,0:0:0:0:
85,191,221173,1,0,0:0:0:0:
156,188,221243,2,0,P|198:207|215:222,1,55.0000016784668
356,188,221383,6,0,L|393:141,3,55.0000016784668
156,188,221662,2,0,L|119:141,3,55.0000016784668
436,82,221941,2,0,L|473:35,3,55.0000016784668
76,82,222220,2,0,L|39:35,3,55.0000016784668
255,138,222499,5,0,0:0:0:0:
294,113,222569,1,0,0:0:0:0:
333,88,222639,2,0,L|385:47,1,55.0000016784668
255,175,222778,5,0,0:0:0:0:
216,150,222848,1,0,0:0:0:0:
177,125,222918,2,0,L|125:84,1,55.0000016784668
257,209,223057,5,0,0:0:0:0:
296,234,223127,1,0,0:0:0:0:
335,259,223197,2,0,L|387:300,1,55.0000016784668
257,246,223336,5,0,0:0:0:0:
218,271,223406,1,0,0:0:0:0:
179,296,223476,2,0,L|127:337,1,55.0000016784668
256,384,223615,5,0,0:0:0:0:
286,360,223684,1,0,0:0:0:0:
309,329,223754,1,0,0:0:0:0:
324,294,223824,1,0,0:0:0:0:
256,288,223894,5,0,0:0:0:0:
226,264,223963,1,0,0:0:0:0:
203,233,224033,1,0,0:0:0:0:
188,198,224103,1,0,0:0:0:0:
256,192,224173,5,0,0:0:0:0:
286,168,224242,1,0,0:0:0:0:
309,137,224312,1,0,0:0:0:0:
324,102,224382,1,0,0:0:0:0:
256,96,224453,5,0,0:0:0:0:
226,72,224522,1,0,0:0:0:0:
203,41,224592,1,0,0:0:0:0:
188,6,224662,1,0,0:0:0:0:
288,0,224732,5,0,0:0:0:0:
288,0,225848,5,0,0:0:0:0:
122,278,226964,5,0,0:0:0:0:
325,114,227104,5,0,0:0:0:0:
357,140,227173,1,0,0:0:0:0:
362,183,227243,2,0,P|340:229|323:243,1,50
246,96,227383,5,0,0:0:0:0:
252,55,227453,1,0,0:0:0:0:
287,29,227522,2,0,P|337:25|358:32,1,50
270,174,227662,5,0,0:0:0:0:
232,189,227732,1,0,0:0:0:0:
192,172,227801,2,0,P|163:129|159:108,1,50
80,49,227941,5,0,0:0:0:0:
80,49,228011,1,0,0:0:0:0:
80,49,228080,6,0,P|103:125|77:181,1,100
83,188,228290,1,0,0:0:0:0:
69,234,228359,2,0,P|66:283|88:327,1,100
154,269,228569,1,0,0:0:0:0:
154,269,228639,2,0,P|203:266|247:288,1,100
251,303,228848,1,0,0:0:0:0:
258,318,228918,2,0,P|302:339|351:337,1,100
379,323,229127,1,0,0:0:0:0:
392,302,229197,5,0,0:0:0:0:
411,136,229336,5,0,0:0:0:0:
411,136,229406,1,0,0:0:0:0:
411,136,229476,2,0,L|416:76,1,50
323,212,229615,5,0,0:0:0:0:
323,212,229685,1,0,0:0:0:0:
323,212,229755,2,0,L|318:272,1,50
263,84,229894,5,0,0:0:0:0:
263,84,229964,1,0,0:0:0:0:
263,84,230034,2,0,L|268:24,1,50
175,160,230173,5,0,0:0:0:0:
175,160,230243,1,0,0:0:0:0:
175,160,230313,2,0,L|170:220,1,50
148,301,230453,6,0,P|106:312|89:327,2,50
364,301,230732,2,0,P|406:312|423:327,2,50
255,94,231011,2,0,L|257:32,2,50
256,210,231290,5,0,0:0:0:0:
256,210,231359,1,0,0:0:0:0:
256,210,231429,5,0,0:0:0:0:
151,266,231569,5,0,0:0:0:0:
160,219,231639,1,0,0:0:0:0:
182,190,231708,2,0,P|215:173|235:174,1,50
351,270,231848,5,0,0:0:0:0:
306,285,231918,1,0,0:0:0:0:
270,281,231987,2,0,P|238:260|229:243,1,50
255,94,232127,5,0,0:0:0:0:
290,126,232197,1,0,0:0:0:0:
305,159,232266,2,0,P|303:196|292:212,1,50
146,82,232406,5,0,0:0:0:0:
156,35,232476,1,0,0:0:0:0:
177,6,232546,2,0,L|289:14,1,100
377,85,232755,1,0,0:0:0:0:
377,85,232825,2,0,L|489:93,1,100
397,199,233034,1,0,0:0:0:0:
397,199,233104,2,0,L|285:207,1,100
197,278,233313,1,0,0:0:0:0:
197,278,233383,2,0,L|85:286,1,100
71,286,233592,1,0,0:0:0:0:
32,289,233662,5,0,0:0:0:0:
122,141,233801,5,0,0:0:0:0:
122,141,233871,1,0,0:0:0:0:
122,141,233941,2,0,L|144:73,1,50
197,278,234080,5,0,0:0:0:0:
197,278,234150,1,0,0:0:0:0:
197,278,234220,2,0,L|219:346,1,50
308,140,234359,5,0,0:0:0:0:
308,140,234429,1,0,0:0:0:0:
308,140,234499,2,0,L|330:72,1,50
383,277,234639,5,0,0:0:0:0:
383,277,234708,1,0,0:0:0:0:
383,277,234778,2,0,L|405:345,1,50
466,143,234918,6,0,P|442:162|416:168,2,50
202,344,235197,2,0,P|197:313|205:288,2,50
159,14,235476,2,0,P|187:25|205:44,2,50
255,191,235755,5,0,0:0:0:0:
255,191,235825,1,0,0:0:0:0:
255,191,235894,1,0,0:0:0:0:
209,210,235964,1,0,0:0:0:0:
159,211,236034,1,0,0:0:0:0:
112,193,236104,1,0,0:0:0:0:
75,160,236173,5,0,0:0:0:0:
120,140,236243,1,0,0:0:0:0:
170,139,236313,1,0,0:0:0:0:
217,157,236383,1,0,0:0:0:0:
255,191,236453,1,0,0:0:0:0:
289,226,236522,1,0,0:0:0:0:
337,240,236592,1,0,0:0:0:0:
385,230,236662,1,0,0:0:0:0:
423,199,236732,1,0,0:0:0:0:
442,153,236801,1,0,0:0:0:0:
437,103,236871,1,0,0:0:0:0:
408,63,236941,1,0,0:0:0:0:
364,40,237011,1,0,0:0:0:0:
315,41,237080,1,0,0:0:0:0:
272,66,237150,1,0,0:0:0:0:
232,97,237220,1,0,0:0:0:0:
186,121,237290,1,0,0:0:0:0:
134,122,237359,1,0,0:0:0:0:
86,102,237429,1,0,0:0:0:0:
60,62,237499,1,0,0:0:0:0:
65,11,237569,6,0,L|6:5,2,50
142,188,237848,2,0,L|201:182,2,50
298,98,238127,5,0,0:0:0:0:
324,139,238197,1,0,0:0:0:0:
333,188,238266,1,0,0:0:0:0:
323,237,238336,1,0,0:0:0:0:
295,278,238406,2,0,P|251:306|211:303,1,50
145,184,238546,5,0,0:0:0:0:
96,186,238615,1,0,0:0:0:0:
64,222,238685,1,0,0:0:0:0:
67,271,238755,1,0,0:0:0:0:
104,302,238825,2,0,P|155:295|184:267,1,50
243,196,238964,5,0,0:0:0:0:
298,174,239034,1,0,0:0:0:0:
358,174,239104,1,0,0:0:0:0:
413,196,239173,1,0,0:0:0:0:
457,236,239243,6,0,B|357:382|131:302|221:137|221:137|152:193|95:117,1,539.999983520508
51,133,240359,6,0,L|69:194,1,50
165,273,240499,2,0,L|183:334,1,50
351,292,240639,6,0,L|329:217,1,50
210,119,240778,2,0,L|187:43,1,50
352,15,240918,6,0,L|366:62,1,50
498,221,241057,2,0,L|512:268,1,50
267,175,241197,5,0,0:0:0:0:
258,126,241266,1,0,0:0:0:0:
276,80,241336,1,0,0:0:0:0:
315,49,241406,1,0,0:0:0:0:
361,29,241476,5,0,0:0:0:0:
256,352,241615,1,0,0:0:0:0:
151,29,241755,1,0,0:0:0:0:
425,229,241894,1,0,0:0:0:0:
86,229,242034,1,0,0:0:0:0:
366,2,242173,5,0,0:0:0:0:
65,245,242313,1,0,0:0:0:0:
450,226,242453,1,0,0:0:0:0:
127,14,242592,1,0,0:0:0:0:
266,376,242732,1,0,0:0:0:0:
