osu file format v14

[General]
AudioFilename: audio.mp3
AudioLeadIn: 0
PreviewTime: 193197
Countdown: 0
SampleSet: None
StackLeniency: 0.7
Mode: 0
LetterboxInBreaks: 0
WidescreenStoryboard: 1

[Editor]
DistanceSpacing: 0.1
BeatDivisor: 4
GridSize: 32
TimelineZoom: 2.3

[Metadata]
Title:Embraced by the Flame
TitleUnicode:Embraced by the Flame
Artist:UNDEAD CORPORATION
ArtistUnicode:UNDEAD CORPORATION
Creator:Akenoi
Version:Here is YOUR grave
Source:東方地霊殿 ~ Subterranean Animism.
Tags:touhou project lullaby of deserted hell stage 5 theme deathstreams shunsatsu sawacy metal japanese female voice rsi Unlucky Morpheus GET IN THE RING Kasha no Sakebu Yoru ni where kasha screams in night
BeatmapID:2458780
BeatmapSetID:708850

[Difficulty]
HPDrainRate:4.2
CircleSize:4.2
OverallDifficulty:10
ApproachRate:10
SliderMultiplier:2
SliderTickRate:1

[Events]
//Background and Video events
0,0,"BG.jpg",0,0
//Break Periods
//Storyboard Layer 0 (Background)
//Storyboard Layer 1 (Fail)
//Storyboard Layer 2 (Pass)
//Storyboard Layer 3 (Foreground)
//Storyboard Layer 4 (Overlay)
//Storyboard Sound Samples

[TimingPoints]
360,279.06976744186,4,1,0,100,1,0
360,-133.333333333333,4,2,1,70,0,0
9290,-111.111111111111,4,2,1,70,0,0
17941,-99.9999999999999,4,2,1,70,0,0
27150,-125,4,2,1,70,0,0
36080,-125,4,2,1,70,0,0
39429,-111.111111111111,4,2,1,70,0,0
40546,-100,4,2,1,70,0,0
42778,-111.111111111111,4,2,1,70,0,0
46127,-125,4,2,1,70,0,0
46546,-99.9999999999999,4,2,1,70,0,0
46964,-111.111111111111,4,2,1,70,0,0
47243,-125,4,2,1,70,0,0
50592,-111.111111111111,4,2,1,70,0,0
51708,-125,4,2,1,70,0,0
52825,-111.111111111111,4,2,1,70,0,0
53941,-200,4,2,1,70,0,0
55057,-142.857142857143,4,2,1,70,0,0
56173,-125,4,2,1,70,0,0
57290,-142.857142857143,4,2,1,70,0,0
58406,-166.666666666667,4,2,1,70,0,0
59522,-125,4,2,1,70,0,0
60639,-200,4,2,1,70,0,0
61476,-200,4,2,1,70,0,0
61755,-100,4,2,1,70,0,1
78499,-100,4,2,1,70,0,0
86313,-200,4,2,1,70,0,0
87429,-111.111111111111,4,2,1,70,0,0
91894,-142.857142857143,4,2,1,70,0,0
92453,-166.666666666666,4,2,1,70,0,0
93011,-142.857142857143,4,2,1,70,0,0
93290,-200,4,2,1,70,0,0
93569,-142.857142857143,4,2,1,70,0,0
94127,-125,4,2,1,70,0,0
95243,-125,4,2,1,70,0,0
103057,-100,4,2,1,70,0,0
105290,-111.111111111111,4,2,1,70,0,0
107522,-100,4,2,1,70,0,0
110871,-133.333333333333,4,2,1,70,0,0
111987,-125,4,2,1,70,0,0
113104,-111.111111111111,4,2,1,70,0,0
114220,-125,4,2,1,70,0,0
115336,-142.857142857143,4,2,1,70,0,0
116453,-125,4,2,1,70,0,0
117569,-142.857142857143,4,2,1,70,0,0
118685,-125,4,2,1,70,0,0
119801,-111.111111111111,4,2,1,70,0,0
120918,-125,4,2,1,70,0,0
121755,-333.333333333332,4,2,1,70,0,0
122034,-99.9999999999999,4,2,1,70,0,1
137662,-99.9999999999999,4,2,1,70,0,0
139894,-166.666666666667,4,2,1,70,0,0
142127,-125,4,2,1,70,0,0
143243,-111.111111111111,4,2,1,70,0,0
147708,-100,4,2,1,70,0,0
165569,-111.111111111111,4,2,1,70,0,0
193197,-200,4,2,1,70,0,0
193476,-99.9999999999999,4,2,1,70,0,1
209662,-99.9999999999999,4,2,1,70,0,0
210220,-90.9090909090909,4,2,1,70,0,1
224732,-100,4,2,1,70,0,0
226964,-100,4,2,1,70,0,0
239243,-111.111111111111,4,2,1,70,0,0
240359,-100,4,2,1,70,0,0

[HitObjects]
179,55,360,5,0,0:0:0:0:
167,67,778,1,0,0:0:0:0:
155,79,1197,1,0,0:0:0:0:
143,91,1615,1,0,0:0:0:0:
44,225,2034,5,0,0:0:0:0:
386,83,2313,1,0,0:0:0:0:
399,220,2592,5,0,0:0:0:0:
387,208,3011,1,0,0:0:0:0:
375,196,3429,1,0,0:0:0:0:
363,184,3848,1,0,0:0:0:0:
407,333,4266,5,0,0:0:0:0:
55,184,4546,1,0,0:0:0:0:
191,132,4825,6,0,L|167:285,1,150.000005722046
446,251,5243,2,0,B|418:225|418:225|365:268|295:246,1,150.000005722046
406,359,5662,1,0,0:0:0:0:
340,136,6080,1,0,0:0:0:0:
68,263,6499,6,0,L|55:356,1,75.0000028610231
173,185,6778,2,0,L|180:276,1,75.0000028610231
257,355,7057,5,0,0:0:0:0:
421,266,7197,1,0,0:0:0:0:
421,266,7266,1,0,0:0:0:0:
421,266,7336,2,0,P|458:266|492:279,1,75.0000028610231
303,101,7615,5,0,0:0:0:0:
164,221,7755,1,0,0:0:0:0:
164,221,7825,1,0,0:0:0:0:
164,221,7894,2,0,P|126:220|92:233,1,75.0000028610231
290,373,8173,5,0,0:0:0:0:
407,311,8313,2,0,P|433:234|399:174,1,150.000005722046
212,88,8732,2,0,P|262:103|305:93,1,75.0000028610231
498,12,9011,2,0,P|448:-3|405:7,1,75.0000028610231
335,238,9290,5,0,0:0:0:0:
291,269,9359,1,0,0:0:0:0:
265,315,9429,1,0,0:0:0:0:
229,355,9499,1,0,0:0:0:0:
177,368,9569,1,0,0:0:0:0:
127,351,9639,1,0,0:0:0:0:
95,308,9709,1,0,0:0:0:0:
92,255,9778,1,0,0:0:0:0:
136,225,9848,5,0,0:0:0:0:
161,178,9918,1,0,0:0:0:0:
161,125,9988,1,0,0:0:0:0:
146,74,10057,1,0,0:0:0:0:
169,27,10127,1,0,0:0:0:0:
219,8,10197,1,0,0:0:0:0:
268,27,10267,1,0,0:0:0:0:
291,75,10336,1,0,0:0:0:0:
301,120,10406,5,0,0:0:0:0:
308,150,10476,1,0,0:0:0:0:
333,167,10546,2,0,L|381:140,5,44.999998626709
186,189,10964,2,0,L|138:216,3,44.999998626709
288,297,11243,2,0,L|336:270,3,44.999998626709
464,245,11522,5,0,0:0:0:0:
498,209,11591,1,0,0:0:0:0:
508,162,11661,1,0,0:0:0:0:
490,116,11731,1,0,0:0:0:0:
452,86,11801,1,0,0:0:0:0:
403,82,11870,1,0,0:0:0:0:
360,105,11940,1,0,0:0:0:0:
335,147,12010,1,0,0:0:0:0:
300,193,12080,1,0,0:0:0:0:
245,210,12150,1,0,0:0:0:0:
190,193,12220,1,0,0:0:0:0:
154,148,12290,1,0,0:0:0:0:
150,91,12359,1,0,0:0:0:0:
180,41,12429,1,0,0:0:0:0:
232,18,12499,1,0,0:0:0:0:
289,28,12569,1,0,0:0:0:0:
351,74,12638,5,0,0:0:0:0:
351,74,12708,1,0,0:0:0:0:
351,74,12778,1,0,0:0:0:0:
351,74,12848,1,0,0:0:0:0:
351,74,12918,2,0,L|323:133,3,44.999998626709
433,208,13197,6,0,L|461:267,3,44.999998626709
256,316,13476,2,0,L|228:375,3,44.999998626709
222,109,13755,5,0,0:0:0:0:
208,57,13824,1,0,0:0:0:0:
167,24,13894,1,0,0:0:0:0:
114,22,13964,1,0,0:0:0:0:
70,52,14034,1,0,0:0:0:0:
52,102,14103,1,0,0:0:0:0:
68,153,14173,1,0,0:0:0:0:
100,199,14243,1,0,0:0:0:0:
116,256,14313,5,0,0:0:0:0:
67,275,14382,1,0,0:0:0:0:
20,253,14452,1,0,0:0:0:0:
5,203,14522,1,0,0:0:0:0:
32,158,14592,1,0,0:0:0:0:
84,149,14662,1,0,0:0:0:0:
137,151,14731,1,0,0:0:0:0:
179,183,14801,1,0,0:0:0:0:
229,207,14871,1,0,0:0:0:0:
283,213,14941,1,0,0:0:0:0:
334,194,15011,2,0,L|342:141,5,44.999998626709
465,121,15429,5,0,0:0:0:0:
438,74,15498,1,0,0:0:0:0:
395,41,15568,1,0,0:0:0:0:
343,27,15638,1,0,0:0:0:0:
265,95,15708,5,0,0:0:0:0:
212,102,15778,1,0,0:0:0:0:
160,88,15848,1,0,0:0:0:0:
117,55,15918,1,0,0:0:0:0:
21,98,15987,6,0,P|45:155|42:224,1,89.9999972534181
27,323,16266,1,0,0:0:0:0:
268,349,16406,1,0,0:0:0:0:
268,349,16476,1,0,0:0:0:0:
268,349,16546,5,0,0:0:0:0:
278,305,16615,1,0,0:0:0:0:
271,261,16685,1,0,0:0:0:0:
246,224,16755,1,0,0:0:0:0:
163,185,16825,2,0,P|151:152|108:127,1,44.999998626709
46,215,16964,2,0,P|19:192|-31:192,1,44.999998626709
14,341,17104,6,0,B|89:370|133:276|224:340,1,179.999994506836
113,146,17522,1,0,0:0:0:0:
246,224,17662,6,0,P|296:234|343:216,1,89.9999972534181
403,57,17941,5,0,0:0:0:0:
384,28,18011,1,0,0:0:0:0:
355,10,18080,1,0,0:0:0:0:
319,3,18150,1,0,0:0:0:0:
283,11,18220,6,0,P|272:72|294:120,1,100
174,206,18499,1,0,0:0:0:0:
44,34,18639,1,0,0:0:0:0:
99,345,18778,6,0,L|198:332,1,100
353,57,19057,1,0,0:0:0:0:
307,374,19197,1,0,0:0:0:0:
99,137,19336,6,0,L|-7:126,1,100
353,0,19615,1,0,0:0:0:0:
198,331,19755,1,0,0:0:0:0:
401,292,19894,6,0,P|389:235|344:203,1,100
197,355,20173,1,0,0:0:0:0:
490,210,20313,1,0,0:0:0:0:
125,159,20453,5,0,0:0:0:0:
428,88,20592,1,0,0:0:0:0:
96,282,20732,1,0,0:0:0:0:
421,315,20871,1,0,0:0:0:0:
98,141,21011,5,0,0:0:0:0:
468,232,21150,1,0,0:0:0:0:
73,241,21290,1,0,0:0:0:0:
439,84,21429,1,0,0:0:0:0:
233,307,21569,5,0,0:0:0:0:
226,15,21708,1,0,0:0:0:0:
369,318,21848,1,0,0:0:0:0:
228,37,21987,1,0,0:0:0:0:
125,204,22127,5,0,0:0:0:0:
309,164,22266,1,0,0:0:0:0:
151,78,22406,1,0,0:0:0:0:
122,74,22476,1,0,0:0:0:0:
92,77,22546,1,0,0:0:0:0:
64,88,22615,1,0,0:0:0:0:
40,105,22685,6,0,B|40:189|40:189|24:178|24:178,1,100
223,290,22964,1,0,0:0:0:0:
180,125,23104,1,0,0:0:0:0:
69,310,23243,5,0,0:0:0:0:
237,311,23383,1,0,0:0:0:0:
153,165,23522,1,0,0:0:0:0:
94,371,23662,5,0,0:0:0:0:
258,330,23801,1,0,0:0:0:0:
139,210,23941,1,0,0:0:0:0:
195,384,24080,5,0,0:0:0:0:
307,144,24220,1,0,0:0:0:0:
322,384,24359,1,0,0:0:0:0:
290,119,24499,1,0,0:0:0:0:
427,285,24639,5,0,0:0:0:0:
139,210,24778,1,0,0:0:0:0:
191,26,24918,5,0,0:0:0:0:
191,26,24987,1,0,0:0:0:0:
191,26,25057,2,0,L|273:-16,1,50
313,65,25197,5,0,0:0:0:0:
313,65,25266,1,0,0:0:0:0:
313,65,25336,2,0,L|407:70,1,50
399,160,25476,5,0,0:0:0:0:
399,160,25546,1,0,0:0:0:0:
399,160,25615,2,0,L|477:211,1,50
427,285,25755,5,0,0:0:0:0:
427,285,25825,1,0,0:0:0:0:
427,285,25894,2,0,L|469:367,1,50
245,356,26034,5,0,0:0:0:0:
176,217,26173,1,0,0:0:0:0:
176,217,26243,1,0,0:0:0:0:
176,217,26313,6,0,L|104:172,3,50
274,110,26592,6,0,L|349:70,3,50
317,248,26871,6,0,L|314:333,3,50
241,364,27150,5,0,0:0:0:0:
222,333,27220,1,0,0:0:0:0:
193,312,27290,1,0,0:0:0:0:
159,304,27359,1,0,0:0:0:0:
123,310,27429,1,0,0:0:0:0:
88,327,27499,1,0,0:0:0:0:
49,320,27569,1,0,0:0:0:0:
22,292,27639,1,0,0:0:0:0:
4,259,27708,6,0,L|10:186,1,40
37,104,27848,1,0,0:0:0:0:
41,85,27918,1,0,0:0:0:0:
40,65,27987,2,0,P|12:54|-34:60,3,40
182,87,28266,5,0,0:0:0:0:
213,69,28336,1,0,0:0:0:0:
249,65,28406,1,0,0:0:0:0:
283,77,28476,1,0,0:0:0:0:
309,101,28546,1,0,0:0:0:0:
328,131,28615,1,0,0:0:0:0:
357,152,28685,1,0,0:0:0:0:
392,160,28755,1,0,0:0:0:0:
427,153,28825,6,0,P|458:142|484:144,3,40
356,295,29104,2,0,P|325:306|299:304,3,40
150,125,29383,5,0,0:0:0:0:
131,172,29453,1,0,0:0:0:0:
139,223,29522,1,0,0:0:0:0:
172,262,29592,1,0,0:0:0:0:
192,308,29662,1,0,0:0:0:0:
169,351,29732,1,0,0:0:0:0:
118,358,29801,1,0,0:0:0:0:
85,323,29871,5,0,0:0:0:0:
93,272,29941,1,0,0:0:0:0:
134,242,30011,1,0,0:0:0:0:
184,233,30080,1,0,0:0:0:0:
235,246,30150,1,0,0:0:0:0:
274,279,30220,1,0,0:0:0:0:
318,306,30290,1,0,0:0:0:0:
368,302,30359,1,0,0:0:0:0:
409,271,30429,1,0,0:0:0:0:
430,223,30499,6,0,L|432:167,3,40
305,46,30778,2,0,L|249:43,3,40
128,171,31057,2,0,L|125:227,3,40
253,348,31336,2,0,L|309:351,3,40
498,133,31615,6,0,P|447:104|399:112,1,80
309,149,31894,2,0,P|337:218|423:215,1,160
315,7,32313,1,0,0:0:0:0:
172,49,32453,1,0,0:0:0:0:
122,183,32592,1,0,0:0:0:0:
309,149,32732,6,0,P|360:141|393:104,1,80
301,16,33011,1,0,0:0:0:0:
213,149,33150,1,0,0:0:0:0:
319,268,33290,2,0,L|412:259,1,80
217,331,33569,2,0,L|124:322,1,80
11,196,33848,5,0,0:0:0:0:
38,149,33917,1,0,0:0:0:0:
81,116,33987,1,0,0:0:0:0:
133,102,34057,1,0,0:0:0:0:
211,170,34127,5,0,0:0:0:0:
264,177,34197,1,0,0:0:0:0:
316,163,34267,1,0,0:0:0:0:
359,130,34337,1,0,0:0:0:0:
459,133,34406,5,0,0:0:0:0:
449,86,34475,1,0,0:0:0:0:
419,49,34545,1,0,0:0:0:0:
375,31,34615,1,0,0:0:0:0:
328,35,34685,1,0,0:0:0:0:
288,61,34754,1,0,0:0:0:0:
242,78,34825,1,0,0:0:0:0:
198,60,34894,1,0,0:0:0:0:
172,20,34964,6,0,B|137:35|137:35|101:36|83:6,1,80
132,219,35243,2,0,B|167:204|167:204|203:203|221:233,1,80
16,109,35522,6,0,B|31:144|31:144|32:180|2:198,1,80
288,130,35801,2,0,B|273:95|273:95|272:59|302:41,1,80
247,334,36080,5,0,0:0:0:0:
202,358,36149,1,0,0:0:0:0:
151,351,36219,1,0,0:0:0:0:
115,314,36289,1,0,0:0:0:0:
108,264,36359,1,0,0:0:0:0:
133,219,36428,1,0,0:0:0:0:
180,199,36499,5,0,0:0:0:0:
210,186,36569,1,0,0:0:0:0:
227,157,36638,1,0,0:0:0:0:
222,125,36708,1,0,0:0:0:0:
199,101,36778,1,0,0:0:0:0:
166,96,36848,1,0,0:0:0:0:
138,113,36918,2,0,L|84:102,3,40
293,30,37197,5,0,0:0:0:0:
339,20,37266,1,0,0:0:0:0:
384,34,37336,1,0,0:0:0:0:
418,68,37406,1,0,0:0:0:0:
431,113,37476,1,0,0:0:0:0:
421,160,37545,1,0,0:0:0:0:
389,195,37615,1,0,0:0:0:0:
352,236,37685,1,0,0:0:0:0:
352,290,37755,1,0,0:0:0:0:
388,331,37825,1,0,0:0:0:0:
443,337,37895,1,0,0:0:0:0:
487,305,37964,1,0,0:0:0:0:
498,251,38034,2,0,P|490:224|512:186,3,40
254,330,38313,5,0,0:0:0:0:
216,338,38383,1,0,0:0:0:0:
178,327,38453,1,0,0:0:0:0:
149,300,38522,1,0,0:0:0:0:
136,263,38592,1,0,0:0:0:0:
142,224,38662,1,0,0:0:0:0:
166,192,38732,2,0,P|172:161|162:120,5,40
298,51,39150,2,0,P|304:82|294:123,3,40
205,191,39429,5,0,0:0:0:0:
247,225,39499,1,0,0:0:0:0:
300,238,39569,1,0,0:0:0:0:
354,228,39639,1,0,0:0:0:0:
399,196,39708,2,0,P|403:234|390:275,1,44.999998626709
354,379,39848,2,0,P|349:340|362:299,1,44.999998626709
504,269,39987,2,0,P|508:230|495:189,1,44.999998626709
300,108,40127,2,0,P|295:146|308:187,1,44.999998626709
485,119,40266,5,0,0:0:0:0:
467,94,40336,1,0,0:0:0:0:
437,90,40406,1,0,0:0:0:0:
413,109,40476,1,0,0:0:0:0:
409,139,40546,2,0,B|357:174|318:141|318:141|297:149|297:149|261:125|208:149,1,200
105,277,40964,2,0,P|42:243|78:116,1,200
222,286,41383,2,0,P|231:352|218:402,1,100
346,279,41662,5,0,0:0:0:0:
340,239,41732,1,0,0:0:0:0:
321,204,41801,1,0,0:0:0:0:
290,178,41871,1,0,0:0:0:0:
254,164,41941,1,0,0:0:0:0:
213,163,42011,1,0,0:0:0:0:
176,177,42080,1,0,0:0:0:0:
144,190,42150,1,0,0:0:0:0:
112,181,42220,1,0,0:0:0:0:
92,153,42290,1,0,0:0:0:0:
88,119,42359,5,0,0:0:0:0:
97,107,42429,1,0,0:0:0:0:
105,95,42499,1,0,0:0:0:0:
114,83,42569,1,0,0:0:0:0:
123,70,42639,1,0,0:0:0:0:
132,58,42708,1,0,0:0:0:0:
140,47,42778,6,0,L|31:24,1,89.9999972534181
42,237,43057,1,0,0:0:0:0:
235,27,43197,1,0,0:0:0:0:
350,276,43336,2,0,P|292:306|230:296,1,89.9999972534181
165,99,43615,2,0,P|221:134|242:192,1,89.9999972534181
105,348,43894,6,0,P|107:283|147:235,1,89.9999972534181
265,325,44173,1,0,0:0:0:0:
99,169,44313,1,0,0:0:0:0:
317,104,44453,1,0,0:0:0:0:
182,248,44592,1,0,0:0:0:0:
235,27,44732,1,0,0:0:0:0:
400,184,44871,1,0,0:0:0:0:
290,357,45011,6,0,P|210:332|193:215,1,179.999994506836
282,3,45429,2,0,B|301:131|301:131|275:182,1,179.999994506836
81,319,45848,2,0,L|67:229,1,89.9999972534181
104,43,46127,6,0,P|151:106|87:99,1,160
205,316,46546,2,0,P|185:218|289:166,1,200
309,72,46964,2,0,B|264:62|264:62|241:12,1,89.9999972534181
333,307,47243,5,0,0:0:0:0:
360,335,47313,1,0,0:0:0:0:
398,345,47383,1,0,0:0:0:0:
436,334,47453,1,0,0:0:0:0:
462,305,47522,1,0,0:0:0:0:
470,266,47592,1,0,0:0:0:0:
456,229,47662,1,0,0:0:0:0:
425,204,47732,1,0,0:0:0:0:
386,202,47801,5,0,0:0:0:0:
354,179,47871,1,0,0:0:0:0:
340,142,47941,1,0,0:0:0:0:
347,103,48011,1,0,0:0:0:0:
375,75,48080,1,0,0:0:0:0:
413,66,48150,1,0,0:0:0:0:
450,78,48220,1,0,0:0:0:0:
475,109,48290,1,0,0:0:0:0:
465,148,48359,5,0,0:0:0:0:
425,141,48429,1,0,0:0:0:0:
385,135,48499,1,0,0:0:0:0:
346,129,48569,1,0,0:0:0:0:
306,123,48639,1,0,0:0:0:0:
267,117,48708,1,0,0:0:0:0:
227,111,48778,1,0,0:0:0:0:
188,105,48848,1,0,0:0:0:0:
190,150,48918,5,0,0:0:0:0:
171,188,48987,1,0,0:0:0:0:
136,210,49057,1,0,0:0:0:0:
95,211,49127,1,0,0:0:0:0:
59,189,49197,1,0,0:0:0:0:
40,151,49266,1,0,0:0:0:0:
45,109,49336,1,0,0:0:0:0:
71,76,49406,1,0,0:0:0:0:
93,40,49476,6,0,P|102:14|101:-24,1,40
291,74,49615,1,0,0:0:0:0:
291,74,49685,1,0,0:0:0:0:
291,74,49755,2,0,L|290:130,1,40
157,204,49894,1,0,0:0:0:0:
151,227,49964,1,0,0:0:0:0:
154,251,50034,1,0,0:0:0:0:
163,273,50104,1,0,0:0:0:0:
179,290,50173,1,0,0:0:0:0:
200,302,50243,1,0,0:0:0:0:
215,306,50313,2,0,L|243:275,3,40
500,175,50592,6,0,P|379:175|379:297,1,269.999991760254
296,103,51150,1,0,0:0:0:0:
441,239,51290,1,0,0:0:0:0:
281,88,51429,2,0,P|251:72|188:83,1,89.9999972534181
10,328,51708,6,0,B|50:357|102:354|143:327|160:283|158:233|158:233|164:159|220:139|276:151|304:187|300:239|300:239|292:291|240:307|204:291,1,560
329,83,52825,6,0,B|409:35|489:99|489:171|457:215|429:235|429:235|381:171|381:171|285:219|213:147|209:99|225:27,1,629.999980773926
84,22,53941,6,0,B|84:78|68:106|68:106|132:134|164:230|94:275|76:286|20:286,1,350
223,354,55057,6,0,B|218:359|202:336|202:336|181:302|194:264|253:249|253:249|339:242|356:158|356:158|352:274|460:273|500:222,1,489.999985046387
302,37,56173,6,0,B|382:93|442:57|442:57|378:21|270:109|270:109|210:149|142:133|114:93|111:78|111:78|174:89,1,560
159,301,57290,6,0,B|219:269|279:297|279:297|347:321|381:297|381:297|339:289|291:245|303:193|331:141|375:133|415:145|439:165,1,489.999985046387
162,62,58406,6,0,B|242:18|354:62|354:62|450:22|502:78|502:78|490:18,1,419.999987182618
192,255,59522,6,0,B|156:219|92:211|40:251|32:343|32:343|92:263|60:203|60:203|12:151|48:111|80:103|112:107|128:159,1,560
290,232,60639,6,0,P|288:305|217:358,1,150
343,131,61476,6,0,P|304:115|276:80,1,75
243,47,61755,5,0,0:0:0:0:
185,37,61824,1,0,0:0:0:0:
132,57,61894,1,0,0:0:0:0:
91,98,61964,1,0,0:0:0:0:
77,154,62034,1,0,0:0:0:0:
92,209,62103,1,0,0:0:0:0:
135,249,62173,1,0,0:0:0:0:
191,261,62243,1,0,0:0:0:0:
246,243,62313,5,0,0:0:0:0:
283,200,62383,1,0,0:0:0:0:
316,152,62452,1,0,0:0:0:0:
369,129,62522,1,0,0:0:0:0:
426,140,62592,1,0,0:0:0:0:
467,180,62662,1,0,0:0:0:0:
480,236,62731,1,0,0:0:0:0:
461,291,62801,1,0,0:0:0:0:
420,334,62871,5,0,0:0:0:0:
363,352,62941,1,0,0:0:0:0:
305,341,63011,1,0,0:0:0:0:
259,303,63081,1,0,0:0:0:0:
237,248,63150,1,0,0:0:0:0:
245,189,63220,1,0,0:0:0:0:
261,132,63290,1,0,0:0:0:0:
245,75,63359,1,0,0:0:0:0:
196,39,63429,5,0,0:0:0:0:
142,34,63498,1,0,0:0:0:0:
100,66,63568,1,0,0:0:0:0:
92,119,63638,1,0,0:0:0:0:
123,163,63708,1,0,0:0:0:0:
175,174,63777,1,0,0:0:0:0:
220,145,63847,1,0,0:0:0:0:
270,113,63918,1,0,0:0:0:0:
329,112,63988,1,0,0:0:0:0:
380,141,64058,1,0,0:0:0:0:
408,193,64127,2,0,L|392:246,3,50
258,355,64406,6,0,L|242:302,5,50
129,229,64825,6,0,L|145:176,3,50
142,337,65104,5,0,0:0:0:0:
82,327,65173,1,0,0:0:0:0:
35,287,65243,1,0,0:0:0:0:
15,229,65313,1,0,0:0:0:0:
29,169,65383,1,0,0:0:0:0:
71,124,65452,1,0,0:0:0:0:
130,110,65522,1,0,0:0:0:0:
190,126,65592,1,0,0:0:0:0:
243,157,65662,1,0,0:0:0:0:
284,209,65732,1,0,0:0:0:0:
323,257,65801,1,0,0:0:0:0:
366,291,65871,1,0,0:0:0:0:
421,294,65941,5,0,0:0:0:0:
468,267,66011,1,0,0:0:0:0:
491,216,66080,1,0,0:0:0:0:
481,163,66150,1,0,0:0:0:0:
456,119,66220,2,0,L|467:51,7,50
321,210,66778,6,0,L|310:278,3,50
186,80,67057,2,0,L|175:12,3,50
89,142,67336,5,0,0:0:0:0:
124,173,67406,1,0,0:0:0:0:
169,190,67476,1,0,0:0:0:0:
217,188,67546,1,0,0:0:0:0:
261,166,67615,1,0,0:0:0:0:
293,131,67685,1,0,0:0:0:0:
330,92,67755,1,0,0:0:0:0:
382,83,67825,1,0,0:0:0:0:
429,108,67894,5,0,0:0:0:0:
454,157,67964,1,0,0:0:0:0:
441,209,68034,1,0,0:0:0:0:
400,245,68104,1,0,0:0:0:0:
354,239,68173,1,0,0:0:0:0:
315,266,68243,1,0,0:0:0:0:
308,314,68313,1,0,0:0:0:0:
334,354,68383,1,0,0:0:0:0:
381,370,68453,5,0,0:0:0:0:
426,340,68522,1,0,0:0:0:0:
453,293,68592,1,0,0:0:0:0:
453,238,68662,1,0,0:0:0:0:
427,190,68732,1,0,0:0:0:0:
382,161,68801,1,0,0:0:0:0:
328,156,68871,1,0,0:0:0:0:
278,178,68941,1,0,0:0:0:0:
245,222,69011,1,0,0:0:0:0:
198,252,69080,1,0,0:0:0:0:
139,254,69150,1,0,0:0:0:0:
92,230,69219,1,0,0:0:0:0:
59,188,69290,5,0,0:0:0:0:
111,173,69359,1,0,0:0:0:0:
155,132,69429,1,0,0:0:0:0:
161,77,69499,1,0,0:0:0:0:
137,30,69569,5,0,0:0:0:0:
79,32,69638,1,0,0:0:0:0:
39,52,69708,1,0,0:0:0:0:
18,94,69778,1,0,0:0:0:0:
25,137,69848,1,0,0:0:0:0:
57,168,69918,1,0,0:0:0:0:
101,179,69987,1,0,0:0:0:0:
135,153,70057,1,0,0:0:0:0:
166,115,70127,6,0,L|231:138,3,50
308,23,70406,2,0,L|355:7,3,50
320,135,70685,5,0,0:0:0:0:
324,149,70755,1,0,0:0:0:0:
328,163,70825,1,0,0:0:0:0:
332,178,70894,1,0,0:0:0:0:
336,192,70964,1,0,0:0:0:0:
340,207,71034,1,0,0:0:0:0:
344,221,71104,1,0,0:0:0:0:
348,236,71173,1,0,0:0:0:0:
352,256,71243,6,0,L|303:262,3,50
410,353,71522,6,0,L|475:344,3,50
248,374,71801,5,0,0:0:0:0:
248,374,71871,1,0,0:0:0:0:
248,374,71941,2,0,L|192:368,1,50
133,278,72080,5,0,0:0:0:0:
133,278,72150,1,0,0:0:0:0:
133,278,72220,2,0,L|77:272,1,50
249,186,72359,5,0,0:0:0:0:
249,186,72429,1,0,0:0:0:0:
249,186,72499,2,0,L|305:180,1,50
364,90,72638,5,0,0:0:0:0:
364,90,72708,1,0,0:0:0:0:
364,90,72778,2,0,L|420:84,1,50
375,294,72918,5,0,0:0:0:0:
375,294,72988,1,0,0:0:0:0:
375,294,73058,2,0,L|319:300,1,50
154,311,73197,5,0,0:0:0:0:
154,311,73267,1,0,0:0:0:0:
154,311,73337,2,0,L|148:255,1,50
137,90,73476,5,0,0:0:0:0:
137,90,73546,1,0,0:0:0:0:
137,90,73616,2,0,L|193:84,1,50
358,73,73755,5,0,0:0:0:0:
358,73,73825,1,0,0:0:0:0:
358,73,73895,2,0,L|364:129,1,50
347,278,74034,5,0,0:0:0:0:
307,278,74104,1,0,0:0:0:0:
269,265,74173,1,0,0:0:0:0:
237,242,74243,1,0,0:0:0:0:
214,209,74313,1,0,0:0:0:0:
202,171,74383,1,0,0:0:0:0:
184,206,74453,1,0,0:0:0:0:
150,227,74522,1,0,0:0:0:0:
103,243,74592,5,0,0:0:0:0:
54,234,74661,1,0,0:0:0:0:
16,202,74731,1,0,0:0:0:0:
0,156,74801,1,0,0:0:0:0:
8,107,74870,1,0,0:0:0:0:
39,69,74940,1,0,0:0:0:0:
85,51,75010,1,0,0:0:0:0:
134,59,75080,1,0,0:0:0:0:
173,89,75150,6,0,L|198:157,3,50
359,120,75429,6,0,L|287:107,3,50
239,265,75708,6,0,L|285:209,3,50
367,267,75987,5,0,0:0:0:0:
359,237,76056,1,0,0:0:0:0:
351,208,76126,1,0,0:0:0:0:
344,179,76196,1,0,0:0:0:0:
336,149,76266,5,0,0:0:0:0:
280,143,76336,1,0,0:0:0:0:
234,174,76406,1,0,0:0:0:0:
217,224,76476,1,0,0:0:0:0:
231,276,76546,1,0,0:0:0:0:
277,307,76615,1,0,0:0:0:0:
329,306,76685,1,0,0:0:0:0:
373,272,76755,1,0,0:0:0:0:
418,241,76825,5,0,0:0:0:0:
471,250,76894,1,0,0:0:0:0:
502,293,76964,1,0,0:0:0:0:
494,347,77034,1,0,0:0:0:0:
451,380,77104,1,0,0:0:0:0:
398,372,77173,1,0,0:0:0:0:
350,347,77243,1,0,0:0:0:0:
296,331,77313,1,0,0:0:0:0:
242,328,77383,5,0,0:0:0:0:
198,370,77453,1,0,0:0:0:0:
141,383,77522,1,0,0:0:0:0:
85,360,77592,1,0,0:0:0:0:
51,310,77662,1,0,0:0:0:0:
50,250,77732,1,0,0:0:0:0:
89,202,77801,1,0,0:0:0:0:
151,191,77871,1,0,0:0:0:0:
202,229,77941,5,0,0:0:0:0:
267,230,78011,1,0,0:0:0:0:
323,195,78080,1,0,0:0:0:0:
353,136,78150,1,0,0:0:0:0:
345,70,78220,1,0,0:0:0:0:
304,19,78290,1,0,0:0:0:0:
240,0,78359,1,0,0:0:0:0:
176,15,78429,1,0,0:0:0:0:
131,62,78499,5,0,0:0:0:0:
207,266,78639,1,0,0:0:0:0:
114,152,78778,2,0,P|58:141|2:161,1,100
194,383,79057,1,0,0:0:0:0:
310,118,79197,1,0,0:0:0:0:
345,321,79336,2,0,P|401:332|457:312,1,100
301,115,79615,5,0,0:0:0:0:
208,234,79755,1,0,0:0:0:0:
195,33,79894,1,0,0:0:0:0:
391,216,80034,1,0,0:0:0:0:
112,140,80173,6,0,B|91:187|91:187|103:267,1,100
291,384,80453,2,0,B|312:337|312:337|300:257,1,100
232,106,80732,5,0,0:0:0:0:
59,341,80871,1,0,0:0:0:0:
352,121,81011,2,0,P|395:112|460:136,1,100
361,341,81290,5,0,0:0:0:0:
77,141,81429,1,0,0:0:0:0:
447,127,81569,1,0,0:0:0:0:
222,225,81708,1,0,0:0:0:0:
152,131,81848,6,0,P|144:86|163:30,2,100
334,245,82266,1,0,0:0:0:0:
152,131,82406,2,0,P|85:169|76:198,1,100
181,313,82685,2,0,P|181:235|160:213,1,100
8,247,82964,5,0,0:0:0:0:
268,153,83104,1,0,0:0:0:0:
116,348,83243,2,0,P|152:382|200:385,1,100
346,74,83522,1,0,0:0:0:0:
341,354,83662,1,0,0:0:0:0:
148,115,83801,2,0,L|159:228,1,100
504,235,84080,5,0,0:0:0:0:
266,98,84220,1,0,0:0:0:0:
392,349,84359,1,0,0:0:0:0:
447,98,84499,1,0,0:0:0:0:
342,163,84639,6,0,B|351:216|351:216|335:286,1,100
190,348,84918,2,0,B|181:295|181:295|197:225,1,100
121,106,85197,5,0,0:0:0:0:
297,67,85336,1,0,0:0:0:0:
340,92,85406,1,0,0:0:0:0:
354,139,85476,1,0,0:0:0:0:
370,186,85545,1,0,0:0:0:0:
408,216,85615,1,0,0:0:0:0:
464,104,85755,2,0,P|506:102|533:119,2,50
246,160,86034,5,0,0:0:0:0:
247,184,86103,1,0,0:0:0:0:
243,209,86173,1,0,0:0:0:0:
233,232,86243,1,0,0:0:0:0:
217,252,86313,6,0,P|289:227|293:376,1,275
303,372,87150,1,0,0:0:0:0:
83,320,87429,5,0,0:0:0:0:
93,290,87499,1,0,0:0:0:0:
118,271,87569,1,0,0:0:0:0:
149,268,87639,1,0,0:0:0:0:
176,282,87708,1,0,0:0:0:0:
206,293,87778,1,0,0:0:0:0:
236,288,87848,1,0,0:0:0:0:
260,268,87918,1,0,0:0:0:0:
271,239,87987,2,0,L|293:177,3,44.999998626709
180,159,88266,2,0,L|167:95,3,44.999998626709
319,24,88546,5,0,0:0:0:0:
335,50,88615,1,0,0:0:0:0:
362,66,88685,1,0,0:0:0:0:
393,68,88755,1,0,0:0:0:0:
421,54,88825,1,0,0:0:0:0:
413,84,88894,1,0,0:0:0:0:
405,115,88964,1,0,0:0:0:0:
396,145,89034,1,0,0:0:0:0:
388,175,89104,2,0,L|315:184,3,44.999998626709
446,278,89383,2,0,L|518:286,3,44.999998626709
208,360,89662,5,0,0:0:0:0:
243,355,89732,1,0,0:0:0:0:
273,335,89801,1,0,0:0:0:0:
290,304,89871,1,0,0:0:0:0:
293,269,89941,1,0,0:0:0:0:
279,236,90011,1,0,0:0:0:0:
252,213,90080,1,0,0:0:0:0:
217,204,90150,1,0,0:0:0:0:
173,199,90220,2,0,L|100:190,3,44.999998626709
231,96,90499,2,0,L|303:88,3,44.999998626709
26,65,90778,5,0,0:0:0:0:
28,109,90848,1,0,0:0:0:0:
30,154,90918,1,0,0:0:0:0:
33,199,90987,1,0,0:0:0:0:
35,244,91057,2,0,L|76:323,1,44.999998626709
141,244,91197,2,0,L|151:331,1,44.999998626709
240,279,91336,2,0,L|220:364,1,44.999998626709
331,364,91476,1,0,0:0:0:0:
331,364,91546,1,0,0:0:0:0:
331,364,91615,1,0,0:0:0:0:
331,364,91685,1,0,0:0:0:0:
331,364,91755,1,0,0:0:0:0:
331,364,91825,1,0,0:0:0:0:
331,364,91894,6,0,P|315:304|359:216,1,139.999995727539
489,221,92313,1,0,0:0:0:0:
466,311,92453,2,0,L|393:305,2,59.9999981689454
429,154,92871,1,0,0:0:0:0:
318,232,93011,6,0,B|296:193|296:193|285:103,1,104.999996795654
299,108,93290,2,0,L|303:43,1,50
184,54,93569,1,0,0:0:0:0:
429,154,93708,1,0,0:0:0:0:
162,51,93848,2,0,B|123:52|123:52|83:72,1,69.9999978637696
166,169,94127,5,0,0:0:0:0:
182,204,94197,1,0,0:0:0:0:
175,243,94266,1,0,0:0:0:0:
147,271,94336,1,0,0:0:0:0:
108,278,94406,2,0,P|72:266|59:253,3,40
166,169,94685,5,0,0:0:0:0:
150,134,94755,1,0,0:0:0:0:
157,94,94825,1,0,0:0:0:0:
185,67,94894,1,0,0:0:0:0:
224,61,94964,2,0,P|260:73|273:86,3,40
350,273,95243,6,0,P|296:255|277:236,1,80
224,61,95522,2,0,P|277:78|296:97,1,80
393,104,95801,2,0,P|375:157|356:176,1,80
181,230,96080,2,0,P|198:176|217:157,1,80
280,239,96359,5,0,0:0:0:0:
266,277,96429,1,0,0:0:0:0:
239,306,96499,1,0,0:0:0:0:
203,322,96569,1,0,0:0:0:0:
163,323,96639,1,0,0:0:0:0:
126,308,96708,1,0,0:0:0:0:
98,280,96778,1,0,0:0:0:0:
82,244,96848,1,0,0:0:0:0:
88,204,96918,6,0,L|34:198,3,40
173,92,97197,2,0,L|227:86,3,40
320,177,97476,5,0,0:0:0:0:
342,185,97546,1,0,0:0:0:0:
366,186,97615,1,0,0:0:0:0:
389,181,97685,1,0,0:0:0:0:
410,169,97755,1,0,0:0:0:0:
427,153,97825,1,0,0:0:0:0:
439,132,97894,1,0,0:0:0:0:
445,109,97964,1,0,0:0:0:0:
443,85,98034,6,0,P|396:66|345:72,1,80
244,158,98313,2,0,P|291:177|342:171,1,80
226,280,98592,1,0,0:0:0:0:
129,109,98732,6,0,P|114:156|142:212,1,80
306,62,99011,1,0,0:0:0:0:
42,42,99150,2,0,L|-28:28,3,40
218,154,99429,2,0,L|288:140,3,40
82,250,99708,5,0,0:0:0:0:
71,295,99778,1,0,0:0:0:0:
91,338,99848,1,0,0:0:0:0:
133,359,99918,1,0,0:0:0:0:
179,349,99987,5,0,0:0:0:0:
214,356,100057,1,0,0:0:0:0:
247,341,100127,1,0,0:0:0:0:
264,308,100197,1,0,0:0:0:0:
256,272,100266,5,0,0:0:0:0:
251,229,100336,1,0,0:0:0:0:
276,194,100406,1,0,0:0:0:0:
317,184,100476,1,0,0:0:0:0:
355,205,100546,5,0,0:0:0:0:
404,192,100615,1,0,0:0:0:0:
441,157,100685,1,0,0:0:0:0:
455,107,100755,1,0,0:0:0:0:
449,52,100825,6,0,P|351:41|384:123,1,200
361,111,101243,2,0,P|285:54|285:110,1,200
279,100,101662,2,0,B|221:146|221:146|178:143|167:116,1,120
66,27,101941,5,0,0:0:0:0:
61,66,102011,1,0,0:0:0:0:
56,106,102080,1,0,0:0:0:0:
51,146,102150,1,0,0:0:0:0:
124,197,102220,5,0,0:0:0:0:
119,228,102290,1,0,0:0:0:0:
115,260,102359,1,0,0:0:0:0:
111,292,102429,1,0,0:0:0:0:
195,340,102499,5,0,0:0:0:0:
199,314,102569,1,0,0:0:0:0:
202,288,102639,1,0,0:0:0:0:
205,263,102708,1,0,0:0:0:0:
295,213,102778,5,0,0:0:0:0:
298,234,102848,1,0,0:0:0:0:
300,256,102918,1,0,0:0:0:0:
303,276,102987,1,0,0:0:0:0:
305,294,103057,5,0,0:0:0:0:
423,83,103197,1,0,0:0:0:0:
441,344,103336,2,0,P|420:291|412:239,1,100
284,37,103615,5,0,0:0:0:0:
133,322,103755,1,0,0:0:0:0:
129,24,103894,2,0,P|150:77|158:129,1,100
43,362,104173,5,0,0:0:0:0:
256,206,104313,1,0,0:0:0:0:
38,117,104453,1,0,0:0:0:0:
291,329,104592,1,0,0:0:0:0:
208,46,104732,5,0,0:3:0:0:
164,313,104871,1,0,0:3:0:0:
388,218,105011,1,0,0:3:0:0:
50,250,105150,1,0,0:3:0:0:
279,242,105290,6,0,P|295:308|276:359,1,89.9999972534181
123,94,105569,1,0,0:0:0:0:
388,218,105708,1,0,0:0:0:0:
152,275,105848,6,0,P|151:207|181:161,1,89.9999972534181
375,105,106127,1,0,0:0:0:0:
200,362,106266,1,0,0:0:0:0:
115,72,106406,6,0,L|58:38,5,44.999998626709
160,143,106825,2,0,L|159:209,1,44.999998626709
114,258,106964,2,0,L|57:292,3,44.999998626709
206,258,107243,2,0,L|263:292,3,44.999998626709
339,332,107522,5,0,0:0:0:0:
376,345,107592,1,0,0:0:0:0:
415,338,107662,1,0,0:0:0:0:
445,313,107732,1,0,0:0:0:0:
460,276,107801,1,0,0:0:0:0:
454,237,107871,1,0,0:0:0:0:
430,206,107941,1,0,0:0:0:0:
394,190,108011,1,0,0:0:0:0:
356,203,108080,1,0,0:0:0:0:
317,196,108150,1,0,0:0:0:0:
287,171,108220,1,0,0:0:0:0:
272,134,108290,1,0,0:0:0:0:
278,95,108359,1,0,0:0:0:0:
302,64,108429,1,0,0:0:0:0:
338,48,108499,2,0,P|342:108|340:112,1,50
255,250,108639,6,0,P|255:290|271:329,7,50
144,213,109197,2,0,P|144:173|128:134,7,50
383,204,109755,5,0,0:0:0:0:
347,199,109825,1,0,0:0:0:0:
316,210,109894,1,0,0:0:0:0:
290,233,109964,1,0,0:0:0:0:
276,268,110034,2,0,P|237:280|195:277,1,50
133,339,110173,5,0,0:0:0:0:
133,339,110243,1,0,0:0:0:0:
133,339,110313,1,0,0:0:0:0:
133,339,110383,1,0,0:0:0:0:
133,339,110453,2,0,P|93:339|54:323,3,50
217,190,110732,5,0,0:0:0:0:
221,142,110801,1,0,0:0:0:0:
193,103,110871,2,0,B|94:50|21:182|98:249|98:249|139:238|170:263|170:263|214:300|285:265,1,450.000017166138
367,142,111987,6,0,B|432:138|392:23|334:19|255:65|237:184|312:236|390:223|390:223|313:247|285:307|285:307|285:277|263:246,1,560
179,232,113104,6,0,B|91:190|110:102|136:70|136:70|174:163|155:237|50:211|27:321|35:404|217:404|179:287,1,629.999980773926
288,351,114220,6,0,B|304:330|298:295|298:295|333:348|389:356|447:316|435:217|343:220|343:220|354:165|389:107|477:126|477:126|447:149|446:189,1,560
368,56,115336,6,0,B|286:93|264:187|264:187|251:85|191:43|191:43|179:144|112:169,1,489.999985046387
125,281,116453,6,0,P|21:233|230:171,1,560
284,323,117569,6,0,B|351:242|368:124|368:124|442:211|437:330|437:330|383:292,1,489.999985046387
388,41,118685,6,0,B|343:33|314:53|314:53|270:30|254:-1|254:-1|226:25|224:62|224:62|140:44|92:183|175:247|311:217|276:106,1,560
114,12,119801,6,0,P|72:191|366:84,1,629.999980773926
295,149,120918,6,0,P|378:207|327:60,1,400
205,275,121755,6,0,P|173:281|148:280,1,44.999998626709
100,275,122034,5,0,0:0:0:0:
45,249,122104,1,0,0:0:0:0:
20,196,122173,1,0,0:0:0:0:
36,138,122243,1,0,0:0:0:0:
84,105,122313,1,0,0:0:0:0:
143,111,122383,1,0,0:0:0:0:
196,138,122453,1,0,0:0:0:0:
243,173,122522,1,0,0:0:0:0:
303,177,122592,1,0,0:0:0:0:
354,147,122662,1,0,0:0:0:0:
382,94,122732,1,0,0:0:0:0:
375,35,122801,1,0,0:0:0:0:
331,1,122871,5,0,0:0:0:0:
293,46,122940,1,0,0:0:0:0:
284,105,123010,1,0,0:0:0:0:
307,159,123080,1,0,0:0:0:0:
346,197,123150,5,0,0:0:0:0:
374,241,123220,1,0,0:0:0:0:
377,296,123290,1,0,0:0:0:0:
352,343,123359,1,0,0:0:0:0:
307,373,123429,1,0,0:0:0:0:
254,379,123499,1,0,0:0:0:0:
205,357,123569,1,0,0:0:0:0:
173,314,123639,1,0,0:0:0:0:
166,259,123708,2,0,L|156:180,3,50
290,154,123987,2,0,L|283:96,3,50
224,11,124266,5,0,0:0:0:0:
163,28,124336,1,0,0:0:0:0:
129,81,124406,1,0,0:0:0:0:
137,144,124476,1,0,0:0:0:0:
184,187,124546,1,0,0:0:0:0:
238,202,124615,1,0,0:0:0:0:
267,250,124685,1,0,0:0:0:0:
260,306,124755,1,0,0:0:0:0:
218,345,124825,5,0,0:0:0:0:
204,328,124894,1,0,0:0:0:0:
193,314,124964,1,0,0:0:0:0:
180,299,125034,1,0,0:0:0:0:
169,283,125104,1,0,0:0:0:0:
151,299,125173,1,0,0:0:0:0:
135,307,125243,1,0,0:0:0:0:
121,320,125313,1,0,0:0:0:0:
104,332,125383,5,0,0:0:0:0:
44,312,125453,1,0,0:0:0:0:
5,262,125522,1,0,0:0:0:0:
0,199,125592,1,0,0:0:0:0:
32,142,125662,1,0,0:0:0:0:
89,114,125732,1,0,0:0:0:0:
152,117,125801,1,0,0:0:0:0:
213,130,125871,1,0,0:0:0:0:
262,175,125941,6,0,L|270:250,3,50
360,62,126220,2,0,L|352:-13,3,50
479,175,126499,5,0,0:0:0:0:
498,233,126569,1,0,0:0:0:0:
483,293,126639,1,0,0:0:0:0:
437,334,126708,1,0,0:0:0:0:
377,346,126778,1,0,0:0:0:0:
319,323,126848,1,0,0:0:0:0:
284,273,126918,1,0,0:0:0:0:
255,216,126987,1,0,0:0:0:0:
220,166,127057,1,0,0:0:0:0:
160,156,127127,1,0,0:0:0:0:
111,193,127197,1,0,0:0:0:0:
104,254,127266,1,0,0:0:0:0:
142,301,127336,6,0,L|65:309,1,50
252,166,127476,2,0,L|301:160,1,50
429,246,127615,6,0,L|479:251,3,50
259,333,127894,5,0,0:0:0:0:
259,333,127964,1,0,0:0:0:0:
259,333,128034,2,0,L|309:338,3,50
140,191,128313,5,0,0:0:0:0:
140,191,128383,1,0,0:0:0:0:
140,191,128453,2,0,L|91:196,3,50
50,332,128732,5,0,0:0:0:0:
85,366,128801,1,0,0:0:0:0:
132,382,128871,1,0,0:0:0:0:
181,375,128941,1,0,0:0:0:0:
223,349,129011,1,0,0:0:0:0:
249,306,129080,1,0,0:0:0:0:
254,257,129150,1,0,0:0:0:0:
237,210,129220,1,0,0:0:0:0:
203,175,129290,5,0,0:0:0:0:
255,189,129359,1,0,0:0:0:0:
308,204,129429,1,0,0:0:0:0:
361,219,129499,1,0,0:0:0:0:
414,233,129569,5,0,0:0:0:0:
400,179,129639,1,0,0:0:0:0:
386,126,129708,1,0,0:0:0:0:
372,73,129778,1,0,0:0:0:0:
359,19,129848,5,0,0:0:0:0:
406,27,129918,1,0,0:0:0:0:
434,67,129987,1,0,0:0:0:0:
425,115,130057,1,0,0:0:0:0:
385,143,130127,1,0,0:0:0:0:
337,134,130197,1,0,0:0:0:0:
310,93,130266,1,0,0:0:0:0:
273,61,130336,1,0,0:0:0:0:
224,57,130406,6,0,L|235:149,3,50
105,180,130685,2,0,L|115:88,3,50
28,285,130964,5,0,0:0:0:0:
67,305,131034,1,0,0:0:0:0:
112,311,131104,1,0,0:0:0:0:
155,301,131173,1,0,0:0:0:0:
193,278,131243,1,0,0:0:0:0:
231,255,131313,1,0,0:0:0:0:
274,245,131383,1,0,0:0:0:0:
319,251,131453,1,0,0:0:0:0:
373,291,131522,5,0,0:0:0:0:
373,291,131592,1,0,0:0:0:0:
373,291,131662,1,0,0:0:0:0:
373,291,131732,1,0,0:0:0:0:
373,291,131801,1,0,0:0:0:0:
373,291,131871,1,0,0:0:0:0:
373,291,131941,2,0,L|368:218,1,50
360,120,132080,5,0,0:0:0:0:
388,114,132150,1,0,0:0:0:0:
416,109,132220,2,0,L|475:103,1,50
334,30,132359,5,0,0:0:0:0:
300,29,132429,1,0,0:0:0:0:
273,43,132499,2,0,L|216:58,1,50
90,135,132639,5,0,0:0:0:0:
90,135,132708,1,0,0:0:0:0:
90,135,132778,2,0,L|31:129,1,50
213,197,132918,5,0,0:0:0:0:
213,197,132987,1,0,0:0:0:0:
213,197,133057,2,0,L|272:191,1,50
137,291,133197,6,0,L|84:303,3,50
89,134,133476,2,0,L|78:86,3,50
246,86,133755,2,0,L|299:74,3,50
293,243,134034,2,0,L|305:292,3,50
96,192,134313,5,0,0:0:0:0:
146,192,134383,1,0,0:0:0:0:
196,192,134453,1,0,0:0:0:0:
246,192,134522,1,0,0:0:0:0:
298,192,134592,5,0,0:0:0:0:
256,162,134662,1,0,0:0:0:0:
216,132,134732,1,0,0:0:0:0:
176,101,134801,1,0,0:0:0:0:
135,74,134871,5,0,0:0:0:0:
152,120,134941,1,0,0:0:0:0:
167,169,135011,1,0,0:0:0:0:
181,216,135080,1,0,0:0:0:0:
198,265,135150,5,0,0:0:0:0:
213,216,135220,1,0,0:0:0:0:
230,170,135290,1,0,0:0:0:0:
246,121,135359,1,0,0:0:0:0:
259,74,135429,6,0,L|273:26,3,50
135,74,135708,2,0,L|122:26,3,50
298,192,135987,2,0,L|333:226,3,50
96,192,136266,2,0,L|60:226,3,50
198,265,136546,5,0,0:0:0:0:
228,303,136615,1,0,0:0:0:0:
273,325,136685,1,0,0:0:0:0:
323,324,136755,1,0,0:0:0:0:
367,303,136825,1,0,0:0:0:0:
346,259,136894,1,0,0:0:0:0:
345,209,136964,1,0,0:0:0:0:
367,164,137034,1,0,0:0:0:0:
405,134,137104,5,0,0:0:0:0:
361,155,137173,1,0,0:0:0:0:
311,156,137243,1,0,0:0:0:0:
266,134,137313,1,0,0:0:0:0:
236,96,137383,1,0,0:0:0:0:
206,58,137453,1,0,0:0:0:0:
161,36,137522,2,0,P|112:32|84:44,1,50
30,103,137662,5,0,0:0:0:0:
186,342,137801,1,0,0:0:0:0:
142,131,137941,1,0,0:0:0:0:
76,280,138080,1,0,0:0:0:0:
345,59,138220,5,0,0:0:0:0:
345,59,138290,1,0,0:0:0:0:
345,59,138359,1,0,0:0:0:0:
199,352,138499,1,0,0:0:0:0:
142,131,138639,1,0,0:0:0:0:
142,131,138708,1,0,0:0:0:0:
142,131,138778,5,0,0:0:0:0:
408,263,138918,1,0,0:0:0:0:
286,45,139894,6,0,L|229:355,1,299.999990844727
63,196,140732,5,0,0:0:0:0:
66,216,140801,1,0,0:0:0:0:
69,237,140871,1,0,0:0:0:0:
72,258,140941,1,0,0:0:0:0:
75,279,141011,5,0,0:0:0:0:
418,139,141150,1,0,0:0:0:0:
147,77,142127,6,0,B|89:140|129:226|129:226|195:181|195:181|226:255|226:255|281:244|292:174,1,400
260,106,142964,1,0,0:0:0:0:
260,106,143104,1,0,0:0:0:0:
410,46,143243,6,0,L|388:159,1,89.9999972534181
359,274,143522,1,0,0:0:0:0:
359,274,143662,2,0,B|305:263|305:263|228:275,2,89.9999972534181
440,365,144080,5,0,0:0:0:0:
476,219,144220,1,0,0:0:0:0:
286,363,144359,2,0,P|239:358|196:333,1,89.9999972534181
102,205,144639,1,0,0:0:0:0:
102,205,144778,2,0,B|107:273|107:273|95:314,2,89.9999972534181
16,358,145197,5,0,0:0:0:0:
216,229,145336,1,0,0:0:0:0:
94,79,145476,6,0,L|52:123,2,44.999998626709
329,243,145755,2,0,L|371:287,2,44.999998626709
418,79,146034,2,0,L|460:123,2,44.999998626709
183,243,146313,2,0,L|141:287,2,44.999998626709
329,243,146592,5,0,0:0:0:0:
329,243,146662,1,0,0:0:0:0:
329,243,146732,1,0,0:0:0:0:
256,343,146871,5,0,0:0:0:0:
256,343,147011,1,0,0:0:0:0:
177,133,147150,5,0,0:0:0:0:
177,133,147220,1,0,0:0:0:0:
177,133,147290,1,0,0:0:0:0:
362,59,147429,5,0,0:0:0:0:
362,59,147569,1,0,0:0:0:0:
362,59,147708,6,0,B|314:130|337:195|397:232|397:232|297:229|297:229|372:295|372:295|275:262|229:332|229:332,1,550
320,382,148546,2,0,B|318:325|276:296|276:296|240:313|216:345,1,150
122,321,148825,2,0,P|72:340|139:239,1,350
240,233,149383,6,0,B|218:136|101:106|101:106|196:11|345:98|345:98|280:118,1,500
446,110,150220,2,0,P|429:151|360:188,1,100
240,233,150499,2,0,B|156:231|156:231|89:198,2,150
338,341,151057,2,0,B|422:339|422:339|489:306,2,150
249,257,151615,2,0,P|177:249|130:269,2,100
82,352,152173,5,0,0:0:0:0:
49,294,152266,5,0,0:0:0:0:
48,228,152359,5,0,0:0:0:0:
80,170,152453,5,0,0:0:0:0:
112,180,152522,1,0,0:0:0:0:
147,177,152592,1,0,0:0:0:0:
177,159,152662,1,0,0:0:0:0:
197,131,152732,5,0,0:0:0:0:
220,156,152801,1,0,0:0:0:0:
251,170,152871,1,0,0:0:0:0:
286,170,152941,1,0,0:0:0:0:
318,156,153011,5,0,0:0:0:0:
350,142,153080,1,0,0:0:0:0:
385,142,153150,1,0,0:0:0:0:
416,156,153220,1,0,0:0:0:0:
439,181,153290,6,0,L|450:240,3,50
274,71,153569,2,0,L|263:12,3,50
362,241,153848,2,0,L|373:300,3,50
197,131,154127,2,0,L|186:72,3,50
185,329,154406,6,0,P|135:280|69:284,2,100
261,221,154825,1,0,0:0:0:0:
156,155,154964,6,0,P|206:106|272:110,2,100
337,113,155383,1,0,0:0:0:0:
455,263,155522,6,0,B|441:223|453:183|453:183|444:163|444:163|465:109|431:38,1,200
261,221,155941,2,0,P|257:279|281:337,1,100
7,254,156220,1,0,0:0:0:0:
31,257,156290,1,0,0:0:0:0:
52,267,156359,2,0,P|105:243|145:194,1,100
59,24,156639,5,0,0:0:0:0:
81,369,156778,1,0,0:0:0:0:
141,22,156918,1,0,0:0:0:0:
163,367,157057,1,0,0:0:0:0:
223,20,157197,1,0,0:0:0:0:
245,365,157336,1,0,0:0:0:0:
347,146,157476,5,0,0:0:0:0:
118,294,157615,1,0,0:0:0:0:
490,355,157755,5,0,0:0:0:0:
468,10,157894,1,0,0:0:0:0:
408,357,158034,1,0,0:0:0:0:
386,12,158173,1,0,0:0:0:0:
326,359,158313,1,0,0:0:0:0:
304,14,158452,1,0,0:0:0:0:
202,233,158592,5,0,0:0:0:0:
431,85,158731,1,0,0:0:0:0:
198,47,158871,5,0,0:0:0:0:
314,337,159011,1,0,0:0:0:0:
323,34,159150,5,0,0:0:0:0:
188,349,159290,1,0,0:0:0:0:
430,122,159429,5,0,0:0:0:0:
82,261,159569,1,0,0:0:0:0:
442,271,159708,5,0,0:0:0:0:
69,112,159848,1,0,0:0:0:0:
212,334,159987,6,0,B|308:334|286:205|197:218|197:218|228:300|378:267|323:178|323:178|411:227|503:114|385:14|328:82,1,700
151,352,161104,5,0,0:0:0:0:
318,48,161243,1,0,0:0:0:0:
83,116,161383,1,0,0:0:0:0:
386,284,161522,1,0,0:0:0:0:
134,382,161662,5,0,0:0:0:0:
334,17,161801,1,0,0:0:0:0:
134,382,161941,5,0,0:0:0:0:
334,17,162080,1,0,0:0:0:0:
361,352,162220,5,0,0:0:0:0:
194,48,162359,1,0,0:0:0:0:
429,116,162499,1,0,0:0:0:0:
126,284,162638,1,0,0:0:0:0:
377,382,162778,5,0,0:0:0:0:
177,17,162917,1,0,0:0:0:0:
377,382,163057,5,0,0:0:0:0:
177,17,163196,1,0,0:0:0:0:
191,276,163336,5,0,0:0:0:0:
326,77,163476,1,0,0:0:0:0:
326,77,163546,1,0,0:0:0:0:
326,77,163615,2,0,L|205:115,1,100
360,230,163894,1,0,0:0:0:0:
101,336,164034,1,0,0:0:0:0:
101,336,164104,1,0,0:0:0:0:
101,336,164173,2,0,P|176:380|228:372,1,100
256,192,164453,12,0,165499,0:0:0:0:
286,374,165569,5,0,0:0:0:0:
238,361,165639,1,0,0:0:0:0:
200,332,165708,1,0,0:0:0:0:
176,288,165778,1,0,0:0:0:0:
174,240,165848,1,0,0:0:0:0:
191,194,165918,1,0,0:0:0:0:
227,160,165987,1,0,0:0:0:0:
257,116,166057,1,0,0:0:0:0:
259,62,166127,1,0,0:0:0:0:
227,18,166197,1,0,0:0:0:0:
175,0,166266,1,0,0:0:0:0:
124,14,166336,1,0,0:0:0:0:
96,58,166406,2,0,P|117:80|146:85,3,44.999998626709
58,169,166685,6,0,P|37:190|8:195,7,44.999998626709
300,141,167243,6,0,L|359:125,2,44.999998626709
226,242,167453,2,0,L|167:226,2,44.999998626709
350,255,167662,1,0,0:0:0:0:
350,255,167732,1,0,0:0:0:0:
350,255,167801,6,0,L|365:314,2,44.999998626709
197,140,168011,2,0,L|137:123,2,44.999998626709
373,64,168220,1,0,0:0:0:0:
373,64,168290,1,0,0:0:0:0:
373,64,168359,2,0,L|416:20,2,44.999998626709
228,108,168569,6,0,L|184:151,2,44.999998626709
200,253,168778,1,0,0:0:0:0:
162,255,168848,1,0,0:0:0:0:
130,239,168918,6,0,L|86:195,3,44.999998626709
338,191,169197,5,0,0:0:0:0:
338,191,169266,1,0,0:0:0:0:
338,191,169336,1,0,0:0:0:0:
338,191,169406,1,0,0:0:0:0:
338,191,169476,6,0,P|349:245|345:274,1,44.999998626709
280,384,169615,2,0,P|269:330|273:301,1,44.999998626709
212,260,169755,2,0,P|266:249|295:253,1,44.999998626709
405,318,169894,2,0,P|351:329|322:325,1,44.999998626709
186,375,170034,5,0,0:0:0:0:
148,339,170104,1,0,0:0:0:0:
124,295,170173,1,0,0:0:0:0:
117,246,170243,1,0,0:0:0:0:
127,196,170313,1,0,0:0:0:0:
153,154,170383,1,0,0:0:0:0:
176,112,170453,1,0,0:0:0:0:
187,66,170522,1,0,0:0:0:0:
179,21,170592,5,0,0:0:0:0:
152,56,170662,1,0,0:0:0:0:
141,99,170732,1,0,0:0:0:0:
151,142,170801,1,0,0:0:0:0:
175,178,170871,1,0,0:0:0:0:
214,201,170941,1,0,0:0:0:0:
259,204,171011,1,0,0:0:0:0:
301,191,171080,1,0,0:0:0:0:
333,160,171150,5,0,0:0:0:0:
363,190,171220,1,0,0:0:0:0:
402,202,171290,1,0,0:0:0:0:
445,198,171359,1,0,0:0:0:0:
481,177,171429,1,0,0:0:0:0:
506,143,171499,1,0,0:0:0:0:
512,102,171569,1,0,0:0:0:0:
503,62,171639,1,0,0:0:0:0:
478,29,171708,5,0,0:0:0:0:
451,44,171778,1,0,0:0:0:0:
422,56,171848,1,0,0:0:0:0:
392,63,171918,1,0,0:0:0:0:
361,65,171987,1,0,0:0:0:0:
331,63,172057,1,0,0:0:0:0:
301,57,172127,1,0,0:0:0:0:
272,45,172197,1,0,0:0:0:0:
244,36,172266,1,0,0:0:0:0:
215,26,172336,1,0,0:0:0:0:
186,20,172406,1,0,0:0:0:0:
156,16,172476,1,0,0:0:0:0:
124,20,172546,1,0,0:0:0:0:
94,27,172615,1,0,0:0:0:0:
66,38,172685,1,0,0:0:0:0:
39,54,172755,1,0,0:0:0:0:
18,75,172825,5,0,0:0:0:0:
42,104,172894,1,0,0:0:0:0:
62,137,172964,1,0,0:0:0:0:
74,174,173034,1,0,0:0:0:0:
79,214,173104,1,0,0:0:0:0:
76,253,173173,1,0,0:0:0:0:
66,291,173243,1,0,0:0:0:0:
49,325,173313,1,0,0:0:0:0:
22,354,173383,5,0,0:0:0:0:
21,310,173453,1,0,0:0:0:0:
33,265,173522,1,0,0:0:0:0:
60,229,173592,1,0,0:0:0:0:
94,202,173662,1,0,0:0:0:0:
136,189,173732,1,0,0:0:0:0:
182,187,173801,1,0,0:0:0:0:
224,201,173871,1,0,0:0:0:0:
251,250,173941,6,0,P|296:268|308:269,1,44.999998626709
468,222,174080,2,0,P|423:204|411:203,1,44.999998626709
255,292,174220,2,0,P|299:309|311:310,1,44.999998626709
491,195,174359,2,0,P|446:177|434:176,1,44.999998626709
383,48,174499,5,0,0:0:0:0:
335,15,174568,1,0,0:0:0:0:
277,13,174638,1,0,0:0:0:0:
228,44,174708,1,0,0:0:0:0:
203,96,174778,1,0,0:0:0:0:
211,153,174847,1,0,0:0:0:0:
249,197,174917,1,0,0:0:0:0:
304,213,174987,1,0,0:0:0:0:
359,196,175057,5,0,0:0:0:0:
339,152,175126,1,0,0:0:0:0:
301,120,175196,1,0,0:0:0:0:
253,109,175266,1,0,0:0:0:0:
205,120,175336,1,0,0:0:0:0:
167,151,175405,1,0,0:0:0:0:
146,195,175475,1,0,0:0:0:0:
147,244,175545,1,0,0:0:0:0:
169,288,175615,5,0,0:0:0:0:
218,302,175685,1,0,0:0:0:0:
268,289,175755,1,0,0:0:0:0:
303,253,175825,1,0,0:0:0:0:
338,216,175894,1,0,0:0:0:0:
387,203,175964,1,0,0:0:0:0:
439,218,176034,1,0,0:0:0:0:
471,262,176104,1,0,0:0:0:0:
462,313,176173,5,0,0:0:0:0:
421,279,176243,1,0,0:0:0:0:
407,228,176313,1,0,0:0:0:0:
425,179,176383,1,0,0:0:0:0:
469,150,176453,6,0,P|521:144|538:149,1,44.999998626709
399,86,176592,2,0,P|347:92|330:87,1,44.999998626709
298,29,176732,5,0,0:0:0:0:
242,34,176801,1,0,0:0:0:0:
198,66,176871,1,0,0:0:0:0:
174,116,176941,1,0,0:0:0:0:
178,171,177011,1,0,0:0:0:0:
209,216,177080,1,0,0:0:0:0:
220,270,177150,1,0,0:0:0:0:
201,322,177220,1,0,0:0:0:0:
158,356,177290,1,0,0:0:0:0:
104,365,177359,1,0,0:0:0:0:
54,345,177429,1,0,0:0:0:0:
20,301,177499,1,0,0:0:0:0:
13,247,177569,1,0,0:0:0:0:
35,197,177639,1,0,0:0:0:0:
84,172,177708,1,0,0:0:0:0:
139,163,177778,1,0,0:0:0:0:
193,173,177848,5,0,0:0:0:0:
209,227,177918,1,0,0:0:0:0:
242,270,177987,1,0,0:0:0:0:
291,297,178057,1,0,0:0:0:0:
346,303,178127,1,0,0:0:0:0:
400,288,178197,1,0,0:0:0:0:
442,254,178266,1,0,0:0:0:0:
470,206,178336,1,0,0:0:0:0:
486,152,178406,5,0,0:0:0:0:
433,182,178476,1,0,0:0:0:0:
374,189,178546,1,0,0:0:0:0:
318,170,178615,1,0,0:0:0:0:
273,130,178685,1,0,0:0:0:0:
249,75,178755,1,0,0:0:0:0:
249,15,178825,2,0,P|299:-1|326:2,1,44.999998626709
305,121,178964,5,0,0:0:0:0:
236,160,179034,1,0,0:0:0:0:
158,165,179104,1,0,0:0:0:0:
86,133,179173,1,0,0:0:0:0:
44,67,179243,5,0,0:0:0:0:
118,91,179313,1,0,0:0:0:0:
174,145,179383,1,0,0:0:0:0:
197,219,179453,1,0,0:0:0:0:
183,297,179522,5,0,0:0:0:0:
245,345,179592,1,0,0:0:0:0:
322,357,179662,1,0,0:0:0:0:
397,332,179732,1,0,0:0:0:0:
449,275,179801,5,0,0:0:0:0:
380,244,179871,1,0,0:0:0:0:
368,169,179941,1,0,0:0:0:0:
422,117,180011,1,0,0:0:0:0:
497,131,180080,5,0,0:0:0:0:
465,164,180150,1,0,0:0:0:0:
425,182,180220,1,0,0:0:0:0:
380,185,180290,1,0,0:0:0:0:
337,172,180359,1,0,0:0:0:0:
302,144,180429,1,0,0:0:0:0:
280,106,180499,1,0,0:0:0:0:
274,61,180569,1,0,0:0:0:0:
291,15,180639,6,0,L|372:-10,3,44.999998626709
198,154,180918,6,0,L|271:129,1,44.999998626709
106,49,181057,2,0,L|32:74,1,44.999998626709
166,363,181197,5,0,0:0:0:0:
364,123,181336,1,0,0:0:0:0:
62,197,181476,1,0,0:0:0:0:
352,315,181615,1,0,0:0:0:0:
180,52,181755,5,0,0:0:0:0:
37,326,181894,1,0,0:0:0:0:
314,190,182034,1,0,0:0:0:0:
6,135,182173,1,0,0:0:0:0:
216,357,182313,5,0,0:0:0:0:
193,22,182453,1,0,0:0:0:0:
408,279,182592,1,0,0:0:0:0:
81,197,182732,1,0,0:0:0:0:
426,12,182871,5,0,0:0:0:0:
331,368,183011,1,0,0:0:0:0:
193,22,183150,1,0,0:0:0:0:
510,221,183290,1,0,0:0:0:0:
138,248,183429,1,0,0:0:0:0:
99,232,184546,5,0,0:0:0:0:
418,204,185662,5,0,0:0:0:0:
418,204,186778,5,0,0:0:0:0:
143,39,187894,5,0,0:0:0:0:
143,39,189011,5,0,0:0:0:0:
269,334,190127,5,0,0:0:0:0:
269,334,191243,5,0,0:0:0:0:
341,21,192359,5,0,0:0:0:0:
336,6,193197,6,0,P|318:43|323:95,1,75
331,110,193476,5,0,0:0:0:0:
349,160,193546,1,0,0:0:0:0:
389,199,193615,1,0,0:0:0:0:
426,239,193685,1,0,0:0:0:0:
437,292,193755,1,0,0:0:0:0:
416,343,193825,1,0,0:0:0:0:
373,377,193894,1,0,0:0:0:0:
319,383,193964,1,0,0:0:0:0:
270,359,194034,1,0,0:0:0:0:
241,314,194104,1,0,0:0:0:0:
239,258,194173,1,0,0:0:0:0:
263,210,194243,1,0,0:0:0:0:
286,160,194313,1,0,0:0:0:0:
286,105,194383,1,0,0:0:0:0:
264,55,194453,1,0,0:0:0:0:
223,18,194522,1,0,0:0:0:0:
169,4,194592,5,0,0:0:0:0:
179,40,194662,1,0,0:0:0:0:
171,78,194732,1,0,0:0:0:0:
146,108,194801,1,0,0:0:0:0:
110,123,194871,1,0,0:0:0:0:
67,118,194941,1,0,0:0:0:0:
28,138,195011,1,0,0:0:0:0:
4,174,195080,1,0,0:0:0:0:
4,219,195150,1,0,0:0:0:0:
26,257,195220,1,0,0:0:0:0:
64,277,195290,1,0,0:0:0:0:
107,284,195359,1,0,0:0:0:0:
158,274,195429,2,0,L|148:343,3,50
278,181,195708,5,0,0:0:0:0:
322,146,195778,1,0,0:0:0:0:
379,149,195848,1,0,0:0:0:0:
419,189,195918,1,0,0:0:0:0:
425,245,195987,1,0,0:0:0:0:
393,291,196057,1,0,0:0:0:0:
339,306,196127,1,0,0:0:0:0:
280,283,196197,1,0,0:0:0:0:
216,283,196266,1,0,0:0:0:0:
158,305,196336,1,0,0:0:0:0:
126,336,196406,2,0,P|118:374|126:401,1,50
162,193,196546,5,0,0:0:0:0:
161,144,196615,1,0,0:0:0:0:
125,110,196685,1,0,0:0:0:0:
77,112,196755,1,0,0:0:0:0:
44,148,196825,5,0,0:0:0:0:
45,158,196894,1,0,0:0:0:0:
46,168,196964,1,0,0:0:0:0:
48,178,197034,1,0,0:0:0:0:
49,188,197104,1,0,0:0:0:0:
50,198,197173,1,0,0:0:0:0:
52,222,197243,5,0,0:0:0:0:
58,262,197313,1,0,0:0:0:0:
81,298,197383,1,0,0:0:0:0:
117,318,197453,1,0,0:0:0:0:
160,322,197522,1,0,0:0:0:0:
199,308,197592,1,0,0:0:0:0:
228,277,197662,5,0,0:0:0:0:
255,262,197732,1,0,0:0:0:0:
284,254,197801,1,0,0:0:0:0:
315,252,197871,1,0,0:0:0:0:
422,291,197941,5,0,0:0:0:0:
422,291,198011,1,0,0:0:0:0:
422,291,198080,2,0,L|411:352,1,50
495,189,198220,5,0,0:0:0:0:
495,189,198290,1,0,0:0:0:0:
495,189,198359,2,0,L|509:252,1,50
394,169,198499,6,0,L|405:108,3,50
276,126,198778,2,0,L|265:65,3,50
74,263,199057,5,0,0:0:0:0:
74,263,199127,1,0,0:0:0:0:
74,263,199197,2,0,L|63:324,1,50
185,204,199336,5,0,0:0:0:0:
185,204,199406,1,0,0:0:0:0:
185,204,199476,2,0,L|196:265,1,50
204,81,199615,5,0,0:0:0:0:
204,81,199685,1,0,0:0:0:0:
204,81,199755,2,0,L|215:20,1,50
93,140,199894,5,0,0:0:0:0:
93,140,199964,1,0,0:0:0:0:
93,140,200034,2,0,L|82:79,1,50
202,200,200173,5,0,0:0:0:0:
250,174,200243,1,0,0:0:0:0:
307,166,200313,1,0,0:0:0:0:
362,176,200383,1,0,0:0:0:0:
410,203,200453,1,0,0:0:0:0:
465,193,200522,1,0,0:0:0:0:
504,153,200592,1,0,0:0:0:0:
510,99,200662,1,0,0:0:0:0:
481,52,200732,1,0,0:0:0:0:
431,29,200801,1,0,0:0:0:0:
377,42,200871,1,0,0:0:0:0:
325,63,200941,1,0,0:0:0:0:
269,67,201011,1,0,0:0:0:0:
215,52,201080,1,0,0:0:0:0:
162,32,201150,1,0,0:0:0:0:
107,41,201220,1,0,0:0:0:0:
63,76,201290,5,0,0:0:0:0:
106,120,201359,1,0,0:0:0:0:
129,177,201429,1,0,0:0:0:0:
127,239,201499,1,0,0:0:0:0:
101,295,201569,1,0,0:0:0:0:
61,341,201639,1,0,0:0:0:0:
6,363,201708,5,0,0:0:0:0:
15,301,201778,1,0,0:0:0:0:
54,253,201848,1,0,0:0:0:0:
108,225,201918,1,0,0:0:0:0:
168,225,201987,1,0,0:0:0:0:
230,239,202057,1,0,0:0:0:0:
292,241,202127,1,0,0:0:0:0:
349,212,202197,1,0,0:0:0:0:
367,147,202266,1,0,0:0:0:0:
328,95,202336,1,0,0:0:0:0:
264,87,202406,5,0,0:0:0:0:
256,147,202476,1,0,0:0:0:0:
281,205,202546,1,0,0:0:0:0:
330,239,202615,1,0,0:0:0:0:
391,243,202685,1,0,0:0:0:0:
445,216,202755,1,0,0:0:0:0:
477,163,202825,1,0,0:0:0:0:
484,103,202894,1,0,0:0:0:0:
461,45,202964,1,0,0:0:0:0:
412,11,203034,1,0,0:0:0:0:
349,7,203104,1,0,0:0:0:0:
295,33,203173,1,0,0:0:0:0:
264,87,203243,5,0,0:0:0:0:
252,112,203313,1,0,0:0:0:0:
240,137,203383,1,0,0:0:0:0:
229,163,203453,1,0,0:0:0:0:
203,233,203522,5,0,0:0:0:0:
245,257,203592,1,0,0:0:0:0:
293,248,203662,2,0,P|327:210|332:182,1,50
156,174,203801,5,0,0:0:0:0:
113,199,203871,1,0,0:0:0:0:
97,244,203941,2,0,P|112:292|133:310,1,50
229,163,204080,5,0,0:0:0:0:
230,114,204150,1,0,0:0:0:0:
179,87,204220,2,0,P|128:76|102:85,1,50
184,242,204359,5,0,0:0:0:0:
226,266,204429,1,0,0:0:0:0:
274,257,204499,2,0,P|308:219|313:191,1,50
367,152,204639,6,0,L|399:110,3,50
145,152,204918,2,0,L|113:110,3,50
393,245,205197,2,0,L|441:224,3,50
119,245,205476,2,0,L|70:224,3,50
253,342,205755,5,0,0:0:0:0:
270,282,205825,1,0,0:0:0:0:
269,220,205894,1,0,0:0:0:0:
247,164,205964,1,0,0:0:0:0:
207,115,206034,5,0,0:0:0:0:
223,173,206104,1,0,0:0:0:0:
261,221,206173,1,0,0:0:0:0:
310,257,206243,1,0,0:0:0:0:
372,273,206313,5,0,0:0:0:0:
325,233,206383,1,0,0:0:0:0:
266,215,206453,1,0,0:0:0:0:
204,217,206522,1,0,0:0:0:0:
146,237,206592,5,0,0:0:0:0:
205,242,206662,1,0,0:0:0:0:
263,225,206732,1,0,0:0:0:0:
312,186,206801,1,0,0:0:0:0:
350,137,206871,6,0,P|367:75|363:49,3,50
206,114,207150,2,0,P|207:49|219:26,3,50
371,273,207429,2,0,P|425:305|439:327,3,50
144,237,207708,2,0,P|81:251|62:267,3,50
255,319,207987,5,0,0:0:0:0:
205,315,208057,1,0,0:0:0:0:
155,320,208127,1,0,0:0:0:0:
107,333,208197,1,0,0:0:0:0:
62,355,208266,5,0,0:0:0:0:
17,335,208336,1,0,0:0:0:0:
0,290,208406,1,0,0:0:0:0:
21,246,208476,1,0,0:0:0:0:
67,230,208546,5,0,0:0:0:0:
112,211,208615,1,0,0:0:0:0:
139,170,208685,1,0,0:0:0:0:
139,120,208755,1,0,0:0:0:0:
111,80,208825,5,0,0:0:0:0:
65,67,208894,1,0,0:0:0:0:
26,98,208964,2,0,P|36:140|68:153,1,50
164,214,209104,6,0,L|216:201,1,50
246,47,209243,2,0,L|194:60,1,50
359,171,209383,2,0,L|411:158,1,50
441,4,209522,2,0,L|389:17,1,50
276,152,209662,5,0,0:0:0:0:
278,177,209732,1,0,0:0:0:0:
281,204,209801,1,0,0:0:0:0:
284,231,209871,1,0,0:0:0:0:
286,258,209941,1,0,0:0:0:0:
290,285,210011,1,0,0:0:0:0:
293,312,210080,1,0,0:0:0:0:
296,339,210150,1,0,0:0:0:0:
359,367,210220,5,0,0:0:0:0:
401,323,210290,1,0,0:0:0:0:
417,264,210359,1,0,0:0:0:0:
401,206,210429,1,0,0:0:0:0:
357,163,210499,1,0,0:0:0:0:
298,150,210569,1,0,0:0:0:0:
240,168,210639,1,0,0:0:0:0:
199,214,210708,1,0,0:0:0:0:
141,232,210778,1,0,0:0:0:0:
81,218,210848,1,0,0:0:0:0:
38,176,210918,1,0,0:0:0:0:
22,117,210987,1,0,0:0:0:0:
38,59,211057,1,0,0:0:0:0:
81,16,211127,1,0,0:0:0:0:
144,8,211197,2,0,P|182:14|202:28,1,55.0000016784668
249,166,211336,5,0,0:0:0:0:
268,225,211406,1,0,0:0:0:0:
314,268,211476,1,0,0:0:0:0:
374,283,211546,1,0,0:0:0:0:
435,268,211615,1,0,0:0:0:0:
481,224,211685,1,0,0:0:0:0:
499,164,211755,1,0,0:0:0:0:
488,103,211825,1,0,0:0:0:0:
448,55,211894,5,0,0:0:0:0:
390,79,211964,1,0,0:0:0:0:
327,86,212034,1,0,0:0:0:0:
266,75,212104,1,0,0:0:0:0:
209,45,212173,1,0,0:0:0:0:
147,33,212243,1,0,0:0:0:0:
85,39,212313,1,0,0:0:0:0:
28,64,212383,1,0,0:0:0:0:
1,118,212453,6,0,L|9:205,1,55.0000016784668
83,338,212592,1,0,0:0:0:0:
128,330,212662,1,0,0:0:0:0:
163,296,212732,2,0,L|155:223,3,55.0000016784668
276,326,213011,5,0,0:0:0:0:
281,284,213080,1,0,0:0:0:0:
288,243,213150,2,0,L|296:170,1,55.0000016784668
388,319,213290,2,0,L|380:392,1,55.0000016784668
488,243,213429,2,0,L|480:170,1,55.0000016784668
499,37,213569,5,0,0:0:0:0:
440,17,213639,1,0,0:0:0:0:
378,22,213708,1,0,0:0:0:0:
324,53,213778,1,0,0:0:0:0:
287,103,213848,1,0,0:0:0:0:
250,153,213918,1,0,0:0:0:0:
197,184,213987,1,0,0:0:0:0:
135,190,214057,1,0,0:0:0:0:
76,169,214127,5,0,0:0:0:0:
58,118,214197,1,0,0:0:0:0:
86,71,214266,1,0,0:0:0:0:
141,66,214336,1,0,0:0:0:0:
180,108,214406,5,0,0:0:0:0:
209,129,214476,1,0,0:0:0:0:
244,142,214546,1,0,0:0:0:0:
282,142,214615,1,0,0:0:0:0:
313,115,214685,6,0,L|292:52,3,55.0000016784668
446,153,214964,2,0,L|467:90,3,55.0000016784668
424,275,215243,5,0,0:0:0:0:
424,275,215313,1,0,0:0:0:0:
424,275,215383,2,0,L|445:338,1,55.0000016784668
322,240,215522,5,0,0:0:0:0:
322,240,215592,1,0,0:0:0:0:
322,240,215662,2,0,L|301:303,1,55.0000016784668
202,354,215801,5,0,0:0:0:0:
190,346,215871,1,0,0:0:0:0:
180,337,215941,1,0,0:0:0:0:
171,326,216011,1,0,0:0:0:0:
166,314,216080,1,0,0:0:0:0:
162,300,216150,1,0,0:0:0:0:
161,287,216220,1,0,0:0:0:0:
163,273,216290,1,0,0:0:0:0:
168,260,216359,6,0,L|232:243,3,55.0000016784668
102,162,216639,2,0,L|38:145,3,55.0000016784668
162,81,216918,5,0,0:0:0:0:
221,61,216987,1,0,0:0:0:0:
283,64,217057,1,0,0:0:0:0:
341,88,217127,1,0,0:0:0:0:
387,132,217197,1,0,0:0:0:0:
437,166,217266,1,0,0:0:0:0:
494,146,217336,1,0,0:0:0:0:
512,87,217406,1,0,0:0:0:0:
474,39,217476,5,0,0:0:0:0:
428,90,217546,1,0,0:0:0:0:
381,142,217615,1,0,0:0:0:0:
335,194,217685,1,0,0:0:0:0:
288,246,217755,5,0,0:0:0:0:
239,199,217825,1,0,0:0:0:0:
218,133,217894,1,0,0:0:0:0:
233,65,217964,1,0,0:0:0:0:
277,12,218034,5,0,0:0:0:0:
299,64,218104,1,0,0:0:0:0:
296,120,218173,1,0,0:0:0:0:
267,169,218243,1,0,0:0:0:0:
218,199,218313,1,0,0:0:0:0:
164,203,218383,1,0,0:0:0:0:
110,182,218453,1,0,0:0:0:0:
75,138,218522,1,0,0:0:0:0:
85,87,218592,6,0,P|140:71|155:73,3,55.0000016784668
51,237,218871,2,0,P|-4:220|-19:222,3,55.0000016784668
104,356,219150,5,0,0:0:0:0:
161,363,219220,1,0,0:0:0:0:
220,353,219290,1,0,0:0:0:0:
272,327,219359,1,0,0:0:0:0:
315,287,219429,1,0,0:0:0:0:
358,245,219499,1,0,0:0:0:0:
412,219,219569,1,0,0:0:0:0:
473,221,219639,1,0,0:0:0:0:
493,276,219708,6,0,L|511:364,1,55.0000016784668
389,138,219848,2,0,L|370:49,1,55.0000016784668
421,316,219987,6,0,L|371:391,1,55.0000016784668
460,98,220127,2,0,L|508:21,1,55.0000016784668
465,186,220266,5,0,0:0:0:0:
403,224,220336,1,0,0:0:0:0:
332,227,220406,2,0,P|290:208|273:193,1,55.0000016784668
197,55,220546,5,0,0:0:0:0:
159,117,220615,1,0,0:0:0:0:
156,188,220685,2,0,P|175:230|190:247,1,55.0000016784668
284,324,220825,5,0,0:0:0:0:
222,362,220894,1,0,0:0:0:0:
151,365,220964,2,0,P|109:346|92:331,1,55.0000016784668
23,229,221104,5,0,0:0:0:0:
85,191,221173,1,0,0:0:0:0:
156,188,221243,2,0,P|198:207|215:222,1,55.0000016784668
356,188,221383,6,0,L|393:141,3,55.0000016784668
156,188,221662,2,0,L|119:141,3,55.0000016784668
436,82,221941,2,0,L|473:35,3,55.0000016784668
76,82,222220,2,0,L|39:35,3,55.0000016784668
255,138,222499,5,0,0:0:0:0:
294,113,222569,1,0,0:0:0:0:
333,88,222639,2,0,L|385:47,1,55.0000016784668
255,175,222778,5,0,0:0:0:0:
216,150,222848,1,0,0:0:0:0:
177,125,222918,2,0,L|125:84,1,55.0000016784668
257,209,223057,5,0,0:0:0:0:
296,234,223127,1,0,0:0:0:0:
335,259,223197,2,0,L|387:300,1,55.0000016784668
257,246,223336,5,0,0:0:0:0:
218,271,223406,1,0,0:0:0:0:
179,296,223476,2,0,L|127:337,1,55.0000016784668
256,384,223615,5,0,0:0:0:0:
286,360,223684,1,0,0:0:0:0:
309,329,223754,1,0,0:0:0:0:
324,294,223824,1,0,0:0:0:0:
256,288,223894,5,0,0:0:0:0:
226,264,223963,1,0,0:0:0:0:
203,233,224033,1,0,0:0:0:0:
188,198,224103,1,0,0:0:0:0:
256,192,224173,5,0,0:0:0:0:
286,168,224242,1,0,0:0:0:0:
309,137,224312,1,0,0:0:0:0:
324,102,224382,1,0,0:0:0:0:
256,96,224453,5,0,0:0:0:0:
226,72,224522,1,0,0:0:0:0:
203,41,224592,1,0,0:0:0:0:
188,6,224662,1,0,0:0:0:0:
288,0,224732,5,0,0:0:0:0:
288,0,225848,5,0,0:0:0:0:
122,278,226964,5,0,0:0:0:0:
325,114,227104,5,0,0:0:0:0:
357,140,227173,1,0,0:0:0:0:
362,183,227243,2,0,P|340:229|323:243,1,50
246,96,227383,5,0,0:0:0:0:
252,55,227453,1,0,0:0:0:0:
287,29,227522,2,0,P|337:25|358:32,1,50
270,174,227662,5,0,0:0:0:0:
232,189,227732,1,0,0:0:0:0:
192,172,227801,2,0,P|163:129|159:108,1,50
80,49,227941,5,0,0:0:0:0:
80,49,228011,1,0,0:0:0:0:
80,49,228080,6,0,P|103:125|77:181,1,100
83,188,228290,1,0,0:0:0:0:
69,234,228359,2,0,P|66:283|88:327,1,100
154,269,228569,1,0,0:0:0:0:
154,269,228639,2,0,P|203:266|247:288,1,100
251,303,228848,1,0,0:0:0:0:
258,318,228918,2,0,P|302:339|351:337,1,100
379,323,229127,1,0,0:0:0:0:
392,302,229197,5,0,0:0:0:0:
411,136,229336,5,0,0:0:0:0:
411,136,229406,1,0,0:0:0:0:
411,136,229476,2,0,L|416:76,1,50
323,212,229615,5,0,0:0:0:0:
323,212,229685,1,0,0:0:0:0:
323,212,229755,2,0,L|318:272,1,50
263,84,229894,5,0,0:0:0:0:
263,84,229964,1,0,0:0:0:0:
263,84,230034,2,0,L|268:24,1,50
175,160,230173,5,0,0:0:0:0:
175,160,230243,1,0,0:0:0:0:
175,160,230313,2,0,L|170:220,1,50
148,301,230453,6,0,P|106:312|89:327,2,50
364,301,230732,2,0,P|406:312|423:327,2,50
255,94,231011,2,0,L|257:32,2,50
256,210,231290,5,0,0:0:0:0:
256,210,231359,1,0,0:0:0:0:
256,210,231429,5,0,0:0:0:0:
151,266,231569,5,0,0:0:0:0:
160,219,231639,1,0,0:0:0:0:
182,190,231708,2,0,P|215:173|235:174,1,50
351,270,231848,5,0,0:0:0:0:
306,285,231918,1,0,0:0:0:0:
270,281,231987,2,0,P|238:260|229:243,1,50
255,94,232127,5,0,0:0:0:0:
290,126,232197,1,0,0:0:0:0:
305,159,232266,2,0,P|303:196|292:212,1,50
146,82,232406,5,0,0:0:0:0:
156,35,232476,1,0,0:0:0:0:
177,6,232546,2,0,L|289:14,1,100
377,85,232755,1,0,0:0:0:0:
377,85,232825,2,0,L|489:93,1,100
397,199,233034,1,0,0:0:0:0:
397,199,233104,2,0,L|285:207,1,100
197,278,233313,1,0,0:0:0:0:
197,278,233383,2,0,L|85:286,1,100
71,286,233592,1,0,0:0:0:0:
32,289,233662,5,0,0:0:0:0:
122,141,233801,5,0,0:0:0:0:
122,141,233871,1,0,0:0:0:0:
122,141,233941,2,0,L|144:73,1,50
197,278,234080,5,0,0:0:0:0:
197,278,234150,1,0,0:0:0:0:
197,278,234220,2,0,L|219:346,1,50
308,140,234359,5,0,0:0:0:0:
308,140,234429,1,0,0:0:0:0:
308,140,234499,2,0,L|330:72,1,50
383,277,234639,5,0,0:0:0:0:
383,277,234708,1,0,0:0:0:0:
383,277,234778,2,0,L|405:345,1,50
466,143,234918,6,0,P|442:162|416:168,2,50
202,344,235197,2,0,P|197:313|205:288,2,50
159,14,235476,2,0,P|187:25|205:44,2,50
226,203,235755,5,0,0:0:0:0:
226,203,235825,1,0,0:0:0:0:
226,203,235894,1,0,0:0:0:0:
180,222,235964,1,0,0:0:0:0:
130,223,236034,1,0,0:0:0:0:
83,205,236104,1,0,0:0:0:0:
48,165,236173,5,0,0:0:0:0:
104,139,236243,1,0,0:0:0:0:
167,138,236313,1,0,0:0:0:0:
227,161,236383,1,0,0:0:0:0:
275,204,236453,1,0,0:0:0:0:
318,248,236522,1,0,0:0:0:0:
378,266,236592,1,0,0:0:0:0:
439,253,236662,1,0,0:0:0:0:
487,214,236732,1,0,0:0:0:0:
511,156,236801,1,0,0:0:0:0:
505,93,236871,1,0,0:0:0:0:
468,42,236941,1,0,0:0:0:0:
413,13,237011,1,0,0:0:0:0:
351,14,237080,1,0,0:0:0:0:
296,46,237150,1,0,0:0:0:0:
246,85,237220,1,0,0:0:0:0:
196,128,237290,1,0,0:0:0:0:
130,148,237359,1,0,0:0:0:0:
64,114,237429,1,0,0:0:0:0:
58,42,237499,1,0,0:0:0:0:
116,5,237569,6,0,L|175:-1,2,50
186,189,237848,2,0,L|127:183,2,50
298,98,238127,5,0,0:0:0:0:
324,139,238197,1,0,0:0:0:0:
333,188,238266,1,0,0:0:0:0:
323,237,238336,1,0,0:0:0:0:
295,278,238406,2,0,P|251:306|211:303,1,50
145,184,238546,5,0,0:0:0:0:
96,186,238615,1,0,0:0:0:0:
64,222,238685,1,0,0:0:0:0:
67,271,238755,1,0,0:0:0:0:
104,302,238825,2,0,P|155:295|184:267,1,50
243,196,238964,5,0,0:0:0:0:
298,174,239034,1,0,0:0:0:0:
358,174,239104,1,0,0:0:0:0:
413,196,239173,1,0,0:0:0:0:
457,236,239243,6,0,B|357:382|131:302|221:137|221:137|152:193|95:117,1,539.999983520508
51,133,240359,6,0,L|69:194,1,50
165,273,240499,2,0,L|183:334,1,50
351,292,240639,6,0,L|329:217,1,50
210,119,240778,2,0,L|187:43,1,50
352,15,240918,6,0,L|366:62,1,50
498,221,241057,2,0,L|512:268,1,50
264,178,241197,5,0,0:0:0:0:
253,127,241266,1,0,0:0:0:0:
273,80,241336,1,0,0:0:0:0:
312,48,241406,1,0,0:0:0:0:
360,27,241476,5,0,0:0:0:0:
251,359,241615,1,0,0:0:0:0:
144,27,241755,1,0,0:0:0:0:
425,232,241894,1,0,0:0:0:0:
78,232,242034,1,0,0:0:0:0:
365,0,242173,5,0,0:0:0:0:
55,249,242313,1,0,0:0:0:0:
450,229,242453,1,0,0:0:0:0:
119,12,242592,1,0,0:0:0:0:
262,384,242732,1,0,0:0:0:0:
