osu file format v14

[General]
AudioFilename: audio.mp3
AudioLeadIn: 0
PreviewTime: 2084
Countdown: 0
SampleSet: Soft
StackLeniency: 0.3
Mode: 0
LetterboxInBreaks: 0
WidescreenStoryboard: 1

[Editor]
DistanceSpacing: 1
BeatDivisor: 4
GridSize: 8
TimelineZoom: 1

[Metadata]
Title:Death is just the beginning
TitleUnicode:Death is just the beginning
Artist:UNDEAD CORPORATION
ArtistUnicode:UNDEAD CORPORATION
Creator:fieryrage
Version:extra
Source:東方神霊廟 ~ Ten Desires.
Tags:osu! fa featured artist mappers' guild 東方project touhou project team shanghai alice 宮古 芳香 td shinreibyou divine spirit mausoleum th13 th 13 uc リジッドパラダイス rigid paradise stage 3 theme 宮古芳香 yoshika miyako zun パインツリー pinetree toho complete box red 私はもう死んでいる? watashi wa mou shinde iru? i'm already dead? instrumental video game music
BeatmapID:2635267
BeatmapSetID:1160488

[Difficulty]
HPDrainRate:4.5
CircleSize:7.5
OverallDifficulty:7.5
ApproachRate:8
SliderMultiplier:1.3
SliderTickRate:1

[Events]
//Background and Video events
0,0,"the beginning of the new flesh.jpg",0,0
//Break Periods
//Storyboard Layer 0 (Background)
//Storyboard Layer 1 (Fail)
//Storyboard Layer 2 (Pass)
//Storyboard Layer 3 (Foreground)
//Storyboard Layer 4 (Overlay)
//Storyboard Sound Samples

[TimingPoints]
2209,500,4,2,1,30,1,0
2334,-100,4,2,2,5,0,0
2459,-100,4,2,1,30,0,0
4584,-100,4,2,2,5,0,0
4709,-100,4,2,1,30,0,0
6334,-100,4,2,2,5,0,0
6459,-100,4,2,1,30,0,0
8209,-500,4,2,1,30,0,0
10209,-100,4,2,1,30,0,0
10334,-100,4,2,2,5,0,0
10459,-100,4,2,1,30,0,0
12584,-100,4,2,2,5,0,0
12709,-100,4,2,1,30,0,0
14334,-100,4,2,2,5,0,0
14459,-100,4,2,1,30,0,0
16209,-500,4,2,1,30,0,0
18209,-100,4,2,1,30,0,0
18334,-100,4,2,2,5,0,0
18459,-100,4,2,1,30,0,0
21084,-100,4,2,2,5,0,0
21209,-100,4,2,1,30,0,0
22334,-100,4,2,2,5,0,0
22459,-100,4,2,1,30,0,0
24209,-500,4,2,1,30,0,0
26209,-100,4,2,1,30,0,0
26334,-100,4,2,2,5,0,0
26459,-100,4,2,1,30,0,0
28584,-100,4,2,2,5,0,0
28709,-100,4,2,1,30,0,0
29084,-100,4,2,2,5,0,0
29209,-100,4,2,1,30,0,0
30334,-100,4,2,2,5,0,0
30459,-100,4,2,1,30,0,0
32209,-500,4,2,1,30,0,0
34209,-100,4,2,1,30,0,0
34334,-100,4,2,2,5,0,0
34459,-100,4,2,1,30,0,0
35334,-100,4,2,2,5,0,0
35459,-100,4,2,1,30,0,0
35834,-100,4,2,2,5,0,0
35959,-100,4,2,1,30,0,0
38209,-83.3333333333333,4,2,1,30,0,0
38334,-83.3333333333333,4,2,2,5,0,0
38459,-83.3333333333333,4,2,1,30,0,0
39334,-83.3333333333333,4,2,2,5,0,0
39459,-83.3333333333333,4,2,1,30,0,0
40209,-333.333333333333,4,2,1,30,0,0
42209,-83.3333333333333,4,2,1,30,0,0
42334,-83.3333333333333,4,2,2,5,0,0
42459,-83.3333333333333,4,2,1,30,0,0
44834,-100,4,2,1,30,0,0
45209,-83.3333333333333,4,2,1,30,0,0
46084,-83.3333333333333,4,2,2,5,0,0
46209,-83.3333333333333,4,2,1,30,0,0
46834,-83.3333333333333,4,2,2,5,0,0
46959,-83.3333333333333,4,2,1,30,0,0
50209,-83.3333333333333,4,2,2,5,0,0
50375,-66.6666666666667,4,2,1,30,0,0
50459,-66.6666666666667,4,2,2,5,0,0
51167,-250,4,2,1,20,0,0
51542,-250,4,2,1,30,0,0

[Colours]
Combo1 : 142,111,168
Combo2 : 202,53,53
Combo3 : 135,88,88
Combo4 : 95,205,191
Combo5 : 65,97,171

[HitObjects]
97,154,2209,6,0,L|94:201,1,32.5,2|0,0:0|0:0,0:0:0:0:
116,206,2459,2,0,L|119:281,1,65,2|0,0:0|0:0,0:0:0:0:
227,327,2959,1,2,0:0:0:0:
63,384,3459,1,2,0:0:0:0:
236,324,3959,1,0,0:0:0:0:
286,260,4209,6,0,B|349:246|320:274|384:257,1,97.5,2|0,0:0|0:0,0:0:0:0:
389,179,4709,2,0,P|383:217|390:246,1,65,2|0,0:0|0:0,0:0:0:0:
469,310,5209,2,0,P|475:272|468:243,1,65,2|0,0:0|0:0,0:0:0:0:
499,157,5709,1,2,0:0:0:0:
260,104,6209,6,0,L|210:108,1,32.5,2|0,0:0|0:0,0:0:0:0:
202,120,6459,2,0,L|124:117,1,65,2|0,0:0|0:0,0:0:0:0:
32,61,6959,1,2,0:0:0:0:
113,258,7459,1,2,0:0:0:0:
260,104,7959,1,2,0:0:0:0:
314,140,8209,6,0,L|317:171,2,26,0|0|2,0:0|0:0|0:0,0:0:0:0:
313,132,9709,1,0,0:0:0:0:
244,272,10209,6,0,P|240:292|245:317,1,32.5,2|0,0:0|0:0,0:0:0:0:
305,320,10459,2,0,P|269:329|231:317,1,65,2|0,0:0|0:0,0:0:0:0:
162,248,10959,1,2,0:0:0:0:
308,185,11459,1,2,0:0:0:0:
401,313,11959,1,0,0:0:0:0:
450,270,12209,6,0,B|469:213|433:228|454:170,1,97.5,2|0,0:0|0:0,0:0:0:0:
461,103,12709,2,0,L|465:174,1,65,2|0,0:0|0:0,0:0:0:0:
401,71,13209,2,0,L|397:142,1,65,2|0,0:0|0:0,0:0:0:0:
341,233,13709,1,2,0:0:0:0:
128,308,14209,6,0,P|124:293|126:266,1,32.5,2|0,0:0|0:0,0:0:0:0:
64,258,14459,2,0,P|95:249|127:257,1,65,2|0,0:0|0:0,0:0:0:0:
273,343,14959,1,2,0:0:0:0:
205,139,15459,1,2,0:0:0:0:
96,324,15959,1,2,0:0:0:0:
40,288,16209,6,0,L|12:286,2,26,0|0|2,0:0|0:0|0:0,0:0:0:0:
48,288,17709,1,0,0:0:0:0:
150,166,18209,6,0,L|155:128,1,32.5,2|0,0:0|0:0,0:0:0:0:
149,54,18459,2,0,L|156:127,1,65,2|0,0:0|0:0,0:0:0:0:
225,211,18959,2,0,P|235:240|230:288,1,65,2|0,0:0|0:0,0:0:0:0:
267,99,19459,2,0,P|257:70|262:22,1,65,2|0,0:0|0:0,0:0:0:0:
323,111,19959,1,0,0:0:0:0:
369,248,20209,5,2,0:0:0:0:
225,211,20709,2,0,B|185:208|185:208|171:218|171:218|123:214,1,97.5,2|0,0:0|0:0,0:0:0:0:
48,220,21209,2,0,L|125:214,1,65,2|0,0:0|0:0,0:0:0:0:
185,320,21709,2,0,L|108:314,1,65,2|0,0:0|0:0,0:0:0:0:
304,177,22209,6,0,P|312:161|314:143,1,32.5,2|0,0:0|0:0,0:0:0:0:
299,70,22459,2,0,P|314:111|315:140,1,65,2|0,0:0|0:0,0:0:0:0:
357,223,22959,2,0,P|386:232|423:228,1,65,2|0,0:0|0:0,0:0:0:0:
257,210,23459,2,0,P|228:222|195:254,1,65,2|0,0:0|0:0,0:0:0:0:
299,70,23959,1,2,0:0:0:0:
364,84,24209,6,0,L|394:82,2,26,0|0|2,0:0|0:0|0:0,0:0:0:0:
356,85,25709,1,0,0:0:0:0:
122,136,26209,6,0,L|118:182,1,32.5,2|0,0:0|0:0,0:0:0:0:
113,251,26459,2,0,L|107:176,1,65,2|0,0:0|0:0,0:0:0:0:
90,73,26959,1,2,0:0:0:0:
89,66,27209,1,0,0:0:0:0:
50,141,27459,2,0,L|44:205,1,65,2|0,0:0|0:0,0:0:0:0:
32,315,27959,1,0,0:0:0:0:
170,263,28209,6,0,B|203:259|203:259|219:265|219:265|271:260,1,97.5,2|0,0:0|0:0,0:0:0:0:
298,299,28709,2,0,B|314:270|314:270|303:199,1,97.5,2|0,0:0|0:0,0:0:0:0:
306,125,29209,2,0,L|303:199,1,65,2|0,0:0|0:0,0:0:0:0:
395,243,29709,2,0,L|392:178,1,65,2|0,0:0|0:0,0:0:0:0:
252,248,30209,6,0,L|208:245,1,32.5,2|0,0:0|0:0,0:0:0:0:
136,256,30459,2,0,L|211:250,1,65,2|0,0:0|0:0,0:0:0:0:
290,179,30959,1,2,0:0:0:0:
295,175,31209,1,0,0:0:0:0:
271,264,31459,2,0,P|271:305|281:327,1,65,2|0,0:0|0:0,0:0:0:0:
223,155,31959,1,2,0:0:0:0:
159,172,32209,6,0,L|131:171,2,26,0|0|2,0:0|0:0|0:0,0:0:0:0:
167,172,33709,1,0,0:0:0:0:
310,77,34209,6,0,P|314:94|314:117,1,32.5,2|0,0:0|0:0,0:0:0:0:
309,193,34459,2,0,P|305:158|311:123,1,65,2|0,0:0|0:0,0:0:0:0:
421,45,34959,2,0,B|431:44|431:44|443:46|443:46|454:44|454:44|489:53|494:94,1,97.5,2|0,0:0|0:0,0:0:0:0:
460,133,35459,2,0,B|452:146|452:146|446:144|446:144|443:151|443:151|434:159|434:159|423:186|435:216,1,97.5,2|0,0:0|0:0,0:0:0:0:
466,260,35959,1,0,0:0:0:0:
309,193,36209,6,0,B|298:184|283:187|283:187|270:184|258:191|258:191|247:190|240:200|240:200|222:191|202:202|202:202|222:212,2,130,2|2|2,0:0|0:0|0:0,0:0:0:0:
129,262,37709,5,2,0:0:0:0:
122,271,37834,2,0,B|116:284|116:284|116:294|116:294|111:307,2,32.5,0|0|0,0:0|0:0|0:0,0:0:0:0:
93,218,38209,6,0,B|89:207|89:207|88:199|87:199|84:192|84:192|84:173,1,38.9999988098145,2|0,0:0|0:0,0:0:0:0:
115,130,38459,2,0,B|105:120|85:123|85:123|78:128|56:125|56:125|52:133|36:136,1,77.999997619629,2|0,0:0|0:0,0:0:0:0:
208,77,38959,2,0,B|218:68|218:68|231:76|217:85|225:93|225:93|229:104|220:108|220:108|217:146|241:130|235:161|235:161|235:161|235:161,1,116.999996429443,2|0,0:0|0:0,0:0:0:0:
243,214,39459,1,2,0:0:0:0:
353,40,39959,1,2,0:0:0:0:
422,89,40209,6,0,B|426:102|426:102|428:109|428:109|426:119|426:119|427:130,2,38.9999988098145,2|0|2,0:0|0:0|0:0,0:0:0:0:
422,78,41709,1,0,0:0:0:0:
363,214,42209,6,0,B|359:226|359:226|359:229|359:229|356:231|356:231|352:242|358:251,1,38.9999988098145,2|0,0:0|0:0,0:0:0:0:
398,294,42459,2,0,B|380:303|380:303|374:302|374:302|363:304|363:304|345:310|321:300,1,77.999997619629,2|0,0:0|0:0,0:0:0:0:
216,235,42959,2,0,B|217:244|209:251|209:251|210:264|210:264|207:275|207:275|216:287|215:299|215:299|202:311|207:323|207:323|215:329|214:353|214:353|230:339|232:317,2,155.999995239258,2|2|0,0:0|0:0|0:0,0:0:0:0:
179,108,44209,1,2,0:0:0:0:
72,222,44709,5,2,0:0:0:0:
62,227,44834,2,0,B|46:232|46:232|44:230|44:229|37:233|25:231,2,32.5,0|0|0,0:0|0:0|0:0,0:0:0:0:
107,266,45209,2,0,B|102:273|110:281|110:281|105:289|105:289|109:303|109:303|111:317|106:345,1,77.999997619629,2|0,0:0|0:0,0:0:0:0:
153,197,45709,2,0,B|161:186|171:187|171:187|179:188|179:188|183:184|183:184|187:188|192:184|192:184|213:176|231:187,1,77.999997619629,2|0,0:0|0:0,0:0:0:0:
340,264,46209,5,2,0:0:0:0:
395,200,46459,2,0,B|403:186|397:174|397:174|400:167|400:167|404:163|404:163|405:157|405:157|404:144|410:136|410:136|401:124|404:111|404:111|405:97|399:88,1,116.999996429443,2|0,0:0|0:0,0:0:0:0:
388,41,46959,1,2,0:0:0:0:
512,228,47209,1,2,0:0:0:0:
256,192,47292,12,0,50209,0:0:0:0:
512,228,50375,6,0,B|498:227|489:239|489:239|480:234|480:234|476:239|476:239|456:230|456:230|435:242|435:242|411:239|395:217|395:217|361:211|340:226|340:226|311:201|279:204,1,260.000009918213,6|0,0:0|0:0,0:0:0:0:
346,168,51167,6,0,B|349:156|349:156|346:146|346:146|348:128,1,39,0|2,3:0|0:3,0:0:0:0:
