osu file format v14

[General]
AudioFilename: audio.mp3
AudioLeadIn: 0
PreviewTime: 2084
Countdown: 0
SampleSet: Soft
StackLeniency: 0.8
Mode: 0
LetterboxInBreaks: 0
WidescreenStoryboard: 1

[Editor]
DistanceSpacing: 1
BeatDivisor: 4
GridSize: 8
TimelineZoom: 1

[Metadata]
Title:Death is just the beginning
TitleUnicode:Death is just the beginning
Artist:UNDEAD CORPORATION
ArtistUnicode:UNDEAD CORPORATION
Creator:fieryrage
Version:easy
Source:東方神霊廟 ~ Ten Desires.
Tags:osu! fa featured artist mappers' guild 東方project touhou project team shanghai alice 宮古 芳香 td shinreibyou divine spirit mausoleum th13 th 13 uc リジッドパラダイス rigid paradise stage 3 theme 宮古芳香 yoshika miyako zun パインツリー pinetree toho complete box red 私はもう死んでいる? watashi wa mou shinde iru? i'm already dead? instrumental video game music
BeatmapID:2421268
BeatmapSetID:1160488

[Difficulty]
HPDrainRate:2
CircleSize:2
OverallDifficulty:3
ApproachRate:3
SliderMultiplier:1
SliderTickRate:1

[Events]
//Background and Video events
0,0,"the beginning of the new flesh.jpg",0,0
//Break Periods
//Storyboard Layer 0 (Background)
//Storyboard Layer 1 (Fail)
//Storyboard Layer 2 (Pass)
//Storyboard Layer 3 (Foreground)
//Storyboard Layer 4 (Overlay)
//Storyboard Sound Samples

[TimingPoints]
2209,500,4,2,1,30,1,0

[Colours]
Combo1 : 142,111,168
Combo2 : 202,53,53
Combo3 : 135,88,88
Combo4 : 95,205,191
Combo5 : 65,97,171

[HitObjects]
80,67,2209,6,0,L|77:136,1,50,2|2,0:0|0:0,0:0:0:0:
75,217,2959,2,0,L|70:338,2,100,2|2|0,0:0|0:0|0:0,0:0:0:0:
117,190,4209,2,0,P|177:175|230:186,1,100,2|2,0:0|0:0,0:0:0:0:
295,238,5209,1,2,0:0:0:0:
388,203,5709,1,2,0:0:0:0:
484,230,6209,6,0,L|488:292,1,50,2|2,0:0|0:0,0:0:0:0:
424,358,6959,2,0,P|370:367|322:346,1,100,2|2,0:0|0:0,0:0:0:0:
254,284,7959,2,0,P|228:278|198:281,1,50,2|0,0:0|0:0,0:0:0:0:
122,336,8709,2,0,P|110:310|116:233,1,100,0|2,0:0|0:0,0:0:0:0:
152,147,9709,1,0,0:0:0:0:
111,55,10209,6,0,P|140:47|174:48,1,50,2|2,0:0|0:0,0:0:0:0:
252,84,10959,2,0,P|308:82|360:60,2,100,2|2|0,0:0|0:0|0:0,0:0:0:0:
213,116,12209,1,2,0:0:0:0:
175,208,12709,1,2,0:0:0:0:
228,292,13209,2,0,L|332:288,1,100,2|2,0:0|0:0,0:0:0:0:
427,282,14209,6,0,L|431:224,1,50,2|2,0:0|0:0,0:0:0:0:
437,132,14959,2,0,L|442:26,2,100,2|2|2,0:0|0:0|0:0,0:0:0:0:
388,145,16209,1,0,0:0:0:0:
299,190,16709,1,0,0:0:0:0:
210,144,17209,1,2,0:0:0:0:
111,128,17709,1,0,0:0:0:0:
35,193,18209,6,0,P|30:218|32:257,1,50,2|2,0:0|0:0,0:0:0:0:
89,322,18959,2,0,P|137:326|195:306,1,100,2|2,0:0|0:0,0:0:0:0:
267,253,19959,2,0,L|320:251,1,50,0|2,0:0|0:0,0:0:0:0:
409,212,20709,1,2,0:0:0:0:
463,128,21209,1,2,0:0:0:0:
441,30,21709,1,2,0:0:0:0:
364,94,22209,6,0,L|293:91,1,50,2|2,0:0|0:0,0:0:0:0:
215,112,22959,2,0,L|103:117,2,100,2|2|2,0:0|0:0|0:0,0:0:0:0:
255,140,24209,1,0,0:0:0:0:
293,232,24709,2,0,P|300:273|293:333,2,100,0|2|0,0:0|0:0|0:0,0:0:0:0:
255,140,26209,6,0,L|192:138,1,50,2|2,0:0|0:0,0:0:0:0:
106,156,26959,2,0,P|84:203|80:257,2,100,2|2|0,0:0|0:0|0:0,0:0:0:0:
105,106,28209,1,2,0:0:0:0:
191,56,28709,1,2,0:0:0:0:
287,81,29209,2,0,P|330:85|389:62,1,100,2|2,0:0|0:0,0:0:0:0:
474,106,30209,6,0,L|470:173,1,50,2|2,0:0|0:0,0:0:0:0:
462,255,30959,2,0,L|453:364,1,100,2|2,0:0|0:0,0:0:0:0:
360,318,31959,2,0,P|335:312|300:315,1,50,2|0,0:0|0:0,0:0:0:0:
214,339,32709,1,0,0:0:0:0:
115,321,33209,1,2,0:0:0:0:
43,250,33709,1,0,0:0:0:0:
57,151,34209,6,0,L|60:79,1,50,2|2,0:0|0:0,0:0:0:0:
128,29,34959,2,0,P|191:12|247:25,1,100,2|2,0:0|0:0,0:0:0:0:
305,76,35959,2,0,P|330:80|358:75,1,50,0|2,0:0|0:0,0:0:0:0:
448,42,36709,1,2,0:0:0:0:
436,141,37209,2,0,P|431:192|442:245,1,100,2|2,0:0|0:0,0:0:0:0:
401,331,38209,6,0,B|386:340|360:340|332:330,1,50,2|2,0:0|0:0,0:0:0:0:
259,298,38959,2,0,B|225:293|187:300|187:300|142:292,2,100,2|2|2,0:0|0:0|0:0,0:0:0:0:
292,260,40209,2,0,B|299:227|299:227|302:183|289:141,1,100,2|0,0:0|0:0,0:0:0:0:
230,83,41209,2,0,B|183:67|147:69|117:82,1,100,2|0,0:0|0:0,0:0:0:0:
53,138,42209,6,0,B|48:172|44:177|48:203,1,50,2|2,0:0|0:0,0:0:0:0:
110,263,42959,2,0,B|138:268|175:257|175:257|210:261|226:261,1,100,2|2,0:0|0:0,0:0:0:0:
306,239,43959,2,0,B|326:229|351:236|369:241,1,50,0|2,0:0|0:0,0:0:0:0:
437,294,44709,1,2,0:0:0:0:
471,200,45209,2,0,B|481:181|475:155|475:155|476:150|476:150|463:129|456:115|459:85,1,100,2|2,0:0|0:0,0:0:0:0:
256,192,46209,12,6,50375,0:0:0:0:
