osu file format v14

[General]
AudioFilename: audio.mp3
AudioLeadIn: 0
PreviewTime: 2083
Countdown: 0
SampleSet: Soft
StackLeniency: 0.7
Mode: 3
LetterboxInBreaks: 0
SpecialStyle: 0
WidescreenStoryboard: 0

[Editor]
Bookmarks: 18146,26146,34146,42146,50146
DistanceSpacing: 1.2
BeatDivisor: 4
GridSize: 4
TimelineZoom: 1.1

[Metadata]
Title:Death is just the beginning
TitleUnicode:Death is just the beginning
Artist:UNDEAD CORPORATION
ArtistUnicode:UNDEAD CORPORATION
Creator:FAMoss
Version:4K Hard
Source:東方神霊廟 ~ Ten Desires.
Tags:osu! featured artist fa mappers' guild mg zun 東方project touhou project team shanghai alice 宮古 芳香 td shinreibyou divine spirit mausoleum th13 th 13 リジッドパラダイス rigid paradise stage 3 theme 宮古芳香 yoshika miyako パインツリー pinetree toho complete box red 私はもう死んでいる? watashi wa mou shinde iru? i'm already dead? instrumental video game music piano video game noise
BeatmapID:2705187
BeatmapSetID:1304620

[Difficulty]
HPDrainRate:8
CircleSize:4
OverallDifficulty:8
ApproachRate:5
SliderMultiplier:1.4
SliderTickRate:1

[Events]
//Background and Video events
0,0,"Seiga Yoshika 476.jpg",0,0
//Break Periods
//Storyboard Layer 0 (Background)
//Storyboard Layer 1 (Fail)
//Storyboard Layer 2 (Pass)
//Storyboard Layer 3 (Foreground)
//Storyboard Layer 4 (Overlay)
//Storyboard Sound Samples
Sample,46396,0,"G#8S_Ab8S_s.wav",30

[TimingPoints]
2146,500,4,2,1,20,1,0

[HitObjects]
320,192,2146,5,0,0:0:0:30:A#7S_Bb7S_s.wav
448,192,2146,1,0,0:0:0:30:F#5S_Gb5S.wav
320,192,2396,1,0,0:0:0:30:A#7S_Bb7S_s.wav
192,192,2646,1,0,0:0:0:30:C#6S_Db6S_s.wav
448,192,2896,128,0,3146:0:0:0:30:F8S_s.wav
64,192,3146,1,0,0:0:0:30:F#6S_Gb6S_s.wav
320,192,3396,128,0,3646:0:0:0:30:D#8S_Eb8S_s.wav
64,192,3646,1,0,0:0:0:30:C#6S_Db6S_s.wav
192,192,3896,128,0,4146:0:0:0:30:C#8S_Db8S_s.wav
448,192,4146,1,0,0:0:0:30:G#5S_Ab5S.wav
64,192,4146,128,0,4646:0:0:0:30:C8S_s.wav
320,192,4646,1,0,0:0:0:30:G#7S_Ab7S_s.wav
64,192,5146,1,0,0:0:0:30:F7S_s.wav
448,192,5146,128,0,5646:0:0:0:30:G#6S_Ab6S_s.wav
192,192,5646,1,0,0:0:0:30:G#7S_Ab7S_s.wav
320,192,6146,1,0,0:0:0:30:A#7S_Bb7S_s.wav
448,192,6146,1,0,0:0:0:30:A#5S_Bb5S.wav
320,192,6396,1,0,0:0:0:30:A#7S_Bb7S_s.wav
192,192,6646,1,0,0:0:0:30:F6S_s.wav
448,192,6896,128,0,7146:0:0:0:30:F8S_s.wav
64,192,7146,1,0,0:0:0:30:A#6S_Bb6S_s.wav
320,192,7396,128,0,7646:0:0:0:30:D#8S_Eb8S_s.wav
448,192,7646,1,0,0:0:0:30:F6S_s.wav
64,192,7896,128,0,8146:0:0:0:48:G#8S_Ab8S_s.wav
320,192,8146,1,0,0:0:0:30:A#7S_Bb7S_s.wav
448,192,8146,128,0,8646:0:0:0:30:A#5S_Bb5S.wav
192,192,8646,1,0,0:0:0:30:F6S_s.wav
448,192,9146,1,0,0:0:0:0:
64,192,9146,128,0,9646:0:0:0:30:A#6S_Bb6S_s.wav
320,192,9646,1,0,0:0:0:30:F6S_s.wav
64,192,10146,1,0,0:0:0:30:A#7S_Bb7S_s.wav
192,192,10146,1,0,0:0:0:30:F#5S_Gb5S.wav
192,192,10396,1,0,0:0:0:30:A#7S_Bb7S_s.wav
320,192,10646,1,0,0:0:0:30:C#6S_Db6S_s.wav
64,192,10896,128,0,11146:0:0:0:30:F8S_s.wav
448,192,11146,1,0,0:0:0:30:F#6S_Gb6S_s.wav
192,192,11396,128,0,11646:0:0:0:30:D#8S_Eb8S_s.wav
448,192,11646,1,0,0:0:0:30:C#6S_Db6S_s.wav
320,192,11896,128,0,12146:0:0:0:30:C#8S_Db8S_s.wav
64,192,12146,1,0,0:0:0:30:C8S_s.wav
448,192,12146,128,0,12646:0:0:0:30:G#5S_Ab5S.wav
192,192,12646,1,0,0:0:0:30:G#7S_Ab7S_s.wav
448,192,13146,1,0,0:0:0:30:G#6S_Ab6S_s.wav
64,192,13146,128,0,13646:0:0:0:30:F7S_s.wav
320,192,13646,1,0,0:0:0:30:G#7S_Ab7S_s.wav
64,192,14146,1,0,0:0:0:30:A#7S_Bb7S_s.wav
192,192,14146,1,0,0:0:0:30:A#5S_Bb5S.wav
192,192,14396,1,0,0:0:0:30:A#7S_Bb7S_s.wav
320,192,14646,1,0,0:0:0:30:F6S_s.wav
64,192,14896,128,0,15146:0:0:0:30:F8S_s.wav
448,192,15146,1,0,0:0:0:30:A#6S_Bb6S_s.wav
192,192,15396,128,0,15646:0:0:0:30:D#8S_Eb8S_s.wav
64,192,15646,1,0,0:0:0:30:F6S_s.wav
448,192,15896,128,0,16146:0:0:0:48:G#8S_Ab8S_s.wav
192,192,16146,1,0,0:0:0:30:A#5S_Bb5S.wav
64,192,16146,128,0,16646:0:0:0:30:A#7S_Bb7S_s.wav
320,192,16646,1,0,0:0:0:30:F6S_s.wav
64,192,17146,1,0,0:0:0:30:A#6S_Bb6S_s.wav
448,192,17146,128,0,17646:0:0:0:0:
192,192,17646,1,0,0:0:0:30:F6S_s.wav
320,192,18146,1,0,0:0:0:30:A#7S_Bb7S_s.wav
448,192,18146,1,0,0:0:0:30:F#5S_Gb5S.wav
320,192,18396,1,0,0:0:0:30:A#7S_Bb7S_s.wav
192,192,18646,1,0,0:0:0:30:C#6S_Db6S_s.wav
448,192,18896,128,0,19146:0:0:0:30:F8S_s.wav
64,192,19146,1,0,0:0:0:30:F#6S_Gb6S_s.wav
320,192,19396,128,0,19646:0:0:0:30:D#8S_Eb8S_s.wav
64,192,19646,1,0,0:0:0:30:C#6S_Db6S_s.wav
192,192,19896,128,0,20146:0:0:0:30:C#8S_Db8S_s.wav
64,192,20146,128,0,20646:0:0:0:30:C8S_s.wav
448,192,20146,1,0,0:0:0:30:G#5S_Ab5S.wav
320,192,20646,128,0,21146:0:0:0:30:G#7S_Ab7S_s.wav
448,192,20646,1,0,0:0:0:0:
64,192,21146,1,0,0:0:0:30:F7S_s.wav
448,192,21146,128,0,21646:0:0:0:30:G#6S_Ab6S_s.wav
64,192,21646,1,0,0:0:0:30:G#7S_Ab7S_s.wav
192,192,21646,128,0,22146:0:0:0:0:
320,192,22146,1,0,0:0:0:30:A#7S_Bb7S_s.wav
448,192,22146,1,0,0:0:0:30:A#5S_Bb5S.wav
320,192,22396,1,0,0:0:0:30:A#7S_Bb7S_s.wav
192,192,22646,1,0,0:0:0:30:F6S_s.wav
448,192,22896,128,0,23146:0:0:0:30:F8S_s.wav
64,192,23146,1,0,0:0:0:30:A#6S_Bb6S_s.wav
320,192,23396,128,0,23646:0:0:0:30:D#8S_Eb8S_s.wav
448,192,23646,1,0,0:0:0:30:F6S_s.wav
64,192,23896,128,0,24146:0:0:0:48:G#8S_Ab8S_s.wav
320,192,24146,1,0,0:0:0:30:A#7S_Bb7S_s.wav
448,192,24146,128,0,24646:0:0:0:30:A#5S_Bb5S.wav
64,192,24646,1,0,0:0:0:30:F6S_s.wav
320,192,24646,128,0,25146:0:0:0:0:
64,192,25146,128,0,25646:0:0:0:30:A#6S_Bb6S_s.wav
448,192,25146,1,0,0:0:0:0:
192,192,25646,1,0,0:0:0:30:F6S_s.wav
448,192,25646,128,0,26146:0:0:0:0:
64,192,26146,1,0,0:0:0:30:A#7S_Bb7S_s.wav
192,192,26146,1,0,0:0:0:30:F#5S_Gb5S.wav
192,192,26396,1,0,0:0:0:30:A#7S_Bb7S_s.wav
448,192,26396,1,0,0:0:0:0:
320,192,26646,1,0,0:0:0:30:C#6S_Db6S_s.wav
64,192,26896,128,0,27146:0:0:0:30:F8S_s.wav
192,192,26896,1,0,0:0:0:0:
448,192,27146,1,0,0:0:0:30:F#6S_Gb6S_s.wav
192,192,27396,128,0,27646:0:0:0:30:D#8S_Eb8S_s.wav
320,192,27396,1,0,0:0:0:0:
448,192,27646,1,0,0:0:0:30:C#6S_Db6S_s.wav
64,192,27896,1,0,0:0:0:30:C#8S_Db8S_s.wav
320,192,27896,128,0,28146:0:0:0:0:
192,192,28146,1,0,0:0:0:30:C8S_s.wav
448,192,28146,128,0,28646:0:0:0:30:G#5S_Ab5S.wav
64,192,28646,1,0,0:0:0:30:G#7S_Ab7S_s.wav
192,192,28646,128,0,29146:0:0:0:0:
64,192,29146,128,0,29646:0:0:0:30:F7S_s.wav
448,192,29146,1,0,0:0:0:30:G#6S_Ab6S_s.wav
320,192,29646,128,0,30146:0:0:0:30:G#7S_Ab7S_s.wav
448,192,29646,1,0,0:0:0:0:
64,192,30146,1,0,0:0:0:30:A#7S_Bb7S_s.wav
192,192,30146,1,0,0:0:0:30:A#5S_Bb5S.wav
192,192,30396,1,0,0:0:0:30:A#7S_Bb7S_s.wav
448,192,30396,1,0,0:0:0:0:
320,192,30646,1,0,0:0:0:30:F6S_s.wav
64,192,30896,128,0,31146:0:0:0:30:F8S_s.wav
192,192,30896,1,0,0:0:0:0:
448,192,31146,1,0,0:0:0:30:A#6S_Bb6S_s.wav
192,192,31396,128,0,31646:0:0:0:30:D#8S_Eb8S_s.wav
320,192,31396,1,0,0:0:0:0:
64,192,31646,1,0,0:0:0:30:F6S_s.wav
192,192,31896,1,0,0:0:0:48:G#8S_Ab8S_s.wav
448,192,31896,128,0,32146:0:0:0:0:
64,192,32146,128,0,32646:0:0:0:30:A#7S_Bb7S_s.wav
320,192,32146,1,0,0:0:0:30:A#5S_Bb5S.wav
192,192,32646,128,0,33146:0:0:0:30:F6S_s.wav
448,192,32646,1,0,0:0:0:0:
64,192,33146,1,0,0:0:0:30:A#6S_Bb6S_s.wav
448,192,33146,128,0,33646:0:0:0:0:
64,192,33646,128,0,34146:0:0:0:30:F6S_s.wav
320,192,33646,1,0,0:0:0:0:
320,192,34146,1,0,0:0:0:30:A#7S_Bb7S_s.wav
448,192,34146,1,0,0:0:0:30:F#5S_Gb5S.wav
64,192,34396,1,0,0:0:0:30:A#7S_Bb7S_s.wav
320,192,34396,1,0,0:0:0:0:
192,192,34646,1,0,0:0:0:30:C#6S_Db6S_s.wav
320,192,34896,1,0,0:0:0:30:F8S_s.wav
448,192,34896,128,0,35146:0:0:0:0:
64,192,35146,1,0,0:0:0:30:F#6S_Gb6S_s.wav
192,192,35396,1,0,0:0:0:30:D#8S_Eb8S_s.wav
320,192,35396,128,0,35646:0:0:0:0:
64,192,35646,1,0,0:0:0:30:C#6S_Db6S_s.wav
192,192,35896,128,0,36146:0:0:0:30:C#8S_Db8S_s.wav
448,192,35896,1,0,0:0:0:0:
64,192,36146,128,0,36646:0:0:0:30:C8S_s.wav
320,192,36146,1,0,0:0:0:30:G#5S_Ab5S.wav
320,192,36646,128,0,37146:0:0:0:30:G#7S_Ab7S_s.wav
448,192,36646,128,0,36896:0:0:0:0:
64,192,37146,1,0,0:0:0:30:F7S_s.wav
448,192,37146,128,0,37646:0:0:0:30:G#6S_Ab6S_s.wav
192,192,37396,1,0,0:0:0:30:B8S.wav
64,192,37646,128,0,38146:0:0:0:30:G#7S_Ab7S_s.wav
320,192,37646,128,0,37896:0:0:0:0:
320,192,38146,1,0,0:0:0:30:A#7S_Bb7S_s.wav
448,192,38146,1,0,0:0:0:30:A#5S_Bb5S.wav
64,192,38396,1,0,0:0:0:30:A#7S_Bb7S_s.wav
320,192,38396,1,0,0:0:0:0:
192,192,38646,1,0,0:0:0:30:F6S_s.wav
320,192,38896,1,0,0:0:0:30:F8S_s.wav
448,192,38896,128,0,39146:0:0:0:30:G#8S_Ab8S_s.wav
64,192,39146,1,0,0:0:0:30:A#6S_Bb6S_s.wav
192,192,39396,1,0,0:0:0:30:D#8S_Eb8S_s.wav
320,192,39396,128,0,39646:0:0:0:0:
448,192,39646,1,0,0:0:0:30:F6S_s.wav
64,192,39896,128,0,40146:0:0:0:48:G#8S_Ab8S_s.wav
192,192,39896,1,0,0:0:0:0:
320,192,40146,128,0,40396:0:0:0:30:A#7S_Bb7S_s.wav
448,192,40146,128,0,40646:0:0:0:30:A#5S_Bb5S.wav
64,192,40646,128,0,40896:0:0:0:30:F6S_s.wav
320,192,40646,128,0,41146:0:0:0:0:
64,192,41146,128,0,41646:0:0:0:30:A#6S_Bb6S_s.wav
448,192,41146,128,0,41396:0:0:0:0:
192,192,41646,128,0,41896:0:0:0:30:F6S_s.wav
448,192,41646,128,0,42146:0:0:0:0:
64,192,42146,1,0,0:0:0:30:A#7S_Bb7S_s.wav
192,192,42146,1,0,0:0:0:30:F#5S_Gb5S.wav
192,192,42396,1,0,0:0:0:30:A#7S_Bb7S_s.wav
320,192,42646,1,0,0:0:0:30:C#6S_Db6S_s.wav
64,192,42896,128,0,43146:0:0:0:30:F8S_s.wav
192,192,42896,1,0,0:0:0:0:
448,192,43146,1,0,0:0:0:30:F#6S_Gb6S_s.wav
192,192,43396,128,0,43646:0:0:0:30:D#8S_Eb8S_s.wav
320,192,43396,1,0,0:0:0:0:
448,192,43646,1,0,0:0:0:30:C#6S_Db6S_s.wav
320,192,43896,128,0,44146:0:0:0:30:C#8S_Db8S_s.wav
192,192,43896,1,0,0:0:0:0:
64,192,44146,1,0,0:0:0:30:C8S_s.wav
448,192,44146,128,0,44646:0:0:0:30:G#5S_Ab5S.wav
320,192,44396,1,0,0:0:0:30:G#8S_Ab8S_s.wav
64,192,44646,1,0,0:0:0:30:G#7S_Ab7S_s.wav
192,192,44646,128,0,45146:0:0:0:0:
64,192,45146,128,0,45646:0:0:0:30:F7S_s.wav
448,192,45146,1,0,0:0:0:30:G#6S_Ab6S_s.wav
320,192,45646,1,0,0:0:0:30:G#7S_Ab7S_s.wav
448,192,45646,128,0,46146:0:0:0:0:
64,192,46146,1,0,0:0:0:30:A#7S_Bb7S_s.wav
192,192,46146,1,0,0:0:0:30:A#5S_Bb5S.wav
64,192,46396,128,0,46646:0:0:0:30:A#7S_Bb7S_s.wav
320,192,46396,1,0,0:0:0:0:
448,192,46646,1,0,0:0:0:30:F6S_s.wav
192,192,46896,128,0,47146:0:0:0:30:F8S_s.wav
320,192,46896,1,0,0:0:0:0:
64,192,47146,1,0,0:0:0:30:A#6S_Bb6S_s.wav
320,192,47396,128,0,47646:0:0:0:30:D#8S_Eb8S_s.wav
192,192,47396,1,0,0:0:0:0:
64,192,47646,1,0,0:0:0:30:F6S_s.wav
320,192,47896,1,0,0:0:0:48:G#8S_Ab8S_s.wav
448,192,47896,128,0,48146:0:0:0:0:
64,192,48146,128,0,48646:0:0:0:30:A#7S_Bb7S_s.wav
192,192,48146,128,0,48396:0:0:0:30:A#5S_Bb5S.wav
192,192,48646,128,0,49146:0:0:0:30:F6S_s.wav
448,192,48646,128,0,48896:0:0:0:0:
320,192,49146,128,0,49396:0:0:0:30:A#6S_Bb6S_s.wav
448,192,49146,128,0,49646:0:0:0:0:
64,192,49646,128,0,49896:0:0:0:30:F6S_s.wav
320,192,49646,128,0,50062:0:0:0:0:
64,192,50062,1,0,0:0:0:30:A#6S_Bb6S_s.wav
192,192,50062,1,0,0:0:0:0:
