osu file format v14

[General]
AudioFilename: audio.mp3
AudioLeadIn: 0
PreviewTime: 92533
Countdown: 0
SampleSet: Soft
StackLeniency: 0.7
Mode: 0
LetterboxInBreaks: 0
WidescreenStoryboard: 1

[Editor]
Bookmarks: 10569,24283,32426,32533,32587,32640,32694,32747,32801,32854,32908,32962,33015,33069,33122,33176,33229,33283,37997,51712,58569,65212,65319,65426,65533,65640,65747,65854,65962,66069,66176,79140,85997,92854,99712,106569,107854,107962,108069,108176,108283,108390,108497,108604,108712,115140,128854,142569,156283,163140,168283,181676,181783,181997,182104,182212,182319,182426,188854,202569,209426,216283,223140
DistanceSpacing: 0.4
BeatDivisor: 8
GridSize: 32
TimelineZoom: 3.699998

[Metadata]
Title:Datura
TitleUnicode:Datura
Artist:UNDEAD CORPORATION
ArtistUnicode:UNDEAD CORPORATION
Creator:Seto Kousuke
Version:Sennafat's Extra
Source:osu!
Tags:English Rock metal featured artist fa mapper mappers mapper's mappers' guild pishifat pishi trynna senna
BeatmapID:2179889
BeatmapSetID:1020613

[Difficulty]
HPDrainRate:5
CircleSize:4
OverallDifficulty:9
ApproachRate:9.4
SliderMultiplier:2
SliderTickRate:1

[Events]
//Background and Video events
0,0,"abstract.jpg",0,0
//Break Periods
//Storyboard Layer 0 (Background)
//Storyboard Layer 1 (Fail)
//Storyboard Layer 2 (Pass)
//Storyboard Layer 3 (Foreground)
//Storyboard Layer 4 (Overlay)
//Storyboard Sound Samples

[TimingPoints]
3722,428.571428571429,4,2,1,60,1,0
3722,-50,4,2,1,60,0,0
10579,-83.3333333333333,4,2,1,75,0,0
11007,-55.5555555555556,4,2,1,75,0,0
12293,-83.3333333333333,4,2,1,75,0,0
12614,-55.5555555555556,4,2,1,75,0,0
14007,-83.3333333333333,4,2,1,75,0,0
14436,-55.5555555555556,4,2,1,75,0,0
15722,-83.3333333333333,4,2,1,75,0,0
16150,-55.5555555555556,4,2,1,75,0,0
16793,-41.6666666666667,4,2,1,75,0,0
17436,-83.3333333333333,4,2,1,75,0,0
17864,-55.5555555555556,4,2,1,75,0,0
19150,-83.3333333333333,4,2,1,75,0,0
19579,-55.5555555555556,4,2,1,75,0,0
20864,-83.3333333333333,4,2,1,75,0,0
23436,-55.5555555555556,4,2,1,75,0,0
24293,-83.3333333333333,4,2,1,60,0,0
24722,-55.5555555555556,4,2,1,60,0,0
25150,-83.3333333333333,4,2,1,60,0,0
26222,-55.5555555555556,4,2,1,60,0,0
26757,-83.3333333333333,4,2,1,60,0,0
27507,-125,4,2,1,60,0,0
28150,-55.5555555555556,4,2,1,60,0,0
28579,-83.3333333333333,4,2,1,60,0,0
29222,-41.6666666666667,4,2,1,60,0,0
29650,-55.5555555555556,4,2,1,60,0,0
30079,-83.3333333333333,4,2,1,60,0,0
30722,-55.5555555555556,4,2,1,60,0,0
30936,-41.6666666666667,4,2,1,60,0,0
31150,-83.3333333333333,4,2,1,60,0,0
31579,-55.5555555555556,4,2,1,60,0,0
32007,-83.3333333333333,4,2,1,60,0,0
32650,-55.5555555555556,4,2,1,60,0,0
33079,-83.3333333333333,4,2,1,60,0,0
34364,-55.5555555555556,4,2,1,60,0,0
34793,-83.3333333333333,4,2,1,60,0,0
40150,-133.333333333333,4,2,1,60,0,0
41114,-83.3333333333333,4,2,1,60,0,0
43150,-55.5555555555556,4,2,1,60,0,0
44864,-83.3333333333333,4,2,1,60,0,0
45293,-133.333333333333,4,2,1,60,0,0
46257,-83.3333333333333,4,2,1,60,0,0
51722,-55.5555555555556,4,2,1,75,0,1
65436,-100,4,2,1,40,0,0
66722,-100,4,2,1,60,0,0
67364,-55.5555555555556,4,2,1,60,0,0
68650,-133.333333333333,4,2,1,60,0,0
69722,-66.6666666666667,4,2,1,60,0,0
75507,-181.818181818181,4,2,1,60,0,0
76150,-66.6666666666667,4,2,1,60,0,0
92864,-83.3333333333333,4,2,1,60,0,0
99722,-83.3333333333333,4,2,1,75,0,0
99936,-50,4,2,1,75,0,1
105507,-66.6666666666667,4,2,1,75,0,1
106579,-66.6666666666667,4,2,1,60,0,0
108293,-66.6666666666667,4,2,1,40,0,0
110864,-66.6666666666667,4,2,1,60,0,0
113436,-333.333333333333,4,2,1,60,0,0
114614,-66.6666666666667,4,2,1,60,0,0
115150,-55.5555555555556,4,2,1,75,0,1
128864,-100,4,2,1,60,0,0
142579,-100,4,2,1,75,0,0
143864,-55.5555555555556,4,2,1,75,0,0
144293,-100,4,2,1,75,0,0
150722,-55.5555555555556,4,2,1,75,0,0
151150,-100,4,2,1,75,0,0
154150,-55.5555555555556,4,2,1,75,0,0
154578,-100,4,2,1,75,0,0
156293,-100,4,2,1,60,0,0
158007,-76.9230769230769,4,2,1,60,0,0
164864,-100,4,2,1,60,0,0
168293,-83.3333333333333,4,2,1,60,0,0
172150,-133.333333333333,4,2,1,60,0,0
172579,-83.3333333333333,4,2,1,60,0,0
177293,-133.333333333333,4,2,1,60,0,0
177722,-83.3333333333333,4,2,1,60,0,0
182114,-83.3333333333333,4,2,2,40,0,0
185436,-83.3333333333333,4,2,1,60,0,0
188864,-62.5,4,2,1,75,0,1
209436,-50,4,2,1,85,0,1
216293,-50,4,2,1,65,0,0
221007,-66.6666666666667,4,2,1,65,0,0
228293,-66.6666666666667,4,2,1,45,0,0
229043,-66.6666666666667,4,2,1,25,0,0
229900,-66.6666666666667,4,2,1,5,0,0

[Colours]
Combo1 : 148,98,183
Combo2 : 44,75,227
Combo3 : 211,99,149
Combo4 : 240,206,47

[HitObjects]
351,44,3507,5,0,3:0:0:0:
359,54,3561,1,0,3:0:0:0:
371,61,3614,1,0,3:0:0:0:
385,64,3668,1,0,3:0:0:0:
398,64,3722,6,0,B|383:41|383:41|332:79|395:147|440:135|479:98,1,200,8|0,0:2|0:0,0:0:0:0:
472,26,4043,5,8,0:2:0:0:
114,320,5436,6,0,B|129:343|129:343|180:305|117:237|72:249|33:286,1,200,8|0,0:2|0:0,0:0:0:0:
40,358,5757,5,8,0:2:0:0:
259,33,7150,6,0,B|278:2|278:2|300:20|295:57|261:72|245:52|219:97|216:141|253:171,1,200,8|0,0:2|0:0,0:0:0:0:
256,223,7472,5,8,0:2:0:0:
253,351,8864,6,0,B|233:381|233:381|211:363|216:326|250:311|266:331|292:286,1,100,8|0,0:2|0:0,0:0:0:0:
323,319,10150,5,0,3:0:0:0:
321,314,10204,1,4,3:0:0:0:
319,309,10257,1,0,3:0:0:0:
317,304,10311,1,0,3:0:0:0:
315,299,10364,2,0,L|320:241,3,50,4|0|0|0,3:0|3:0|3:0|3:0,0:0:0:0:
333,241,10579,6,0,P|322:157|228:103,1,179.999994506836,4|0,3:1|3:0,0:0:0:0:
162,240,11007,1,8,0:2:0:0:
189,156,11114,2,0,L|94:176,1,89.9999972534181,0|0,3:0|0:0,0:0:0:0:
37,373,11329,1,8,0:2:0:0:
97,311,11436,2,0,L|8:292,2,89.9999972534181,0|8|0,3:0|0:2|3:0,0:0:0:0:
97,311,11864,5,8,0:2:0:0:
165,355,11972,2,0,B|238:345|238:345|254:323|254:323|352:308,1,179.999994506836,0|8,0:0|0:2,0:0:0:0:
464,369,12293,6,0,P|409:348|377:231,1,179.999994506836,4|0,3:1|3:0,0:0:0:0:
455,96,12722,1,8,0:2:0:0:
512,163,12829,2,0,L|406:181,1,89.9999972534181,0|0,3:0|0:0,0:0:0:0:
295,20,13043,2,0,L|401:38,1,89.9999972534181,8|0,0:2|3:0,0:0:0:0:
239,155,13257,2,0,L|150:139,1,89.9999972534181,8|0,0:2|3:0,0:0:0:0:
211,72,13472,1,0,3:0:0:0:
61,204,13579,5,8,0:2:0:0:
46,127,13686,1,0,3:0:0:0:
46,127,13900,1,8,0:2:0:0:
2,259,14007,6,0,P|70:345|154:346,1,179.999994506836,4|0,3:1|3:0,0:0:0:0:
270,226,14436,1,8,0:2:0:0:
187,196,14543,2,0,L|209:306,1,89.9999972534181,0|0,3:0|0:0,0:0:0:0:
422,348,14757,1,8,0:2:0:0:
354,288,14864,2,0,L|336:376,2,89.9999972534181,0|8|0,3:0|0:2|3:0,0:0:0:0:
354,288,15293,5,8,0:2:0:0:
422,348,15400,2,0,B|405:274|405:274|382:256|382:256|360:158,1,179.999994506836,0|8,3:0|0:2,0:0:0:0:
457,30,15722,6,0,P|466:91|432:141,1,119.999996337891,4|0,3:1|3:0,0:0:0:0:
384,2,16043,1,0,3:0:0:0:
338,69,16150,6,0,L|248:84,1,89.9999972534181,8|0,0:2|0:0,0:0:0:0:
115,30,16364,1,0,3:0:0:0:
115,30,16472,1,0,3:0:0:0:
115,30,16579,6,0,B|85:54|85:54|100:123,1,89.9999972534181,4|0,3:1|0:0,0:0:0:0:
298,218,16793,6,0,B|283:181|283:181|197:159,1,119.999996337891,0|0,3:0|0:0,0:0:0:0:
33,320,17007,5,8,0:2:0:0:
108,343,17114,1,8,0:2:0:0:
125,266,17222,1,8,0:2:0:0:
51,248,17329,1,8,0:2:0:0:
108,343,17436,6,0,P|196:340|268:287,1,179.999994506836,4|0,3:1|3:0,0:0:0:0:
378,148,17864,5,8,0:2:0:0:
412,231,17972,2,0,L|298:213,1,89.9999972534181,0|0,3:0|0:0,0:0:0:0:
184,82,18186,1,8,0:2:0:0:
251,26,18293,2,0,L|265:114,2,89.9999972534181,0|8|0,3:0|0:2|3:0,0:0:0:0:
251,26,18722,5,8,0:2:0:0:
184,82,18829,2,0,B|169:153|169:153|189:187|189:187|176:264,1,179.999994506836,0|8,0:0|0:2,0:0:0:0:
0,282,19150,6,0,P|87:283|148:346,1,179.999994506836,4|0,3:1|3:0,0:0:0:0:
330,275,19579,5,8,0:2:0:0:
262,217,19686,2,0,L|241:336,1,89.9999972534181,0|0,3:0|0:0,0:0:0:0:
490,148,19900,2,0,L|401:163,1,89.9999972534181,8|0,0:2|3:0,0:0:0:0:
330,275,20114,2,0,L|418:259,1,89.9999972534181,8|0,0:2|3:0,0:0:0:0:
376,61,20329,1,0,3:0:0:0:
323,144,20436,5,8,0:2:0:0:
405,166,20543,1,0,3:0:0:0:
405,166,20757,1,8,0:2:0:0:
265,200,20864,6,0,P|242:192|219:169,5,39.9999987792969,4|0|0|0|0|0,3:1|3:0|3:0|3:0|3:0|3:0,0:0:0:0:
185,115,21293,1,8,3:2:0:0:
162,108,21364,1,0,3:0:0:0:
138,112,21436,1,0,3:0:0:0:
119,126,21507,1,0,3:0:0:0:
108,147,21579,1,0,3:0:0:0:
107,170,21650,1,0,3:0:0:0:
116,189,21722,6,0,P|114:208|106:227,5,39.9999987792969,0|0|0|0|0|0,3:0|3:0|3:0|3:0|3:0|3:0,0:0:0:0:
36,269,22150,1,8,3:2:0:0:
52,252,22221,1,0,3:0:0:0:
74,244,22293,1,0,3:0:0:0:
98,246,22364,1,0,3:0:0:0:
118,259,22436,1,0,3:0:0:0:
130,279,22507,1,0,3:0:0:0:
132,299,22579,6,0,L|135:333,3,29.9999990844727,4|0|0|0,3:1|3:0|3:0|3:0,0:0:0:0:
215,272,22793,2,0,L|206:304,3,29.9999990844727,4|0|0|0,3:0|3:0|3:0|3:0,0:0:0:0:
302,275,23007,2,0,L|282:302,3,29.9999990844727,4|0|0|0,3:0|3:0|3:0|3:0,0:0:0:0:
382,307,23222,2,0,L|354:326,3,29.9999990844727,4|0|0|0,3:0|3:0|3:0|3:0,0:0:0:0:
509,300,23436,6,0,B|484:302|484:302|451:338,3,44.999998626709,4|0|0|0,3:2|3:0|3:0|3:0,0:0:0:0:
424,231,23650,2,0,B|448:228|448:228|481:192,3,44.999998626709,4|0|0|0,3:0|3:0|3:0|3:0,0:0:0:0:
451,93,23864,2,0,B|453:117|453:117|489:150,3,44.999998626709,4|0|0|0,3:2|3:0|3:0|3:0,0:0:0:0:
367,178,24079,2,0,B|364:153|364:153|349:139,3,44.999998626709,4|0|0|0,3:2|3:0|3:0|3:0,0:0:0:0:
275,113,24293,6,0,P|229:129|210:155,1,59.9999981689454,4|0,3:1|0:0,0:0:0:0:
221,136,24614,1,0,3:0:0:0:
170,24,24722,6,0,P|144:96|151:145,1,89.9999972534181,8|0,0:2|0:0,0:0:0:0:
144,108,25043,1,8,0:2:0:0:
16,27,25150,6,0,L|74:40,1,59.9999981689454,0|0,3:0|0:0,0:0:0:0:
40,166,25364,1,0,3:0:0:0:
20,136,25472,1,0,3:0:0:0:
0,109,25579,2,0,L|58:122,1,59.9999981689454,8|0,0:2|0:0,0:0:0:0:
215,154,25793,6,0,P|268:141|289:125,1,59.9999981689454,8|8,0:2|0:2,0:0:0:0:
272,138,26222,6,0,P|263:197|230:232,1,89.9999972534181,0|0,3:0|0:0,0:0:0:0:
137,147,26436,1,8,0:2:0:0:
137,147,26650,5,0,3:0:0:0:
137,147,26757,2,0,L|153:225,1,59.9999981689454,0|0,0:0|3:0,0:0:0:0:
229,237,26972,1,0,0:0:0:0:
229,237,27079,2,0,L|241:295,1,59.9999981689454,0|0,3:0|3:0,0:0:0:0:
61,194,27293,2,0,L|73:252,1,59.9999981689454,8|0,0:2|0:0,0:0:0:0:
316,330,27507,6,0,B|408:310|356:269|446:241,1,160,8|0,0:2|0:0,0:0:0:0:
443,241,28150,6,0,P|416:191|424:133,1,89.9999972534181,8|0,0:2|0:0,0:0:0:0:
416,158,28472,1,8,0:2:0:0:
351,262,28579,6,0,L|290:250,1,59.9999981689454,0|0,3:0|0:0,0:0:0:0:
293,114,28793,1,0,3:0:0:0:
313,144,28901,1,0,3:0:0:0:
333,171,29008,2,0,L|275:158,1,59.9999981689454,8|0,0:2|0:0,0:0:0:0:
74,308,29222,6,0,B|102:282|102:282|85:201,1,119.999996337891,12|0,0:1|0:0,0:0:0:0:
85,201,29650,6,0,P|129:241|142:275,1,89.9999972534181,0|0,3:0|0:0,0:0:0:0:
37,133,29864,1,8,0:2:0:0:
37,133,30079,6,0,P|-3:164|-32:170,1,59.9999981689454,0|0,3:0|0:0,0:0:0:0:
122,21,30293,1,8,0:2:0:0:
156,30,30400,1,0,3:0:0:0:
190,39,30507,1,0,3:0:0:0:
224,48,30614,1,0,3:0:0:0:
258,59,30722,6,0,L|350:83,1,89.9999972534181,8|0,0:2|3:0,0:0:0:0:
150,193,30936,6,0,B|171:157|171:157|261:143,1,119.999996337891,4|0,3:2|0:0,0:0:0:0:
335,310,31150,6,0,P|291:296|263:266,1,59.9999981689454,4|0,3:1|0:0,0:0:0:0:
280,287,31579,6,0,P|308:246|305:194,1,89.9999972534181,8|0,0:2|0:0,0:0:0:0:
308,206,31900,1,8,0:2:0:0:
393,241,32007,6,0,L|452:229,1,59.9999981689454,0|0,3:0|0:0,0:0:0:0:
258,134,32222,2,0,L|317:122,1,59.9999981689454,0|0,3:0|0:0,0:0:0:0:
221,298,32436,2,0,L|280:286,1,59.9999981689454,8|0,0:2|0:0,0:0:0:0:
199,79,32650,5,8,0:2:0:0:
134,13,32757,2,0,P|70:16|49:137,1,179.999994506836,8|0,0:2|0:0,0:0:0:0:
47,139,33079,2,0,L|35:197,1,59.9999981689454,0|0,3:0|0:0,0:0:0:0:
81,272,33293,1,8,0:2:0:0:
81,272,33400,2,0,L|199:254,1,119.999996337891,0|0,3:0|0:0,0:0:0:0:
264,316,33722,5,8,0:2:0:0:
293,277,33829,1,0,3:0:0:0:
293,229,33936,1,0,3:0:0:0:
270,186,34043,1,0,3:0:0:0:
224,169,34150,1,8,0:2:0:0:
200,113,34257,1,0,3:0:0:0:
234,60,34364,6,0,B|297:117|361:98|361:98|416:80|396:3|345:18,1,269.999991760254,4|0,3:1|0:0,0:0:0:0:
417,97,34793,2,0,P|428:69|426:39,1,59.9999981689454,0|0,3:0|3:0,0:0:0:0:
376,178,35007,5,8,0:2:0:0:
415,191,35114,1,0,3:0:0:0:
455,187,35222,2,0,P|482:175|502:153,1,59.9999981689454,0|8,3:0|0:2,0:0:0:0:
476,287,35436,2,0,P|446:289|419:278,1,59.9999981689454,4|0,3:2|3:0,0:0:0:0:
336,307,35650,2,0,P|347:334|369:354,1,59.9999981689454,0|0,3:0|3:0,0:0:0:0:
262,363,35864,1,8,0:2:0:0:
234,315,35972,1,0,3:0:0:0:
238,261,36079,1,0,3:0:0:0:
273,220,36186,1,0,3:0:0:0:
326,212,36293,5,8,0:2:0:0:
287,134,36400,2,0,L|300:75,1,59.9999981689454,0|0,3:0|3:0,0:0:0:0:
175,12,36614,5,8,0:2:0:0:
127,84,36721,2,0,L|69:101,1,59.9999981689454,0|0,3:0|3:0,0:0:0:0:
78,243,36936,5,8,0:2:0:0:
165,248,37043,2,0,L|208:289,1,59.9999981689454,0|0,3:0|3:0,0:0:0:0:
195,159,37257,5,8,0:2:0:0:
127,84,37364,6,0,L|69:101,1,59.9999981689454,0|0,3:0|3:0,0:0:0:0:
165,248,37579,2,0,L|208:289,1,59.9999981689454,8|0,0:2|3:0,0:0:0:0:
287,134,37793,2,0,L|300:75,1,59.9999981689454,0|0,3:0|3:0,0:0:0:0:
411,42,38007,5,0,3:1:0:0:
395,118,38114,1,0,3:0:0:0:
376,194,38222,1,0,3:0:0:0:
393,192,38329,1,0,3:0:0:0:
410,189,38436,1,0,3:0:0:0:
470,332,38864,5,8,0:2:0:0:
314,290,39079,2,0,L|224:299,1,89.9999972534181,0|0,3:0|0:0,0:0:0:0:
213,318,39293,1,0,3:0:0:0:
119,326,39400,2,0,P|127:268|172:231,1,119.999996337891,0|0,3:0|3:0,0:0:0:0:
236,168,39722,5,0,3:0:0:0:
161,145,39829,1,0,3:0:0:0:
85,127,39936,1,0,3:0:0:0:
79,109,40043,1,0,3:0:0:0:
73,90,40150,6,0,L|185:117,1,112.500004291535,0|0,3:0|0:0,0:0:0:0:
266,142,40579,1,8,0:2:0:0:
452,118,40793,1,0,3:0:0:0:
312,68,41007,1,0,3:0:0:0:
345,0,41114,2,0,L|358:119,1,119.999996337891,0|0,3:0|3:0,0:0:0:0:
403,191,41436,5,0,3:0:0:0:
338,234,41543,1,0,3:0:0:0:
356,309,41650,1,0,3:0:0:0:
372,316,41757,1,0,3:0:0:0:
388,323,41864,1,0,3:0:0:0:
171,235,42293,5,8,0:2:0:0:
56,285,42507,2,0,P|39:243|49:200,1,89.9999972534181,0|0,3:0|0:0,0:0:0:0:
60,183,42722,1,0,3:0:0:0:
54,98,42829,2,0,B|50:94|116:82|99:135|160:123,1,119.999996337891,0|0,3:0|3:0,0:0:0:0:
164,127,43150,6,0,P|214:107|207:-14,1,179.999994506836,4|0,3:1|0:0,0:0:0:0:
270,87,43472,2,0,P|290:136|411:129,1,179.999994506836,4|0,3:1|0:0,0:0:0:0:
310,191,43793,2,0,P|252:222|239:286,1,134.999995880127,4|0,3:1|0:0,0:0:0:0:
246,312,44007,1,8,0:2:0:0:
205,232,44114,2,0,P|184:182|63:189,1,179.999994506836,4|0,3:1|0:0,0:0:0:0:
246,312,44436,5,4,3:1:0:0:
299,306,44543,1,0,3:0:0:0:
352,297,44650,1,0,3:0:0:0:
404,286,44757,1,0,3:0:0:0:
465,343,44864,5,4,3:1:0:0:
492,269,44972,1,0,3:0:0:0:
439,211,45079,1,0,3:0:0:0:
445,194,45186,1,0,3:0:0:0:
452,177,45293,6,0,L|438:65,1,112.500004291535,0|0,3:0|0:0,0:0:0:0:
371,14,45722,1,8,0:2:0:0:
257,128,45936,1,0,3:0:0:0:
127,52,46150,1,0,3:0:0:0:
180,0,46257,2,0,L|161:128,1,119.999996337891,0|0,3:0|3:0,0:0:0:0:
205,200,46579,5,0,3:0:0:0:
127,205,46686,1,0,3:0:0:0:
94,275,46793,1,0,3:0:0:0:
76,269,46900,1,0,3:0:0:0:
58,264,47007,1,0,3:0:0:0:
256,326,47436,5,8,0:2:0:0:
339,257,47650,2,0,L|334:146,1,89.9999972534181,0|0,3:0|0:0,0:0:0:0:
335,148,47864,1,0,3:0:0:0:
425,141,47972,2,0,L|430:260,1,119.999996337891,0|0,3:0|3:0,0:0:0:0:
508,142,48293,5,0,3:0:0:0:
468,75,48400,1,0,3:0:0:0:
390,69,48507,1,0,3:0:0:0:
374,60,48614,1,0,3:0:0:0:
358,50,48722,1,0,3:0:0:0:
254,220,49150,5,8,0:2:0:0:
201,98,49364,2,0,P|209:61|237:86,1,89.9999972534181,0|0,3:0|0:0,0:0:0:0:
222,107,49579,1,0,3:0:0:0:
113,105,49686,2,0,P|117:46|153:0,1,119.999996337891,0|0,3:0|3:0,0:0:0:0:
84,191,50007,6,0,L|67:229,4,29.9999990844727,12|0|0|0|0,3:1|3:0|3:0|0:0|3:0,0:0:0:0:
25,123,50329,2,0,L|0:89,4,29.9999990844727,0|0|0|0|0,3:0|0:0|3:0|0:0|3:0,0:0:0:0:
113,105,50650,2,0,L|154:100,4,29.9999990844727,8|0|0|0|0,3:2|3:0|3:0|0:0|3:0,0:0:0:0:
84,191,50972,2,0,L|67:229,4,29.9999990844727,0|0|0|0|0,3:0|0:0|3:0|0:0|3:0,0:0:0:0:
152,245,51293,5,12,3:1:0:0:
202,194,51400,1,8,3:2:0:0:
273,183,51507,1,8,3:2:0:0:
340,208,51614,1,8,3:2:0:0:
386,261,51722,6,0,P|465:229|470:143,1,179.999994506836,4|0,3:1|0:0,0:0:0:0:
375,129,52043,1,0,3:0:0:0:
487,127,52150,2,0,L|505:29,1,89.9999972534181,8|0,0:2|3:0,0:0:0:0:
361,39,52364,6,0,P|319:53|293:90,1,89.9999972534181,0|8,0:0|0:2,0:0:0:0:
273,183,52579,2,0,P|231:168|205:131,1,89.9999972534181,0|8,3:0|0:2,0:0:0:0:
57,93,52793,2,0,B|158:100|113:28|220:38,1,179.999994506836,0|8,3:0|0:2,0:0:0:0:
183,293,53222,5,0,0:0:0:0:
183,293,53329,1,8,0:2:0:0:
245,344,53436,2,0,L|356:331,1,89.9999972534181,4|0,3:1|0:0,0:0:0:0:
323,215,53650,2,0,L|212:228,1,89.9999972534181,0|0,0:0|3:0,0:0:0:0:
422,384,53864,5,8,0:2:0:0:
415,302,53972,1,0,3:0:0:0:
472,245,54079,5,0,0:0:0:0:
436,172,54186,1,8,0:2:0:0:
481,104,54293,6,0,P|432:78|393:71,1,89.9999972534181,0|8,3:0|0:2,0:0:0:0:
201,51,54507,2,0,P|250:25|289:18,1,89.9999972534181,0|0,3:0|0:0,0:0:0:0:
318,124,54722,2,0,B|264:127|241:161|241:161|220:201|165:205,1,179.999994506836,8|0,0:2|0:0,0:0:0:0:
95,146,55043,1,8,0:2:0:0:
37,90,55150,6,0,P|51:178|43:268,1,179.999994506836,4|0,3:1|0:0,0:0:0:0:
126,311,55472,1,0,3:0:0:0:
48,375,55579,2,0,P|102:342|216:369,1,179.999994506836,8|0,0:2|0:0,0:0:0:0:
236,259,55900,1,8,0:2:0:0:
270,276,56007,1,0,3:0:0:0:
297,302,56114,1,8,0:2:0:0:
313,338,56222,1,0,3:0:0:0:
451,384,56436,6,0,P|453:300|482:170,1,179.999994506836,8|0,0:2|0:0,0:0:0:0:
415,285,56757,1,8,0:2:0:0:
392,139,56864,2,0,P|378:96|350:61,1,89.9999972534181,4|0,3:1|0:0,0:0:0:0:
240,105,57079,5,0,3:0:0:0:
263,110,57150,1,0,3:0:0:0:
280,121,57222,1,0,3:0:0:0:
295,143,57293,1,8,0:2:0:0:
295,143,57507,6,0,L|284:245,1,89.9999972534181,8|8,0:2|0:2,0:0:0:0:
105,324,57722,5,4,3:1:0:0:
90,244,57829,1,0,3:0:0:0:
171,228,57936,1,8,0:2:0:0:
186,308,58043,1,8,0:2:0:0:
135,275,58150,5,0,3:0:0:0:
81,214,58257,1,0,3:0:0:0:
117,141,58364,1,0,3:0:0:0:
197,156,58472,1,0,3:0:0:0:
208,236,58579,6,0,L|299:261,1,89.9999972534181,4|0,3:1|3:0,0:0:0:0:
289,359,58793,2,0,L|375:335,1,89.9999972534181,0|0,3:0|3:0,0:0:0:0:
466,374,59007,1,8,0:2:0:0:
479,340,59114,1,0,3:0:0:0:
475,303,59222,1,0,3:0:0:0:
456,272,59329,1,0,3:0:0:0:
423,257,59436,5,0,3:0:0:0:
400,217,59543,1,0,3:0:0:0:
318,201,59650,5,0,3:0:0:0:
341,161,59757,1,0,3:0:0:0:
313,82,59865,5,8,0:2:0:0:
360,81,59972,1,0,3:0:0:0:
413,18,60079,5,0,3:0:0:0:
437,58,60186,1,0,3:0:0:0:
469,144,60293,6,0,L|374:137,1,89.9999972534181,4|0,3:1|3:0,0:0:0:0:
229,131,60507,5,0,3:0:0:0:
211,128,60614,1,0,3:0:0:0:
194,125,60722,2,0,P|191:169|207:214,1,89.9999972534181,8|0,0:2|3:0,0:0:0:0:
9,104,60936,1,0,3:0:0:0:
15,121,61043,1,0,3:0:0:0:
21,137,61151,2,0,P|60:117|91:81,1,89.9999972534181,4|0,3:1|3:0,0:0:0:0:
118,281,61364,2,0,P|80:256|34:247,1,89.9999972534181,0|0,3:0|3:0,0:0:0:0:
20,137,61579,2,0,P|59:117|90:81,1,89.9999972534181,8|0,0:2|3:0,0:0:0:0:
194,125,61794,2,0,P|191:169|207:214,1,89.9999972534181,0|0,3:0|3:0,0:0:0:0:
254,338,62007,6,0,B|353:337|301:272|416:279,1,179.999994506836,4|0,3:1|3:0,0:0:0:0:
442,306,62293,1,0,3:0:0:0:
442,306,62364,1,0,3:0:0:0:
442,306,62436,2,0,L|431:375,2,59.9999981689454,8|0|0,3:2|3:0|3:0,0:0:0:0:
332,261,62650,2,0,L|322:201,2,59.9999981689454,0|0|0,3:0|3:0|3:0,0:0:0:0:
411,178,62864,5,0,3:0:0:0:
416,160,62936,1,0,3:0:0:0:
421,142,63007,1,0,3:0:0:0:
426,124,63079,2,0,L|444:55,2,59.9999981689454,0|0|0,3:0|3:0|3:0,0:0:0:0:
348,76,63293,1,8,3:2:0:0:
330,72,63364,1,0,3:0:0:0:
312,74,63436,1,0,3:0:0:0:
294,79,63507,1,0,3:0:0:0:
276,82,63579,1,0,3:0:0:0:
258,79,63650,1,0,3:0:0:0:
240,74,63722,6,0,L|206:37,3,44.999998626709,4|0|0|0,3:1|3:0|3:0|3:0,0:0:0:0:
180,132,63936,2,0,L|146:95,3,44.999998626709,4|0|0|0,3:0|3:0|3:0|3:0,0:0:0:0:
204,223,64150,2,0,L|188:270,3,44.999998626709,4|0|0|0,3:0|3:0|3:0|3:0,0:0:0:0:
277,164,64364,2,0,L|326:153,3,44.999998626709,4|0|0|0,3:0|3:0|3:0|3:0,0:0:0:0:
292,259,64579,2,0,L|301:316,3,44.999998626709,4|0|0|0,3:2|3:0|3:0|3:0,0:0:0:0:
381,271,64793,2,0,L|394:323,3,44.999998626709,4|0|0|0,3:0|3:0|3:0|3:0,0:0:0:0:
483,283,65007,1,4,3:2:0:0:
332,128,65114,6,0,L|342:84,2,44.999998626709,0|0|4,3:0|3:0|3:2,0:0:0:0:
398,196,65329,2,0,L|387:239,2,44.999998626709,0|0|4,3:0|3:0|3:1,0:0:0:0:
418,171,65864,5,0,0:0:0:0:
440,145,66293,1,0,0:0:0:0:
461,117,66722,6,0,L|476:79,4,25,0|0|0|0|12,3:0|3:0|3:0|3:0|0:1,0:0:0:0:
461,117,67364,5,0,3:0:0:0:
378,72,67472,1,0,0:0:0:0:
317,151,67579,2,0,P|264:158|190:148,1,89.9999972534181,8|0,0:2|3:0,0:0:0:0:
227,156,67900,1,8,0:2:0:0:
307,264,68007,2,0,P|319:314|310:362,1,89.9999972534181,0|0,3:0|0:0,0:0:0:0:
504,350,68222,2,0,P|498:305|510:262,1,89.9999972534181,0|0,3:0|3:0,0:0:0:0:
389,175,68436,2,0,L|391:282,1,89.9999972534181,8|0,0:2|0:0,0:0:0:0:
410,361,68650,6,0,L|405:191,1,150.000005722046,8|0,0:2|3:0,0:0:0:0:
107,74,69293,5,8,0:2:0:0:
107,74,69614,1,0,0:0:0:0:
181,140,69722,2,0,P|251:145|315:130,1,75.0000028610231,0|0,3:0|0:0,0:0:0:0:
37,138,69936,2,0,P|31:221|34:235,1,75.0000028610231,0|0,3:0|3:0,0:0:0:0:
120,43,70150,1,8,0:2:0:0:
234,262,70364,6,0,P|193:331|137:200,1,300.000011444092,4|0,3:1|3:0,0:0:0:0:
499,205,71007,1,8,0:2:0:0:
472,223,71222,5,0,3:0:0:0:
461,138,71329,1,0,3:0:0:0:
447,48,71436,2,0,L|360:73,2,75.0000028610231,8|0|0,0:2|3:0|3:0,0:0:0:0:
292,52,71757,1,0,3:0:0:0:
322,133,71864,2,0,L|329:207,2,75.0000028610231,8|0|4,0:2|3:0|3:2,0:0:0:0:
206,51,72186,1,0,0:0:0:0:
89,139,72293,1,4,3:1:0:0:
89,139,72614,5,0,3:0:0:0:
178,170,72722,2,0,P|175:254|168:258,1,75.0000028610231,8|0,0:2|0:0,0:0:0:0:
69,353,72936,1,0,0:0:0:0:
66,338,73043,1,8,0:2:0:0:
64,323,73150,2,0,L|76:224,1,75.0000028610231,0|0,3:0|0:0,0:0:0:0:
184,351,73364,2,0,L|284:347,1,75.0000028610231,0|0,3:0|0:0,0:0:0:0:
282,220,73579,1,8,0:2:0:0:
450,349,73793,1,8,0:2:0:0:
450,349,73900,2,0,B|478:240|385:238|445:119,1,225.000008583069,8|0,0:2|3:0,0:0:0:0:
467,112,74436,6,0,P|419:121|376:94,1,75.0000028610231,8|0,0:2|3:0,0:0:0:0:
293,0,74650,2,0,P|321:39|315:90,1,75.0000028610231,0|0,0:0|0:0,0:0:0:0:
261,244,74864,6,0,L|161:246,1,75.0000028610231,8|0,0:2|3:0,0:0:0:0:
112,75,75079,2,0,L|114:175,1,75.0000028610231,0|0,3:0|3:0,0:0:0:0:
113,373,75293,2,0,L|115:273,1,75.0000028610231,8|0,0:2|3:0,0:0:0:0:
226,50,75507,6,0,L|226:174,1,110.000003356934,4|0,3:1|3:0,0:0:0:0:
467,286,76150,5,8,0:2:0:0:
433,242,76257,1,0,3:0:0:0:
379,228,76364,1,0,3:0:0:0:
329,251,76471,1,0,3:0:0:0:
305,302,76579,6,0,P|342:312|386:290,1,75.0000028610231,4|0,3:2|3:0,0:0:0:0:
337,157,76793,2,0,P|331:116|287:82,1,75.0000028610231,0|0,3:0|3:0,0:0:0:0:
182,139,77007,2,0,P|141:133|97:167,1,75.0000028610231,0|0,3:0|3:0,0:0:0:0:
174,273,77222,2,0,P|158:310|179:362,1,75.0000028610231,0|0,3:0|3:0,0:0:0:0:
28,362,77436,5,4,3:1:0:0:
47,330,77543,1,0,3:0:0:0:
55,293,77650,1,0,3:0:0:0:
52,256,77757,1,8,0:2:0:0:
48,24,77972,5,0,3:0:0:0:
19,101,78079,2,0,L|12:185,1,75.0000028610231,8|8,0:2|0:2,0:0:0:0:
153,41,78293,1,8,0:2:0:0:
124,118,78400,2,0,L|117:202,1,75.0000028610231,0|0,3:0|3:0,0:0:0:0:
252,55,78614,1,0,3:0:0:0:
223,132,78721,2,0,L|216:216,1,75.0000028610231,8|0,0:2|3:0,0:0:0:0:
398,86,78936,2,0,L|405:170,1,75.0000028610231,8|0,0:2|0:0,0:0:0:0:
461,309,79150,5,4,3:1:0:0:
449,334,79257,1,0,3:0:0:0:
426,349,79364,1,0,3:0:0:0:
398,350,79471,1,0,3:0:0:0:
359,313,79579,5,8,0:2:0:0:
337,295,79686,1,0,3:0:0:0:
310,291,79793,1,0,3:0:0:0:
284,302,79900,1,0,3:0:0:0:
268,353,80007,5,8,0:2:0:0:
249,374,80114,1,0,3:0:0:0:
223,382,80221,1,0,3:0:0:0:
196,376,80328,1,0,3:0:0:0:
168,330,80436,5,8,0:2:0:0:
151,307,80543,1,0,3:0:0:0:
126,296,80650,1,0,3:0:0:0:
98,300,80757,1,0,3:0:0:0:
55,326,80864,5,8,0:2:0:0:
84,348,80971,1,0,3:0:0:0:
121,352,81078,1,0,3:0:0:0:
155,337,81185,1,0,3:0:0:0:
176,306,81293,6,0,L|159:195,3,75.0000028610231,8|0|0|0,0:2|3:0|3:0|3:0,0:0:0:0:
297,98,81722,2,0,L|285:172,3,75.0000028610231,8|0|0|0,0:2|3:0|3:0|3:0,0:0:0:0:
448,288,82150,2,0,L|431:177,3,75.0000028610231,8|0|0|0,0:2|3:0|3:0|3:0,0:0:0:0:
491,133,82579,5,4,3:1:0:0:
459,113,82686,1,0,3:0:0:0:
422,110,82793,1,0,3:0:0:0:
387,124,82900,1,0,3:0:0:0:
343,107,83007,5,8,0:2:0:0:
345,144,83114,1,0,3:0:0:0:
348,181,83221,1,0,3:0:0:0:
351,219,83328,1,0,3:0:0:0:
378,258,83436,5,8,0:2:0:0:
346,238,83543,1,0,3:0:0:0:
309,235,83650,1,0,3:0:0:0:
274,249,83757,1,0,3:0:0:0:
239,294,83864,5,8,0:2:0:0:
242,257,83971,1,0,3:0:0:0:
244,219,84078,1,0,3:0:0:0:
247,182,84185,1,0,3:0:0:0:
250,145,84293,6,0,L|215:63,1,75.0000028610231,8|0,0:2|3:0,0:0:0:0:
61,137,84507,1,0,3:0:0:0:
61,137,84614,2,0,L|90:205,1,75.0000028610231,8|0,0:2|3:0,0:0:0:0:
143,16,84829,1,0,3:0:0:0:
143,16,84936,2,0,L|74:45,1,75.0000028610231,8|0,0:2|3:0,0:0:0:0:
175,248,85150,1,0,3:0:0:0:
175,248,85257,2,0,L|243:218,1,75.0000028610231,8|0,0:2|3:0,0:0:0:0:
334,35,85472,1,0,3:0:0:0:
334,35,85579,2,0,L|323:109,1,75.0000028610231,8|0,0:2|3:0,0:0:0:0:
463,173,85793,2,0,L|473:247,1,75.0000028610231,8|0,0:2|3:0,0:0:0:0:
380,328,86007,5,4,3:1:0:0:
351,351,86114,1,0,3:0:0:0:
314,357,86221,1,0,3:0:0:0:
280,342,86328,1,0,3:0:0:0:
237,377,86436,5,8,0:2:0:0:
213,349,86543,1,0,3:0:0:0:
209,313,86650,1,0,3:0:0:0:
228,281,86757,1,0,3:0:0:0:
192,256,86865,5,8,0:2:0:0:
212,225,86972,1,0,3:0:0:0:
246,212,87079,1,0,3:0:0:0:
282,222,87186,1,0,3:0:0:0:
305,279,87293,5,8,0:2:0:0:
304,241,87400,1,0,3:0:0:0:
303,204,87507,1,0,3:0:0:0:
302,166,87614,1,0,3:0:0:0:
353,148,87722,5,8,0:2:0:0:
314,187,87829,1,0,3:0:0:0:
260,195,87936,1,0,3:0:0:0:
212,167,88043,1,0,3:0:0:0:
192,116,88150,6,0,L|196:32,3,75.0000028610231,8|0|0|0,0:2|3:0|3:0|3:0,0:0:0:0:
86,283,88579,2,0,L|82:198,3,75.0000028610231,8|0|0|0,0:2|3:0|3:0|3:0,0:0:0:0:
315,205,89007,2,0,L|311:279,3,75.0000028610231,8|0|0|0,0:2|3:0|3:0|3:0,0:0:0:0:
447,95,89436,5,4,3:1:0:0:
449,132,89543,1,0,3:0:0:0:
451,169,89650,1,0,3:0:0:0:
454,207,89757,1,0,3:0:0:0:
493,227,89864,5,8,0:2:0:0:
442,206,89971,1,0,3:0:0:0:
396,234,90078,1,0,3:0:0:0:
391,288,90185,1,0,3:0:0:0:
448,312,90293,5,8,0:2:0:0:
391,311,90400,1,0,3:0:0:0:
335,311,90507,1,0,3:0:0:0:
279,310,90614,1,0,3:0:0:0:
234,368,90722,5,8,0:2:0:0:
162,358,90829,1,0,3:0:0:0:
135,292,90936,1,0,3:0:0:0:
177,234,91043,1,0,3:0:0:0:
249,242,91150,6,0,L|369:242,1,75.0000028610231,8|0,0:2|0:0,0:0:0:0:
451,131,91364,1,0,3:0:0:0:
451,131,91471,2,0,L|331:131,1,75.0000028610231,8|0,0:2|3:0,0:0:0:0:
221,31,91686,1,0,3:0:0:0:
221,31,91793,2,0,L|341:31,1,75.0000028610231,8|0,0:2|3:0,0:0:0:0:
111,131,92007,1,8,0:2:0:0:
349,265,92222,5,4,3:0:0:0:
314,200,92329,1,4,3:0:0:0:
243,184,92436,1,4,3:0:0:0:
201,214,92543,1,4,3:0:0:0:
196,251,92650,1,4,3:0:0:0:
209,268,92757,1,4,3:0:0:0:
214,272,92864,6,0,B|315:305|304:240|408:266,1,179.999994506836,4|0,3:1|0:0,0:0:0:0:
494,158,93293,2,0,P|411:171|453:95,1,179.999994506836,0|0,3:0|0:0,0:0:0:0:
497,281,93722,1,8,0:2:0:0:
478,25,93936,1,0,3:0:0:0:
222,170,94150,1,0,3:0:0:0:
193,90,94257,1,0,3:0:0:0:
260,40,94364,1,0,3:0:0:0:
360,303,94579,6,0,P|260:288|162:318,1,179.999994506836,4|0,3:1|0:0,0:0:0:0:
28,379,95007,2,0,B|74:347|82:308|82:308|88:347|145:389,1,179.999994506836,0|0,3:0|0:0,0:0:0:0:
76,187,95436,1,8,0:2:0:0:
281,376,95650,1,0,3:0:0:0:
367,129,95864,1,0,3:0:0:0:
287,100,95971,1,0,3:0:0:0:
237,167,96078,1,0,3:0:0:0:
465,361,96293,6,0,B|455:324|466:294|466:294|443:256|443:256|458:216|447:178,1,179.999994506836,4|0,3:1|0:0,0:0:0:0:
500,37,96722,2,0,P|466:112|422:34,1,179.999994506836,0|0,3:0|0:0,0:0:0:0:
366,216,97150,1,8,0:2:0:0:
241,34,97364,1,0,3:0:0:0:
101,259,97579,1,0,3:0:0:0:
178,222,97686,1,0,3:0:0:0:
166,140,97793,1,0,3:0:0:0:
166,140,98007,6,0,L|81:140,1,59.9999981689454,0|0,3:0|3:0,0:0:0:0:
266,162,98222,2,0,L|351:162,1,59.9999981689454,0|0,3:0|3:0,0:0:0:0:
178,222,98436,2,0,L|93:222,1,59.9999981689454,0|0,3:0|3:0,0:0:0:0:
278,244,98651,2,0,L|363:244,1,59.9999981689454,0|0,3:0|3:0,0:0:0:0:
198,312,98864,2,0,L|113:312,1,59.9999981689454,8|0,0:2|3:0,0:0:0:0:
298,334,99079,2,0,L|383:334,1,59.9999981689454,0|0,3:0|3:0,0:0:0:0:
405,183,99293,6,0,L|463:183,5,39.9999987792969,8|0|0|4|0|0,3:2|3:0|3:0|3:0|3:0|3:0,0:0:0:0:
329,129,99722,5,12,3:1:0:0:
329,129,99936,6,0,B|339:64|339:64|376:23,1,100,8|0,0:2|3:0,0:0:0:0:
149,44,100150,2,0,B|171:69|171:69|181:134,1,100,8|0,0:2|3:0,0:0:0:0:
154,326,100364,2,0,B|176:300|176:300|186:235,1,100,8|0,0:2|3:0,0:0:0:0:
363,323,100578,2,0,B|340:297|340:297|330:232,1,100,8|0,0:2|3:0,0:0:0:0:
258,47,100793,2,0,L|258:157,1,100,8|0,0:2|3:0,0:0:0:0:
259,341,101007,2,0,L|259:231,1,100,8|0,0:2|3:0,0:0:0:0:
13,194,101222,2,0,L|112:192,1,100,8|0,0:2|3:0,0:0:0:0:
360,39,101436,6,0,P|415:28|473:49,1,100,8|0,0:2|3:0,0:0:0:0:
415,232,101650,2,0,P|403:183|414:135,1,100,8|0,0:2|3:0,0:0:0:0:
474,341,101864,2,0,P|425:352|377:341,1,100,8|0,0:2|3:0,0:0:0:0:
175,339,102079,2,0,P|223:350|272:339,1,100,8|0,0:2|3:0,0:0:0:0:
212,133,102293,2,0,P|201:181|213:230,1,100,8|0,0:2|3:0,0:0:0:0:
254,37,102507,2,0,P|206:25|158:37,1,100,8|0,0:2|3:0,0:0:0:0:
58,256,102722,2,0,L|59:382,1,100,8|0,0:2|3:0,0:0:0:0:
324,235,102936,2,0,L|324:135,1,100,8|0,0:2|3:0,0:0:0:0:
70,157,103150,6,0,L|12:156,3,50,8|0|0|0,0:2|3:0|3:0|3:0,0:0:0:0:
56,68,103364,2,0,L|56:18,3,50,8|0|0|0,0:2|3:0|3:0|3:0,0:0:0:0:
146,106,103579,2,0,L|204:107,3,50,8|0|0|0,0:2|3:0|3:0|3:0,0:0:0:0:
160,195,103793,2,0,L|159:244,3,50,8|0|0|0,0:2|3:0|3:0|3:0,0:0:0:0:
273,176,104007,2,0,L|331:175,3,50,8|0|0|0,0:2|3:0|3:0|3:0,0:0:0:0:
287,87,104221,2,0,L|286:37,3,50,8|0|0|0,0:2|3:0|3:0|3:0,0:0:0:0:
397,104,104436,2,0,L|455:105,3,50,8|0|0|0,0:2|3:0|3:0|3:0,0:0:0:0:
411,193,104650,2,0,L|410:242,3,50,8|0|0|0,0:2|3:0|3:0|3:0,0:0:0:0:
486,301,104864,5,4,3:0:0:0:
450,335,104971,1,8,0:2:0:0:
402,345,105078,1,8,0:2:0:0:
355,329,105185,1,8,0:2:0:0:
324,290,105292,1,8,0:2:0:0:
323,270,105400,1,8,0:2:0:0:
322,250,105507,2,0,L|322:152,1,75.0000028610231,0|8,3:0|0:2,0:0:0:0:
247,67,105722,5,4,3:0:0:0:
283,33,105829,1,8,0:2:0:0:
331,23,105936,1,4,3:0:0:0:
378,39,106043,1,8,0:2:0:0:
409,78,106150,2,0,L|409:176,1,75.0000028610231,4|0,3:0|3:0,0:0:0:0:
220,264,106364,2,0,L|220:189,1,75.0000028610231,0|0,3:0|0:0,0:0:0:0:
449,348,106579,1,4,3:1:0:0:
256,192,106686,12,0,108293,0:0:0:0:
256,192,108722,5,0,0:0:0:0:
256,192,109579,5,0,0:0:0:0:
256,192,110436,5,0,0:0:0:0:
420,271,110864,5,0,3:0:0:0:
488,209,110972,2,0,L|486:172,2,37.5000014305115,0|0|4,3:0|3:0|3:0,0:0:0:0:
423,293,111186,2,0,L|425:330,2,37.5000014305115,0|0|0,3:0|3:0|3:0,0:0:0:0:
413,103,111507,1,0,3:0:0:0:
258,273,111722,5,4,3:1:0:0:
221,267,111829,1,0,3:0:0:0:
192,242,111936,1,0,3:0:0:0:
183,205,112043,1,0,3:0:0:0:
159,184,112150,5,4,3:1:0:0:
159,161,112257,1,0,3:0:0:0:
167,140,112364,1,0,3:0:0:0:
184,125,112472,1,0,3:0:0:0:
193,91,112579,5,4,3:1:0:0:
207,88,112686,1,0,3:0:0:0:
221,84,112793,1,0,3:0:0:0:
235,80,112900,1,0,3:0:0:0:
301,63,113007,5,4,3:1:0:0:
284,59,113114,1,0,3:0:0:0:
267,54,113221,1,0,3:0:0:0:
250,49,113328,1,0,3:0:0:0:
188,3,113436,6,0,L|157:12,1,29.9999990844727,4|0,3:1|0:0,0:0:0:0:
96,154,113864,2,0,L|65:145,1,29.9999990844727,0|0,0:0|0:0,0:0:0:0:
18,52,114293,1,0,0:0:0:0:
156,98,114614,6,0,L|193:90,1,37.5000014305115,8|0,0:2|0:0,0:0:0:0:
213,107,114722,2,0,P|232:109|250:114,3,37.5000014305115,8|4|4|0,0:2|3:0|3:0|0:0,0:0:0:0:
261,203,114936,2,0,P|297:197|323:170,1,75.0000028610231,8|8,0:2|0:2,0:0:0:0:
417,53,115150,6,0,B|369:146|451:122|397:225,1,179.999994506836,4|0,3:1|0:0,0:0:0:0:
447,300,115472,1,0,3:0:0:0:
334,345,115579,2,0,L|245:328,1,89.9999972534181,8|0,0:2|3:0,0:0:0:0:
159,260,115793,1,0,0:0:0:0:
133,268,115900,1,8,0:2:0:0:
111,283,116007,2,0,L|121:186,1,89.9999972534181,0|8,3:0|0:2,0:0:0:0:
30,325,116222,1,0,3:0:0:0:
49,127,116436,6,0,B|97:116|134:90|134:90|159:121|200:144,1,179.999994506836,8|0,0:2|0:0,0:0:0:0:
299,198,116757,1,8,0:2:0:0:
367,130,116864,2,0,P|399:209|350:280,1,179.999994506836,4|0,3:1|0:0,0:0:0:0:
350,280,117186,1,0,3:0:0:0:
463,331,117293,5,8,0:2:0:0:
486,314,117400,1,0,3:0:0:0:
416,239,117507,5,0,0:0:0:0:
393,222,117614,1,8,0:2:0:0:
451,134,117722,6,0,P|485:151|490:113,1,89.9999972534181,0|8,3:0|0:2,0:0:0:0:
365,70,117936,2,0,P|344:109|343:154,1,89.9999972534181,0|0,3:0|3:0,0:0:0:0:
416,239,118150,2,0,P|337:198|249:207,1,179.999994506836,8|0,0:2|0:0,0:0:0:0:
157,268,118472,5,8,0:2:0:0:
135,286,118579,2,0,P|83:244|158:168,1,179.999994506836,4|0,3:1|0:0,0:0:0:0:
48,231,118900,1,0,3:0:0:0:
48,231,119007,2,0,L|38:140,1,89.9999972534181,8|0,0:2|3:0,0:0:0:0:
165,60,119222,2,0,L|155:149,1,89.9999972534181,0|8,0:0|0:2,0:0:0:0:
248,207,119436,6,0,B|342:215|306:135|409:151,1,179.999994506836,0|0,3:0|3:0,0:0:0:0:
437,249,119757,1,0,0:0:0:0:
437,249,119864,2,0,P|417:209|425:165,1,89.9999972534181,8|0,0:2|3:0,0:0:0:0:
447,55,120079,2,0,P|402:54|358:44,1,89.9999972534181,0|8,0:0|0:2,0:0:0:0:
254,121,120293,6,0,B|187:106|187:106|133:116|133:116|77:105,1,179.999994506836,4|0,3:1|3:0,0:0:0:0:
55,128,120579,1,0,3:0:0:0:
45,109,120650,1,0,3:0:0:0:
55,89,120722,1,8,0:2:0:0:
184,194,120936,2,0,L|170:284,1,89.9999972534181,8|0,0:2|0:0,0:0:0:0:
81,330,121150,5,4,3:1:0:0:
123,316,121257,1,0,3:0:0:0:
167,316,121364,1,8,0:2:0:0:
208,335,121472,1,8,0:2:0:0:
242,365,121579,1,0,3:0:0:0:
313,370,121686,1,0,3:0:0:0:
356,312,121793,1,0,3:0:0:0:
326,246,121900,1,0,3:0:0:0:
254,242,122007,6,0,P|262:199|268:153,1,89.9999972534181,4|0,3:1|0:0,0:0:0:0:
258,16,122222,2,0,P|290:44|327:73,1,89.9999972534181,0|0,3:0|3:0,0:0:0:0:
451,132,122436,2,0,P|410:145|366:163,1,89.9999972534181,8|0,0:2|3:0,0:0:0:0:
402,283,122650,1,0,3:0:0:0:
432,301,122757,1,0,3:0:0:0:
461,320,122864,2,0,B|484:282|484:282|474:237,1,89.9999972534181,0|0,3:0|3:0,0:0:0:0:
309,268,123079,2,0,B|287:306|287:306|295:352,1,89.9999972534181,0|0,3:0|3:0,0:0:0:0:
258,192,123293,5,8,0:2:0:0:
224,178,123400,1,0,3:0:0:0:
147,201,123507,5,0,3:0:0:0:
113,187,123614,1,0,3:0:0:0:
40,215,123722,6,0,L|55:303,1,89.9999972534181,4|0,3:1|3:0,0:0:0:0:
139,167,123936,2,0,P|155:126|158:81,1,89.9999972534181,0|0,3:0|3:0,0:0:0:0:
7,13,124150,2,0,B|107:3|76:64|176:53,1,179.999994506836,8|0,0:2|3:0,0:0:0:0:
268,25,124472,1,0,3:0:0:0:
291,12,124579,2,0,L|406:29,1,89.9999972534181,4|0,3:1|3:0,0:0:0:0:
497,96,124793,2,0,P|452:99|415:124,1,89.9999972534181,0|0,3:0|3:0,0:0:0:0:
291,245,125007,2,0,L|318:357,1,89.9999972534181,8|0,0:2|3:0,0:0:0:0:
473,367,125222,2,0,L|451:279,1,89.9999972534181,0|0,3:0|3:0,0:0:0:0:
363,196,125436,5,4,3:1:0:0:
349,176,125507,1,0,3:0:0:0:
330,159,125579,1,0,3:0:0:0:
307,150,125650,1,0,3:0:0:0:
282,149,125722,1,0,3:0:0:0:
259,155,125793,1,0,3:0:0:0:
238,167,125864,2,0,P|232:196|238:225,2,59.9999981689454,8|0|0,3:2|3:0|3:0,0:0:0:0:
179,284,126079,2,0,P|202:302|230:311,2,59.9999981689454,0|0|0,3:0|3:0|3:0,0:0:0:0:
80,339,126293,5,0,3:0:0:0:
64,320,126364,1,0,3:0:0:0:
56,297,126436,1,0,3:0:0:0:
53,273,126507,1,0,3:0:0:0:
58,249,126579,1,0,3:0:0:0:
67,227,126650,1,0,3:0:0:0:
77,205,126722,2,0,P|52:188|34:164,2,59.9999981689454,8|0|0,3:2|3:0|3:0,0:0:0:0:
205,158,126936,2,0,P|213:129|214:99,2,59.9999981689454,0|0|0,3:0|3:0|3:0,0:0:0:0:
112,111,127150,6,0,L|96:67,4,44.999998626709,4|0|0|0|4,3:1|3:0|3:0|3:0|3:0,0:0:0:0:
205,158,127579,6,0,L|248:148,4,44.999998626709,4|0|0|0|4,3:0|3:0|3:0|3:0|3:0,0:0:0:0:
351,73,127900,6,0,L|338:115,4,44.999998626709,0|0|4|0|0,3:0|3:0|3:2|3:0|3:0,0:0:0:0:
351,241,128222,6,0,L|319:194,3,44.999998626709,4|0|0|0,3:0|3:0|3:0|3:0,0:0:0:0:
304,163,128436,1,4,3:2:0:0:
238,262,128650,1,4,3:2:0:0:
436,320,128864,6,0,L|445:170,1,150,4|0,3:1|0:0,0:0:0:0:
461,323,129293,2,0,L|470:173,1,150,0|0,3:0|0:0,0:0:0:0:
488,327,129722,1,8,0:2:0:0:
350,82,130150,1,0,3:0:0:0:
463,10,130364,6,0,L|438:53,1,50,0|0,3:0|0:0,0:0:0:0:
340,172,130579,1,4,3:0:0:0:
268,29,130793,1,0,3:0:0:0:
350,82,131007,1,0,3:0:0:0:
327,319,131436,1,8,0:2:0:0:
455,224,131757,1,0,3:0:0:0:
451,247,131864,1,0,3:0:0:0:
449,269,131971,1,4,3:0:0:0:
327,319,132186,1,4,3:0:0:0:
308,300,132293,6,0,P|235:288|178:334,1,150,4|0,3:1|0:0,0:0:0:0:
157,350,132722,6,0,L|-4:317,1,150,0|0,3:0|0:0,0:0:0:0:
152,320,133150,2,0,L|-9:287,1,150,8|0,0:2|0:0,0:0:0:0:
149,290,133579,1,0,3:0:0:0:
76,167,133793,2,0,L|87:118,1,50,0|0,3:0|3:0,0:0:0:0:
59,41,134007,5,4,3:0:0:0:
164,159,134222,1,0,3:0:0:0:
254,116,134436,2,0,P|275:70|269:21,1,100,4|0,3:0|3:0,0:0:0:0:
241,218,134864,2,0,P|302:210|363:211,1,100,8|0,0:2|3:0,0:0:0:0:
363,228,135186,1,0,3:0:0:0:
375,257,135293,2,0,L|365:307,2,33.3333333333333,4|4|4,3:0|3:0|3:0,0:0:0:0:
458,178,135507,2,0,P|453:162|449:145,2,33.3333333333333,4|4|4,3:0|3:0|3:0,0:0:0:0:
509,75,135722,6,0,P|443:107|372:85,1,150,4|0,3:1|0:0,0:0:0:0:
294,130,136150,6,0,P|283:83|333:-3,1,150,0|0,3:0|0:0,0:0:0:0:
197,130,136579,2,0,P|244:143|294:229,1,150,8|0,0:2|0:0,0:0:0:0:
246,44,137007,2,0,P|210:79|161:87,1,100,0|0,3:0|3:0,0:0:0:0:
136,80,137329,1,0,3:0:0:0:
115,63,137436,1,4,3:0:0:0:
13,192,137864,5,0,3:0:0:0:
89,294,138079,2,0,L|91:244,1,50,0|0,3:0|0:0,0:0:0:0:
109,222,138293,2,0,P|178:240|191:310,1,150,8|0,0:2|0:0,0:0:0:0:
252,371,138722,1,4,3:0:0:0:
281,183,138936,1,8,0:2:0:0:
478,264,139150,6,0,B|421:265|421:265|385:287|385:287|330:289,1,150,4|0,3:1|0:0,0:0:0:0:
306,312,139579,6,0,L|305:162,1,150,0|0,3:0|0:0,0:0:0:0:
281,332,140007,2,0,L|280:182,1,150,8|0,0:2|0:0,0:0:0:0:
259,350,140436,2,0,L|200:335,1,50,0|0,3:0|3:0,0:0:0:0:
193,251,140650,2,0,L|144:263,1,50,0|0,3:0|3:0,0:0:0:0:
113,367,140864,1,4,3:1:0:0:
37,284,141079,5,8,0:2:0:0:
73,199,141293,2,0,L|58:100,1,100,8|8,0:2|0:2,0:0:0:0:
167,14,141722,1,8,0:2:0:0:
273,93,141936,2,0,L|334:85,1,50,0|0,3:0|0:0,0:0:0:0:
340,62,142150,2,0,L|364:58,3,25,0|0|0|0,3:0|3:0|3:0|0:0,0:0:0:0:
386,39,142364,1,8,0:2:0:0:
437,101,142472,1,8,0:2:0:0:
388,163,142579,6,0,L|386:262,1,100,4|0,3:1|0:0,0:0:0:0:
468,337,142900,2,0,P|432:302|384:291,1,100,0|0,3:0|0:0,0:0:0:0:
319,342,143222,2,0,P|286:354|264:352,1,50,0|0,3:0|0:0,0:0:0:0:
197,311,143436,2,0,L|188:212,1,100,8|0,0:2|3:0,0:0:0:0:
20,333,143864,6,0,B|12:219|12:219|-12:286,1,179.999994506836,2|8,0:0|0:2,0:0:0:0:
114,367,144293,5,4,3:1:0:0:
111,342,144400,2,0,L|105:290,1,50,0|0,0:0|0:0,0:0:0:0:
95,204,144614,2,0,L|85:104,1,100,0|0,3:0|0:0,0:0:0:0:
79,21,144936,1,0,3:0:0:0:
230,131,145150,5,8,0:2:0:0:
256,142,145222,1,8,0:2:0:0:
282,145,145293,1,8,0:2:0:0:
308,140,145364,1,8,0:2:0:0:
332,128,145436,1,8,0:2:0:0:
367,119,145507,1,8,0:2:0:0:
402,129,145579,2,0,L|402:162,2,33.3333333333333,0|0|0,3:0|3:0|3:0,0:0:0:0:
466,218,145793,2,0,L|466:251,2,33.3333333333333,4|4|4,3:0|3:0|3:0,0:0:0:0:
383,301,146007,6,0,P|368:253|332:220,1,100,4|0,3:1|0:0,0:0:0:0:
289,301,146329,2,0,P|242:285|194:297,1,100,0|0,3:0|0:0,0:0:0:0:
240,372,146650,1,0,3:0:0:0:
242,199,146864,2,0,L|246:95,1,100,8|2,0:2|0:0,0:0:0:0:
289,301,147293,1,2,0:0:0:0:
148,219,147507,2,0,P|128:234|112:253,1,50,8|0,0:2|0:0,0:0:0:0:
85,355,147722,6,0,L|78:255,1,100,4|8,3:1|0:2,0:0:0:0:
15,204,148043,2,0,L|8:104,1,100,4|8,3:1|0:2,0:0:0:0:
69,42,148364,1,4,3:1:0:0:
188,121,148579,1,8,0:2:0:0:
211,135,148686,2,0,L|307:108,1,100,4|8,3:1|0:2,0:0:0:0:
332,124,149007,2,0,P|385:164|329:213,1,150,4|0,3:1|0:0,0:0:0:0:
284,269,149436,6,0,P|333:270|379:289,1,100,4|0,3:1|0:0,0:0:0:0:
434,371,149757,2,0,P|409:327|403:278,1,100,0|0,3:0|0:0,0:0:0:0:
424,180,150079,1,0,3:0:0:0:
262,286,150293,2,0,L|143:260,1,100,8|0,0:2|3:0,0:0:0:0:
60,300,150722,6,0,B|21:280|10:224|52:185|91:195|91:195|87:218,1,179.999994506836,2|8,0:0|0:2,0:0:0:0:
196,111,151150,6,0,L|205:161,1,50,4|8,3:1|3:1,0:0:0:0:
130,48,151364,1,0,0:0:0:0:
130,48,151472,2,0,L|83:30,1,50,0|8,3:0|0:1,0:0:0:0:
234,31,151686,1,0,0:0:0:0:
234,31,151794,2,0,L|260:10,2,33.3333333333333,0|0|0,3:0|3:0|0:0,0:0:0:0:
302,87,152007,5,0,3:0:0:0:
329,99,152079,1,8,3:2:0:0:
358,104,152150,2,0,L|405:98,1,33.3333333333333,8|8,3:2|0:2,0:0:0:0:
475,49,152293,1,8,0:2:0:0:
452,67,152365,1,8,0:2:0:0:
433,89,152436,1,0,3:0:0:0:
423,117,152507,1,0,3:0:0:0:
421,147,152579,1,0,3:0:0:0:
421,176,152650,2,0,L|437:220,2,33.3333333333333,4|4|4,3:0|3:0|3:0,0:0:0:0:
391,298,152864,6,0,P|349:270|300:263,1,100,4|0,3:1|0:0,0:0:0:0:
249,202,153186,2,0,P|207:229|158:236,1,100,0|0,3:0|0:0,0:0:0:0:
97,183,153507,1,0,3:0:0:0:
144,56,153722,1,8,0:2:0:0:
259,112,153936,1,0,3:0:0:0:
169,143,154150,6,0,B|172:96|144:55|144:55|195:51|231:20,1,179.999994506836,2|8,0:0|0:2,0:0:0:0:
368,54,154579,6,0,L|347:151,1,100,4|8,3:1|0:2,0:0:0:0:
443,111,154900,2,0,L|422:208,1,100,4|8,3:1|0:2,0:0:0:0:
332,233,155222,1,4,3:1:0:0:
445,376,155436,1,8,0:2:0:0:
486,309,155543,2,0,P|439:294|394:315,1,100,4|8,3:1|0:2,0:0:0:0:
320,355,155864,2,0,L|173:323,1,150,12|0,3:1|0:0,0:0:0:0:
85,371,156293,6,0,P|70:323|83:275,1,100,4|0,3:1|0:0,0:0:0:0:
158,226,156614,2,0,L|141:108,1,100,4|0,3:1|0:0,0:0:0:0:
79,71,156936,2,0,L|55:79,2,25,0|0|0,3:0|3:0|3:0,0:0:0:0:
149,19,157150,5,8,0:2:0:0:
228,29,157257,1,8,0:2:0:0:
306,41,157364,1,8,0:2:0:0:
385,52,157472,1,8,0:2:0:0:
438,133,157579,5,0,3:0:0:0:
384,143,157686,1,0,3:0:0:0:
329,152,157793,1,0,3:0:0:0:
275,164,157900,1,0,3:0:0:0:
324,244,158007,6,0,B|390:250|372:292|436:299,1,129.999994049073,4|0,3:1|0:0,0:0:0:0:
322,328,158329,2,0,P|260:340|168:344,1,129.999994049073,4|0,3:1|0:0,0:0:0:0:
126,291,158650,2,0,L|120:249,2,32.4999985122681,0|0|0,3:0|3:0|3:0,0:0:0:0:
52,353,158864,5,8,0:2:0:0:
40,275,158972,1,8,0:2:0:0:
29,197,159079,1,8,0:2:0:0:
14,120,159186,1,8,0:2:0:0:
95,87,159293,5,0,3:0:0:0:
104,144,159400,1,0,3:0:0:0:
113,201,159507,1,0,3:0:0:0:
121,258,159614,1,0,3:0:0:0:
210,261,159722,6,0,L|194:131,1,129.999994049073,4|0,3:1|0:0,0:0:0:0:
248,49,160043,2,0,B|318:37|299:85|371:75,1,129.999994049073,4|0,3:1|0:0,0:0:0:0:
449,141,160364,2,0,P|464:113|471:81,1,64.9999970245363,0|0,3:0|3:0,0:0:0:0:
359,167,160579,2,0,L|358:199,3,32.4999985122681,0|0|0|0,3:0|0:0|3:0|0:0,0:0:0:0:
378,234,160793,1,8,0:2:0:0:
337,298,160900,1,8,0:2:0:0:
387,359,161007,1,0,3:0:0:0:
416,355,161114,1,0,3:0:0:0:
446,350,161222,1,0,3:0:0:0:
477,345,161329,1,0,3:0:0:0:
506,361,161436,6,0,L|489:232,1,129.999994049073,4|0,3:1|0:0,0:0:0:0:
409,202,161757,2,0,L|392:73,1,129.999994049073,4|0,3:1|0:0,0:0:0:0:
454,14,162079,1,8,0:2:0:0:
216,84,162293,6,0,L|159:97,3,32.4999985122681,8|8|8|8,0:2|0:2|0:2|0:2,0:0:0:0:
205,37,162507,2,0,L|191:-17,3,32.4999985122681,0|0|0|0,3:0|3:0|3:0|3:0,0:0:0:0:
258,29,162722,2,0,L|312:15,3,32.4999985122681,8|8|8|8,0:2|0:2|0:2|0:2,0:0:0:0:
266,75,162936,1,0,3:0:0:0:
305,145,163043,2,0,L|293:175,1,32.4999985122681,0|0,3:0|3:0,0:0:0:0:
307,208,163150,6,0,P|243:214|195:256,1,129.999994049073,4|0,3:1|0:0,0:0:0:0:
218,384,163472,2,0,P|170:341|106:335,1,129.999994049073,4|0,3:1|0:0,0:0:0:0:
196,258,163793,6,0,L|182:108,1,129.999994049073,4|0,3:1|0:0,0:0:0:0:
97,225,164114,2,0,L|83:75,1,129.999994049073,4|0,3:1|0:0,0:0:0:0:
183,128,164436,6,0,P|214:122|243:107,1,64.9999970245363,4|0,3:1|0:0,0:0:0:0:
185,43,164650,1,12,3:1:0:0:
249,197,164864,6,0,B|362:177|287:116|411:95,3,200,4|0|0|0,3:1|0:0|0:0|0:0,0:0:0:0:
410,191,166364,5,0,0:0:0:0:
410,191,166579,2,0,L|401:295,1,100,0|0,0:0|0:0,0:0:0:0:
393,373,167007,1,0,0:0:0:0:
255,193,167864,5,8,0:2:0:0:
91,44,168293,5,0,3:1:0:0:
102,121,168400,1,0,3:0:0:0:
112,198,168507,1,0,3:0:0:0:
101,212,168614,1,0,3:0:0:0:
91,227,168722,1,0,3:0:0:0:
216,63,169150,5,8,0:2:0:0:
258,154,169364,2,0,L|245:243,1,89.9999972534181,0|0,3:0|0:0,0:0:0:0:
254,267,169579,1,0,3:0:0:0:
303,338,169686,2,0,P|349:306|340:250,1,119.999996337891,0|0,3:0|3:0,0:0:0:0:
348,160,170007,5,0,3:0:0:0:
423,179,170114,1,0,3:0:0:0:
497,202,170222,1,0,3:0:0:0:
496,184,170329,1,0,3:0:0:0:
495,166,170436,1,0,3:0:0:0:
330,45,170864,5,8,0:2:0:0:
248,153,171079,2,0,P|206:136|180:100,1,89.9999972534181,0|0,3:0|0:0,0:0:0:0:
176,79,171293,1,0,3:0:0:0:
86,21,171400,2,0,L|94:140,1,119.999996337891,0|0,3:0|3:0,0:0:0:0:
163,203,171722,5,0,3:0:0:0:
89,229,171829,1,0,3:0:0:0:
86,306,171936,1,0,3:0:0:0:
102,312,172043,1,0,3:0:0:0:
119,316,172150,2,0,L|241:288,1,112.500004291535,0|0,3:0|0:0,0:0:0:0:
310,315,172579,5,8,0:2:0:0:
277,137,172793,1,0,3:0:0:0:
423,206,173007,1,0,3:0:0:0:
352,240,173114,2,0,L|232:209,1,119.999996337891,0|0,3:0|3:0,0:0:0:0:
165,242,173436,5,4,3:1:0:0:
129,186,173543,1,0,0:0:0:0:
64,172,173650,1,0,0:0:0:0:
0,187,173757,5,4,3:1:0:0:
56,151,173864,1,0,0:0:0:0:
70,86,173971,1,0,0:0:0:0:
55,22,174079,5,4,3:1:0:0:
91,78,174186,1,0,0:0:0:0:
156,92,174293,1,0,0:0:0:0:
220,77,174400,5,4,3:1:0:0:
164,113,174507,1,0,0:0:0:0:
150,178,174614,1,0,0:0:0:0:
165,242,174722,5,4,3:1:0:0:
192,252,174829,1,0,3:0:0:0:
220,260,174936,1,0,3:0:0:0:
247,270,175043,1,0,3:0:0:0:
306,329,175150,5,4,3:1:0:0:
381,310,175257,1,0,3:0:0:0:
453,281,175364,1,0,3:0:0:0:
443,265,175472,1,0,3:0:0:0:
432,250,175579,1,0,3:0:0:0:
327,70,176007,5,8,0:2:0:0:
356,163,176222,2,0,P|311:167|272:148,1,89.9999972534181,0|0,3:0|0:0,0:0:0:0:
259,132,176436,1,0,3:0:0:0:
184,60,176543,2,0,P|127:76|95:125,1,119.999996337891,0|0,3:0|3:0,0:0:0:0:
33,191,176864,5,0,3:0:0:0:
57,265,176972,1,0,3:0:0:0:
132,284,177079,1,0,3:0:0:0:
136,266,177186,1,0,3:0:0:0:
139,248,177293,6,0,P|194:254|244:280,1,112.500004291535,0|0,3:0|0:0,0:0:0:0:
243,370,177722,1,8,0:2:0:0:
434,295,177936,2,0,P|398:288|362:243,1,89.9999972534181,0|0,3:0|0:0,0:0:0:0:
357,226,178150,1,0,3:0:0:0:
444,201,178257,2,0,P|431:168|469:94,1,119.999996337891,0|0,3:0|3:0,0:0:0:0:
410,27,178579,5,0,3:0:0:0:
344,69,178686,1,0,3:0:0:0:
270,44,178793,1,0,3:0:0:0:
255,54,178900,1,0,3:0:0:0:
240,64,179007,1,0,3:0:0:0:
33,165,179436,5,8,0:2:0:0:
151,229,179650,2,0,L|160:139,1,89.9999972534181,0|0,3:0|0:0,0:0:0:0:
163,117,179864,1,0,3:0:0:0:
238,189,179972,2,0,L|356:171,1,119.999996337891,0|0,3:0|3:0,0:0:0:0:
427,221,180293,6,0,P|441:221|456:225,4,29.9999990844727,12|0|0|0|0,3:1|3:0|3:0|0:0|3:0,0:0:0:0:
373,146,180614,2,0,P|366:159|355:170,4,29.9999990844727,0|0|0|0|0,3:0|0:0|3:0|0:0|3:0,0:0:0:0:
463,137,180936,2,0,P|456:123|451:109,4,29.9999990844727,8|0|0|0|0,3:2|3:0|3:0|0:0|3:0,0:0:0:0:
427,221,181257,2,0,P|441:221|456:225,4,29.9999990844727,0|0|0|0|0,3:0|0:0|3:0|0:0|3:0,0:0:0:0:
353,259,181579,5,12,3:1:0:0:
275,234,181686,2,0,L|215:242,1,59.9999981689454,8|8,3:2|3:2,0:0:0:0:
141,212,181900,1,8,3:2:0:0:
141,212,182007,5,4,3:1:0:0:
81,143,182436,1,8,0:0:0:0:
126,56,182864,1,2,0:0:0:0:
126,56,183079,1,2,0:0:0:0:
81,143,183293,1,8,0:0:0:0:
141,212,183722,5,2,0:0:0:0:
81,143,184151,1,8,0:0:0:0:
126,56,184579,1,2,0:0:0:0:
126,56,184794,1,2,0:0:0:0:
81,143,185008,1,8,0:0:0:0:
161,316,185436,5,0,3:0:0:0:
161,316,185864,1,0,3:0:0:0:
351,316,186293,5,0,3:0:0:0:
351,316,186721,1,0,3:0:0:0:
394,134,187150,6,0,L|421:103,3,29.9999990844727,4|0|0|0,3:1|3:0|3:0|3:0,0:0:0:0:
312,75,187364,2,0,L|298:36,3,29.9999990844727,4|0|0|0,3:1|3:0|3:0|3:0,0:0:0:0:
221,111,187579,2,0,L|180:103,3,29.9999990844727,4|0|0|0,3:1|3:0|3:0|3:0,0:0:0:0:
187,198,187793,2,0,L|160:229,3,29.9999990844727,4|0|0|0,3:1|3:0|3:0|3:0,0:0:0:0:
226,281,188007,2,0,L|239:319,3,29.9999990844727,4|0|0|0,3:1|3:0|3:0|3:0,0:0:0:0:
315,278,188222,2,0,L|355:285,3,29.9999990844727,4|0|0|0,3:1|3:0|3:0|3:0,0:0:0:0:
417,357,188436,5,12,0:1:0:0:
436,342,188864,6,0,P|421:246|446:173,1,160,4|0,3:1|0:0,0:0:0:0:
489,57,189186,1,0,3:0:0:0:
406,101,189293,2,0,P|318:110|284:90,2,80,8|0|0,0:2|3:0|0:0,0:0:0:0:
347,25,189614,1,8,0:2:0:0:
258,62,189722,2,0,L|157:57,1,80,0|8,3:0|0:2,0:0:0:0:
49,23,189936,2,0,P|84:104|80:117,1,80,0|0,3:0|0:0,0:0:0:0:
2,250,190150,1,8,0:2:0:0:
2,250,190257,2,0,B|23:168|-27:168|3:91,1,160,0|8,0:0|0:2,0:0:0:0:
171,158,190579,6,0,P|169:241|96:219,1,160,4|0,3:1|0:0,0:0:0:0:
269,133,190900,1,0,3:0:0:0:
337,204,191007,2,0,P|346:245|330:296,2,80,8|0|0,0:2|3:0|0:0,0:0:0:0:
485,126,191329,1,8,0:2:0:0:
435,203,191436,2,0,P|426:244|442:295,2,80,0|8|0,3:0|0:2|3:0,0:0:0:0:
453,43,191757,1,0,3:0:0:0:
397,116,191864,2,0,B|340:126|296:89|296:89|269:107|267:145,1,160,8|0,0:2|0:0,0:0:0:0:
128,12,192186,1,8,0:2:0:0:
128,12,192293,6,0,P|169:92|133:149,1,160,4|0,3:1|0:0,0:0:0:0:
9,273,192614,1,0,3:0:0:0:
91,236,192722,2,0,P|174:245|212:263,2,80,8|0|0,0:2|3:0|0:0,0:0:0:0:
124,334,193043,1,8,0:2:0:0:
260,259,193150,2,0,P|251:176|233:138,1,80,0|8,3:0|0:2,0:0:0:0:
342,342,193364,2,0,P|422:339|441:325,1,80,0|0,3:0|0:0,0:0:0:0:
393,119,193579,2,0,P|351:184|384:264,1,160,8|0,0:2|0:0,0:0:0:0:
231,372,193900,1,8,0:2:0:0:
231,372,194007,6,0,P|126:343|53:360,1,160,4|0,3:1|3:0,0:0:0:0:
8,215,194329,1,0,3:0:0:0:
8,215,194436,2,0,P|113:244|186:227,1,160,8|0,0:2|0:0,0:0:0:0:
258,88,194757,1,8,0:2:0:0:
258,88,194864,6,0,L|262:185,1,80,4|0,3:1|3:0,0:0:0:0:
366,42,195079,2,0,L|362:139,1,80,0|0,3:0|3:0,0:0:0:0:
356,338,195293,1,8,0:2:0:0:
448,247,195400,1,8,0:2:0:0:
467,254,195614,5,0,3:0:0:0:
319,348,195722,2,0,B|241:373|249:296|151:338,1,160,4|0,3:1|0:0,0:0:0:0:
144,323,196007,1,0,3:2:0:0:
134,304,196078,1,0,3:2:0:0:
144,284,196150,2,0,P|149:250|137:196,1,80,8|0,3:2|3:0,0:0:0:0:
19,207,196364,2,0,P|11:246|16:285,1,80,0|8,0:0|0:2,0:0:0:0:
81,125,196579,2,0,B|111:64|72:13|72:13|43:35|47:70,1,160,0|0,3:0|3:0,0:0:0:0:
140,205,196900,1,0,3:0:0:0:
221,119,197007,2,0,P|266:111|315:124,2,80,8|0|0,0:2|3:0|0:0,0:0:0:0:
265,282,197329,1,8,0:2:0:0:
265,282,197436,6,0,B|347:304|342:245|424:275,1,160,4|0,3:1|0:0,0:0:0:0:
187,347,197757,1,0,3:0:0:0:
187,347,197864,2,0,P|74:341|62:344,1,80,8|0,0:2|3:0,0:0:0:0:
0,247,198079,2,0,P|113:243|124:239,1,80,0|8,0:0|0:2,0:0:0:0:
140,94,198293,2,0,P|128:165|209:155,1,160,0|0,3:0|3:0,0:0:0:0:
408,137,198614,1,0,3:0:0:0:
348,60,198722,2,0,P|299:56|243:71,1,80,8|0,0:2|3:0,0:0:0:0:
275,234,198936,2,0,P|323:237|379:222,1,80,0|8,3:0|0:2,0:0:0:0:
129,93,199150,6,0,P|104:190|166:247,1,160,4|0,3:1|0:0,0:0:0:0:
261,342,199472,1,0,3:0:0:0:
166,334,199579,2,0,P|126:333|61:340,2,80,8|0|0,0:2|3:0|0:0,0:0:0:0:
346,365,199900,1,8,0:2:0:0:
417,308,200007,2,0,P|426:270|418:208,1,80,0|8,3:0|0:2,0:0:0:0:
371,62,200222,2,0,P|361:99|370:162,1,80,0|0,3:0|0:0,0:0:0:0:
226,253,200436,1,8,0:2:0:0:
226,253,200543,2,0,P|234:156|182:75,1,160,0|8,3:0|0:2,0:0:0:0:
103,26,200864,6,0,L|57:27,3,40,4|0|0|0,3:1|3:0|3:0|3:0,0:0:0:0:
50,121,201079,2,0,L|3:123,3,40,4|0|0|0,3:0|3:0|3:0|3:0,0:0:0:0:
103,206,201293,2,0,L|59:207,3,40,4|0|0|0,3:0|3:0|3:0|3:0,0:0:0:0:
49,300,201508,2,0,L|4:302,3,40,4|0|0|0,3:0|0:0|3:0|3:0,0:0:0:0:
117,358,201722,5,4,3:2:0:0:
379,357,201936,1,4,3:0:0:0:
244,94,202150,1,4,3:2:0:0:
244,147,202257,1,0,3:0:0:0:
244,200,202364,1,4,3:2:0:0:
245,253,202471,1,0,3:0:0:0:
245,307,202579,5,4,3:1:0:0:
258,316,202650,1,0,3:0:0:0:
274,324,202721,1,0,3:0:0:0:
290,328,202793,1,0,3:0:0:0:
307,330,202864,1,0,3:0:0:0:
325,328,202936,1,0,3:0:0:0:
341,324,203007,5,8,0:2:0:0:
336,306,203078,1,0,3:0:0:0:
334,290,203150,1,0,3:0:0:0:
336,273,203221,1,0,3:0:0:0:
340,256,203293,1,0,3:0:0:0:
347,241,203364,1,0,3:0:0:0:
360,231,203436,5,0,3:0:0:0:
375,238,203507,1,0,3:0:0:0:
391,242,203579,1,0,3:0:0:0:
409,244,203650,1,0,3:0:0:0:
426,243,203722,1,0,3:0:0:0:
442,238,203793,1,0,3:0:0:0:
455,229,203864,6,0,L|486:168,11,53.3333333333333,8|0|0|0|0|0|4|0|0|0|0|0,0:2|3:0|3:0|3:0|3:0|3:0|3:1|3:0|3:0|3:0|3:0|3:0,0:0:0:0:
386,123,204722,2,0,L|389:54,11,53.3333333333333,8|0|0|0|0|0|0|0|0|0|0|0,0:2|3:0|3:0|3:0|3:0|3:0|3:0|3:0|3:0|3:0|3:0|3:0,0:0:0:0:
321,223,205579,2,0,L|263:177,5,53.3333333333333,8|0|0|0|0|0,0:2|3:0|3:0|3:0|3:0|3:0,0:0:0:0:
287,93,206007,5,4,3:1:0:0:
274,84,206078,1,0,3:0:0:0:
258,76,206149,1,0,3:0:0:0:
242,72,206221,1,0,3:0:0:0:
225,70,206292,1,0,3:0:0:0:
207,72,206364,1,0,3:0:0:0:
191,76,206435,5,8,0:2:0:0:
196,94,206506,1,0,3:0:0:0:
198,110,206578,1,0,3:0:0:0:
196,127,206649,1,0,3:0:0:0:
192,144,206721,1,0,3:0:0:0:
185,159,206792,1,0,3:0:0:0:
172,169,206864,5,0,3:0:0:0:
157,162,206935,1,0,3:0:0:0:
141,158,207007,1,0,3:0:0:0:
123,156,207078,1,0,3:0:0:0:
106,157,207150,1,0,3:0:0:0:
90,162,207221,1,0,3:0:0:0:
77,171,207293,6,0,L|46:232,5,53.3333333333333,8|0|0|0|0|0,0:2|3:0|3:0|3:0|3:0|3:0,0:0:0:0:
142,288,207722,2,0,L|179:345,5,53.3333333333333,4|0|0|0|0|0,3:1|3:0|3:0|3:0|3:0|3:0,0:0:0:0:
282,279,208150,2,0,L|350:275,5,53.3333333333333,8|0|0|0|0|0,0:2|3:0|3:0|3:0|3:0|3:0,0:0:0:0:
411,352,208579,6,0,P|451:363|501:340,1,80,8|0,0:2|3:0,0:0:0:0:
485,183,208793,2,0,P|445:172|395:195,1,80,8|0,0:2|3:0,0:0:0:0:
235,181,209007,1,8,0:2:0:0:
272,169,209114,1,8,0:2:0:0:
296,137,209221,1,8,0:2:0:0:
296,98,209328,1,8,0:2:0:0:
274,66,209436,6,0,P|228:58|172:70,1,100,12|0,3:1|0:0,0:0:0:0:
1,169,209650,2,0,P|47:177|103:165,1,100,8|0,0:2|3:0,0:0:0:0:
282,263,209864,2,0,P|236:255|180:267,1,100,8|0,0:2|3:0,0:0:0:0:
9,366,210078,2,0,P|55:374|111:362,1,100,8|0,0:2|3:0,0:0:0:0:
367,317,210293,6,0,P|380:268|367:192,1,100,8|0,0:2|3:0,0:0:0:0:
381,23,210507,2,0,P|368:72|381:148,1,100,8|0,0:2|3:0,0:0:0:0:
266,318,210722,2,0,P|279:269|266:193,1,100,8|0,0:2|3:0,0:0:0:0:
280,24,210936,2,0,P|267:73|280:149,1,100,8|0,0:2|3:0,0:0:0:0:
93,264,211150,6,0,B|138:285|138:285|189:262,1,100,8|0,0:2|3:0,0:0:0:0:
176,66,211364,2,0,B|131:45|131:45|80:68,1,100,8|0,0:2|3:0,0:0:0:0:
284,266,211579,2,0,B|329:287|329:287|380:264,1,100,8|0,0:2|3:0,0:0:0:0:
367,68,211793,2,0,B|322:47|322:47|271:70,1,100,8|0,0:2|3:0,0:0:0:0:
83,170,212007,2,0,L|196:170,1,100,8|0,0:2|3:0,0:0:0:0:
378,168,212222,2,0,L|265:168,1,100,8|0,0:2|3:0,0:0:0:0:
83,290,212436,2,0,L|196:290,1,100,8|0,0:2|3:0,0:0:0:0:
378,288,212651,2,0,L|265:288,1,100,8|0,0:2|3:0,0:0:0:0:
17,356,212864,6,0,L|6:299,3,50,8|0|0|0,0:2|3:0|3:0|3:0,0:0:0:0:
31,218,213079,2,0,L|42:161,3,50,8|0|0|0,0:2|3:0|3:0|3:0,0:0:0:0:
150,218,213293,2,0,L|139:161,3,50,8|0|0|0,0:2|3:0|3:0|3:0,0:0:0:0:
164,80,213508,2,0,L|175:23,3,50,8|0|0|0,0:2|3:0|3:0|3:0,0:0:0:0:
288,39,213722,6,0,L|297:88,3,50,8|0|0|0,0:2|3:0|3:0|3:0,0:0:0:0:
320,176,213937,2,0,L|310:225,3,50,8|0|0|0,0:2|3:0|3:0|3:0,0:0:0:0:
421,176,214151,2,0,L|430:225,3,50,8|0|0|0,0:2|3:0|3:0|3:0,0:0:0:0:
453,314,214364,2,0,L|443:363,3,50,8|0|0|0,0:1|3:0|3:0|3:0,0:0:0:0:
313,348,214579,6,0,L|356:294,1,50,4|0,3:3|3:0,0:0:0:0:
290,338,214686,2,0,L|317:274,1,50,0|0,3:0|3:0,0:0:0:0:
266,330,214793,2,0,L|276:261,1,50,0|0,3:0|3:0,0:0:0:0:
241,326,214900,2,0,L|233:257,1,50,0|0,3:0|3:0,0:0:0:0:
216,324,215007,2,0,L|190:259,1,50,0|0,3:0|3:0,0:0:0:0:
191,325,215114,2,0,L|149:269,1,50,0|0,3:0|3:0,0:0:0:0:
167,330,215222,2,0,L|112:286,1,50,0|0,3:0|3:0,0:0:0:0:
143,337,215329,2,0,L|79:309,1,50,0|0,3:0|3:0,0:0:0:0:
120,346,215436,5,12,0:1:0:0:
41,133,215650,1,8,3:2:0:0:
295,184,215864,1,0,3:0:0:0:
200,108,215972,2,0,L|174:35,2,50,0|0|8,3:0|3:0|3:2,0:0:0:0:
461,88,216293,6,0,B|492:98|475:148|475:148|429:174|377:149|368:93,1,200,8|0,0:2|0:0,0:0:0:0:
403,29,216614,1,8,0:2:0:0:
51,296,218007,6,0,B|20:286|37:236|37:236|83:210|135:235|144:291,1,200,8|0,0:2|0:0,0:0:0:0:
109,355,218328,1,8,0:2:0:0:
464,290,219722,6,0,B|495:300|478:350|478:350|432:376|380:351|371:295,1,200,8|0,0:2|0:0,0:0:0:0:
406,231,220043,1,8,0:2:0:0:
211,151,220364,6,0,B|180:141|197:91|197:91|243:65|295:90|304:146,1,200,8|0,0:2|0:0,0:0:0:0:
269,210,220685,1,8,0:2:0:0:
79,339,221007,2,0,L|9:288,1,75.0000028610231,8|0,0:2|3:0,0:0:0:0:
86,236,221222,2,0,L|16:185,1,75.0000028610231,0|0,3:0|3:0,0:0:0:0:
127,109,221436,6,0,L|179:111,7,37.5000014305115,4|0|0|0|0|0|0|0,3:1|3:0|3:0|3:0|3:0|3:0|3:0|3:0,0:0:0:0:
237,25,221864,2,0,L|262:71,3,37.5000014305115,4|0|0|0,3:0|3:0|3:0|3:0,0:0:0:0:
244,157,222079,2,0,L|229:206,7,37.5000014305115,4|0|0|0|0|0|0|0,3:1|3:0|3:0|3:0|3:0|3:0|3:0|3:0,0:0:0:0:
335,117,222507,2,0,L|372:116,3,37.5000014305115,4|0|0|0,3:0|3:0|3:0|3:0,0:0:0:0:
325,220,222722,5,4,3:1:0:0:
342,221,222793,1,0,3:0:0:0:
359,223,222864,1,0,3:0:0:0:
376,225,222936,1,0,3:0:0:0:
239,349,223150,5,4,3:1:0:0:
256,192,223257,12,0,230007,0:0:0:0:
