osu file format v14

[General]
AudioFilename: audio.mp3
AudioLeadIn: 0
PreviewTime: 92533
Countdown: 0
SampleSet: Soft
StackLeniency: 0.7
Mode: 0
LetterboxInBreaks: 0
WidescreenStoryboard: 1

[Editor]
Bookmarks: 10569,24283,37997,51712,58569,65426,79140,85997,92854,99712,106569,115140,128854,142569,156283,163140,168283,181997,188854,202569,209426,216283,223140
DistanceSpacing: 0.9
BeatDivisor: 4
GridSize: 32
TimelineZoom: 1.7

[Metadata]
Title:Datura
TitleUnicode:Datura
Artist:UNDEAD CORPORATION
ArtistUnicode:UNDEAD CORPORATION
Creator:Seto Kousuke
Version:Normal
Source:osu!
Tags:English Rock metal featured artist fa mapper mappers mapper's mappers' guild pishifat pishi trynna senna
BeatmapID:2179888
BeatmapSetID:1020613

[Difficulty]
HPDrainRate:3
CircleSize:3
OverallDifficulty:4
ApproachRate:5
SliderMultiplier:1.3
SliderTickRate:1

[Events]
//Background and Video events
0,0,"abstract.jpg",0,0
//Break Periods
2,108492,110522
//Storyboard Layer 0 (Background)
//Storyboard Layer 1 (Fail)
//Storyboard Layer 2 (Pass)
//Storyboard Layer 3 (Foreground)
//Storyboard Layer 4 (Overlay)
//Storyboard Sound Samples

[TimingPoints]
3722,428.571428571429,4,2,1,60,1,0
10579,-100,4,2,1,75,0,0
24293,-100,4,2,1,60,0,0
51722,-100,4,2,1,75,0,1
65436,-100,4,2,1,40,0,0
66722,-100,4,2,1,60,0,0
99722,-100,4,2,1,75,0,1
106579,-100,4,2,1,60,0,0
108293,-100,4,2,1,40,0,0
110864,-100,4,2,1,60,0,0
115150,-100,4,2,1,75,0,1
128864,-100,4,2,1,60,0,0
142579,-100,4,2,1,75,0,0
156293,-100,4,2,1,60,0,0
166900,-100,4,2,1,5,0,0
167114,-100,4,2,1,60,0,0
182114,-100,4,2,2,40,0,0
185436,-100,4,2,1,60,0,0
188864,-100,4,2,1,75,0,1
209436,-100,4,2,1,85,0,1
216293,-100,4,2,1,65,0,0
228293,-100,4,2,1,45,0,0
229043,-100,4,2,1,25,0,0
229900,-100,4,2,1,5,0,0

[Colours]
Combo1 : 148,98,183
Combo2 : 44,75,227
Combo3 : 211,99,149
Combo4 : 240,206,47

[HitObjects]
81,88,3722,6,0,P|114:69|184:90,1,97.5,8|8,0:2|0:2,0:0:0:0:
276,179,4579,1,0,1:0:0:0:
378,123,5007,1,0,1:0:0:0:
453,212,5436,6,0,L|448:316,1,97.5,8|8,0:2|0:2,0:0:0:0:
307,349,6293,1,0,1:0:0:0:
202,296,6722,1,0,1:0:0:0:
98,350,7150,6,0,P|54:332|42:276,1,97.5,8|8,0:2|0:2,0:0:0:0:
52,141,8007,1,0,1:0:0:0:
158,91,8436,1,0,1:0:0:0:
242,172,8864,5,8,0:2:0:0:
363,292,10579,6,0,L|270:282,1,65,4|0,3:1|0:0,0:0:0:0:
261,240,11007,2,0,L|248:336,2,97.5,8|8|0,0:2|0:2|3:0,0:0:0:0:
299,195,11864,1,8,0:2:0:0:
411,164,12293,2,0,P|402:106|382:83,1,65,4|0,3:1|0:0,0:0:0:0:
354,70,12722,2,0,L|236:67,2,97.5,8|8|0,0:2|0:2|3:0,0:0:0:0:
405,41,13579,1,8,0:2:0:0:
475,134,14007,6,0,L|476:213,1,65,4|0,3:1|0:0,0:0:0:0:
426,230,14436,2,0,P|370:213|317:237,2,97.5,8|8|0,0:2|0:2|3:0,0:0:0:0:
459,278,15293,1,8,0:2:0:0:
373,358,15722,2,0,L|288:358,1,65,4|0,3:1|3:0,0:0:0:0:
253,378,16150,1,8,0:2:0:0:
172,292,16579,1,4,3:1:0:0:
254,208,17007,2,0,L|262:130,1,65,8|8,0:2|0:2,0:0:0:0:
226,95,17436,6,0,L|319:105,1,65,4|0,3:1|0:0,0:0:0:0:
348,112,17864,2,0,L|355:3,2,97.5,8|8|0,0:2|0:2|3:0,0:0:0:0:
336,169,18722,1,8,0:2:0:0:
433,233,19150,2,0,P|437:286|427:303,1,65,4|0,3:1|0:0,0:0:0:0:
397,342,19579,2,0,L|288:339,2,97.5,8|8|0,0:2|0:2|3:0,0:0:0:0:
446,373,20436,1,8,0:2:0:0:
499,269,20864,6,0,P|511:198|495:121,1,130,4|8,3:1|3:2,0:0:0:0:
465,96,21507,1,0,3:0:0:0:
465,96,21722,2,0,P|394:83|317:100,1,130,0|8,3:0|3:2,0:0:0:0:
236,32,22579,1,4,3:1:0:0:
170,137,23007,1,4,3:0:0:0:
62,67,23436,1,4,3:2:0:0:
36,192,23864,1,4,3:2:0:0:
135,254,24293,6,0,L|285:238,1,130,4|8,3:1|0:2,0:0:0:0:
354,314,25150,2,0,P|394:284|422:278,1,65,0|0,3:0|3:0,0:0:0:0:
464,294,25579,1,8,0:2:0:0:
464,294,25793,2,0,L|457:148,1,130,8|0,0:2|3:0,0:0:0:0:
431,111,26436,1,8,0:2:0:0:
318,141,26864,2,0,P|261:146|186:129,1,130,0|8,3:0|0:2,0:0:0:0:
144,93,27507,6,0,L|150:244,1,130,8|0,0:2|0:0,0:0:0:0:
119,273,28150,1,8,0:2:0:0:
205,352,28579,1,0,3:0:0:0:
252,245,29007,1,8,0:2:0:0:
252,245,29222,2,0,L|396:240,1,130,12|0,0:1|3:0,0:0:0:0:
428,276,29864,1,8,0:2:0:0:
502,185,30293,2,0,P|512:132|495:47,2,130,8|8|4,0:2|0:2|3:1,0:0:0:0:
404,120,31579,5,8,0:2:0:0:
299,171,32007,2,0,P|217:166|167:144,1,130,0|8,3:0|0:2,0:0:0:0:
137,101,32650,1,8,0:2:0:0:
54,256,33293,1,8,0:2:0:0:
141,333,33722,2,0,L|216:328,1,65,8|0,0:2|3:0,0:0:0:0:
263,338,34150,1,8,0:2:0:0:
263,338,34364,6,0,L|405:335,1,130,4|0,3:1|3:0,0:0:0:0:
451,342,35007,2,0,P|449:301|464:201,1,130,8|4,0:2|3:2,0:0:0:0:
508,106,35864,1,8,0:2:0:0:
397,66,36293,6,0,P|354:65|282:89,2,97.5,8|8|8,0:2|0:2|0:2,0:0:0:0:
489,97,37257,1,8,0:2:0:0:
426,169,37579,2,0,L|420:258,1,65,8|0,0:2|3:0,0:0:0:0:
394,285,38007,6,0,P|455:268|512:296,2,130,0|0|8,3:1|3:0|0:2,0:0:0:0:
353,327,39079,1,0,3:0:0:0:
353,327,39293,1,0,3:0:0:0:
207,294,39722,2,0,P|145:277|88:305,2,130,0|0|8,3:0|3:0|0:2,0:0:0:0:
248,336,40794,1,0,3:0:0:0:
248,336,41008,1,0,3:0:0:0:
296,208,41436,6,0,L|290:55,2,130,0|0|8,3:0|3:0|0:2,0:0:0:0:
301,266,42507,1,0,3:0:0:0:
301,266,42722,1,0,3:0:0:0:
192,188,43150,6,0,L|77:199,1,97.5,4|4,3:1|3:1,0:0:0:0:
88,284,43793,2,0,L|185:274,2,97.5,4|4|4,3:1|3:1|3:1,0:0:0:0:
0,206,44864,6,0,P|-7:145|38:70,2,130,4|0|8,3:1|3:0|0:2,0:0:0:0:
31,255,45936,1,0,3:0:0:0:
31,255,46150,1,0,3:0:0:0:
173,244,46579,2,0,P|211:195|296:174,2,130,0|0|8,3:0|3:0|0:2,0:0:0:0:
161,300,47651,1,0,3:0:0:0:
161,300,47865,1,0,3:0:0:0:
321,328,48293,6,0,P|382:321|457:366,2,130,0|0|8,3:0|3:0|0:2,0:0:0:0:
273,359,49365,1,0,3:0:0:0:
273,359,49579,1,0,3:0:0:0:
200,251,50007,6,0,L|211:136,1,97.5,12|0,3:1|3:0,0:0:0:0:
139,85,50650,2,0,P|187:112|317:66,1,195,8|12,3:2|3:1,0:0:0:0:
425,137,51722,6,0,B|423:173|437:200|437:200|425:221|425:221|432:247|433:268,2,130,4|8|0,3:1|0:2|3:0,0:0:0:0:
481,26,53007,1,8,0:2:0:0:
481,26,53222,2,0,P|429:47|343:17,1,130,0|0,0:0|0:0,0:0:0:0:
302,15,53864,2,0,L|220:24,1,65,8|0,0:2|0:0,0:0:0:0:
202,69,54293,2,0,L|120:78,1,65,0|0,3:0|3:0,0:0:0:0:
85,104,54722,1,8,0:2:0:0:
41,212,55150,6,0,B|39:248|53:275|53:275|41:296|41:296|48:322|49:343,2,130,4|8|0,3:1|0:2|3:0,0:0:0:0:
157,221,56436,1,8,0:2:0:0:
157,221,56650,2,0,B|221:241|221:208|291:225,1,130,0|0,0:0|3:0,0:0:0:0:
323,268,57293,2,0,L|396:260,1,65,8|8,0:2|0:2,0:0:0:0:
446,257,57722,2,0,L|445:186,1,65,4|8,3:1|0:2,0:0:0:0:
467,137,58150,1,0,3:0:0:0:
375,64,58579,6,0,B|331:60|331:60|221:82,1,130,4|8,3:1|0:2,0:0:0:0:
190,60,59222,1,0,3:0:0:0:
190,60,59436,2,0,L|197:197,1,130,0|8,3:0|0:2,0:0:0:0:
236,228,60079,1,0,3:0:0:0:
236,228,60293,2,0,P|194:215|96:238,1,130,4|8,3:1|0:2,0:0:0:0:
118,346,61150,2,0,P|180:361|243:347,1,130,4|8,3:1|0:2,0:0:0:0:
334,274,62007,6,0,B|353:234|353:234|340:199|340:199|366:135,1,130,4|8,3:1|3:2,0:0:0:0:
357,95,62650,1,0,3:0:0:0:
357,95,62864,2,0,P|296:69|235:104,1,130,0|8,3:0|3:2,0:0:0:0:
210,144,63507,1,0,3:0:0:0:
210,144,63722,5,4,3:1:0:0:
114,76,64150,1,4,3:0:0:0:
53,176,64579,1,4,3:2:0:0:
102,281,65007,1,4,3:2:0:0:
216,305,65436,1,4,3:1:0:0:
460,189,66936,6,0,P|396:178|310:188,1,130,12|0,0:1|3:0,0:0:0:0:
275,199,67579,2,0,L|270:278,1,65,8|0,0:2|0:0,0:0:0:0:
299,314,68007,1,0,3:0:0:0:
191,359,68436,1,8,0:2:0:0:
191,359,68650,6,0,P|115:371|56:348,1,130,8|0,0:2|3:0,0:0:0:0:
15,324,69293,1,8,0:2:0:0:
81,227,69722,1,0,3:0:0:0:
8,135,70150,1,8,0:2:0:0:
8,135,70364,6,0,P|56:76|122:69,1,130,4|0,3:1|3:0,0:0:0:0:
164,69,71007,1,8,0:2:0:0:
245,153,71436,2,0,L|242:226,1,65,8|0,0:2|3:0,0:0:0:0:
292,247,71864,2,0,L|289:320,1,65,8|4,0:2|3:2,0:0:0:0:
257,361,72293,6,0,P|301:338|386:373,1,130,4|8,3:1|0:2,0:0:0:0:
431,372,72936,1,0,0:0:0:0:
431,372,73150,2,0,L|428:221,1,130,0|8,3:0|0:2,0:0:0:0:
462,194,73793,5,8,0:2:0:0:
398,95,74222,1,0,3:0:0:0:
398,95,74436,1,8,0:2:0:0:
309,171,74864,2,0,L|226:168,1,65,8|0,0:2|3:0,0:0:0:0:
193,198,75293,1,8,0:2:0:0:
193,198,75507,6,0,L|192:62,1,130,4|0,3:1|3:0,0:0:0:0:
160,18,76150,1,8,0:2:0:0:
76,99,76579,2,0,L|76:228,1,130,4|0,3:2|3:0,0:0:0:0:
178,287,77436,6,0,P|146:332|86:355,2,97.5,4|8|8,3:1|0:2|0:2,0:0:0:0:
234,200,78400,1,0,3:0:0:0:
307,278,78722,2,0,L|391:280,1,65,8|8,0:2|0:2,0:0:0:0:
416,317,79150,6,0,L|424:179,1,130,4|8,3:1|0:2,0:0:0:0:
484,87,80007,2,0,L|354:94,1,130,8|8,0:2|0:2,0:0:0:0:
252,36,80864,2,0,L|244:165,1,130,8|8,0:2|0:2,0:0:0:0:
310,262,81722,2,0,L|180:269,1,130,8|8,0:2|0:2,0:0:0:0:
79,328,82579,6,0,L|86:198,1,130,4|8,3:1|0:2,0:0:0:0:
21,102,83437,2,0,L|150:94,1,130,8|8,0:2|0:2,0:0:0:0:
254,40,84293,2,0,P|308:35|369:61,2,97.5,8|8|8,0:2|0:2|0:2,0:0:0:0:
287,167,85364,1,0,3:0:0:0:
287,167,85579,2,0,L|373:170,1,65,8|8,0:2|0:2,0:0:0:0:
402,139,86007,6,0,L|389:281,1,130,4|8,3:1|0:2,0:0:0:0:
457,364,86864,2,0,L|308:353,1,130,8|8,0:2|0:2,0:0:0:0:
282,245,87722,2,0,L|133:256,1,130,8|8,0:2|0:2,0:0:0:0:
63,330,88579,2,0,L|51:200,1,130,8|8,0:2|0:2,0:0:0:0:
20,150,89222,1,0,3:0:0:0:
20,150,89436,6,0,L|153:134,1,130,4|8,3:1|0:2,0:0:0:0:
218,40,90293,2,0,L|361:76,1,130,8|8,0:2|0:2,0:0:0:0:
422,159,91150,6,0,L|416:283,2,97.5,8|8|8,0:2|0:2|0:2,0:0:0:0:
461,115,92007,2,0,L|458:42,1,65,8|4,0:2|3:0,0:0:0:0:
410,16,92436,2,0,L|327:24,1,65,4|4,3:0|3:0,0:0:0:0:
286,22,92864,5,4,3:1:0:0:
246,154,93293,1,0,3:0:0:0:
135,85,93722,2,0,P|85:104|67:128,2,65,8|0|0,0:2|3:0|3:0,0:0:0:0:
198,73,94364,1,0,3:0:0:0:
198,73,94579,6,0,L|350:82,1,130,4|0,3:1|3:0,0:0:0:0:
427,164,95436,2,0,L|416:249,2,65,8|0|0,0:2|3:0|3:0,0:0:0:0:
471,125,96079,1,0,3:0:0:0:
471,125,96293,5,4,3:1:0:0:
393,18,96722,1,0,3:0:0:0:
322,127,97150,2,0,L|331:214,2,65,8|0|0,0:2|3:0|3:0,0:0:0:0:
278,87,97793,1,0,3:0:0:0:
278,87,98007,6,0,P|203:71|143:99,1,130,0|0,3:0|3:0,0:0:0:0:
99,70,98650,2,0,L|99:220,1,130,0|0,3:0|3:0,0:0:0:0:
57,241,99293,1,8,3:2:0:0:
120,341,99722,6,0,L|195:339,1,65,12|8,3:1|0:2,0:0:0:0:
241,324,100150,2,0,L|316:322,1,65,8|8,0:2|0:2,0:0:0:0:
357,350,100579,2,0,L|357:219,1,130,8|8,0:2|0:2,0:0:0:0:
371,163,101222,1,8,0:2:0:0:
371,163,101436,2,0,L|318:119,1,65,8|8,0:2|0:2,0:0:0:0:
270,91,101864,2,0,L|178:97,1,65,8|8,0:2|0:2,0:0:0:0:
148,80,102293,2,0,L|147:225,1,130,8|8,0:2|0:2,0:0:0:0:
256,192,103150,12,8,104864,0:2:0:0:
100,90,105722,6,0,P|167:105|241:73,1,130,4|4,3:0|3:0,0:0:0:0:
267,47,106364,1,0,3:0:0:0:
267,47,106579,5,4,3:1:0:0:
362,119,107007,1,0,0:0:0:0:
311,233,107436,1,0,0:0:0:0:
380,327,107864,2,0,P|446:324|449:244,1,130,0|4,3:0|3:1,0:0:0:0:
157,109,111722,6,0,L|16:112,2,130,4|4|4,3:1|3:1|3:1,0:0:0:0:
244,31,113007,1,4,3:1:0:0:
317,116,113436,1,4,3:1:0:0:
428,64,114722,1,8,0:2:0:0:
373,167,115150,6,0,B|411:164|434:183|434:183|458:165|494:163,2,130,4|8|0,3:1|0:2|3:0,0:0:0:0:
269,112,116436,1,8,0:2:0:0:
269,112,116650,2,0,P|188:104|113:123,1,130,0|0,0:0|0:0,0:0:0:0:
87,87,117293,2,0,L|92:183,1,65,8|0,0:2|0:0,0:0:0:0:
41,184,117722,2,0,L|47:271,1,65,0|0,3:0|3:0,0:0:0:0:
25,303,118150,1,8,0:2:0:0:
131,351,118579,6,0,B|169:353|192:334|192:334|216:352|252:354,2,130,4|8|0,3:1|0:2|3:0,0:0:0:0:
25,303,119864,1,8,0:2:0:0:
25,303,120079,2,0,P|21:244|29:161,1,130,0|0,0:0|3:0,0:0:0:0:
41,116,120722,1,8,0:2:0:0:
41,116,120936,2,0,P|103:121|201:109,1,130,8|8,0:2|0:2,0:0:0:0:
214,76,121579,1,0,3:0:0:0:
290,164,122007,6,0,P|349:183|431:148,1,130,4|8,3:1|0:2,0:0:0:0:
451,120,122650,1,0,3:0:0:0:
451,120,122864,2,0,L|446:263,1,130,0|8,3:0|0:2,0:0:0:0:
471,302,123507,1,0,3:0:0:0:
471,302,123722,2,0,P|427:292|313:304,1,130,4|8,3:1|0:2,0:0:0:0:
243,358,124579,2,0,P|198:364|85:342,1,130,4|8,3:1|0:2,0:0:0:0:
26,275,125436,6,0,P|12:229|60:153,1,130,4|8,3:1|3:2,0:0:0:0:
102,137,126079,1,0,3:0:0:0:
102,137,126293,2,0,B|169:118|159:155|241:140,1,130,0|8,3:0|3:2,0:0:0:0:
275,105,126936,1,0,3:0:0:0:
275,105,127150,5,4,3:1:0:0:
377,49,127579,1,4,3:0:0:0:
458,133,128007,1,4,3:2:0:0:
365,205,128436,2,0,L|290:205,1,65,4|4,3:2|3:2,0:0:0:0:
249,175,128864,6,0,P|229:247|256:320,2,130,4|0|8,3:1|3:0|0:2,0:0:0:0:
165,92,130150,2,0,P|112:92|84:113,1,65,0|0,3:0|3:0,0:0:0:0:
51,126,130579,2,0,P|54:190|63:207,1,65,4|0,3:0|3:0,0:0:0:0:
88,237,131007,1,0,3:0:0:0:
29,338,131436,1,8,0:2:0:0:
141,368,131864,1,0,3:0:0:0:
207,271,132293,6,0,P|251:263|342:278,2,130,4|0|8,3:1|3:0|0:2,0:0:0:0:
97,228,133579,2,0,P|74:182|118:107,1,130,0|4,3:0|3:0,0:0:0:0:
159,95,134222,2,0,L|242:99,1,65,0|4,3:0|3:0,0:0:0:0:
277,121,134650,1,0,3:0:0:0:
277,121,134864,2,0,L|351:123,1,65,8|0,0:2|3:0,0:0:0:0:
400,126,135293,1,4,3:0:0:0:
458,227,135722,6,0,B|464:309|464:309|444:363,2,130,4|0|8,3:1|3:0|0:2,0:0:0:0:
359,164,137007,1,0,3:0:0:0:
265,234,137436,2,0,B|259:316|259:316|279:370,2,130,4|0|8,3:0|3:0|0:2,0:0:0:0:
359,164,138722,1,4,3:0:0:0:
282,75,139150,6,0,B|239:78|239:78|204:102|204:102|147:96,1,130,4|0,3:1|3:0,0:0:0:0:
56,153,140007,2,0,P|40:211|59:302,1,130,8|0,0:2|3:0,0:0:0:0:
81,328,140650,1,0,3:0:0:0:
81,328,140864,6,0,L|169:328,1,65,4|8,3:1|0:2,0:0:0:0:
191,291,141293,2,0,L|276:298,1,65,8|8,0:2|0:2,0:0:0:0:
310,316,141722,1,8,0:2:0:0:
310,316,141936,2,0,B|335:256|293:250|321:181,1,130,0|8,3:0|0:2,0:0:0:0:
353,142,142579,6,0,P|379:80|355:42,2,97.5,4|0|0,3:1|3:0|3:0,0:0:0:0:
294,142,143436,1,8,0:2:0:0:
199,73,143864,1,2,0:0:0:0:
108,147,144293,2,0,P|60:155|13:144,2,97.5,4|0|0,3:1|3:0|3:0,0:0:0:0:
163,166,145150,2,0,P|215:230|144:309,1,195,8|4,0:2|3:0,0:0:0:0:
96,305,146007,6,0,P|48:295|-11:303,2,97.5,4|0|0,3:1|3:0|3:0,0:0:0:0:
137,346,146864,1,8,0:2:0:0:
361,278,147722,6,0,L|362:159,2,97.5,4|4|4,3:1|3:1|3:1,0:0:0:0:
268,350,148793,1,0,0:0:0:0:
268,350,149007,2,0,L|201:351,1,65,4|0,3:1|0:0,0:0:0:0:
148,328,149436,6,0,P|101:318|27:344,2,97.5,4|0|0,3:1|3:0|3:0,0:0:0:0:
202,305,150293,1,8,0:2:0:0:
255,209,150722,1,2,0:0:0:0:
147,162,151150,2,0,L|28:168,2,97.5,4|0|0,3:1|3:0|3:0,0:0:0:0:
180,113,152007,2,0,L|261:107,1,65,0|8,3:0|0:2,0:0:0:0:
295,78,152436,2,0,L|378:73,1,65,0|4,3:0|3:0,0:0:0:0:
398,118,152864,6,0,P|380:169|398:233,2,97.5,4|0|0,3:1|3:0|3:0,0:0:0:0:
452,96,153722,1,8,0:2:0:0:
354,31,154150,1,2,0:0:0:0:
299,134,154579,6,0,P|248:150|188:137,2,97.5,4|4|4,3:1|3:1|3:1,0:0:0:0:
241,50,155543,2,0,L|128:57,1,97.5,4|12,3:1|3:1,0:0:0:0:
58,136,156293,6,0,P|38:199|51:247,1,97.5,4|4,3:1|3:1,0:0:0:0:
172,331,157150,1,8,0:2:0:0:
289,331,157579,2,0,L|362:338,1,65,0|0,3:0|3:0,0:0:0:0:
404,366,158007,6,0,P|384:321|406:253,1,97.5,4|4,3:1|3:1,0:0:0:0:
467,133,158864,2,0,L|388:133,1,65,8|8,0:2|0:2,0:0:0:0:
351,103,159293,2,0,L|272:103,1,65,0|0,3:0|3:0,0:0:0:0:
236,134,159722,6,0,P|241:87|201:33,1,97.5,4|4,3:1|3:1,0:0:0:0:
46,27,160579,2,0,L|41:96,1,65,0|8,3:0|0:2,0:0:0:0:
10,141,161007,2,0,L|1:221,1,65,0|0,3:0|3:0,0:0:0:0:
7,264,161436,6,0,P|62:260|101:292,1,97.5,4|4,3:1|3:1,0:0:0:0:
270,279,162293,1,8,0:2:0:0:
280,160,162722,1,8,0:2:0:0:
300,44,163150,6,0,L|425:50,2,97.5,4|4|4,3:1|3:1|3:1,0:0:0:0:
201,50,164114,1,4,3:1:0:0:
221,148,164436,2,0,L|208:225,1,65,4|12,3:1|3:1,0:0:0:0:
169,253,164864,5,4,3:1:0:0:
256,192,165079,12,0,167007,0:0:0:0:
76,189,167864,5,8,0:2:0:0:
116,74,168293,6,0,P|177:57|234:85,2,130,0|0|8,3:1|3:0|0:2,0:0:0:0:
75,116,169365,1,0,3:0:0:0:
75,116,169579,1,0,3:0:0:0:
87,254,170007,2,0,P|148:271|205:243,2,130,0|0|8,3:0|3:0|0:2,0:0:0:0:
46,212,171079,1,0,3:0:0:0:
46,212,171293,1,0,3:0:0:0:
170,144,171722,6,0,L|311:144,1,130,0|0,3:0|3:0,0:0:0:0:
354,121,172364,1,0,0:0:0:0:
354,121,172579,1,8,0:2:0:0:
446,192,173007,1,0,3:0:0:0:
404,301,173436,6,0,B|347:322|347:322|295:306,2,97.5,4|4|4,3:1|3:1|3:1,0:0:0:0:
343,228,174400,2,0,L|236:208,1,97.5,4|4,3:1|3:1,0:0:0:0:
113,262,175150,6,0,P|95:323|124:393,2,130,4|0|8,3:1|3:0|0:2,0:0:0:0:
154,220,176222,1,0,3:0:0:0:
154,220,176436,1,0,3:0:0:0:
65,134,176864,2,0,P|47:73|76:3,2,130,0|0|8,3:0|3:0|0:2,0:0:0:0:
106,176,177936,1,0,3:0:0:0:
106,176,178150,1,0,3:0:0:0:
224,104,178579,6,0,P|292:96|367:118,1,130,0|0,3:0|3:0,0:0:0:0:
445,200,179436,1,8,0:2:0:0:
385,311,179864,1,0,3:0:0:0:
265,243,180293,6,0,L|152:247,2,97.5,12|0|8,3:1|3:0|3:2,0:0:0:0:
305,285,181150,2,0,L|297:134,1,130,0|12,3:0|3:1,0:0:0:0:
223,64,182007,5,4,3:1:0:0:
106,78,182436,1,8,0:0:0:0:
177,170,182864,2,0,L|173:241,2,65,2|2|8,0:0|0:0|0:0,0:0:0:0:
223,64,183722,5,2,0:0:0:0:
106,78,184151,1,8,0:0:0:0:
177,170,184579,2,0,L|173:241,2,65,2|2|8,0:0|0:0|0:0,0:0:0:0:
223,64,185436,5,0,3:0:0:0:
336,50,185864,1,0,3:0:0:0:
412,138,186293,1,0,3:0:0:0:
373,248,186722,1,0,3:0:0:0:
274,311,187150,6,0,L|185:310,1,65,4|4,3:1|3:1,0:0:0:0:
157,339,187579,2,0,L|89:313,1,65,4|4,3:1|3:1,0:0:0:0:
39,329,188007,2,0,L|39:253,1,65,4|4,3:1|3:1,0:0:0:0:
45,205,188436,1,12,0:1:0:0:
148,159,188864,6,0,B|144:132|154:112|154:112|135:82|135:82|143:49|144:12,2,130,4|8|0,3:1|0:2|3:0,0:0:0:0:
182,271,190150,1,8,0:2:0:0:
182,271,190364,2,0,P|243:279|319:268,1,130,0|0,0:0|0:0,0:0:0:0:
356,234,191007,2,0,L|351:153,1,65,8|0,0:2|0:0,0:0:0:0:
385,121,191436,2,0,L|380:52,1,65,0|0,3:0|3:0,0:0:0:0:
337,15,191864,1,8,0:2:0:0:
241,83,192293,6,0,B|214:86|194:77|194:77|164:96|164:96|131:87|94:87,2,130,4|8|0,3:1|0:2|3:0,0:0:0:0:
335,151,193579,1,8,0:2:0:0:
335,151,193793,2,0,P|341:237|332:283,1,130,0|0,0:0|3:0,0:0:0:0:
287,316,194436,2,0,L|219:315,1,65,8|0,0:2|0:0,0:0:0:0:
179,338,194864,1,4,3:1:0:0:
74,284,195293,1,8,0:2:0:0:
82,167,195722,6,0,P|117:109|196:128,1,130,4|8,3:1|3:2,0:0:0:0:
259,189,196579,2,0,P|315:206|406:185,1,130,0|8,3:0|0:2,0:0:0:0:
440,214,197222,1,0,0:0:0:0:
440,214,197436,2,0,L|436:73,1,130,4|8,3:1|0:2,0:0:0:0:
338,19,198293,2,0,P|261:11|205:26,1,130,0|8,3:0|0:2,0:0:0:0:
110,84,199150,6,0,B|82:110|74:137|74:137|90:173|90:222,1,130,4|8,3:1|0:2,0:0:0:0:
79,257,199793,1,0,0:0:0:0:
79,257,200007,2,0,P|127:293|176:251,1,130,0|8,3:0|0:2,0:0:0:0:
270,187,200864,6,0,L|281:102,2,65,4|4|4,3:1|3:0|3:0,0:0:0:0:
294,240,201507,1,4,3:0:0:0:
294,240,201722,2,0,P|331:253|381:257,1,65,4|4,3:2|3:0,0:0:0:0:
414,258,202150,1,4,3:2:0:0:
477,159,202579,6,0,B|484:124|484:124|467:77,1,65,4|0,3:1|3:0,0:0:0:0:
435,52,203007,2,0,L|351:51,1,65,8|0,0:2|3:0,0:0:0:0:
322,86,203436,2,0,B|266:100|265:58|192:84,1,130,0|8,3:0|0:2,0:0:0:0:
148,47,204079,2,0,L|152:188,1,130,0|0,3:0|3:0,0:0:0:0:
119,226,204722,1,8,0:2:0:0:
208,300,205150,1,0,3:0:0:0:
110,364,205579,1,8,0:2:0:0:
8,306,206007,6,0,B|0:271|0:271|18:224,1,65,4|0,3:1|3:0,0:0:0:0:
50,199,206435,2,0,L|134:198,1,65,8|0,0:2|3:0,0:0:0:0:
163,233,206864,2,0,B|219:247|220:205|293:231,1,130,0|8,3:0|0:2,0:0:0:0:
337,194,207507,2,0,L|333:335,1,130,0|0,3:0|3:0,0:0:0:0:
366,373,208150,1,8,0:2:0:0:
447,289,208579,1,8,0:2:0:0:
442,173,209007,1,8,0:2:0:0:
361,87,209436,6,0,L|281:90,1,65,12|8,3:1|0:2,0:0:0:0:
254,130,209864,2,0,L|186:103,1,65,8|8,0:2|0:2,0:0:0:0:
147,69,210293,2,0,P|127:123|143:215,1,130,8|8,0:2|0:2,0:0:0:0:
162,245,210936,1,8,0:2:0:0:
162,245,211150,2,0,L|234:242,1,65,8|8,0:2|0:2,0:0:0:0:
281,264,211579,2,0,L|355:268,1,65,8|8,0:2|0:2,0:0:0:0:
391,303,212007,2,0,P|426:282|391:207,1,130,8|8,0:2|0:2,0:0:0:0:
256,192,212864,12,8,214579,0:2:0:0:
177,122,215436,6,0,L|92:124,2,65,12|8|0,0:1|3:2|3:0,0:0:0:0:
226,89,216079,1,8,3:2:0:0:
226,89,216293,6,0,P|271:102|308:146,1,97.5,8|8,0:2|0:2,0:0:0:0:
328,310,217150,1,0,1:0:0:0:
217,335,217579,1,0,1:0:0:0:
115,276,218007,6,0,P|102:229|116:158,1,97.5,8|8,0:2|0:2,0:0:0:0:
229,63,218864,1,0,1:0:0:0:
340,61,219293,1,0,1:0:0:0:
422,146,219722,6,0,P|437:203|424:269,2,97.5,8|8|8,0:2|0:2|0:2,0:0:0:0:
325,161,220686,1,8,0:2:0:0:
238,105,221007,2,0,L|155:106,1,65,8|0,0:2|3:0,0:0:0:0:
118,127,221436,6,0,L|113:271,1,130,4|4,3:1|3:0,0:0:0:0:
73,300,222079,2,0,P|114:276|191:324,1,130,4|4,3:1|3:0,0:0:0:0:
206,361,222722,1,4,3:1:0:0:
307,304,223150,5,4,3:1:0:0:
256,192,223364,12,0,230007,0:0:0:0:
