osu file format v14

[General]
AudioFilename: audio.mp3
AudioLeadIn: 0
PreviewTime: 92533
Countdown: 0
SampleSet: Soft
StackLeniency: 0.7
Mode: 0
LetterboxInBreaks: 0
WidescreenStoryboard: 1

[Editor]
Bookmarks: 10569,24283,37997,51712,58569,65426,79140,85997,92854,99712,106569,115140,128854,142569,156283,163140,168283,181997,188854,202569,209426,216283,223140
DistanceSpacing: 0.3
BeatDivisor: 4
GridSize: 32
TimelineZoom: 2.4

[Metadata]
Title:Datura
TitleUnicode:Datura
Artist:UNDEAD CORPORATION
ArtistUnicode:UNDEAD CORPORATION
Creator:Seto Kousuke
Version:Insane
Source:osu!
Tags:English Rock metal featured artist fa mapper mappers mapper's mappers' guild pishifat pishi trynna senna
BeatmapID:2179887
BeatmapSetID:1020613

[Difficulty]
HPDrainRate:5
CircleSize:4
OverallDifficulty:8
ApproachRate:9
SliderMultiplier:1.9
SliderTickRate:1

[Events]
//Background and Video events
0,0,"abstract.jpg",0,0
//Break Periods
2,108493,111122
//Storyboard Layer 0 (Background)
//Storyboard Layer 1 (Fail)
//Storyboard Layer 2 (Pass)
//Storyboard Layer 3 (Foreground)
//Storyboard Layer 4 (Overlay)
//Storyboard Sound Samples

[TimingPoints]
3722,428.571428571429,4,2,1,60,1,0
3722,-117.647058823529,4,2,1,60,0,0
10579,-100,4,2,1,75,0,0
24293,-100,4,2,1,60,0,0
51722,-86.9565217391304,4,2,1,75,0,1
65436,-222.222222222221,4,2,1,40,0,0
66722,-100,4,2,1,60,0,0
99722,-100,4,2,1,75,0,1
99936,-76.9230769230769,4,2,1,75,0,1
106579,-76.9230769230769,4,2,1,60,0,0
108293,-76.9230769230769,4,2,1,40,0,0
110864,-76.9230769230769,4,2,1,60,0,0
111722,-111.111111111111,4,2,1,60,0,0
115150,-86.9565217391304,4,2,1,75,0,1
128864,-181.818181818181,4,2,1,60,0,0
135293,-100,4,2,1,60,0,0
135722,-133.333333333333,4,2,1,60,0,0
142579,-100,4,2,1,75,0,0
143864,-222.222222222221,4,2,1,75,0,0
144293,-100,4,2,1,75,0,0
147722,-83.3333333333333,4,2,1,75,0,0
149007,-142.857142857143,4,2,1,75,0,0
149436,-100,4,2,1,75,0,0
150722,-222.222222222221,4,2,1,75,0,0
151150,-100,4,2,1,75,0,0
154150,-222.222222222221,4,2,1,75,0,0
154579,-100,4,2,1,75,0,0
156293,-100,4,2,1,60,0,0
166900,-100,4,2,1,5,0,0
167114,-100,4,2,1,60,0,0
182114,-100,4,2,2,40,0,0
185436,-100,4,2,1,60,0,0
188864,-83.3333333333333,4,2,1,75,0,1
209436,-66.6666666666667,4,2,1,85,0,1
216293,-66.6666666666667,4,2,1,65,0,0
221436,-83.3333333333333,4,2,1,65,0,0
228293,-66.6666666666667,4,2,1,45,0,0
229043,-66.6666666666667,4,2,1,25,0,0
229900,-66.6666666666667,4,2,1,5,0,0

[Colours]
Combo1 : 148,98,183
Combo2 : 44,75,227
Combo3 : 211,99,149
Combo4 : 240,206,47

[HitObjects]
124,262,3507,6,0,L|79:259,4,23.75,0|0|0|0|0,3:0|3:0|3:0|3:0|3:0,0:0:0:0:
320,132,4043,1,8,0:2:0:0:
406,314,4579,5,0,1:0:0:0:
406,314,5007,1,0,1:0:0:0:
154,133,5436,5,8,0:2:0:0:
360,43,5757,1,8,0:2:0:0:
475,208,6293,5,0,1:0:0:0:
475,208,6721,1,0,1:0:0:0:
319,348,7150,5,8,0:2:0:0:
237,139,7471,1,8,0:2:0:0:
76,301,8007,5,0,1:0:0:0:
76,301,8436,1,0,1:0:0:0:
256,188,8864,5,8,0:2:0:0:
433,264,10150,6,0,L|466:266,6,20.187500385046,0|4|0|0|4|0|0,3:0|3:0|3:0|3:0|3:0|3:0|3:0,0:0:0:0:
370,312,10579,6,0,P|323:318|260:310,1,95,4|0,3:1|0:0,0:0:0:0:
121,363,11007,1,8,0:2:0:0:
121,363,11114,2,0,P|116:313|130:254,1,95,0|8,3:0|0:2,0:0:0:0:
184,181,11436,2,0,B|181:182|185:180|182:114,1,47.5,0|8,3:0|0:2,0:0:0:0:
114,86,11650,2,0,P|148:54|194:51,1,95,0|8,3:0|0:2,0:0:0:0:
260,111,11972,2,0,P|317:123|366:100,1,95,0|8,0:0|0:2,0:0:0:0:
411,46,12293,6,0,P|435:90|412:166,1,95,4|0,3:1|0:0,0:0:0:0:
352,267,12722,1,8,0:2:0:0:
352,267,12829,2,0,P|406:257|470:274,1,95,0|8,3:0|0:2,0:0:0:0:
474,288,13150,2,0,L|475:360,1,47.5,0|8,3:0|0:2,0:0:0:0:
512,214,13364,2,0,L|511:166,1,47.5,0|0,3:0|3:0,0:0:0:0:
432,133,13579,2,0,P|385:126|338:136,1,95,8|0,0:2|0:0,0:0:0:0:
279,207,13900,1,8,0:2:0:0:
279,207,14007,6,0,P|229:219|171:196,1,95,4|0,3:1|0:0,0:0:0:0:
34,137,14436,1,8,0:2:0:0:
34,137,14543,2,0,P|24:194|40:231,1,95,0|8,3:0|0:2,0:0:0:0:
7,303,14864,2,0,P|33:306|71:301,1,47.5,0|8,3:0|0:2,0:0:0:0:
109,372,15079,2,0,P|136:313|116:261,1,95,0|8,3:0|0:2,0:0:0:0:
227,284,15400,2,0,P|224:330|248:370,1,95,0|8,3:0|0:2,0:0:0:0:
316,305,15722,5,4,3:1:0:0:
175,214,15936,1,0,3:0:0:0:
175,214,16043,1,0,3:0:0:0:
175,214,16150,1,8,0:2:0:0:
339,209,16365,1,0,3:0:0:0:
339,209,16472,1,0,3:0:0:0:
339,209,16579,5,4,3:1:0:0:
254,142,16793,1,0,3:0:0:0:
331,72,17007,1,8,0:2:0:0:
354,71,17114,1,8,0:2:0:0:
378,71,17221,1,8,0:2:0:0:
402,71,17328,1,8,0:2:0:0:
425,71,17436,6,0,P|428:124|420:175,1,95,4|0,3:1|0:0,0:0:0:0:
491,313,17864,1,8,0:2:0:0:
491,313,17972,2,0,P|427:333|396:323,1,95,0|8,3:0|0:2,0:0:0:0:
328,271,18293,2,0,P|286:268|260:278,1,47.5,0|8,3:0|0:2,0:0:0:0:
244,345,18507,2,0,P|200:304|200:253,1,95,0|8,3:0|0:2,0:0:0:0:
234,198,18829,2,0,P|241:143|218:100,1,95,0|8,0:0|0:2,0:0:0:0:
167,52,19150,6,0,P|119:44|63:60,1,95,4|0,3:1|0:0,0:0:0:0:
17,204,19579,1,8,0:2:0:0:
17,204,19686,2,0,L|18:316,1,95,0|8,3:0|0:2,0:0:0:0:
85,344,20007,2,0,P|119:346|146:340,1,47.5,0|8,3:0|0:2,0:0:0:0:
193,291,20222,2,0,P|213:333|205:379,1,95,0|8,3:0|0:2,0:0:0:0:
308,377,20543,2,0,P|299:330|320:288,1,95,0|8,3:0|0:2,0:0:0:0:
421,342,20864,6,0,L|390:344,4,31.6666666666667,4|0|0|0|0,3:1|3:0|3:0|3:0|3:0,0:0:0:0:
473,273,21293,2,0,L|504:274,4,31.6666666666667,8|0|0|0|0,3:2|3:0|3:0|3:0|3:0,0:0:0:0:
394,214,21722,2,0,L|362:215,4,31.6666666666667,0|0|0|0|0,3:0|3:0|3:0|3:0|3:0,0:0:0:0:
469,158,22151,2,0,L|500:159,4,31.6666666666667,8|0|0|0|0,3:2|3:0|3:0|3:0|3:0,0:0:0:0:
381,112,22579,5,4,3:1:0:0:
451,44,22793,1,4,3:0:0:0:
305,44,23007,1,4,3:0:0:0:
380,133,23222,1,4,3:0:0:0:
308,253,23436,5,4,3:2:0:0:
230,137,23650,1,4,3:0:0:0:
127,253,23864,1,4,3:2:0:0:
40,143,24079,1,4,3:2:0:0:
124,33,24293,5,4,3:1:0:0:
124,33,24722,2,0,P|179:58|261:19,1,142.5,8|8,0:2|0:2,0:0:0:0:
282,17,25150,2,0,P|256:83|278:122,1,95,0|0,3:0|3:0,0:0:0:0:
272,112,25472,1,0,3:0:0:0:
282,121,25579,1,8,0:2:0:0:
372,72,25793,1,8,0:2:0:0:
372,72,25900,1,8,0:2:0:0:
372,72,26007,6,0,L|370:206,2,95,0|0|8,3:0|3:0|0:2,0:0:0:0:
469,207,26650,1,0,3:0:0:0:
395,268,26864,2,0,P|345:273|271:264,1,95,0|0,3:0|3:0,0:0:0:0:
288,263,27186,1,0,3:0:0:0:
277,253,27293,2,0,P|232:246|157:254,1,95,8|8,0:2|0:2,0:0:0:0:
35,355,27722,6,0,P|96:364|49:278,1,190,0|8,3:0|0:2,0:0:0:0:
26,83,28579,1,0,3:0:0:0:
26,83,28793,2,0,L|76:87,2,47.5,0|0|8,3:0|3:0|0:2,0:0:0:0:
156,211,29222,2,0,B|140:149|140:149|169:93|169:93|148:33,1,190,12|0,0:1|3:0,0:0:0:0:
239,173,29864,1,8,0:2:0:0:
318,87,30079,1,0,3:0:0:0:
443,193,30293,6,0,P|454:237|433:306,1,95,8|0,0:2|3:0,0:0:0:0:
444,285,30722,2,0,P|397:275|351:286,1,95,8|4,0:2|3:2,0:0:0:0:
159,336,31150,6,0,P|87:355|99:256,1,190,4|8,3:1|0:2,0:0:0:0:
241,246,31793,1,0,0:0:0:0:
241,246,31900,1,8,0:2:0:0:
241,246,32007,2,0,P|309:237|368:248,1,95,0|0,3:0|3:0,0:0:0:0:
347,246,32329,1,0,0:0:0:0:
357,255,32436,1,8,0:2:0:0:
459,167,32650,1,8,0:2:0:0:
459,167,32757,6,0,P|371:161|373:96,1,142.5,8|0,0:2|3:0,0:0:0:0:
435,53,33293,1,8,0:2:0:0:
435,53,33400,2,0,P|379:35|285:55,1,142.5,0|8,3:0|0:2,0:0:0:0:
206,149,33936,1,0,3:0:0:0:
206,149,34043,1,0,3:0:0:0:
206,149,34150,1,8,0:2:0:0:
87,60,34364,6,0,B|35:146|109:146|76:243,1,190,4|0,3:1|3:0,0:0:0:0:
33,340,35007,1,8,0:2:0:0:
49,356,35114,1,0,3:0:0:0:
71,366,35221,1,0,3:0:0:0:
94,367,35328,1,8,0:2:0:0:
117,359,35436,2,0,P|130:323|127:282,3,47.5,4|0|0|0,3:2|3:0|3:0|3:0,0:0:0:0:
233,317,35864,2,0,P|237:340|247:361,3,47.5,8|0|0|0,0:2|3:0|3:0|3:0,0:0:0:0:
351,320,36293,6,0,L|411:328,1,47.5,8|0,0:2|3:0,0:0:0:0:
475,215,36507,1,0,3:0:0:0:
475,215,36614,2,0,L|407:228,1,47.5,8|0,0:2|3:0,0:0:0:0:
305,142,36829,1,0,3:0:0:0:
305,142,36936,2,0,L|373:155,1,47.5,8|0,0:2|3:0,0:0:0:0:
447,55,37150,1,0,3:0:0:0:
447,55,37257,2,0,L|379:68,1,47.5,8|0,0:2|3:0,0:0:0:0:
226,81,37579,5,8,0:2:0:0:
208,111,37686,1,0,3:0:0:0:
202,146,37793,1,0,3:0:0:0:
209,181,37900,1,0,3:0:0:0:
228,211,38007,5,0,3:1:0:0:
240,211,38114,1,0,3:0:0:0:
252,211,38221,1,0,3:0:0:0:
264,211,38328,1,0,3:0:0:0:
276,211,38435,1,0,3:0:0:0:
31,345,38864,1,8,0:2:0:0:
59,165,39079,1,0,3:0:0:0:
122,266,39293,1,0,3:0:0:0:
122,266,39400,1,0,3:0:0:0:
35,349,39614,1,0,3:0:0:0:
35,349,39722,5,0,3:0:0:0:
46,348,39829,1,0,3:0:0:0:
58,348,39936,1,0,3:0:0:0:
70,348,40043,1,0,3:0:0:0:
82,348,40150,1,0,3:0:0:0:
191,143,40579,1,8,0:2:0:0:
274,310,40793,1,0,3:0:0:0:
317,191,41007,1,0,3:0:0:0:
317,191,41114,1,0,3:0:0:0:
195,147,41329,1,0,3:0:0:0:
195,147,41437,5,0,3:0:0:0:
183,146,41544,1,0,3:0:0:0:
171,146,41651,1,0,3:0:0:0:
159,146,41758,1,0,3:0:0:0:
147,146,41865,1,0,3:0:0:0:
341,28,42293,1,8,0:2:0:0:
414,211,42507,1,0,3:0:0:0:
290,155,42722,1,0,3:0:0:0:
290,155,42829,1,0,3:0:0:0:
345,32,43043,1,0,3:0:0:0:
345,32,43150,6,0,P|390:60|462:58,1,95,4|0,3:1|0:0,0:0:0:0:
512,119,43472,2,0,P|467:147|395:145,1,95,4|0,3:1|0:0,0:0:0:0:
345,211,43793,2,0,P|390:239|462:237,1,95,4|8,3:1|0:2,0:0:0:0:
512,298,44115,2,0,P|467:326|395:324,1,95,4|0,3:1|0:0,0:0:0:0:
363,384,44436,2,0,P|349:366|340:329,1,47.5,4|0,3:1|3:0,0:0:0:0:
257,262,44650,2,0,P|249:284|234:303,1,47.5,0|0,3:0|3:0,0:0:0:0:
137,362,44864,5,4,3:1:0:0:
125,361,44971,1,0,3:0:0:0:
113,361,45078,1,0,3:0:0:0:
101,361,45185,1,0,3:0:0:0:
89,361,45292,1,0,3:0:0:0:
8,188,45722,1,8,0:2:0:0:
155,94,45936,1,0,3:0:0:0:
131,229,46150,1,0,3:0:0:0:
131,229,46257,1,0,3:0:0:0:
12,192,46472,1,0,3:0:0:0:
12,192,46580,5,0,3:0:0:0:
13,180,46687,1,0,3:0:0:0:
13,168,46794,1,0,3:0:0:0:
13,156,46901,1,0,3:0:0:0:
13,144,47008,1,0,3:0:0:0:
244,22,47436,1,8,0:2:0:0:
310,203,47650,1,0,3:0:0:0:
365,81,47864,1,0,3:0:0:0:
365,81,47972,1,0,3:0:0:0:
248,26,48186,1,0,3:0:0:0:
248,26,48293,5,0,3:0:0:0:
236,25,48400,1,0,3:0:0:0:
224,25,48507,1,0,3:0:0:0:
212,25,48615,1,0,3:0:0:0:
200,25,48722,1,0,3:0:0:0:
137,251,49150,1,8,0:2:0:0:
33,129,49364,1,0,3:0:0:0:
166,128,49579,1,0,3:0:0:0:
166,128,49686,1,0,3:0:0:0:
137,251,49900,1,0,3:0:0:0:
137,251,50007,6,0,L|131:295,4,23.75,12|0|0|0|0,3:1|0:0|0:0|3:0|0:0,0:0:0:0:
253,181,50436,1,0,3:0:0:0:
321,335,50650,2,0,L|318:380,2,23.75,8|0|0,3:2|0:0|0:0,0:0:0:0:
399,277,50864,1,0,3:0:0:0:
419,248,50971,1,0,3:0:0:0:
425,213,51078,1,0,3:0:0:0:
416,179,51185,1,0,3:0:0:0:
393,152,51293,2,0,L|333:152,1,47.5,12|8,3:1|3:2,0:0:0:0:
251,57,51507,2,0,L|257:133,1,47.5,8|8,3:2|3:2,0:0:0:0:
133,138,51722,6,0,P|125:199|153:264,1,109.250002083778,4|0,3:1|0:0,0:0:0:0:
329,346,52043,1,0,3:0:0:0:
329,346,52150,2,0,P|253:339|182:358,1,109.250002083778,8|0,0:2|0:0,0:0:0:0:
14,318,52472,1,8,0:2:0:0:
14,318,52579,2,0,P|44:323|86:315,1,54.6250010418892,0|8,3:0|0:2,0:0:0:0:
61,184,52793,2,0,P|34:178|7:180,1,54.6250010418892,0|0,3:0|0:0,0:0:0:0:
153,254,53007,2,0,P|232:256|301:214,1,109.250002083778,8|0,0:2|0:0,0:0:0:0:
316,168,53329,1,8,0:2:0:0:
316,168,53436,6,0,L|305:54,1,109.250002083778,4|0,3:1|0:0,0:0:0:0:
480,55,53757,1,0,3:0:0:0:
480,55,53864,2,0,L|471:152,1,54.6250010418892,8|0,0:2|3:0,0:0:0:0:
401,234,54079,1,0,0:0:0:0:
401,234,54186,1,8,0:2:0:0:
401,234,54293,2,0,L|399:148,1,54.6250010418892,0|8,3:0|0:2,0:0:0:0:
476,295,54507,2,0,L|477:349,1,54.6250010418892,0|0,3:0|3:0,0:0:0:0:
482,203,54722,1,8,0:2:0:0:
366,327,54936,1,0,0:0:0:0:
366,327,55043,1,8,0:2:0:0:
366,327,55150,6,0,P|283:337|235:323,1,109.250002083778,4|0,3:1|0:0,0:0:0:0:
55,276,55472,1,0,3:0:0:0:
55,276,55579,2,0,P|138:266|186:280,1,109.250002083778,8|0,0:2|0:0,0:0:0:0:
331,245,55900,1,8,0:2:0:0:
331,245,56007,2,0,P|295:249|254:240,1,54.6250010418892,0|8,3:0|0:2,0:0:0:0:
153,178,56222,2,0,P|180:178|206:185,1,54.6250010418892,0|0,3:0|0:1,0:1:0:0:
369,104,56436,2,0,P|318:110|239:99,1,109.250002083778,8|0,0:2|0:0,0:0:0:0:
126,38,56757,1,8,0:2:0:0:
126,38,56864,6,0,P|76:45|47:86,1,54.6250010418892,4|0,3:1|0:0,0:0:0:0:
18,185,57079,2,0,L|17:234,2,36.4166673612595,0|0|0,3:0|3:0|3:0,0:0:0:0:
9,103,57293,1,8,0:2:0:0:
153,178,57507,2,0,L|156:253,1,54.6250010418892,8|8,0:2|0:2,0:0:0:0:
53,332,57722,1,4,3:1:0:0:
86,308,57829,1,0,3:0:0:0:
126,299,57936,1,8,0:2:0:0:
166,306,58043,1,8,0:2:0:0:
200,327,58150,6,0,L|206:401,1,54.6250010418892,0|0,3:0|3:0,0:0:0:0:
366,297,58364,2,0,L|360:371,1,54.6250010418892,0|0,3:0|3:0,0:0:0:0:
266,226,58579,5,4,3:1:0:0:
257,200,58686,1,0,3:0:0:0:
256,172,58793,1,0,3:0:0:0:
262,146,58900,1,0,3:0:0:0:
275,122,59007,2,0,P|299:107|339:96,3,54.6250010418892,8|0|0|0,0:2|3:0|3:0|3:0,0:0:0:0:
164,78,59436,2,0,P|139:63|100:52,3,54.6250010418892,0|0|0|0,3:0|3:0|3:0|3:0,0:0:0:0:
131,190,59864,2,0,P|117:214|105:254,3,54.6250010418892,8|0|0|0,0:2|3:0|3:0|3:0,0:0:0:0:
221,298,60293,5,4,3:1:0:0:
248,297,60400,1,0,3:0:0:0:
275,296,60507,1,0,3:0:0:0:
302,296,60614,1,0,3:0:0:0:
330,295,60722,2,0,L|360:343,3,54.6250010418892,8|0|0|0,0:2|3:0|3:0|3:0,0:0:0:0:
442,259,61150,2,0,L|470:212,3,54.6250010418892,4|0|0|0,3:1|3:0|3:0|3:0,0:0:0:0:
358,182,61579,1,8,0:2:0:0:
373,159,61686,1,0,3:0:0:0:
389,137,61793,1,0,3:0:0:0:
405,115,61900,1,0,3:0:0:0:
421,93,62007,6,0,L|474:101,4,36.4166673612595,4|0|0|0|0,3:1|3:0|3:0|3:0|3:0,0:0:0:0:
225,39,62436,2,0,L|172:47,4,36.4166673612595,8|0|0|0|0,3:2|3:0|3:0|3:0|3:0,0:0:0:0:
278,185,62864,2,0,L|331:193,4,36.4166673612595,0|0|0|0|0,3:0|0:0|3:0|3:0|3:0,0:0:0:0:
82,141,63293,2,0,L|29:149,4,36.4166673612595,8|0|0|0|0,3:2|3:0|3:0|3:0|3:0,0:0:0:0:
153,298,63722,5,4,3:1:0:0:
178,148,63936,1,4,3:0:0:0:
34,295,64150,1,4,3:0:0:0:
268,311,64364,1,4,3:0:0:0:
181,133,64579,1,4,3:2:0:0:
334,41,64793,1,4,3:0:0:0:
401,198,65007,1,4,3:2:0:0:
477,39,65222,1,4,3:2:0:0:
293,207,65436,6,0,L|202:211,2,85.4999973907472,4|0|0,3:1|0:0|0:0,0:0:0:0:
145,108,66722,6,0,L|100:105,4,23.75,0|0|0|0|12,3:0|3:0|3:0|3:0|0:1,0:0:0:0:
145,108,67364,5,0,3:0:0:0:
55,178,67579,1,8,0:2:0:0:
55,178,67686,2,0,P|42:247|56:288,1,95,0|8,3:0|0:2,0:0:0:0:
100,353,68007,2,0,P|136:357|166:353,1,47.5,0|0,3:0|0:0,0:0:0:0:
226,244,68222,1,0,3:0:0:0:
226,244,68329,1,0,3:0:0:0:
226,244,68436,2,0,L|224:303,1,47.5,8|0,0:2|0:0,0:0:0:0:
330,359,68650,2,0,L|330:236,2,95,8|0|0,0:2|3:0|3:0,0:0:0:0:
493,195,69293,5,8,0:2:0:0:
493,195,69722,2,0,P|415:200|371:173,1,95,0|0,3:0|3:0,0:0:0:0:
334,127,70043,1,0,3:0:0:0:
334,127,70150,2,0,L|337:54,1,47.5,8|0,0:2|0:0,0:0:0:0:
238,72,70364,2,0,L|235:167,1,95,4|0,3:1|0:0,0:0:0:0:
143,233,70793,1,0,3:0:0:0:
54,91,71007,1,8,0:2:0:0:
7,226,71222,1,0,3:0:0:0:
7,226,71329,1,0,3:0:0:0:
7,226,71436,6,0,L|6:333,1,95,8|0,0:2|3:0,0:0:0:0:
6,320,71864,2,0,P|78:305|99:323,1,95,8|4,0:2|3:2,0:0:0:0:
54,91,72293,5,4,3:1:0:0:
54,91,72722,2,0,P|120:92|147:57,1,95,8|0,0:2|0:0,0:0:0:0:
226,31,73043,1,8,0:2:0:0:
226,31,73150,2,0,L|223:99,1,47.5,0|0,3:0|0:0,0:0:0:0:
220,219,73364,1,0,3:0:0:0:
220,219,73472,1,0,0:0:0:0:
220,219,73579,2,0,L|221:135,1,47.5,8|0,0:2|0:0,0:0:0:0:
113,148,73793,1,8,0:2:0:0:
113,148,73900,6,0,L|112:303,1,142.5,8|0,0:2|3:0,0:0:0:0:
271,357,74436,1,8,0:2:0:0:
271,357,74543,2,0,P|325:313|315:273,1,95,0|0,3:0|0:0,0:0:0:0:
286,212,74864,2,0,L|213:205,1,47.5,8|0,0:2|3:0,0:0:0:0:
198,111,75079,1,0,3:0:0:0:
198,111,75186,1,0,3:0:0:0:
198,111,75293,2,0,L|250:116,1,47.5,8|0,0:2|3:0,0:0:0:0:
93,63,75507,6,0,B|84:116|84:116|120:166|120:166|96:259,1,190,4|0,3:1|3:0,0:0:0:0:
185,339,76150,1,8,0:2:0:0:
155,318,76257,1,0,3:0:0:0:
121,313,76364,1,0,3:0:0:0:
87,323,76471,1,0,3:0:0:0:
60,346,76579,2,0,P|23:348|-13:340,3,47.5,4|0|0|0,3:2|3:0|3:0|3:0,0:0:0:0:
13,220,77007,2,0,P|36:217|60:219,3,47.5,0|0|0|0,3:0|3:0|3:0|3:0,0:0:0:0:
142,284,77436,5,4,3:1:0:0:
164,257,77543,1,0,3:0:0:0:
174,223,77650,1,0,3:0:0:0:
168,188,77757,2,0,L|121:125,1,47.5,8|0,0:2|0:0,0:0:0:0:
19,93,77972,1,0,3:0:0:0:
19,93,78079,6,0,L|66:156,1,47.5,8|8,0:2|0:2,0:0:0:0:
151,50,78293,1,8,0:2:0:0:
151,50,78400,2,0,L|122:12,1,47.5,0|0,3:0|3:0,0:0:0:0:
245,133,78614,1,0,3:0:0:0:
245,133,78722,2,0,L|299:131,1,47.5,8|0,0:2|3:0,0:0:0:0:
379,20,78936,2,0,L|379:78,1,47.5,8|0,0:2|3:0,0:0:0:0:
475,140,79150,5,4,3:1:0:0:
486,173,79257,1,0,3:0:0:0:
479,208,79364,1,0,3:0:0:0:
457,235,79471,1,0,3:0:0:0:
424,248,79579,2,0,L|355:248,3,47.5,8|0|0|0,0:2|3:0|3:0|3:0,0:0:0:0:
278,306,80007,2,0,L|209:306,3,47.5,8|0|0|0,0:2|3:0|3:0|3:0,0:0:0:0:
123,243,80436,2,0,L|54:243,3,47.5,8|0|0|0,0:2|3:0|3:0|3:0,0:0:0:0:
209,174,80864,5,8,0:2:0:0:
221,141,80971,1,0,3:0:0:0:
218,105,81078,1,0,3:0:0:0:
201,75,81185,1,0,3:0:0:0:
171,55,81293,1,8,0:2:0:0:
147,55,81400,1,0,3:0:0:0:
123,55,81507,1,0,3:0:0:0:
99,55,81614,1,0,3:0:0:0:
76,55,81722,5,8,0:2:0:0:
78,90,81829,1,0,3:0:0:0:
80,126,81936,1,0,3:0:0:0:
82,161,82043,1,0,3:0:0:0:
85,197,82150,2,0,L|80:277,1,47.5,8|0,0:2|3:0,0:0:0:0:
48,354,82364,2,0,L|11:326,1,47.5,0|0,3:0|3:0,0:0:0:0:
177,314,82579,5,4,3:1:0:0:
211,307,82686,1,0,3:0:0:0:
247,311,82793,1,0,3:0:0:0:
281,321,82900,1,0,3:0:0:0:
312,337,83007,2,0,L|337:399,3,47.5,8|0|0|0,0:2|3:0|3:0|3:0,0:0:0:0:
462,355,83436,2,0,L|479:310,3,47.5,8|0|0|0,0:2|3:0|3:0|3:0,0:0:0:0:
380,253,83864,2,0,L|362:208,3,47.5,8|0|0|0,0:2|3:0|3:0|3:0,0:0:0:0:
456,155,84293,6,0,L|471:97,1,47.5,8|0,0:2|3:0,0:0:0:0:
359,28,84507,1,0,3:0:0:0:
359,28,84614,2,0,L|366:77,1,47.5,8|0,0:2|3:0,0:0:0:0:
249,151,84829,1,0,3:0:0:0:
249,151,84936,2,0,L|256:102,1,47.5,8|0,0:2|3:0,0:0:0:0:
143,26,85150,1,0,3:0:0:0:
143,26,85257,2,0,L|150:75,1,47.5,8|0,0:2|3:0,0:0:0:0:
42,148,85472,1,0,3:0:0:0:
42,148,85579,2,0,L|35:99,1,47.5,8|0,0:2|3:0,0:0:0:0:
143,203,85793,2,0,L|136:252,1,47.5,8|0,0:2|3:0,0:0:0:0:
23,353,86007,5,4,3:1:0:0:
53,334,86114,1,0,3:0:0:0:
88,328,86221,1,0,3:0:0:0:
122,334,86328,1,0,3:0:0:0:
153,352,86436,2,0,L|236:367,3,47.5,8|0|0|0,0:2|3:0|3:0|3:0,0:0:0:0:
255,256,86864,2,0,L|301:247,3,47.5,8|0|0|0,0:2|3:0|3:0|3:0,0:0:0:0:
360,343,87293,2,0,L|443:358,3,47.5,8|0|0|0,0:2|3:0|3:0|3:0,0:0:0:0:
447,251,87722,5,8,0:2:0:0:
440,228,87829,1,0,3:0:0:0:
433,205,87936,1,0,3:0:0:0:
426,182,88043,1,0,3:0:0:0:
436,150,88150,1,8,0:2:0:0:
412,150,88257,1,0,3:0:0:0:
388,151,88364,1,0,3:0:0:0:
364,152,88471,1,0,3:0:0:0:
331,179,88579,5,8,0:2:0:0:
304,155,88686,1,0,3:0:0:0:
292,122,88793,1,0,3:0:0:0:
295,87,88900,1,0,3:0:0:0:
315,57,89007,2,0,P|288:45|237:42,1,47.5,8|0,0:2|3:0,0:0:0:0:
140,36,89222,2,0,P|116:41|95:51,1,47.5,0|0,3:0|3:0,0:0:0:0:
22,149,89436,5,4,3:1:0:0:
13,183,89543,1,0,3:0:0:0:
12,218,89650,1,0,3:0:0:0:
18,253,89757,1,0,3:0:0:0:
33,286,89864,2,0,P|35:316|24:338,3,47.5,8|0|0|0,0:2|3:0|3:0|3:0,0:0:0:0:
109,216,90293,2,0,P|124:198|146:189,3,47.5,8|0|0|0,0:2|3:0|3:0|3:0,0:0:0:0:
182,301,90722,2,0,P|184:331|173:353,3,47.5,8|0|0|0,0:2|3:0|3:0|3:0,0:0:0:0:
254,221,91150,6,0,L|316:223,1,47.5,8|0,0:2|3:0,0:0:0:0:
376,127,91364,1,0,3:0:0:0:
376,127,91472,2,0,L|296:118,1,47.5,8|0,0:2|3:0,0:0:0:0:
272,41,91686,1,0,3:0:0:0:
272,41,91794,2,0,L|192:50,1,47.5,8|0,0:2|3:0,0:0:0:0:
160,148,92007,1,8,0:2:0:0:
33,36,92222,5,4,3:0:0:0:
29,83,92329,1,4,3:0:0:0:
25,130,92436,2,0,L|26:205,1,47.5,4|4,3:0|3:0,0:0:0:0:
101,320,92650,2,0,L|102:395,1,47.5,4|4,3:0|3:0,0:0:0:0:
37,262,92864,6,0,P|91:237|181:271,1,142.5,4|0,3:1|0:0,0:0:0:0:
225,334,93293,2,0,P|269:355|359:313,1,142.5,0|0,3:0|0:0,0:0:0:0:
392,242,93722,1,8,0:2:0:0:
225,144,93936,1,0,3:0:0:0:
436,86,94150,2,0,L|496:79,1,47.5,0|0,3:0|3:0,0:0:0:0:
334,28,94364,1,0,3:0:0:0:
334,28,94579,6,0,B|357:94|304:92|337:176,1,142.5,4|0,3:1|0:0,0:0:0:0:
409,207,95007,2,0,P|344:194|333:256,1,142.5,0|0,3:0|0:0,0:0:0:0:
421,306,95436,1,8,0:2:0:0:
234,235,95650,1,0,3:0:0:0:
128,357,95864,2,0,L|55:358,1,47.5,0|0,3:0|3:0,0:0:0:0:
240,364,96079,1,0,3:0:0:0:
240,364,96293,6,0,P|211:299|258:217,1,142.5,4|0,3:1|0:0,0:0:0:0:
305,175,96722,2,0,B|284:195|230:199|230:199|201:179|128:172,1,142.5,0|0,3:0|0:0,0:0:0:0:
70,179,97150,1,8,0:2:0:0:
245,93,97364,1,0,3:0:0:0:
60,71,97579,2,0,L|5:71,1,47.5,0|0,3:0|3:0,0:0:0:0:
145,13,97793,1,0,3:0:0:0:
145,13,98007,6,0,L|148:87,1,47.5,0|0,3:0|3:0,0:0:0:0:
244,92,98222,2,0,L|243:45,1,47.5,0|0,3:0|3:0,0:0:0:0:
333,13,98436,2,0,L|336:87,1,47.5,0|0,3:0|3:0,0:0:0:0:
432,92,98651,2,0,L|431:45,1,47.5,0|0,3:0|3:0,0:0:0:0:
349,152,98864,6,0,L|352:226,1,47.5,8|0,0:2|3:0,0:0:0:0:
448,231,99079,2,0,L|447:184,1,47.5,0|0,3:0|3:0,0:0:0:0:
374,301,99293,2,0,L|371:347,4,31.6666666666667,8|8|8|4|4,3:2|0:2|0:2|3:0|3:0,0:0:0:0:
235,251,99722,5,12,3:1:0:0:
235,251,99936,6,0,B|211:243|211:243|127:243,1,61.7499971733095,8|0,0:2|3:0,0:0:0:0:
134,119,100150,2,0,B|126:143|126:143|126:179,1,61.7499971733095,8|0,0:2|3:0,0:0:0:0:
15,237,100364,2,0,B|39:245|39:245|75:245,1,61.7499971733095,8|0,0:2|3:0,0:0:0:0:
119,371,100578,2,0,B|127:347|127:347|127:310,1,61.7499971733095,8|0,0:2|3:0,0:0:0:0:
235,251,100793,6,0,L|314:251,1,61.7499971733095,8|0,0:2|3:0,0:0:0:0:
364,322,101007,2,0,L|364:383,1,61.7499971733095,8|0,0:2|3:0,0:0:0:0:
437,261,101222,2,0,L|499:261,1,61.7499971733095,8|0,0:2|3:0,0:0:0:0:
369,189,101436,6,0,L|369:128,1,61.7499971733095,8|0,0:2|3:0,0:0:0:0:
200,76,101650,2,0,L|201:138,1,61.7499971733095,8|0,0:2|3:0,0:0:0:0:
285,170,101864,2,0,L|284:108,1,61.7499971733095,8|0,0:2|3:0,0:0:0:0:
115,56,102078,2,0,L|115:117,1,61.7499971733095,8|0,0:2|3:0,0:0:0:0:
183,256,102293,6,0,L|162:326,1,61.7499971733095,8|0,0:2|3:0,0:0:0:0:
23,257,102507,2,0,L|44:327,1,61.7499971733095,8|0,0:2|3:0,0:0:0:0:
254,322,102722,2,0,L|272:263,1,61.7499971733095,8|0,0:2|3:0,0:0:0:0:
86,193,102936,2,0,L|107:263,1,61.7499971733095,8|0,0:2|3:0,0:0:0:0:
244,160,103150,6,0,L|286:164,2,30.8749985866547,8|0|0,0:2|3:0|3:0,0:0:0:0:
160,86,103364,2,0,L|118:90,2,30.8749985866547,8|0|0,0:2|3:0|3:0,0:0:0:0:
345,80,103579,2,0,L|375:82,2,30.8749985866547,8|0|0,0:2|3:0|3:0,0:0:0:0:
372,237,103793,2,0,L|330:241,2,30.8749985866547,8|0|0,0:2|3:0|3:0,0:0:0:0:
454,158,104007,2,0,L|496:154,2,30.8749985866547,8|0|0,0:2|3:0|3:0,0:0:0:0:
274,162,104222,2,0,L|244:160,2,30.8749985866547,8|0|0,0:2|3:0|3:0,0:0:0:0:
365,334,104436,2,0,L|395:331,2,30.8749985866547,8|0|0,0:2|3:0|3:0,0:0:0:0:
227,299,104650,2,0,L|196:296,2,30.8749985866547,8|0|0,0:2|0:0|0:0,0:0:0:0:
81,359,104864,5,4,3:0:0:0:
47,327,104971,1,8,0:2:0:0:
34,284,105078,1,8,0:2:0:0:
45,239,105185,1,8,0:2:0:0:
78,207,105293,2,0,L|153:208,1,61.7499971733095,8|8,0:2|0:2,0:0:0:0:
276,122,105507,2,0,L|201:123,1,61.7499971733095,0|8,3:0|0:2,0:0:0:0:
81,55,105722,5,4,3:0:0:0:
47,86,105829,1,8,0:2:0:0:
34,129,105936,1,4,3:0:0:0:
45,174,106043,1,8,0:2:0:0:
78,207,106151,2,0,L|153:206,1,61.7499971733095,4|0,3:0|3:0,0:0:0:0:
346,198,106364,1,0,3:0:0:0:
249,20,106579,5,4,3:1:0:0:
256,192,106793,12,0,108293,0:0:0:0:
439,76,111722,6,0,L|379:77,3,42.7499986953736,4|0|0|0,3:1|3:0|3:0|3:0,0:0:0:0:
488,167,112150,2,0,L|428:168,3,42.7499986953736,4|0|0|0,3:1|3:0|3:0|3:0,0:0:0:0:
408,248,112579,2,0,L|348:249,3,42.7499986953736,4|0|0|0,3:1|3:0|3:0|3:0,0:0:0:0:
493,340,113007,2,0,L|433:341,3,42.7499986953736,4|0|0|0,3:1|3:0|3:0|3:0,0:0:0:0:
351,360,113436,5,4,3:1:0:0:
362,339,114614,1,8,0:2:0:0:
362,339,114722,2,0,L|390:341,2,21.3749993476868,8|0|0,0:2|0:0|0:0,0:0:0:0:
295,277,114936,1,8,0:2:0:0:
295,277,115043,1,8,0:2:0:0:
295,277,115150,6,0,P|294:219|327:139,1,109.250002083778,4|0,3:1|0:0,0:0:0:0:
444,72,115472,1,0,3:0:0:0:
444,72,115579,2,0,P|363:87|316:66,1,109.250002083778,8|0,0:2|0:0,0:0:0:0:
179,96,115900,1,8,0:2:0:0:
179,96,116007,2,0,P|204:91|236:101,1,54.6250010418892,0|8,3:0|0:2,0:0:0:0:
214,267,116222,2,0,P|188:271|157:262,1,54.6250010418892,0|0,3:0|0:0,0:0:0:0:
76,180,116436,2,0,L|209:181,1,109.250002083778,8|0,0:2|0:0,0:0:0:0:
286,204,116757,1,8,0:2:0:0:
286,204,116864,6,0,P|313:271|282:331,1,109.250002083778,4|0,3:1|0:0,0:0:0:0:
437,294,117186,1,0,3:0:0:0:
437,294,117293,2,0,P|411:246|419:193,1,109.250002083778,8|0,0:2|0:0,0:0:0:0:
499,136,117614,1,8,0:2:0:0:
499,136,117722,2,0,P|498:97|481:54,1,54.6250010418892,0|8,3:0|0:2,0:0:0:0:
391,17,117936,2,0,L|390:86,1,54.6250010418892,0|0,3:0|3:0,0:0:0:0:
297,141,118150,2,0,P|290:102|300:57,1,54.6250010418892,8|0,0:2|3:0,0:0:0:0:
185,26,118364,1,0,0:0:0:0:
185,26,118472,1,8,0:2:0:0:
185,26,118579,6,0,L|188:177,1,109.250002083778,4|0,3:1|0:0,0:0:0:0:
75,243,118900,1,0,3:0:0:0:
75,243,119007,2,0,L|77:133,1,109.250002083778,8|0,0:2|0:0,0:0:0:0:
189,239,119329,1,8,0:2:0:0:
189,239,119436,2,0,L|189:305,1,54.6250010418892,0|8,3:0|0:2,0:0:0:0:
105,378,119650,2,0,L|105:323,1,54.6250010418892,0|0,3:0|0:0,0:0:0:0:
284,223,119864,2,0,L|281:332,1,109.250002083778,8|0,0:2|0:0,0:0:0:0:
375,378,120186,1,8,0:2:0:0:
375,378,120293,6,0,P|443:369|478:330,1,109.250002083778,4|0,3:1|3:0,0:0:0:0:
511,258,120614,1,0,0:0:0:0:
511,258,120722,2,0,L|495:185,1,54.6250010418892,8|0,0:2|0:0,0:0:0:0:
406,160,120936,2,0,L|390:87,1,54.6250010418892,8|8,0:2|0:2,0:0:0:0:
476,49,121150,5,4,3:1:0:0:
436,85,121257,1,0,3:0:0:0:
383,99,121364,1,8,0:2:0:0:
331,86,121471,1,8,0:2:0:0:
290,51,121579,2,0,P|255:46|211:56,1,54.6250010418892,0|0,3:0|3:0,0:0:0:0:
127,161,121793,2,0,P|122:195|132:240,1,54.6250010418892,0|0,3:0|3:0,0:0:0:0:
238,339,122007,5,4,3:1:0:0:
272,359,122114,1,0,0:0:0:0:
312,356,122221,1,0,3:0:0:0:
344,331,122328,1,0,3:0:0:0:
355,292,122436,2,0,L|332:208,3,54.6250010418892,8|0|0|0,0:2|3:0|3:0|3:0,0:0:0:0:
244,114,122864,1,0,3:0:0:0:
210,94,122971,1,0,3:0:0:0:
170,97,123078,1,0,3:0:0:0:
138,122,123185,1,0,3:0:0:0:
127,161,123293,2,0,L|121:241,3,54.6250010418892,8|0|0|0,0:2|3:0|3:0|3:0,0:0:0:0:
194,327,123722,5,4,3:1:0:0:
160,349,123829,1,0,3:0:0:0:
120,357,123936,1,0,3:0:0:0:
80,349,124043,1,0,3:0:0:0:
47,326,124150,2,0,P|43:293|50:250,3,54.6250010418892,8|0|0|0,0:2|3:0|3:0|3:0,0:0:0:0:
50,98,124579,1,4,3:1:0:0:
83,75,124686,1,0,3:0:0:0:
123,67,124793,1,0,3:0:0:0:
163,75,124900,1,0,3:0:0:0:
197,99,125007,2,0,P|201:132|194:175,3,54.6250010418892,8|0|0|0,0:2|3:0|3:0|3:0,0:0:0:0:
323,66,125436,6,0,L|359:42,4,36.4166673612595,4|0|0|0|0,3:1|3:0|3:0|3:0|3:0,0:0:0:0:
275,229,125864,2,0,L|311:253,4,36.4166673612595,8|0|0|0|0,3:2|3:0|3:0|3:0|3:0,0:0:0:0:
433,177,126293,2,0,L|469:153,4,36.4166673612595,0|0|0|0|0,3:0|3:0|3:0|3:0|3:0,0:0:0:0:
385,340,126721,2,0,L|421:364,4,36.4166673612595,8|0|0|0|0,3:2|3:0|3:0|3:0|3:0,0:0:0:0:
201,354,127150,5,4,3:1:0:0:
275,229,127364,1,4,3:0:0:0:
82,166,127579,1,4,3:0:0:0:
208,51,127793,1,4,3:0:0:0:
138,283,128007,1,4,3:2:0:0:
50,72,128222,1,4,3:0:0:0:
305,132,128436,2,0,L|425:132,1,109.250002083778,4|4,3:2|3:2,0:0:0:0:
266,355,128864,6,0,P|254:308|289:247,2,104.500003189087,4|0|8,3:1|3:0|0:2,0:0:0:0:
49,355,130150,1,0,3:0:0:0:
108,280,130364,1,0,3:0:0:0:
37,213,130579,1,4,3:0:0:0:
128,279,130793,1,0,3:0:0:0:
46,368,131007,1,0,3:0:0:0:
16,45,131436,1,8,0:2:0:0:
213,154,131757,1,0,3:0:0:0:
213,154,131864,1,0,3:0:0:0:
213,154,131972,2,0,L|272:150,1,52.2500015945435,4|4,3:0|3:0,0:0:0:0:
326,39,132293,6,0,B|342:71|342:71|332:94|332:94|356:144,2,104.500003189087,4|0|8,3:1|3:0|0:2,0:0:0:0:
108,192,133579,1,0,3:0:0:0:
106,92,133793,1,0,3:0:0:0:
106,92,133900,1,0,3:0:0:0:
106,92,134007,5,4,3:0:0:0:
206,100,134222,2,0,L|283:102,1,52.2500015945435,0|4,3:0|3:0,0:0:0:0:
167,18,134650,1,0,3:0:0:0:
236,192,134864,1,8,0:2:0:0:
351,48,135079,1,0,3:0:0:0:
357,67,135186,1,0,3:0:0:0:
363,87,135293,2,0,L|361:137,4,31.6666666666667,4|4|4|4|4,3:0|3:0|3:0|3:0|3:0,0:0:0:0:
451,45,135722,6,0,L|443:203,1,142.500005435944,4|0,3:1|3:0,0:0:0:0:
240,246,136579,2,0,P|332:255|350:297,1,142.500005435944,8|0,0:2|3:0,0:0:0:0:
196,380,137222,1,0,3:0:0:0:
196,380,137329,1,0,3:0:0:0:
196,380,137436,6,0,L|55:359,1,142.500005435944,4|0,3:0|3:0,0:0:0:0:
9,201,138079,1,0,3:0:0:0:
82,273,138293,2,0,L|223:294,1,142.500005435944,8|4,0:2|3:0,0:0:0:0:
2,179,138936,1,8,0:2:0:0:
248,47,139150,6,0,P|266:112|229:182,1,142.500005435944,4|0,3:1|3:0,0:0:0:0:
17,90,140007,2,0,L|191:107,1,142.500005435944,8|0,0:2|3:0,0:0:0:0:
237,40,140543,1,0,3:0:0:0:
237,40,140650,1,0,3:0:0:0:
237,40,140757,1,0,3:0:0:0:
237,40,140864,5,4,3:1:0:0:
378,114,141079,1,8,0:2:0:0:
271,251,141293,1,8,0:2:0:0:
401,348,141507,1,8,0:2:0:0:
483,163,141722,1,8,0:2:0:0:
483,163,141936,6,0,B|459:165|459:165|436:153|436:153|421:165|421:165|401:154|401:154|386:167|386:167|364:157|364:157|337:167,1,142.500005435944,0|8,3:0|0:2,0:0:0:0:
243,84,142472,1,8,0:2:0:0:
243,84,142579,6,0,P|258:126|226:203,1,95,4|0,3:1|0:0,0:0:0:0:
72,172,142900,2,0,P|62:125|77:81,1,95,0|0,3:0|0:0,0:0:0:0:
160,138,143222,2,0,L|160:208,1,47.5,0|0,3:0|0:0,0:0:0:0:
160,376,143436,1,8,0:2:0:0:
75,284,143650,1,0,3:0:0:0:
251,283,143864,6,0,L|191:283,1,42.7499986953736,2|8,0:0|0:2,0:0:0:0:
212,287,144293,5,4,3:1:0:0:
212,287,144400,2,0,L|347:287,1,95,0|0,0:0|3:0,0:0:0:0:
437,374,144722,2,0,P|420:327|436:299,1,47.5,0|0,0:0|0:0,0:0:0:0:
499,186,144936,1,0,3:0:0:0:
294,147,145150,2,0,L|245:146,4,31.6666666666667,8|8|8|8|8,0:2|0:2|0:2|0:2|0:2,0:0:0:0:
437,62,145579,2,0,L|486:61,4,31.6666666666667,0|0|0|4|4,3:0|3:0|3:0|3:0|3:0,0:0:0:0:
263,50,146007,6,0,B|233:37|233:37|162:44,1,95,4|0,3:1|0:0,0:0:0:0:
61,159,146329,2,0,B|54:221|54:221|67:251,1,95,0|0,3:0|0:0,0:0:0:0:
220,212,146650,2,0,B|197:199|197:199|153:210,1,47.5,0|0,3:0|0:0,0:0:0:0:
22,368,146864,5,8,0:2:0:0:
190,367,147079,1,2,0:0:0:0:
358,366,147293,1,2,0:0:0:0:
358,366,147722,6,0,P|368:309|353:224,1,113.999996520996,4|8,3:1|0:2,0:0:0:0:
508,367,148043,2,0,P|518:310|503:225,1,113.999996520996,4|8,3:1|0:2,0:0:0:0:
442,70,148364,2,0,P|431:126|447:212,1,113.999996520996,4|8,3:1|0:2,0:0:0:0:
292,65,148686,2,0,P|281:121|297:207,1,113.999996520996,4|8,3:1|0:2,0:0:0:0:
168,368,149007,6,0,P|179:318|151:254,1,99.7499969558717,4|0,3:1|0:0,0:0:0:0:
44,197,149436,6,0,B|72:200|88:220|88:220|101:197|131:192,1,95,4|0,3:1|0:0,0:0:0:0:
112,61,149757,2,0,B|90:58|77:35|77:35|61:55|33:58,1,95,0|0,3:0|0:0,0:0:0:0:
186,125,150079,2,0,L|251:124,1,47.5,0|0,3:0|0:0,0:0:0:0:
435,118,150293,1,8,0:2:0:0:
331,27,150507,1,0,3:0:0:0:
334,210,150722,6,0,L|334:150,1,42.7499986953736,2|8,0:0|0:2,0:0:0:0:
338,171,151150,5,4,3:1:0:0:
338,171,151257,2,0,L|337:277,1,95,8|0,3:1|3:0,0:0:0:0:
283,355,151579,2,0,P|259:365|231:360,1,47.5,8|0,0:1|0:0,0:0:0:0:
98,320,151793,2,0,L|39:324,2,31.6666666666667,0|0|0,3:0|0:0|0:0,0:0:0:0:
160,271,152007,2,0,L|219:275,4,31.6666666666667,0|8|8|8|8,3:0|0:2|0:2|0:2|0:2,0:0:0:0:
58,185,152436,2,0,L|-1:189,4,31.6666666666667,0|0|0|4|4,3:0|3:0|3:0|3:0|3:0,0:0:0:0:
160,88,152864,6,0,B|187:73|187:73|223:73|266:89,1,95,4|0,3:1|0:0,0:0:0:0:
306,257,153186,2,0,B|291:230|291:230|291:194|307:151,1,95,0|0,3:0|0:0,0:0:0:0:
467,155,153507,2,0,P|474:177|473:217,1,47.5,0|0,3:0|0:0,0:0:0:0:
389,376,153722,1,8,0:2:0:0:
386,226,153936,1,0,3:0:0:0:
233,335,154150,6,0,L|286:335,1,42.7499986953736,2|8,0:0|0:2,0:0:0:0:
275,335,154579,6,0,L|157:340,1,95,4|8,3:1|0:2,0:0:0:0:
8,294,154900,2,0,L|126:299,1,95,4|8,3:1|0:2,0:0:0:0:
286,241,155222,2,0,L|167:246,1,95,4|8,3:1|0:2,0:0:0:0:
18,200,155543,2,0,L|136:205,1,95,4|8,3:1|0:2,0:0:0:0:
305,155,155864,1,12,3:1:0:0:
305,155,156293,5,4,3:1:0:0:
62,44,156614,1,4,3:1:0:0:
62,44,156936,2,0,L|20:45,2,23.75,0|0|0,3:0|3:0|3:0,0:0:0:0:
155,22,157150,5,8,0:2:0:0:
186,39,157257,1,8,0:2:0:0:
211,65,157364,1,8,0:2:0:0:
227,96,157471,1,8,0:2:0:0:
232,131,157578,1,0,3:0:0:0:
227,167,157685,1,0,3:0:0:0:
211,198,157792,1,0,3:0:0:0:
187,224,157900,1,0,3:0:0:0:
156,241,158007,5,4,3:1:0:0:
395,354,158329,1,4,3:1:0:0:
395,354,158650,2,0,L|394:396,2,23.75,0|0|0,3:0|3:0|3:0,0:0:0:0:
417,261,158864,5,8,0:2:0:0:
399,229,158971,1,8,0:2:0:0:
373,204,159078,1,8,0:2:0:0:
342,188,159185,1,8,0:2:0:0:
307,183,159292,1,0,3:0:0:0:
271,188,159399,1,0,3:0:0:0:
240,204,159506,1,0,3:0:0:0:
214,228,159614,1,0,3:0:0:0:
197,259,159721,5,4,3:1:0:0:
306,24,160043,1,4,3:1:0:0:
306,24,160364,2,0,L|348:25,2,23.75,0|0|0,3:0|3:0|3:0,0:0:0:0:
241,96,160579,5,0,3:0:0:0:
207,128,160686,1,0,3:0:0:0:
160,131,160793,1,8,0:2:0:0:
123,104,160900,1,8,0:2:0:0:
111,59,161007,1,0,3:0:0:0:
111,82,161114,1,0,3:0:0:0:
111,106,161221,1,0,3:0:0:0:
111,130,161328,1,0,3:0:0:0:
111,154,161435,5,4,3:1:0:0:
381,152,161757,1,4,3:1:0:0:
381,152,162079,2,0,L|380:110,2,23.75,8|0|0,0:2|0:0|3:0,0:0:0:0:
452,231,162293,6,0,L|494:230,6,23.75,8|8|8|8|0|0|0,0:2|0:2|0:2|0:2|3:0|3:0|3:0,0:0:0:0:
382,314,162722,2,0,L|383:356,6,23.75,8|8|8|8|0|0|0,0:2|0:2|0:2|0:2|3:0|3:0|3:0,0:0:0:0:
285,238,163150,5,4,3:1:0:0:
80,324,163472,1,4,3:1:0:0:
88,121,163793,1,4,3:1:0:0:
294,72,164114,1,4,3:1:0:0:
279,258,164436,1,4,3:1:0:0:
104,127,164650,1,12,3:1:0:0:
420,162,164864,1,4,3:1:0:0:
256,192,164972,12,0,167007,0:0:0:0:
431,104,167864,5,8,0:2:0:0:
431,104,168293,5,0,3:1:0:0:
431,127,168400,1,0,3:0:0:0:
431,151,168507,1,0,3:0:0:0:
431,175,168614,1,0,3:0:0:0:
431,198,168721,1,0,3:0:0:0:
232,104,169150,1,8,0:2:0:0:
206,294,169364,1,0,3:0:0:0:
128,193,169579,1,0,3:0:0:0:
128,193,169686,1,0,3:0:0:0:
236,108,169900,1,0,3:0:0:0:
236,108,170007,5,0,3:0:0:0:
259,108,170114,1,0,3:0:0:0:
283,108,170221,1,0,3:0:0:0:
307,109,170328,1,0,3:0:0:0:
330,109,170435,1,0,3:0:0:0:
218,348,170864,1,8,0:2:0:0:
47,246,171079,1,0,3:0:0:0:
181,221,171293,1,0,3:0:0:0:
181,221,171400,1,0,3:0:0:0:
222,352,171614,1,0,3:0:0:0:
222,352,171721,5,0,3:0:0:0:
245,352,171828,1,0,3:0:0:0:
269,352,171935,1,0,3:0:0:0:
293,353,172042,1,0,3:0:0:0:
316,353,172149,1,0,3:0:0:0:
381,135,172579,1,8,0:2:0:0:
459,314,172793,1,0,3:0:0:0:
511,188,173007,1,0,3:0:0:0:
511,188,173114,1,0,3:0:0:0:
413,49,173329,1,0,3:0:0:0:
413,49,173436,6,0,P|385:94|387:166,1,95,4|0,3:1|0:0,0:0:0:0:
326,216,173758,2,0,P|298:171|300:99,1,95,4|0,3:1|0:0,0:0:0:0:
234,49,174079,2,0,P|206:94|208:166,1,95,4|0,3:1|0:0,0:0:0:0:
147,216,174401,2,0,P|119:171|121:99,1,95,4|0,3:1|0:0,0:0:0:0:
233,242,174722,2,0,P|233:274|225:308,1,47.5,4|0,3:1|3:0,0:0:0:0:
146,361,174936,2,0,P|142:337|143:313,1,47.5,0|0,3:0|3:0,0:0:0:0:
326,216,175150,5,4,3:1:0:0:
326,239,175257,1,0,3:0:0:0:
326,263,175364,1,0,3:0:0:0:
325,287,175471,1,0,3:0:0:0:
325,310,175578,1,0,3:0:0:0:
65,258,176007,1,8,0:2:0:0:
187,105,176222,1,0,3:0:0:0:
44,133,176436,1,0,3:0:0:0:
44,133,176543,1,0,3:0:0:0:
69,262,176757,1,0,3:0:0:0:
69,262,176864,5,0,3:0:0:0:
92,262,176971,1,0,3:0:0:0:
116,262,177078,1,0,3:0:0:0:
140,263,177185,1,0,3:0:0:0:
163,263,177292,1,0,3:0:0:0:
291,38,177722,1,8,0:2:0:0:
292,233,177936,1,0,3:0:0:0:
392,141,178150,1,0,3:0:0:0:
392,141,178257,1,0,3:0:0:0:
295,41,178472,1,0,3:0:0:0:
295,41,178579,5,0,3:0:0:0:
272,41,178686,1,0,3:0:0:0:
248,41,178793,1,0,3:0:0:0:
224,42,178900,1,0,3:0:0:0:
201,42,179007,1,0,3:0:0:0:
125,290,179436,1,8,0:2:0:0:
45,99,179650,1,0,3:0:0:0:
171,152,179864,1,0,3:0:0:0:
171,152,179972,1,0,3:0:0:0:
125,290,180186,1,0,3:0:0:0:
125,290,180293,6,0,L|164:285,4,23.75,12|0|0|0|0,3:1|3:0|3:0|3:0|3:0,0:0:0:0:
242,217,180614,2,0,L|281:212,4,23.75,0|0|0|0|0,3:0|3:0|3:0|3:0|3:0,0:0:0:0:
309,322,180936,2,0,L|348:317,4,23.75,8|0|0|0|0,3:2|3:0|3:0|3:0|3:0,0:0:0:0:
426,249,181257,2,0,L|465:244,4,23.75,0|0|0|0|0,3:0|3:0|3:0|3:0|3:0,0:0:0:0:
363,174,181579,1,12,3:1:0:0:
363,150,181686,1,8,3:2:0:0:
363,126,181793,1,8,3:2:0:0:
363,102,181900,1,8,3:2:0:0:
363,79,182007,5,4,3:1:0:0:
187,60,182436,1,8,0:0:0:0:
268,135,182864,1,2,0:0:0:0:
268,135,183079,1,2,0:0:0:0:
187,60,183293,1,8,0:0:0:0:
363,79,183722,1,2,0:0:0:0:
187,60,184150,1,8,0:0:0:0:
268,135,184578,1,2,0:0:0:0:
268,135,184793,1,2,0:0:0:0:
187,60,185007,1,8,0:0:0:0:
33,191,185436,5,0,3:0:0:0:
33,191,185864,1,0,3:0:0:0:
108,352,186293,5,0,3:0:0:0:
108,352,186721,1,0,3:0:0:0:
311,306,187150,6,0,L|344:306,2,23.75,4|0|0,3:1|3:0|3:0,0:0:0:0:
217,306,187364,2,0,L|184:306,2,23.75,4|0|0,3:1|3:0|3:0,0:0:0:0:
302,218,187579,2,0,L|335:218,2,23.75,4|0|0,3:1|3:0|3:0,0:0:0:0:
208,218,187793,2,0,L|175:218,2,23.75,4|0|0,3:1|3:0|3:0,0:0:0:0:
298,132,188007,2,0,L|331:132,2,23.75,4|0|0,3:1|3:0|3:0,0:0:0:0:
204,132,188221,2,0,L|171:132,2,23.75,4|0|0,3:1|3:0|3:0,0:0:0:0:
253,57,188436,5,12,0:1:0:0:
253,57,188864,6,0,P|198:66|136:50,1,113.999996520996,4|0,3:1|0:0,0:0:0:0:
21,169,189186,1,0,3:0:0:0:
21,169,189293,2,0,P|76:160|138:176,1,113.999996520996,8|0,0:2|0:0,0:0:0:0:
210,252,189614,1,8,0:2:0:0:
210,252,189722,2,0,P|213:287|205:321,1,56.9999982604981,0|8,3:0|0:2,0:0:0:0:
18,276,189936,1,0,3:0:0:0:
18,276,190043,1,0,0:0:0:0:
18,276,190150,2,0,P|73:267|135:283,1,113.999996520996,8|0,0:2|0:0,0:0:0:0:
282,359,190472,1,8,0:2:0:0:
282,359,190579,6,0,P|342:370|405:348,1,113.999996520996,4|0,3:1|0:0,0:0:0:0:
337,176,190900,1,0,3:0:0:0:
337,176,191007,2,0,P|332:241|337:302,1,113.999996520996,8|0,0:2|0:0,0:0:0:0:
463,295,191329,1,8,0:2:0:0:
463,295,191436,2,0,P|465:259|463:227,1,56.9999982604981,0|8,3:0|0:2,0:0:0:0:
506,149,191650,2,0,P|492:115|477:87,1,56.9999982604981,0|0,3:0|3:0,0:0:0:0:
381,20,191864,2,0,P|316:16|251:27,1,113.999996520996,8|0,0:2|0:0,0:0:0:0:
185,161,192186,1,8,0:2:0:0:
185,161,192293,6,0,P|184:82|171:30,1,113.999996520996,4|0,3:1|0:0,0:0:0:0:
12,61,192614,1,0,3:0:0:0:
12,61,192721,2,0,P|13:140|26:192,1,113.999996520996,8|0,0:2|0:0,0:0:0:0:
105,276,193043,1,8,0:2:0:0:
105,276,193150,2,0,P|104:236|102:205,1,56.9999982604981,0|8,3:0|0:2,0:0:0:0:
12,360,193364,1,0,3:0:0:0:
12,360,193472,1,0,0:0:0:0:
12,360,193579,2,0,P|80:355|162:373,1,113.999996520996,8|0,0:2|0:0,0:0:0:0:
213,259,193900,1,8,0:2:0:0:
213,259,194007,6,0,P|264:306|260:349,1,113.999996520996,4|0,3:1|3:0,0:0:0:0:
373,347,194329,1,0,3:0:0:0:
373,347,194436,2,0,P|370:277|403:250,1,113.999996520996,8|0,0:2|0:0,0:0:0:0:
307,149,194757,1,8,0:2:0:0:
307,149,194864,2,0,L|308:229,1,56.9999982604981,4|0,3:1|3:0,0:0:0:0:
306,44,195079,1,0,3:0:0:0:
190,184,195293,1,8,0:2:0:0:
190,184,195400,1,8,0:2:0:0:
73,52,195614,1,0,3:0:0:0:
73,52,195722,6,0,L|66:143,1,56.9999982604981,4|0,3:1|0:0,0:0:0:0:
11,281,195936,2,0,B|-2:330,2,37.9999988403321,0|0|0,3:0|3:0|3:0,0:0:0:0:
39,199,196150,2,0,P|70:215|89:254,1,56.9999982604981,8|0,3:2|3:0,0:0:0:0:
96,340,196364,1,0,0:0:0:0:
96,340,196471,1,8,0:2:0:0:
96,340,196578,2,0,L|196:342,1,56.9999982604981,0|8,3:0|0:2,0:0:0:0:
197,185,196793,1,0,3:0:0:0:
197,185,196900,1,0,3:0:0:0:
197,185,197007,2,0,P|191:250|231:298,1,113.999996520996,8|0,0:2|0:0,0:0:0:0:
340,223,197329,1,8,0:2:0:0:
340,223,197436,6,0,L|248:223,1,56.9999982604981,4|0,3:1|0:0,0:0:0:0:
309,317,197650,2,0,L|366:317,1,56.9999982604981,0|0,0:0|3:0,0:0:0:0:
429,240,197864,2,0,L|421:111,1,113.999996520996,8|0,0:2|0:0,0:0:0:0:
512,65,198186,1,8,0:2:0:0:
512,65,198293,2,0,P|457:40|414:56,1,56.9999982604981,0|8,3:0|0:2,0:0:0:0:
380,46,198507,2,0,P|352:53|330:70,1,56.9999982604981,0|0,3:0|3:0,0:0:0:0:
216,20,198722,2,0,P|196:80|208:145,1,113.999996520996,8|0,0:2|3:0,0:0:0:0:
71,22,199043,1,8,0:2:0:0:
71,22,199150,6,0,P|90:95|70:151,1,113.999996520996,4|0,3:1|0:0,0:0:0:0:
13,237,199472,1,0,3:0:0:0:
13,237,199579,2,0,P|81:220|120:244,1,113.999996520996,8|0,0:2|0:0,0:0:0:0:
60,371,199900,1,8,0:2:0:0:
60,371,200007,2,0,L|63:286,1,56.9999982604981,0|8,3:0|0:2,0:0:0:0:
219,317,200222,2,0,L|216:373,1,56.9999982604981,0|0,3:0|0:0,0:0:0:0:
138,371,200436,2,0,L|141:286,1,56.9999982604981,8|0,0:2|3:0,0:0:0:0:
297,317,200651,2,0,L|294:373,1,56.9999982604981,0|8,3:0|0:2,0:0:0:0:
249,212,200864,6,0,L|198:199,6,28.4999991302491,4|0|0|4|0|0|0,3:1|3:0|3:0|3:0|3:0|3:0|3:0,0:0:0:0:
321,146,201293,2,0,L|367:132,6,28.4999991302491,4|0|0|4|0|0|0,3:0|3:0|3:0|3:0|3:0|3:0|3:0,0:0:0:0:
243,85,201722,1,4,3:2:0:0:
474,52,201936,1,4,3:0:0:0:
359,266,202150,1,4,3:2:0:0:
355,223,202257,1,0,3:0:0:0:
352,180,202364,1,4,3:2:0:0:
349,138,202471,1,0,3:0:0:0:
346,95,202579,6,0,L|361:44,4,37.9999988403321,4|0|0|0|0,3:1|3:0|3:0|3:0|3:0,0:0:0:0:
161,87,203007,2,0,L|146:36,4,37.9999988403321,8|0|0|0|0,0:2|3:0|3:0|3:0|3:0,0:0:0:0:
257,195,203436,2,0,L|258:248,4,37.9999988403321,0|0|0|0|0,3:0|3:0|3:0|3:0|3:0,0:0:0:0:
107,275,203864,6,0,L|96:311,10,37.9999988403321,8|0|0|0|0|0|0|0|0|0|0,3:2|3:0|3:0|3:0|3:0|3:1|3:1|3:0|3:0|3:0|3:2,2:0:0:0:
378,266,204722,2,0,L|389:303,10,37.9999988403321,8|0|0|0|0|0|0|0|0|0|0,0:2|3:0|3:0|3:0|3:0|3:0|3:0|3:0|3:0|3:0|3:2,0:0:0:0:
226,294,205579,2,0,L|215:330,2,37.9999988403321,8|0|0,0:2|3:0|3:0,0:0:0:0:
255,195,205793,1,0,3:0:0:0:
166,95,206007,6,0,L|151:44,4,37.9999988403321,4|0|0|0|0,3:1|3:0|3:0|3:0|3:0,0:0:0:0:
351,87,206436,2,0,L|366:36,4,37.9999988403321,8|0|0|0|0,0:2|3:0|3:0|3:0|3:0,0:0:0:0:
255,195,206864,2,0,L|253:248,4,37.9999988403321,0|0|0|0|0,3:0|3:0|3:0|3:0|3:0,0:0:0:0:
67,207,207293,6,0,L|28:198,4,37.9999988403321,8|0|0|0|0,0:2|3:0|3:0|3:0|3:0,0:0:0:0:
102,301,207722,2,0,L|93:340,4,37.9999988403321,4|0|0|0|0,3:1|3:0|3:0|3:0|3:0,0:0:0:0:
202,338,208150,2,0,L|241:347,4,37.9999988403321,8|0|0|0|0,0:2|3:0|3:0|3:0|3:0,0:0:0:0:
314,278,208579,5,8,0:2:0:0:
433,349,208793,1,8,0:2:0:0:
500,236,209007,1,8,0:2:0:0:
496,198,209114,1,8,0:2:0:0:
492,160,209222,1,8,0:2:0:0:
488,122,209329,1,8,0:2:0:0:
485,84,209436,6,0,B|465:76|465:76|377:81,1,71.2500027179719,12|0,3:1|0:0,0:0:0:0:
273,14,209650,2,0,B|265:34|265:34|270:122,1,71.2500027179719,8|0,0:2|3:0,0:0:0:0:
117,199,209864,2,0,B|137:207|137:207|225:202,1,71.2500027179719,8|0,0:2|3:0,0:0:0:0:
329,269,210078,2,0,B|337:249|337:249|332:161,1,71.2500027179719,8|0,0:2|3:0,0:0:0:0:
152,100,210293,6,0,L|45:98,1,71.2500027179719,8|0,0:2|3:0,0:0:0:0:
52,308,210507,2,0,L|159:306,1,71.2500027179719,8|0,0:2|3:0,0:0:0:0:
162,117,210722,2,0,L|55:115,1,71.2500027179719,8|0,0:2|3:0,0:0:0:0:
62,325,210936,2,0,L|169:323,1,71.2500027179719,8|0,0:2|3:0,0:0:0:0:
310,323,211150,6,0,L|207:324,1,71.2500027179719,8|0,0:2|3:0,0:0:0:0:
260,139,211364,2,0,L|261:68,1,71.2500027179719,8|0,0:2|3:0,0:0:0:0:
430,115,211579,2,0,L|533:116,1,71.2500027179719,8|0,0:2|3:0,0:0:0:0:
479,276,211793,2,0,L|479:347,1,71.2500027179719,8|0,0:2|3:0,0:0:0:0:
327,234,212007,6,0,L|220:236,1,71.2500027179719,8|0,0:2|3:0,0:0:0:0:
57,229,212221,2,0,L|164:231,1,71.2500027179719,8|0,0:2|3:0,0:0:0:0:
337,217,212436,2,0,L|230:219,1,71.2500027179719,8|0,0:2|3:0,0:0:0:0:
67,212,212650,2,0,L|174:214,1,71.2500027179719,8|0,0:2|3:0,0:0:0:0:
402,139,212864,6,0,L|460:138,2,35.625001358986,8|0|0,0:2|3:0|3:0,0:0:0:0:
328,76,213079,2,0,L|328:41,2,35.625001358986,8|0|0,0:2|3:0|3:0,0:0:0:0:
264,155,213293,2,0,L|206:156,6,35.625001358986,8|0|0|0|8|0|0,0:2|3:0|3:0|3:0|3:2|3:0|3:0,0:0:0:0:
327,234,213722,6,0,L|362:233,2,35.625001358986,8|0|0,0:2|3:0|3:0,0:0:0:0:
262,312,213937,2,0,L|262:347,2,35.625001358986,8|0|0,0:2|3:0|3:0,0:0:0:0:
189,250,214150,2,0,L|153:250,6,35.625001358986,8|0|0|0|8|0|0,0:2|3:0|3:0|3:0|3:2|3:0|3:0,0:0:0:0:
264,155,214579,5,4,3:3:0:0:
339,281,214793,1,0,3:0:0:0:
466,170,215007,1,0,3:0:0:0:
242,153,215222,1,0,3:0:0:0:
431,349,215436,1,12,0:1:0:0:
355,172,215650,1,8,3:2:0:0:
163,318,215864,1,0,3:0:0:0:
163,318,215972,1,0,3:0:0:0:
163,318,216079,1,8,3:2:0:0:
34,142,216293,5,8,0:2:0:0:
240,52,216614,1,8,0:2:0:0:
355,217,217150,5,0,1:0:0:0:
355,217,217578,1,0,1:0:0:0:
43,274,218007,5,8,0:2:0:0:
249,184,218328,1,8,0:2:0:0:
364,349,218864,5,0,1:0:0:0:
364,349,219292,1,0,1:0:0:0:
43,274,219722,5,8,0:2:0:0:
249,184,220043,1,8,0:2:0:0:
43,274,220365,5,8,0:2:0:0:
249,184,220686,1,8,0:2:0:0:
43,274,221007,5,8,0:2:0:0:
44,238,221114,1,0,3:0:0:0:
45,202,221221,1,0,3:0:0:0:
46,167,221328,1,0,3:0:0:0:
48,130,221436,6,0,P|111:94|166:105,1,113.999996520996,4|0,3:1|3:0,0:0:0:0:
258,32,221757,1,0,3:0:0:0:
258,32,221864,2,0,L|263:104,1,56.9999982604981,4|0,3:0|3:0,0:0:0:0:
416,45,222079,2,0,P|372:111|406:205,1,170.999994781494,4|0,3:1|3:0,0:0:0:0:
475,280,222507,1,4,3:0:0:0:
475,280,222614,1,0,3:0:0:0:
475,280,222722,2,0,P|415:299|412:299,1,56.9999982604981,4|0,3:1|3:0,0:0:0:0:
331,265,222936,1,0,3:0:0:0:
66,351,223150,1,4,3:1:0:0:
256,192,223257,12,0,230007,0:0:0:0:
