osu file format v14

[General]
AudioFilename: audio.mp3
AudioLeadIn: 0
PreviewTime: 71283
Countdown: 0
SampleSet: None
StackLeniency: 0.8
Mode: 0
LetterboxInBreaks: 1
WidescreenStoryboard: 0

[Editor]
DistanceSpacing: 0.9
BeatDivisor: 4
GridSize: 8
TimelineZoom: 3.499999

[Metadata]
Title:Chiri Yuku Mono wa Umi no Hana
TitleUnicode:散りゆくものは海の花
Artist:UNDEAD CORPORATION
ArtistUnicode:UNDEAD CORPORATION
Creator:Dimadesu
Version:Breeze
Source:Kantai Collection
Tags:undead corporation kancolle kantai collection
BeatmapID:1506760
BeatmapSetID:712883

[Difficulty]
HPDrainRate:6.5
CircleSize:4.2
OverallDifficulty:8
ApproachRate:9.4
SliderMultiplier:1.5
SliderTickRate:2

[Events]
//Background and Video events
0,0,"1.jpg",0,0
//Break Periods
//Storyboard Layer 0 (Background)
//Storyboard Layer 1 (Fail)
//Storyboard Layer 2 (Pass)
//Storyboard Layer 3 (Foreground)
//Storyboard Sound Samples

[TimingPoints]
55,307.692307692308,4,2,0,70,1,0
55,-133.333333333333,4,2,0,50,0,0
13593,-133.333333333333,4,3,0,70,0,0
14824,-100,4,3,0,65,0,0
25745,307.692307692308,4,3,0,70,1,0
44821,-100,4,2,0,70,0,0
44975,-100,4,3,0,70,0,0
45129,-100,4,2,0,70,0,0
45283,-100,4,3,0,70,0,0
50360,-133.333333333333,4,3,0,45,0,0
58206,-100,4,3,0,65,0,0
58360,-133.333333333333,4,3,0,50,0,0
70052,-133.333333333333,4,3,0,65,0,0
71283,-80,4,3,0,80,0,1
90975,-100,4,3,0,70,0,0
110052,-100,4,2,0,70,0,0
110206,-100,4,3,0,70,0,0
110360,-100,4,2,0,70,0,0
110514,-100,4,3,0,70,0,0
115745,375,4,3,0,50,1,0
115745,-133.333333333333,4,3,0,50,0,0
122495,-100,4,3,0,50,0,0
124745,-133.333333333333,4,3,0,50,0,0
125120,-100,4,3,0,50,0,0
127745,-133.333333333333,4,3,0,50,0,0
151745,615.384615384615,4,3,0,40,1,0
156051,307.692307692308,4,3,0,70,1,0
156512,-100,4,3,0,70,0,0
156513,307.692307692308,4,3,0,70,1,0
165743,-100,4,2,0,70,0,0
165897,-100,4,3,0,70,0,0
166051,-100,4,2,0,70,0,0
166205,-100,4,3,0,70,0,0
171282,-133.333333333333,4,2,0,50,0,0
181128,-100,4,3,0,65,0,0
190974,-80,4,3,0,80,0,1
210666,-100,4,3,0,70,0,0

[Colours]
Combo1 : 87,87,87
Combo2 : 211,211,211
Combo3 : 133,133,133
Combo4 : 167,167,167

[HitObjects]
184,192,4978,6,0,P|200:144|256:120,1,112.500004291535,0|8,0:0|0:0,0:0:0:0:
328,192,5593,2,0,P|312:240|248:264,1,112.500004291535,0|8,0:0|0:0,0:0:0:0:
192,96,6208,1,0,0:0:0:0:
280,144,6516,1,8,0:0:0:0:
248,240,6824,1,0,0:0:0:0:
144,248,7131,1,8,0:0:0:0:
112,152,7439,6,0,P|120:96|184:64,1,112.500004291535,0|8,0:0|0:0,0:0:0:0:
256,160,8055,1,0,0:0:0:0:
144,248,8362,1,8,0:0:0:0:
72,96,8670,2,0,B|120:112|120:48|184:72,1,112.500004291535,0|8,0:0|0:0,0:0:0:0:
176,280,9285,2,0,B|128:296|128:232|64:256,1,112.500004291535,0|8,0:0|0:0,0:0:0:0:
184,144,9901,5,0,0:0:0:0:
304,72,10208,2,0,B|352:40|352:40|400:72,2,112.500004291535,8|0|8,0:0|0:0|0:0,0:0:0:0:
376,192,11131,2,0,L|376:312,1,112.500004291535,0|8,0:0|0:0,0:0:0:0:
288,280,11747,1,0,0:0:0:0:
344,192,12055,1,8,0:0:0:0:
432,240,12362,1,0,0:0:0:0:
376,328,12670,1,8,0:0:0:0:
328,192,12978,2,0,P|304:152|328:88,1,112.500004291535,0|8,0:0|0:0,0:0:0:0:
448,152,13593,6,0,L|360:240,1,112.500004291535,4|0,0:0|0:0,0:0:0:0:
344,256,14208,1,0,0:0:0:0:
320,288,14516,1,0,0:0:0:0:
312,112,14824,6,0,B|280:24|320:32|352:40|384:72,1,150,4|0,0:0|0:0,0:0:0:0:
336,272,15439,1,0,0:0:0:0:
240,176,15747,1,0,0:0:0:0:
152,80,16055,1,0,0:0:0:0:
280,208,16208,1,0,0:0:0:0:
280,208,16285,1,0,0:0:0:0:
280,208,16362,2,0,P|240:256|152:288,1,150
216,88,16978,1,0,0:0:0:0:
216,96,17055,1,0,0:0:0:0:
216,104,17131,1,0,0:0:0:0:
280,304,17285,6,0,B|336:352|336:216|392:264|416:232,1,150
432,88,17901,2,0,P|384:56|296:32,1,150
320,192,18516,1,0,0:0:0:0:
184,88,18670,2,0,L|136:56,1,37.5
88,24,18824,1,0,0:0:0:0:
88,208,19131,1,0,0:0:0:0:
96,368,19439,1,0,0:0:0:0:
126,345,19515,1,0,0:0:0:0:
156,323,19592,1,0,0:0:0:0:
186,300,19669,1,0,0:0:0:0:
208,280,19747,6,0,L|320:176|320:176,1,150
352,80,20362,1,0,0:0:0:0:
256,176,20670,1,0,0:0:0:0:
328,64,20978,1,0,0:0:0:0:
280,200,21131,1,0,0:0:0:0:
272,216,21208,1,0,0:0:0:0:
264,232,21285,2,0,B|240:296|184:304|128:216,1,150
368,48,21901,6,0,B|400:8|456:48|456:120|432:160,1,150
368,208,22516,1,0,0:0:0:0:
272,296,22824,1,0,0:0:0:0:
112,336,23131,1,0,0:0:0:0:
256,72,23439,5,4,0:0:0:0:
176,200,23593,1,0,0:0:0:0:
168,216,23670,1,0,0:0:0:0:
160,232,23747,1,0,0:0:0:0:
168,32,23901,1,0,0:0:0:0:
248,248,24055,1,0,0:0:0:0:
96,120,24208,1,0,0:0:0:0:
304,184,24362,1,0,0:0:0:0:
320,192,24439,1,0,0:0:0:0:
336,200,24516,1,0,0:0:0:0:
104,264,24670,5,0,0:0:0:0:
248,80,24824,1,8,0:0:0:0:
264,64,24901,1,8,0:0:0:0:
280,48,24978,1,8,0:0:0:0:
400,16,25131,1,8,0:0:0:0:
480,152,25285,1,8,0:0:0:0:
432,296,25439,1,8,0:0:0:0:
304,352,25593,1,8,0:0:0:0:
152,296,25745,6,0,P|96:232|96:160,1,150,4|0,0:0|0:0,0:0:0:0:
192,64,26206,1,8,0:0:0:0:
344,112,26360,2,0,L|424:152,1,75,0|8,0:0|0:0,0:0:0:0:
320,288,26668,1,0,0:0:0:0:
136,200,26821,1,8,0:0:0:0:
256,56,26975,6,0,P|320:40|352:56,2,75,4|0|0,0:0|0:0|0:0,0:0:0:0:
96,200,27437,1,8,0:0:0:0:
184,320,27591,2,0,P|232:296|256:256,1,75,0|8,0:0|0:0,0:0:0:0:
352,64,27898,1,0,0:0:0:0:
456,192,28052,1,8,0:0:0:0:
304,80,28206,6,0,P|224:32|160:80,1,150,4|0,0:0|0:0,0:0:0:0:
48,200,28668,1,8,0:0:0:0:
48,200,28821,2,0,P|64:240|120:240,1,75,0|8,0:0|0:0,0:0:0:0:
168,112,29129,2,0,P|224:80|264:80,1,75,0|8,0:0|0:0,0:0:0:0:
336,200,29437,6,0,L|280:256,2,75,4|0|0,0:0|0:0|0:0,0:0:0:0:
232,56,29898,1,8,0:0:0:0:
344,216,30052,2,0,P|368:224|424:184,1,75,0|8,0:0|0:0,0:0:0:0:
456,48,30360,1,0,0:0:0:0:
416,208,30514,1,8,0:0:0:0:
456,48,30668,6,0,P|416:168|376:200,1,150,4|0,0:0|0:0,0:0:0:0:
288,56,31129,1,8,0:0:0:0:
192,192,31283,1,0,0:0:0:0:
288,320,31437,1,8,0:0:0:0:
176,176,31591,1,0,0:0:0:0:
288,56,31745,1,8,0:0:0:0:
176,208,31898,5,4,0:0:0:0:
288,320,32052,2,0,P|328:336|368:320,1,75
424,176,32360,1,8,0:0:0:0:
256,56,32514,1,0,0:0:0:0:
160,144,32668,1,8,0:0:0:0:
152,152,32745,1,8,0:0:0:0:
144,160,32821,1,8,0:0:0:0:
136,168,32898,1,8,0:0:0:0:
114,197,32975,1,8,0:0:0:0:
115,234,33051,1,8,0:0:0:0:
137,263,33128,5,12,0:0:0:0:
264,344,33283,1,0,0:0:0:0:
264,344,33437,1,0,0:0:0:0:
424,240,33591,1,8,0:0:0:0:
424,240,33745,1,0,0:0:0:0:
296,96,33898,1,8,0:0:0:0:
296,96,34052,1,0,0:0:0:0:
456,32,34206,1,8,0:0:0:0:
456,32,34360,1,0,0:0:0:0:
224,64,34514,5,8,0:0:0:0:
120,80,34668,1,4,0:0:0:0:
192,160,34821,5,8,0:0:0:0:
304,144,34975,1,0,0:0:0:0:
448,248,35129,1,8,0:0:0:0:
440,264,35206,1,8,0:0:0:0:
432,280,35283,1,8,0:0:0:0:
408,296,35360,1,8,0:0:0:0:
376,312,35437,1,8,0:0:0:0:
336,304,35514,1,8,0:0:0:0:
312,272,35591,6,0,B|248:176|248:176|240:216,1,150,4|0,0:0|0:0,0:0:0:0:
224,328,36052,1,0,0:0:0:0:
168,192,36206,1,0,0:0:0:0:
104,328,36360,1,0,0:0:0:0:
48,192,36514,1,0,0:0:0:0:
112,48,36668,1,0,0:0:0:0:
184,192,36821,5,4,0:0:0:0:
184,192,36975,1,0,0:0:0:0:
184,192,37129,2,0,L|240:256,1,75
320,328,37437,2,0,L|384:248,1,75
440,160,37745,1,0,0:0:0:0:
480,336,37898,1,0,0:0:0:0:
360,224,38052,6,0,P|304:160|224:128,1,150,4|0,0:0|0:0,0:0:0:0:
208,288,38514,1,0,0:0:0:0:
208,288,38668,1,0,0:0:0:0:
408,56,38821,1,0,0:0:0:0:
328,144,38975,2,0,L|264:216,1,75
80,224,39283,6,0,P|48:184|40:136,2,75,4|0|0,0:0|0:0|0:0,0:0:0:0:
192,320,39745,1,8,0:0:0:0:
192,320,39898,1,8,0:0:0:0:
352,320,40052,1,8,0:0:0:0:
352,320,40206,1,8,0:0:0:0:
256,192,40360,1,8,0:0:0:0:
256,192,40514,6,0,B|200:176|160:112|160:112|184:96,1,150,4|0,0:0|0:0,0:0:0:0:
328,80,40975,1,0,0:0:0:0:
264,192,41129,1,0,0:0:0:0:
296,56,41283,1,0,0:0:0:0:
216,184,41437,2,0,L|168:256,1,75
112,336,41745,6,0,B|80:368|80:368|56:312|104:248,1,150,4|0,0:0|0:0,0:0:0:0:
160,112,42206,1,0,0:0:0:0:
224,296,42360,2,0,B|248:336|248:336|304:328,1,75
408,224,42668,1,0,0:0:0:0:
304,80,42821,1,0,0:0:0:0:
192,184,42975,6,0,L|304:80,1,150,4|0,0:0|0:0,0:0:0:0:
432,48,43437,1,0,0:0:0:0:
384,184,43591,2,0,P|328:208|288:200,1,75
432,48,43898,1,0,0:0:0:0:
464,192,44052,1,0,0:0:0:0:
344,320,44206,6,0,P|288:336|240:320,1,75,4|0,0:0|0:0,0:0:0:0:
120,256,44514,2,0,P|80:200|88:168,1,75
216,56,44821,1,4,0:0:0:0:
80,200,44975,1,0,0:0:0:0:
144,73,45129,2,0,P|208:55|240:63,1,75,4|0,0:0|0:0,0:0:0:0:
352,56,45437,6,4,B|456:72|456:72|416:128,1,150
320,232,45898,1,0,0:0:0:0:
168,312,46052,2,0,P|112:304|96:280,2,75
296,112,46514,1,0,0:0:0:0:
176,48,46668,6,0,B|144:24|144:24|112:64|160:128,1,150,4|0,0:0|0:0,0:0:0:0:
256,264,47129,1,0,0:0:0:0:
80,128,47283,1,0,0:0:0:0:
224,48,47437,1,0,0:0:0:0:
224,48,47591,2,0,L|280:104,1,75
392,208,47898,6,0,P|440:280|408:336,1,150,4|0,0:0|0:0,0:0:0:0:
264,272,48360,1,0,0:0:0:0:
368,144,48514,2,0,L|424:64,2,75
184,264,48975,1,0,0:0:0:0:
328,112,49129,6,0,P|384:136|432:216,1,150,4|0,0:0|0:0,0:0:0:0:
304,336,49591,1,8,0:0:0:0:
208,176,49745,1,8,0:0:0:0:
384,200,49898,1,8,0:0:0:0:
272,328,50051,1,8,0:0:0:0:
232,144,50205,1,8,0:0:0:0:
376,232,50360,6,0,P|320:272|256:272,1,112.500004291535,4|0,0:0|0:0,0:0:0:0:
112,312,50821,1,0,0:0:0:0:
32,72,51129,1,0,0:0:0:0:
256,120,51437,1,0,0:0:0:0:
56,248,51591,6,0,P|128:288|216:304,1,168.750006437302,4|0,0:0|0:0,0:0:0:0:
400,232,52360,1,0,0:0:0:0:
296,32,52668,1,0,0:0:0:0:
232,168,52821,6,0,P|200:216|144:248,1,112.500004291535,4|0,0:0|0:0,0:0:0:0:
56,304,53283,1,0,0:0:0:0:
136,72,53591,1,0,0:0:0:0:
280,248,53898,1,0,0:0:0:0:
360,328,54052,6,0,B|392:352|392:352|408:312|400:256,1,112.500004291535,4|0,0:0|0:0,0:0:0:0:
384,160,54514,5,0,0:0:0:0:
360,80,54668,1,0,0:0:0:0:
328,216,54821,5,0,0:0:0:0:
296,136,54975,1,0,0:0:0:0:
272,264,55129,5,8,0:0:0:0:
256,248,55206,1,0,0:0:0:0:
240,232,55283,6,0,B|224:176|184:160|184:160|152:176,1,112.500004291535,4|0,0:0|0:0,0:0:0:0:
80,280,55745,1,0,0:0:0:0:
176,80,55898,1,0,0:0:0:0:
176,88,56206,1,0,0:0:0:0:
256,192,56514,6,0,P|304:240|368:248,1,112.500004291535,4|0,0:0|0:0,0:0:0:0:
472,280,56975,1,0,0:0:0:0:
328,56,57437,2,0,B|304:40|304:40|288:56|248:48,1,84.3750032186509
224,48,57745,6,0,P|176:72|128:120,1,112.500004291535,4|0,0:0|0:0,0:0:0:0:
96,192,58206,2,0,L|64:256,1,37.5
48,296,58360,1,0,0:0:0:0:
168,120,58668,1,0,0:0:0:0:
232,280,58822,1,0,0:0:0:0:
232,280,58898,1,0,0:0:0:0:
232,280,58975,6,0,P|288:296|328:272,1,84.3750032186509,4|0,0:0|0:0,0:0:0:0:
336,272,59283,1,0,0:0:0:0:
424,144,59437,1,0,0:0:0:0:
312,64,59591,1,4,0:0:0:0:
224,184,59745,1,0,0:0:0:0:
352,296,59898,1,0,0:0:0:0:
448,112,60052,1,0,0:0:0:0:
280,56,60206,6,0,P|232:56|168:112,1,112.500004291535,4|0,0:0|0:0,0:0:0:0:
80,248,60668,1,0,0:0:0:0:
232,64,60975,1,0,0:0:0:0:
32,192,61283,1,0,0:0:0:0:
136,320,61437,6,0,B|144:352|144:352|240:368|320:296,1,225.000008583069,4|0,0:0|0:0,0:0:0:0:
432,80,62206,1,0,0:0:0:0:
432,80,62514,1,0,0:0:0:0:
272,184,62668,6,0,P|224:208|144:200,1,112.500004291535,4|0,0:0|0:0,0:0:0:0:
40,96,63129,1,0,0:0:0:0:
296,40,63437,1,0,0:0:0:0:
440,304,63745,1,0,0:0:0:0:
224,256,63898,6,0,B|200:272|200:272|160:224|184:184,1,112.500004291535,4|0,0:0|0:0,0:0:0:0:
296,40,64514,1,0,0:0:0:0:
128,200,64821,1,0,0:0:0:0:
296,48,64975,1,8,0:0:0:0:
296,48,65052,1,0,0:0:0:0:
296,48,65129,6,0,P|344:56|392:120,1,112.500004291535,4|0,0:0|0:0,0:0:0:0:
336,296,65591,2,0,L|264:328,1,56.2500021457673
168,368,65898,1,0,0:0:0:0:
32,192,66052,1,0,0:0:0:0:
176,48,66360,6,0,P|232:96|248:152,1,112.500004291535,4|0,0:0|0:0,0:0:0:0:
312,312,66821,1,0,0:0:0:0:
312,312,66975,2,0,P|360:312|384:256,1,112.500004291535
288,56,67591,6,0,P|240:64|192:128,1,112.500004291535,4|0,0:0|0:0,0:0:0:0:
80,344,68052,1,0,0:0:0:0:
80,344,68129,1,0,0:0:0:0:
80,344,68206,2,0,P|128:328|168:264,1,112.500004291535,4|0,0:0|0:0,0:0:0:0:
336,24,68821,1,4,0:0:0:0:
256,192,68898,12,0,69975,0:0:0:0:
152,296,70052,6,0,P|88:216|88:192,1,112.500004291535
80,184,70437,1,8,0:0:0:0:
72,160,70514,1,8,0:0:0:0:
40,40,70668,1,8,0:0:0:0:
264,112,70821,1,8,0:0:0:0:
40,168,70975,1,8,0:0:0:0:
216,24,71129,1,8,0:0:0:0:
48,192,71283,6,0,P|24:280|112:328,1,187.5,4|0,0:0|0:0,0:0:0:0:
344,264,71745,1,0,0:0:0:0:
224,160,71898,2,0,L|136:104,1,93.75
32,32,72206,1,0,0:0:0:0:
240,64,72360,1,0,0:0:0:0:
32,144,72514,6,0,P|80:184|232:224,1,187.5,4|0,0:0|0:0,0:0:0:0:
448,136,72975,1,0,0:0:0:0:
432,344,73129,2,0,L|360:240,2,93.75
304,104,73591,1,0,0:0:0:0:
304,104,73745,6,0,B|280:40|280:40|248:72|224:128|256:176,1,187.5,4|0,0:0|0:0,0:0:0:0:
384,328,74206,1,0,0:0:0:0:
448,152,74360,1,0,0:0:0:0:
344,312,74514,1,0,0:0:0:0:
472,208,74668,2,0,B|496:160|496:160|464:112,1,93.75
328,24,74975,6,0,B|280:56|280:56|216:24|264:136|168:96,1,187.5,4|0,0:0|0:0,0:0:0:0:
64,32,75437,1,0,0:0:0:0:
0,208,75591,2,0,P|8:264|56:304,1,93.75
160,192,75898,2,0,L|240:96,1,93.75
352,24,76206,6,0,B|392:24|392:24|448:80|392:144|352:152,1,187.5,4|0,0:0|0:0,0:0:0:0:
192,320,76668,1,0,0:0:0:0:
320,176,76821,1,0,0:0:0:0:
192,40,76975,1,0,0:0:0:0:
352,176,77129,1,0,0:0:0:0:
160,320,77283,1,0,0:0:0:0:
48,216,77437,6,0,B|32:128|96:56|152:64,1,187.5,4|0,0:0|0:0,0:0:0:0:
400,32,77898,1,0,0:0:0:0:
400,32,78052,2,0,P|424:80|408:144,1,93.75
360,320,78360,1,0,0:0:0:0:
440,120,78514,1,0,0:0:0:0:
184,192,78668,6,0,B|128:224|128:224|136:280|232:272,1,187.5,4|0,0:0|0:0,0:0:0:0:
360,144,79129,1,0,0:0:0:0:
136,288,79283,1,0,0:0:0:0:
112,56,79437,1,0,0:0:0:0:
216,192,79591,1,0,0:0:0:0:
224,200,79668,1,0,0:0:0:0:
232,208,79745,1,0,0:0:0:0:
320,320,79898,6,0,B|360:368|360:368|400:336|360:288|416:224,1,187.5,4|0,0:0|0:0,0:0:0:0:
440,56,80360,1,0,0:0:0:0:
256,80,80514,2,0,L|208:104,1,46.875,4|0,0:0|0:0,0:0:0:0:
104,152,80668,1,0,0:0:0:0:
104,152,80745,1,0,0:0:0:0:
104,152,80821,2,0,L|160:176,1,46.875
248,208,80975,1,0,0:0:0:0:
248,208,81052,1,0,0:0:0:0:
248,208,81129,6,0,B|320:208|320:208|272:256|264:304|208:296,1,187.5,4|0,0:0|0:0,0:0:0:0:
72,200,81591,1,0,0:0:0:0:
296,280,81745,1,0,0:0:0:0:
112,136,81898,1,0,0:0:0:0:
312,296,82052,1,0,0:0:0:0:
168,88,82206,1,0,0:0:0:0:
296,280,82360,6,0,B|360:304|360:304|392:256|360:216|432:200,1,187.5,4|0,0:0|0:0,0:0:0:0:
480,352,82821,1,0,0:0:0:0:
312,192,82975,2,0,L|232:104,1,93.75
144,312,83283,2,0,L|216:224,1,93.75
336,72,83591,6,0,B|376:32|376:32|360:112|432:128|368:184,1,187.5,4|0,0:0|0:0,0:0:0:0:
280,344,84052,1,0,0:0:0:0:
104,200,84206,1,0,0:0:0:0:
320,48,84360,1,0,0:0:0:0:
128,232,84514,2,0,P|72:200|56:152,1,93.75
160,8,84821,6,0,P|248:16|344:96,1,187.5,4|0,0:0|0:0,0:0:0:0:
448,280,85283,1,0,0:0:0:0:
256,192,85437,1,0,0:0:0:0:
440,112,85591,1,0,0:0:0:0:
400,280,85745,2,0,P|344:320|288:312,1,93.75
88,248,86052,6,0,B|48:168|48:168|88:120|160:160,1,187.5,4|0,0:0|0:0,0:0:0:0:
368,312,86514,1,0,0:0:0:0:
368,312,86668,2,0,L|416:216,1,93.75
368,64,86975,2,0,L|336:112,1,46.875
272,192,87129,1,0,0:0:0:0:
160,312,87283,6,0,B|104:304|104:304|160:256|120:160,1,187.5,4|0,0:0|0:0,0:0:0:0:
40,32,87745,1,0,0:0:0:0:
256,96,87898,1,0,0:0:0:0:
384,320,88052,5,0,0:0:0:0:
448,104,88205,1,0,0:0:0:0:
320,0,88360,5,0,0:0:0:0:
176,224,88514,2,0,L|240:128,1,93.75,4|0,0:0|0:0,0:0:0:0:
328,16,88821,1,0,0:0:0:0:
336,24,88897,1,0,0:0:0:0:
344,32,88974,1,0,0:0:0:0:
368,48,89051,1,0,0:0:0:0:
400,80,89128,1,0,0:0:0:0:
432,120,89205,1,0,0:0:0:0:
448,168,89282,1,0,0:0:0:0:
464,216,89359,1,0,0:0:0:0:
464,264,89436,1,0,0:0:0:0:
456,312,89514,1,0,0:0:0:0:
408,344,89591,1,0,0:0:0:0:
352,360,89668,1,0,0:0:0:0:
296,344,89745,6,0,P|224:336|104:256,1,187.5,4|0,0:0|0:0,0:0:0:0:
40,56,90206,1,0,0:0:0:0:
304,24,90360,1,0,0:0:0:0:
120,264,90514,1,0,0:0:0:0:
216,72,90668,1,0,0:0:0:0:
248,41,90744,1,0,0:0:0:0:
289,22,90821,1,0,0:0:0:0:
333,16,90898,1,0,0:0:0:0:
368,24,90975,6,0,P|432:88|424:168,1,150,4|0,0:0|0:0,0:0:0:0:
208,120,91437,1,8,0:0:0:0:
440,72,91591,1,0,0:0:0:0:
344,280,91745,1,8,0:0:0:0:
440,72,91898,1,0,0:0:0:0:
200,176,92052,1,0,0:0:0:0:
440,72,92206,1,4,0:0:0:0:
288,280,92360,1,0,0:0:0:0:
80,152,92514,2,0,P|120:112|168:104,2,75,0|8|0,0:0|0:0|0:0,0:0:0:0:
160,312,92975,1,8,0:0:0:0:
336,200,93129,2,0,P|368:152|368:120,1,75,0|8,0:0|0:0,0:0:0:0:
168,48,93437,6,0,P|128:80|88:176,1,150,4|0,0:0|0:0,0:0:0:0:
176,312,93898,1,8,0:0:0:0:
320,224,94052,2,0,P|368:184|384:144,1,75,0|8,0:0|0:0,0:0:0:0:
448,32,94360,1,0,0:0:0:0:
216,112,94514,1,8,0:0:0:0:
392,144,94668,6,0,P|424:160|440:200,1,75,4|0,0:0|0:0,0:0:0:0:
320,312,94975,2,0,P|264:280|256:240,1,75,0|8,0:0|0:0,0:0:0:0:
120,112,95283,1,0,0:0:0:0:
120,112,95437,1,8,0:0:0:0:
320,40,95591,1,0,0:0:0:0:
320,40,95745,1,8,0:0:0:0:
264,256,95898,6,0,P|216:248|128:184,1,150,4|0,0:0|0:0,0:0:0:0:
320,104,96360,1,8,0:0:0:0:
432,56,96514,1,0,0:0:0:0:
408,176,96668,1,8,0:0:0:0:
304,232,96821,1,0,0:0:0:0:
392,304,96975,1,8,0:0:0:0:
280,352,97129,1,4,0:0:0:0:
176,272,97283,1,0,0:0:0:0:
288,176,97437,2,0,P|312:136|320:96,2,75,0|8|0,0:0|0:0|0:0,0:0:0:0:
160,224,97898,1,8,0:0:0:0:
131,200,97974,1,8,0:0:0:0:
115,166,98051,1,8,0:0:0:0:
122,130,98128,1,8,0:0:0:0:
145,101,98205,1,8,0:0:0:0:
176,80,98282,1,8,0:0:0:0:
200,56,98360,6,0,P|112:48|56:112,1,150,12|0,0:0|0:0,0:0:0:0:
32,272,98821,1,8,0:0:0:0:
32,272,98975,1,0,0:0:0:0:
208,336,99129,1,8,0:0:0:0:
208,336,99283,1,0,0:0:0:0:
320,176,99437,1,8,0:0:0:0:
320,176,99591,1,4,0:0:0:0:
128,112,99745,1,8,0:0:0:0:
64,192,99898,2,0,P|80:240|104:264,1,75,0|8,0:0|0:0,0:0:0:0:
272,336,100206,1,0,0:0:0:0:
376,248,100360,2,8,L|392:208,1,37.5
400,112,100514,1,8,0:0:0:0:
400,112,100591,1,8,0:0:0:0:
400,112,100668,1,8,0:0:0:0:
400,112,100745,1,8,0:0:0:0:
400,112,100821,6,0,P|344:72|256:64,1,150,12|0,0:0|0:0,0:0:0:0:
64,144,101283,1,0,0:0:0:0:
176,280,101437,2,0,L|232:344,2,75
160,96,101898,1,0,0:0:0:0:
56,208,102052,6,0,P|40:256|64:288,1,75,4|0,0:0|0:0,0:0:0:0:
176,344,102360,1,0,0:0:0:0:
296,200,102514,1,0,0:0:0:0:
320,168,102668,1,0,0:0:0:0:
344,136,102821,1,0,0:0:0:0:
368,104,102975,2,0,L|392:72|416:40,1,75
448,144,103283,6,0,B|456:192|400:264|400:264|368:232,1,150,4|0,0:0|0:0,0:0:0:0:
328,56,103745,1,0,0:0:0:0:
216,152,103898,1,0,0:0:0:0:
368,152,104052,1,0,0:0:0:0:
256,8,104206,1,0,0:0:0:0:
208,232,104360,1,0,0:0:0:0:
320,112,104514,6,0,P|288:72|232:64,1,75,4|0,0:0|0:0,0:0:0:0:
128,120,104821,2,8,P|88:160|80:200,2,75
280,224,105283,1,8,0:0:0:0:
120,320,105437,2,8,P|88:272|96:224,1,75
192,80,105745,6,0,B|216:48|304:32|304:32|320:80,1,150,12|0,0:0|0:0,0:0:0:0:
384,248,106206,1,0,0:0:0:0:
472,80,106360,1,0,0:0:0:0:
368,280,106514,1,0,0:0:0:0:
456,104,106668,1,0,0:0:0:0:
376,264,106821,1,0,0:0:0:0:
400,56,106975,6,0,B|352:40|344:104|272:80|272:80|288:120,1,150,4|0,0:0|0:0,0:0:0:0:
384,320,107437,1,0,0:0:0:0:
256,224,107591,2,0,L|192:160,1,75
104,64,107898,2,0,P|72:112|72:152,1,75
72,216,108206,6,0,B|104:224|24:264|96:328|96:328|136:304,1,150,4|0,0:0|0:0,0:0:0:0:
240,128,108668,1,0,0:0:0:0:
240,128,108821,2,0,P|272:88|328:88,1,75
440,200,109129,1,0,0:0:0:0:
232,40,109283,1,0,0:0:0:0:
144,136,109437,6,0,P|168:184|208:208,1,75,4|0,0:0|0:0,0:0:0:0:
88,272,109745,2,0,P|120:304|160:312,1,75
336,192,110052,1,0,0:0:0:0:
272,56,110206,1,0,0:0:0:0:
216,240,110360,1,0,0:0:0:0:
152,104,110514,1,0,0:0:0:0:
64,224,110668,6,0,B|88:296|88:160|136:208|136:208|168:176,1,150,4|0,0:0|0:0,0:0:0:0:
280,80,111129,1,0,0:0:0:0:
408,160,111283,2,0,P|440:200|456:240,2,75
312,312,111745,1,0,0:0:0:0:
456,288,111898,6,0,B|504:288|448:200|416:304|400:224|400:224|368:232,1,150,4|0,0:0|0:0,0:0:0:0:
216,320,112360,1,0,0:0:0:0:
96,240,112514,2,0,P|72:184|88:160,1,75
184,64,112821,1,0,0:0:0:0:
288,224,112975,1,0,0:0:0:0:
152,88,113129,6,0,B|128:144|144:192|176:192|176:192|208:152,1,150
328,64,113591,1,0,0:0:0:0:
192,104,113745,1,0,0:0:0:0:
368,152,113898,1,0,0:0:0:0:
264,40,114052,2,0,P|192:32|176:48,1,75
64,136,114360,6,0,P|48:208|104:264,1,150,4|0,0:0|0:0,0:0:0:0:
328,80,114821,1,8,0:0:0:0:
152,232,114975,1,12,0:0:0:0:
280,32,115129,1,8,0:0:0:0:
192,280,115283,1,8,0:0:0:0:
216,40,115437,1,8,0:0:0:0:
256,272,115591,1,8,0:0:0:0:
138,44,115745,6,0,B|42:20|10:100|74:204|218:164|362:116|410:156|402:228|338:260|170:268|146:348|394:340|410:340,1,675.000025749207,12|0,0:0|0:0,0:0:0:0:
406,341,118088,1,0,0:0:0:0:
406,341,118182,2,0,L|392:376,1,28.1250010728836,4|0,0:0|0:0,0:0:0:0:
472,104,118370,1,0,0:0:0:0:
472,104,118463,1,0,0:0:0:0:
472,104,118557,2,0,L|456:152,1,28.1250010728836,4|0,0:0|0:0,0:0:0:0:
296,256,118745,5,4,0:0:0:0:
280,280,119120,1,4,0:0:0:0:
264,304,119495,1,4,0:0:0:0:
248,328,119870,1,4,0:0:0:0:
232,352,120245,1,0,0:0:0:0:
120,256,120620,2,0,L|80:224,1,28.1250010728836
48,96,120807,2,0,L|80:128,1,28.1250010728836
224,168,120995,1,0,0:0:0:0:
440,40,121745,6,0,P|400:32|328:80,1,112.500004291535,4|0,0:0|0:0,0:0:0:0:
320,80,122213,1,0,0:0:0:0:
298,98,122306,1,0,0:0:0:0:
272,120,122401,1,0,0:0:0:0:
252,140,122495,2,0,L|224:168,1,37.5
272,240,122682,2,0,L|240:272,1,37.5
136,280,122870,2,0,L|104:312,1,37.5
224,384,123057,2,0,L|272:344,1,37.5
384,280,123245,5,0,0:0:0:0:
408,265,123338,1,0,0:0:0:0:
427,245,123432,1,0,0:0:0:0:
441,221,123526,1,0,0:0:0:0:
448,192,123620,2,0,L|448:144,1,37.5
344,32,123807,1,0,0:0:0:0:
344,32,123901,1,0,0:0:0:0:
344,32,123995,2,0,L|328:80,1,37.5
280,224,124182,1,0,0:0:0:0:
280,224,124276,1,0,0:0:0:0:
280,224,124370,2,0,L|256:272,1,37.5
168,352,124557,2,0,L|128:312,1,37.5
40,192,124745,6,0,P|88:144|88:96,1,112.500004291535
92,101,125213,1,0,0:0:0:0:
92,101,125307,1,0,0:0:0:0:
92,101,125401,1,0,0:0:0:0:
92,101,125495,1,0,0:0:0:0:
112,80,125588,1,0,0:0:0:0:
136,64,125681,1,0,0:0:0:0:
168,56,125775,1,0,0:0:0:0:
192,56,125869,1,0,0:0:0:0:
223,56,125963,1,0,0:0:0:0:
256,64,126057,2,0,L|296:88,1,37.5
456,256,126245,6,0,L|408:208,1,37.5
456,72,126432,2,0,L|408:120,1,37.5
264,72,126620,2,0,L|312:120,1,37.5
264,256,126807,2,0,L|312:208,1,37.5
376,160,126995,1,0,0:0:0:0:
376,160,127088,1,0,0:0:0:0:
376,160,127182,1,0,0:0:0:0:
376,160,127276,1,0,0:0:0:0:
376,160,127370,2,0,L|376:208,1,37.5
376,328,127557,1,0,0:0:0:0:
376,328,127651,1,0,0:0:0:0:
376,328,127745,6,0,B|368:352|368:352|336:368|280:312,1,112.500004291535,4|0,0:0|0:0,0:0:0:0:
48,280,128307,1,0,0:0:0:0:
224,160,128495,1,0,0:0:0:0:
224,160,128588,1,0,0:0:0:0:
224,160,128682,1,0,0:0:0:0:
48,40,128869,1,0,0:0:0:0:
48,40,128963,1,0,0:0:0:0:
48,40,129057,1,0,0:0:0:0:
208,56,129245,6,0,B|240:48|240:48|272:64,1,56.2500021457673
448,200,129620,1,0,0:0:0:0:
256,304,129807,1,0,0:0:0:0:
296,80,129995,1,0,0:0:0:0:
296,80,130088,1,0,0:0:0:0:
296,80,130182,1,0,0:0:0:0:
416,288,130370,1,0,0:0:0:0:
416,288,130463,1,0,0:0:0:0:
416,288,130557,1,0,0:0:0:0:
464,112,130745,6,0,B|464:80|464:80|448:40|424:48|384:64,1,112.500004291535,4|0,0:0|0:0,0:0:0:0:
192,272,131307,1,0,0:0:0:0:
64,96,131495,1,0,0:0:0:0:
64,96,131588,2,0,L|104:80,1,28.1250010728836
288,64,131870,1,0,0:0:0:0:
288,64,131963,2,0,L|256:96,1,28.1250010728836
88,248,132245,6,0,P|72:288|88:312,1,56.2500021457673
264,360,132620,1,0,0:0:0:0:
440,248,132807,1,0,0:0:0:0:
280,128,132995,2,0,L|296:176,1,28.1250010728836
344,320,133182,1,0,0:0:0:0:
184,272,133370,2,0,L|160:224,1,28.1250010728836
112,96,133557,1,0,0:0:0:0:
112,96,133651,1,0,0:0:0:0:
112,96,133745,6,0,P|88:128|112:208,1,112.500004291535,4|0,0:0|0:0,0:0:0:0:
288,352,134307,1,0,0:0:0:0:
432,160,134495,1,0,0:0:0:0:
448,128,134588,1,0,0:0:0:0:
464,96,134682,1,0,0:0:0:0:
272,152,134870,1,0,0:0:0:0:
256,184,134963,1,0,0:0:0:0:
240,216,135057,1,0,0:0:0:0:
152,336,135245,6,0,P|120:312|112:288,1,56.2500021457673
72,64,135620,1,0,0:0:0:0:
304,176,135807,1,0,0:0:0:0:
464,32,135995,1,0,0:0:0:0:
432,64,136088,1,0,0:0:0:0:
408,88,136182,1,0,0:0:0:0:
312,344,136370,1,0,0:0:0:0:
336,320,136464,1,0,0:0:0:0:
368,288,136557,1,0,0:0:0:0:
264,104,136745,6,0,B|240:72|240:72|208:64|184:88|144:64,1,112.500004291535,4|0,0:0|0:0,0:0:0:0:
40,312,137307,1,0,0:0:0:0:
280,272,137495,2,0,L|320:248,1,28.1250010728836
456,152,137682,1,0,0:0:0:0:
336,40,137870,2,0,L|296:64,1,28.1250010728836
144,184,138057,1,0,0:0:0:0:
344,200,138245,6,0,P|384:168|384:152,1,56.2500021457673
224,40,138620,1,0,0:0:0:0:
176,16,138713,1,0,0:0:0:0:
128,40,138807,1,0,0:0:0:0:
224,272,138995,1,0,0:0:0:0:
272,304,139088,1,0,0:0:0:0:
320,272,139182,1,0,0:0:0:0:
400,88,139370,1,0,0:0:0:0:
144,272,139557,2,0,L|176:272,1,28.1250010728836
216,272,139745,6,0,B|264:296|288:232|336:264,1,112.500004291535,4|0,0:0|0:0,0:0:0:0:
440,112,140307,2,0,L|400:112,1,28.1250010728836
336,112,140495,2,0,B|300:86|276:150|228:126,1,112.500004291535
80,48,141057,2,0,L|64:88,1,28.1250010728836
32,208,141245,2,0,P|24:248|80:304,1,112.500004291535
264,200,141807,1,0,0:0:0:0:
312,200,141901,1,0,0:0:0:0:
344,240,141995,2,0,P|384:200|392:144,1,112.500004291535
216,32,142557,2,0,P|200:40|176:48,1,28.1250010728836
72,104,142745,6,0,B|40:136|32:184|80:200,1,112.500004291535,4|0,0:0|0:0,0:0:0:0:
192,264,143307,1,0,0:0:0:0:
256,296,143401,1,0,0:0:0:0:
320,328,143495,2,0,P|360:288|368:224,1,112.500004291535
272,48,144057,1,0,0:0:0:0:
272,48,144151,1,0,0:0:0:0:
272,48,144245,6,0,B|248:80|248:80|232:72|232:72|240:88|240:88|224:80|224:80|160:56|136:128|184:168,1,225.000008583069
256,264,145182,1,0,0:0:0:0:
312,304,145276,1,0,0:0:0:0:
376,296,145370,1,0,0:0:0:0:
504,120,145557,1,0,0:0:0:0:
448,80,145651,1,0,0:0:0:0:
384,88,145745,6,0,B|328:104|328:104|312:96|312:96|304:120|304:120|288:104|288:104|256:80|232:48|192:64,1,225.000008583069,4|0,0:0|0:0,0:0:0:0:
201,61,146588,1,0,0:0:0:0:
201,61,146682,1,0,0:0:0:0:
40,192,146870,1,0,0:0:0:0:
40,192,146963,1,0,0:0:0:0:
40,192,147057,1,0,0:0:0:0:
152,344,147245,6,0,P|192:320|200:296,1,56.2500021457673
120,128,147620,1,0,0:0:0:0:
32,320,147807,1,0,0:0:0:0:
264,200,147995,1,0,0:0:0:0:
288,168,148088,1,0,0:0:0:0:
312,136,148182,1,0,0:0:0:0:
400,288,148370,1,0,0:0:0:0:
424,320,148463,1,0,0:0:0:0:
448,352,148557,1,0,0:0:0:0:
472,320,148651,1,0,0:0:0:0:
496,288,148745,6,0,P|512:232|472:176,1,112.500004291535,4|0,0:0|0:0,0:0:0:0:
352,56,149307,1,0,0:0:0:0:
264,232,149495,1,0,0:0:0:0:
464,128,149682,1,0,0:0:0:0:
272,24,149870,1,0,0:0:0:0:
312,296,150057,1,0,0:0:0:0:
448,56,150245,6,0,P|400:24|344:24,1,112.500004291535
80,160,150807,1,0,0:0:0:0:
208,312,150995,1,0,0:0:0:0:
208,312,151088,1,0,0:0:0:0:
208,312,151182,2,0,L|240:272,1,28.1250010728836
384,200,151370,1,0,0:0:0:0:
384,200,151463,1,0,0:0:0:0:
384,200,151557,2,0,L|360:176,1,28.1250010728836
256,80,151745,6,0,P|208:56|96:48,1,150,4|0,0:0|0:0,0:0:0:0:
144,224,153591,1,2,0:0:0:0:
384,80,154206,5,4,0:0:0:0:
112,8,154821,5,4,0:0:0:0:
256,368,155437,5,4,0:0:0:0:
432,64,156051,5,8,0:0:0:0:
224,288,156204,1,8,0:0:0:0:
72,40,156358,1,8,0:0:0:0:
336,136,156512,6,0,P|384:168|424:264,1,150,12|0,0:0|0:0,0:0:0:0:
208,176,156974,1,0,0:0:0:0:
104,344,157128,2,0,P|72:304|72:264,1,75
192,72,157436,1,0,0:0:0:0:
288,296,157589,1,0,0:0:0:0:
424,168,157743,6,0,P|448:120|376:64,1,150,4|0,0:0|0:0,0:0:0:0:
296,208,158205,1,0,0:0:0:0:
424,40,158359,1,0,0:0:0:0:
344,232,158513,1,0,0:0:0:0:
376,16,158666,1,0,0:0:0:0:
384,256,158820,1,0,0:0:0:0:
328,0,158974,6,0,P|288:16|208:120,1,150,4|0,0:0|0:0,0:0:0:0:
344,280,159436,1,0,0:0:0:0:
440,128,159589,2,0,P|432:80|384:48,1,75
224,120,159897,2,0,P|192:176|200:200,1,75
360,168,160205,6,0,P|320:224|224:272,1,150,4|0,0:0|0:0,0:0:0:0:
56,216,160666,1,8,0:0:0:0:
32,40,160820,1,8,0:0:0:0:
200,128,160974,5,8,0:0:0:0:
224,304,161128,1,8,0:0:0:0:
368,192,161282,5,8,0:0:0:0:
344,16,161436,6,0,B|296:0|296:0|240:48|256:112,1,150,12|0,0:0|0:0,0:0:0:0:
312,320,161897,1,0,0:0:0:0:
128,248,162051,2,0,P|104:208|96:168,2,75
320,176,162513,1,0,0:0:0:0:
400,232,162666,6,0,B|432:272|432:272|384:288|344:272|312:240,1,150,4|0,0:0|0:0,0:0:0:0:
120,144,163128,1,0,0:0:0:0:
56,72,163282,2,0,P|88:40|128:32,1,75
288,56,163589,1,0,0:0:0:0:
128,208,163743,1,0,0:0:0:0:
16,328,163897,6,0,B|-8:368|-8:368|32:368|104:328,1,150,4|0,0:0|0:0,0:0:0:0:
280,208,164359,1,0,0:0:0:0:
424,128,164513,1,0,0:0:0:0:
320,32,164666,1,0,0:0:0:0:
184,96,164820,2,0,P|168:168|184:176,1,75
264,352,165128,6,0,P|344:296|376:216,1,150,4|0,0:0|0:0,0:0:0:0:
288,48,165589,1,0,0:0:0:0:
288,48,165743,1,4,0:0:0:0:
160,168,165897,1,0,0:0:0:0:
0,280,166051,1,4,0:0:0:0:
24,88,166205,1,0,0:0:0:0:
144,336,166359,6,0,B|176:376|176:376|208:360|216:320|200:264,1,150,4|0,0:0|0:0,0:0:0:0:
56,152,166820,1,0,0:0:0:0:
80,336,166974,2,0,P|128:360|168:344,1,75
360,208,167282,1,0,0:0:0:0:
192,312,167436,1,0,0:0:0:0:
400,176,167589,6,0,B|408:128|408:128|376:104|320:112|288:136,1,150,4|0,0:0|0:0,0:0:0:0:
72,256,168051,1,0,0:0:0:0:
152,32,168205,1,0,0:0:0:0:
200,208,168359,1,0,0:0:0:0:
272,64,168513,1,0,0:0:0:0:
312,152,168666,1,0,0:0:0:0:
392,64,168820,6,0,B|352:24|320:32|320:32|304:112,1,150,4|0,0:0|0:0,0:0:0:0:
416,312,169282,1,0,0:0:0:0:
384,144,169436,2,0,P|360:112|304:88,1,75
136,56,169743,1,0,0:0:0:0:
232,176,169897,1,0,0:0:0:0:
232,176,170051,6,0,B|224:240|224:240|192:232|176:208|160:168,1,150,4|0,0:0|0:0,0:0:0:0:
48,48,170513,1,0,0:0:0:0:
48,48,170666,2,0,P|24:112|56:200,1,150,4|0,0:0|0:0,0:0:0:0:
168,320,171128,1,0,0:0:0:0:
168,320,171282,6,0,P|248:352|288:344,1,112.500004291535,4|0,0:0|0:0,0:0:0:0:
336,312,171743,1,0,0:0:0:0:
376,248,171897,2,0,P|392:208|384:184,1,56.2500021457673
360,128,172205,1,0,0:0:0:0:
336,96,172282,1,0,0:0:0:0:
312,64,172359,1,0,0:0:0:0:
240,24,172513,6,0,P|208:32|184:56,1,56.2500021457673,4|0,0:0|0:0,0:0:0:0:
120,112,172820,1,0,0:0:0:0:
120,112,172897,1,0,0:0:0:0:
120,112,172974,1,0,0:0:0:0:
64,192,173128,2,0,L|40:256,1,56.2500021457673
88,304,173436,1,0,0:0:0:0:
160,336,173589,1,0,0:0:0:0:
192,320,173666,1,0,0:0:0:0:
224,296,173743,6,0,P|272:272|280:208,1,112.500004291535,4|0,0:0|0:0,0:0:0:0:
256,104,174205,1,0,0:0:0:0:
200,208,174359,1,0,0:0:0:0:
152,104,174513,1,0,0:0:0:0:
104,208,174666,1,0,0:0:0:0:
88,232,174743,1,0,0:0:0:0:
72,256,174820,1,0,0:0:0:0:
24,336,174974,6,0,B|8:368|8:368|40:376|88:352,1,112.500004291535,4|0,0:0|0:0,0:0:0:0:
152,312,175436,1,0,0:0:0:0:
280,272,175589,2,0,L|224:240,1,56.2500021457673
160,160,175897,2,0,L|216:128,1,56.2500021457673
304,56,176205,6,0,P|352:40|424:56,1,112.500004291535,4|0,0:0|0:0,0:0:0:0:
464,184,176666,1,0,0:0:0:0:
400,312,176820,2,0,P|352:320|328:320,1,56.2500021457673
208,192,177128,1,0,0:0:0:0:
184,160,177205,1,0,0:0:0:0:
160,128,177282,1,0,0:0:0:0:
48,256,177436,6,0,B|32:288|32:288|80:312|128:304,1,112.500004291535,4|0,0:0|0:0,0:0:0:0:
256,120,177897,1,0,0:0:0:0:
224,232,178051,1,0,0:0:0:0:
128,80,178205,1,0,0:0:0:0:
248,256,178359,1,0,0:0:0:0:
272,280,178436,1,0,0:0:0:0:
296,304,178513,1,0,0:0:0:0:
384,160,178666,6,0,P|368:112|304:64,1,112.500004291535,4|0,0:0|0:0,0:0:0:0:
288,240,179128,1,0,0:0:0:0:
432,336,179282,2,0,P|456:288|456:272,1,56.2500021457673
360,120,179589,1,0,0:0:0:0:
320,80,179666,1,0,0:0:0:0:
280,48,179743,1,0,0:0:0:0:
72,152,179897,6,0,P|56:200|64:272,1,112.500004291535,4|0,0:0|0:0,0:0:0:0:
280,336,180359,1,0,0:0:0:0:
376,168,180513,1,0,0:0:0:0:
200,304,180666,1,0,0:0:0:0:
416,112,180820,1,0,0:0:0:0:
448,56,180897,1,0,0:0:0:0:
480,0,180974,1,0,0:0:0:0:
472,208,181128,6,0,P|456:256|360:312,1,150,4|0,0:0|0:0,0:0:0:0:
168,296,181589,1,0,0:0:0:0:
168,296,181743,1,0,0:0:0:0:
64,184,181897,1,0,0:0:0:0:
64,184,182051,1,0,0:0:0:0:
184,56,182205,1,0,0:0:0:0:
184,56,182359,6,0,P|240:40|336:48,1,150,4|0,0:0|0:0,0:0:0:0:
456,232,182820,1,0,0:0:0:0:
456,232,182974,1,0,0:0:0:0:
248,352,183128,1,0,0:0:0:0:
248,352,183282,1,0,0:0:0:0:
112,176,183436,2,0,L|88:144,1,37.5
40,64,183589,6,0,B|24:24|24:24|64:24|136:64,1,150,4|0,0:0|0:0,0:0:0:0:
320,272,184051,1,0,0:0:0:0:
320,272,184205,1,0,0:0:0:0:
392,16,184359,1,0,0:0:0:0:
392,16,184513,1,0,0:0:0:0:
96,144,184666,1,0,0:0:0:0:
96,144,184820,6,0,P|56:192|48:288,1,150,4|0,0:0|0:0,0:0:0:0:
264,208,185282,1,0,0:0:0:0:
384,152,185436,1,0,0:0:0:0:
440,24,185589,5,0,0:0:0:0:
232,96,185743,1,0,0:0:0:0:
360,328,185897,5,0,0:0:0:0:
304,104,186051,6,0,P|272:56|168:32,1,150,4|0,0:0|0:0,0:0:0:0:
32,96,186513,5,0,0:0:0:0:
72,312,186666,1,0,0:0:0:0:
256,176,186820,5,0,0:0:0:0:
440,96,186974,1,0,0:0:0:0:
160,32,187128,5,0,0:0:0:0:
240,304,187282,6,0,P|272:344|368:320,1,150,4|0,0:0|0:0,0:0:0:0:
448,200,187743,1,0,0:0:0:0:
112,192,187897,1,0,0:0:0:0:
440,88,188051,1,0,0:0:0:0:
112,160,188205,1,0,0:0:0:0:
368,8,188359,1,0,0:0:0:0:
112,192,188513,1,4,0:0:0:0:
400,304,188666,1,0,0:0:0:0:
112,176,188820,5,0,0:0:0:0:
81,138,188896,1,0,0:0:0:0:
79,91,188973,1,0,0:0:0:0:
112,56,189050,1,0,0:0:0:0:
160,48,189128,1,0,0:0:0:0:
200,64,189204,1,0,0:0:0:0:
232,96,189281,1,0,0:0:0:0:
256,136,189358,1,0,0:0:0:0:
264,184,189435,1,0,0:0:0:0:
248,232,189512,1,0,0:0:0:0:
216,272,189589,1,0,0:0:0:0:
168,304,189666,1,0,0:0:0:0:
112,320,189743,1,0,0:0:0:0:
256,192,189820,12,0,190897,0:0:0:0:
392,128,190974,6,0,B|440:96|440:96|384:56|288:96,1,187.5,4|0,0:0|0:0,0:0:0:0:
128,168,191436,1,0,0:0:0:0:
240,320,191589,2,0,P|288:336|336:304,1,93.75
416,128,191897,1,0,0:0:0:0:
256,224,192051,1,0,0:0:0:0:
64,168,192205,6,0,B|32:136|32:136|64:104|112:96|168:128,1,187.5,4|0,0:0|0:0,0:0:0:0:
328,256,192666,1,0,0:0:0:0:
112,320,192820,1,0,0:0:0:0:
232,64,192974,1,0,0:0:0:0:
288,288,193128,2,0,P|264:336|224:336,1,93.75
112,168,193436,6,0,B|96:136|96:136|184:144|176:64|232:80,1,187.5,4|0,0:0|0:0,0:0:0:0:
232,288,193897,1,0,0:0:0:0:
96,112,194051,2,0,L|32:40,2,93.75
264,328,194513,1,0,0:0:0:0:
392,248,194666,6,0,B|448:216|456:168|416:112|352:112,1,187.5,4|0,0:0|0:0,0:0:0:0:
208,8,195128,1,0,0:0:0:0:
56,224,195282,1,0,0:0:0:0:
240,200,195436,1,0,0:0:0:0:
24,16,195589,1,0,0:0:0:0:
160,280,195743,1,0,0:0:0:0:
280,72,195897,6,0,B|288:32|288:32|352:-24|376:128,1,187.5,4|0,0:0|0:0,0:0:0:0:
304,320,196359,1,0,0:0:0:0:
448,240,196513,2,0,P|448:192|432:136,1,93.75
320,32,196820,2,0,P|280:56|256:128,1,93.75
216,280,197128,6,0,B|200:328|200:328|144:336|104:288|88:248,1,187.5,4|0,0:0|0:0,0:0:0:0:
8,80,197589,1,0,0:0:0:0:
192,8,197743,1,0,0:0:0:0:
40,160,197897,1,0,0:0:0:0:
264,40,198051,1,0,0:0:0:0:
120,176,198205,1,0,0:0:0:0:
32,248,198359,6,0,B|0:288|0:288|56:328|152:304,1,187.5,4|0,0:0|0:0,0:0:0:0:
304,88,198820,1,0,0:0:0:0:
384,136,198974,2,0,P|432:168|440:208,1,93.75
288,272,199282,1,0,0:0:0:0:
248,296,199359,1,0,0:0:0:0:
208,320,199436,1,0,0:0:0:0:
96,296,199589,6,0,P|64:232|96:120,1,187.5,4|0,0:0|0:0,0:0:0:0:
288,24,200051,1,0,0:0:0:0:
416,120,200205,1,0,0:0:0:0:
445,155,200281,1,0,0:0:0:0:
447,201,200358,1,4,0:0:0:0:
419,238,200435,1,0,0:0:0:0:
384,264,200513,1,0,0:0:0:0:
384,312,200589,1,0,0:0:0:0:
344,352,200666,1,0,0:0:0:0:
288,360,200743,1,0,0:0:0:0:
232,344,200820,6,0,P|176:320|112:176,1,187.5,4|0,0:0|0:0,0:0:0:0:
272,72,201282,1,0,0:0:0:0:
368,240,201436,1,0,0:0:0:0:
200,336,201589,1,0,0:0:0:0:
96,136,201743,1,0,0:0:0:0:
312,48,201897,1,0,0:0:0:0:
392,288,202051,6,0,B|416:344|416:344|440:304|456:256|416:208,1,187.5,4|0,0:0|0:0,0:0:0:0:
272,56,202513,1,0,0:0:0:0:
72,144,202666,2,0,L|176:144,1,93.75
288,232,202974,2,0,L|200:304,1,93.75
136,152,203282,6,0,B|104:120|104:120|168:112|136:32|168:112|256:56,1,187.5,4|0,0:0|0:0,0:0:0:0:
400,176,203743,1,0,0:0:0:0:
272,304,203897,2,0,P|208:336|144:328,1,93.75
272,80,204205,1,0,0:0:0:0:
448,256,204359,1,0,0:0:0:0:
336,352,204513,6,0,B|288:376|288:376|200:376|296:288|176:296,1,187.5,4|0,0:0|0:0,0:0:0:0:
56,232,204974,1,0,0:0:0:0:
240,64,205128,1,0,0:0:0:0:
376,192,205282,1,0,0:0:0:0:
248,280,205436,2,0,P|184:248|176:208,1,93.75
96,96,205743,6,0,B|48:80|48:80|104:24|104:96|192:72,1,187.5,4|0,0:0|0:0,0:0:0:0:
456,80,206205,1,0,0:0:0:0:
200,112,206359,1,0,0:0:0:0:
488,120,206513,1,0,0:0:0:0:
232,168,206666,1,0,0:0:0:0:
432,224,206820,1,0,0:0:0:0:
168,248,206974,6,0,B|104:216|72:144|128:88,1,187.5,4|0,0:0|0:0,0:0:0:0:
328,88,207436,1,0,0:0:0:0:
56,176,207589,2,0,P|32:224|64:280,1,93.75
160,320,207897,2,0,L|216:320,1,46.875
304,320,208051,1,0,0:0:0:0:
432,288,208205,6,0,P|392:240|264:168,1,187.5,4|0,0:0|0:0,0:0:0:0:
272,344,208666,1,0,0:0:0:0:
408,232,208820,1,0,0:0:0:0:
416,200,208896,1,0,0:0:0:0:
416,160,208973,1,0,0:0:0:0:
392,128,209050,1,0,0:0:0:0:
344,104,209127,1,0,0:0:0:0:
288,96,209204,1,0,0:0:0:0:
232,96,209281,1,0,0:0:0:0:
168,112,209358,1,0,0:0:0:0:
112,144,209436,2,0,B|64:176|48:256|48:256|120:280,1,187.5,4|0,0:0|0:0,0:0:0:0:
272,216,209897,5,0,0:0:0:0:
48,112,210051,1,0,0:0:0:0:
216,40,210205,1,0,0:0:0:0:
261,30,210281,1,0,0:0:0:0:
304,43,210358,1,0,0:0:0:0:
314,88,210435,1,0,0:0:0:0:
323,134,210512,1,0,0:0:0:0:
358,163,210589,1,0,0:0:0:0:
408,152,210666,6,0,B|464:136|464:136|480:192|448:240,1,150,4|0,0:0|0:0,0:0:0:0:
304,320,211128,1,8,0:0:0:0:
376,96,211282,1,0,0:0:0:0:
472,256,211436,1,8,0:0:0:0:
264,184,211589,1,0,0:0:0:0:
496,120,211743,1,8,0:0:0:0:
392,336,211897,6,0,P|328:352|240:320,1,150,4|0,0:0|0:0,0:0:0:0:
136,224,212359,1,8,0:0:0:0:
64,80,212513,1,0,0:0:0:0:
240,256,212666,1,8,0:0:0:0:
208,96,212820,1,0,0:0:0:0:
336,296,212974,1,8,0:0:0:0:
336,128,213128,6,0,P|344:64|432:40,1,150,4|0,0:0|0:0,0:0:0:0:
448,208,213589,1,8,0:0:0:0:
280,48,213743,2,0,P|232:24|192:40,1,75,0|8,0:0|0:0,0:0:0:0:
72,168,214051,1,0,0:0:0:0:
232,264,214205,1,8,0:0:0:0:
88,328,214359,2,0,L|16:384,2,75,4|0|0,0:0|0:0|0:0,0:0:0:0:
280,176,214820,1,8,0:0:0:0:
280,176,214974,1,0,0:0:0:0:
440,304,215128,1,8,0:0:0:0:
440,304,215282,1,0,0:0:0:0:
416,88,215436,1,8,0:0:0:0:
416,88,215589,6,0,B|368:56|296:56|296:56|304:112,1,150,4|0,0:0|0:0,0:0:0:0:
376,192,216051,1,8,0:0:0:0:
392,225,216127,1,0,0:0:0:0:
397,262,216204,1,0,0:0:0:0:
389,298,216281,1,0,0:0:0:0:
365,327,216358,1,8,0:0:0:0:
332,345,216435,1,0,0:0:0:0:
296,353,216512,1,0,0:0:0:0:
258,354,216589,1,0,0:0:0:0:
221,352,216666,1,8,0:0:0:0:
184,347,216743,1,0,0:0:0:0:
152,336,216820,6,0,P|96:304|64:224,1,150,4|0,0:0|0:0,0:0:0:0:
232,240,217282,1,8,0:0:0:0:
280,240,217358,1,0,0:0:0:0:
328,232,217435,1,0,0:0:0:0:
376,208,217512,1,0,0:0:0:0:
416,176,217589,1,8,0:0:0:0:
432,124,217666,1,0,0:0:0:0:
416,72,217743,1,0,0:0:0:0:
376,32,217820,1,0,0:0:0:0:
328,16,217897,1,8,0:0:0:0:
280,0,217974,1,0,0:0:0:0:
232,0,218051,6,0,P|168:16|88:64,1,150,4|0,0:0|0:0,0:0:0:0:
8,160,218513,1,8,0:0:0:0:
112,264,218666,1,0,0:0:0:0:
128,280,218743,1,0,0:0:0:0:
144,296,218820,2,0,L|176:328,1,37.5,8|0,0:0|0:0,0:0:0:0:
240,200,218974,1,0,0:0:0:0:
256,184,219051,2,0,L|288:152,1,37.5,0|8,0:0|0:0,0:0:0:0:
384,48,219282,5,0,0:0:0:0:
328,312,219436,1,0,0:0:0:0:
301,337,219512,1,0,0:0:0:0:
265,350,219589,1,0,0:0:0:0:
228,350,219666,1,0,0:0:0:0:
193,338,219743,1,0,0:0:0:0:
165,313,219820,1,0,0:0:0:0:
136,280,219897,1,0,0:0:0:0:
106,241,219973,1,0,0:0:0:0:
97,194,220050,1,0,0:0:0:0:
104,146,220127,1,0,0:0:0:0:
120,104,220205,1,0,0:0:0:0:
160,64,220282,1,0,0:0:0:0:
213,38,220358,1,0,0:0:0:0:
272,24,220436,1,0,0:0:0:0:
336,32,220513,1,4,0:0:0:0:
