osu file format v14

[General]
AudioFilename: audio.mp3
AudioLeadIn: 0
PreviewTime:46272
Countdown: 0
SampleSet: Soft
StackLeniency: 0.4
Mode: 0
LetterboxInBreaks: 0
WidescreenStoryboard: 1

[Editor]
Bookmarks: 2445,11837,22272,30619,38967,47315,64011,72358,80706,89054,97402,114098,122445,139141,155837,166272,182967,191315,199663,211663
DistanceSpacing: 1.3
BeatDivisor: 4
GridSize: 32
TimelineZoom: 1.7

[Metadata]
Title:Blow
TitleUnicode:Blow
Artist:UNDEAD CORPORATION
ArtistUnicode:UNDEAD CORPORATION
Creator:hehe
Version:Insane
Source:
Tags:deathstream flash back metal rock core japanese english handsome heilia -mikan bazz_b featured artist fa
BeatmapID:3326383
BeatmapSetID:1019640

[Difficulty]
HPDrainRate:4
CircleSize:4
OverallDifficulty:7.6
ApproachRate:9
SliderMultiplier:1.4
SliderTickRate:1

[Events]
//Background and Video events
0,0,"blow.jpg",0,0
//Break Periods
//Storyboard Layer 0 (Background)
//Storyboard Layer 1 (Fail)
//Storyboard Layer 2 (Pass)
//Storyboard Layer 3 (Foreground)
//Storyboard Layer 4 (Overlay)
//Storyboard Sound Samples

[TimingPoints]
359,260.869565217391,4,2,1,40,1,0
2445,-83.3333333333333,4,2,1,70,0,0
8837,-100,4,2,1,70,0,0
11575,-100,4,2,1,60,0,0
19924,-100,4,2,1,50,0,0
30489,-100,4,2,1,70,0,0
38837,-100,4,2,1,60,0,0
46793,-100,4,2,1,70,0,0
47185,-83.3333333333333,4,2,1,80,0,1
60750,-83.3333333333333,4,2,1,90,0,1
61793,-83.3333333333333,4,2,1,100,0,1
63880,-100,4,2,1,60,0,0
72228,-100,4,2,1,50,0,0
76793,-100,4,2,1,60,0,0
80576,-100,4,2,1,70,0,0
88924,-100,4,2,1,60,0,0
96880,-100,4,2,1,70,0,0
97272,-83.3333333333333,4,2,1,80,0,1
110837,-83.3333333333333,4,2,1,90,0,1
111880,-83.3333333333333,4,2,1,100,0,1
112272,-83.3333333333333,4,2,1,90,0,1
113837,-83.3333333333333,4,2,1,60,0,1
113967,-125,4,2,1,60,0,0
116967,-100,4,2,1,60,0,0
122445,-100,4,2,1,70,0,0
134967,-100,4,2,1,90,0,1
136793,-100,4,2,1,80,0,0
137054,-100,4,2,1,80,0,1
137185,-83.3333333333333,4,2,1,85,0,0
137445,-83.3333333333333,4,2,1,85,0,1
137576,-83.3333333333333,4,2,1,90,0,0
137837,-83.3333333333333,4,2,1,90,0,1
137967,-83.3333333333333,4,2,1,95,0,0
138228,-83.3333333333333,4,2,1,95,0,1
138358,-83.3333333333333,4,2,1,100,0,0
138619,-100,4,2,1,100,0,1
138750,-100,4,2,1,100,0,0
139663,-100,4,2,1,60,0,0
147489,-100,4,2,1,70,0,0
156358,-100,4,2,1,50,0,0
162358,-100,4,2,1,60,0,0
165750,-100,4,2,1,70,0,0
166141,-83.3333333333333,4,2,1,80,0,1
179706,-83.3333333333333,4,2,1,90,0,1
180750,-83.3333333333333,4,2,1,100,0,1
181141,-83.3333333333333,4,2,1,90,0,1
181663,-100,4,2,1,90,0,1
181924,-100,4,2,1,100,0,1
182706,-100,4,2,1,60,0,0
190924,-100,4,2,1,70,0,0
191185,-83.3333333333333,4,2,1,80,0,1
196402,-83.3333333333333,4,2,1,90,0,1
197445,-83.3333333333333,4,2,1,100,0,1
199140,-83.3333333333333,4,2,1,70,0,1
199532,-83.3333333333333,4,2,1,70,0,0
204358,-83.3333333333333,4,2,1,60,0,0
207489,-83.3333333333333,4,2,1,70,0,0
207880,-83.3333333333333,4,2,1,80,0,0
208532,-71.4285714285714,4,2,1,100,0,1
209967,-100,4,2,1,80,0,0

[Colours]
Combo1 : 255,34,34
Combo2 : 225,190,185
Combo3 : 225,143,108
Combo4 : 181,214,251
Combo5 : 62,151,240
Combo6 : 233,184,254
Combo7 : 235,80,223
Combo8 : 255,164,166

[HitObjects]
106,319,359,5,2,2:3:0:0:
187,338,489,2,0,L|197:376,2,35,0|0|8,2:0|2:0|2:0,2:0:0:0:
241,272,750,2,0,P|309:262|373:288,1,140,0|0,3:0|3:0,2:0:0:0:
442,165,1228,6,0,L|459:225,2,46.6666666666667,0|0|8,3:0|3:0|3:2,0:0:0:0:
357,167,1532,2,0,P|327:184|292:188,1,70,8|0,2:3|3:0,0:0:0:0:
155,162,1793,2,0,P|184:144|219:140,1,70,0|8,3:0|2:0,0:0:0:0:
277,78,2054,1,8,2:0:0:0:
205,33,2185,2,0,L|209:-6,3,35,0|0|0|0,3:0|3:0|3:0|3:0,0:0:0:0:
205,33,2445,70,0,L|109:28,1,83.9999974365235,4|0,1:0|2:0,2:0:0:0:
149,121,2706,2,0,L|53:116,1,83.9999974365235,0|0,1:0|1:0,2:0:0:0:
194,213,2967,2,0,L|98:208,1,83.9999974365235,0|0,1:0|1:0,2:0:0:0:
138,301,3228,2,0,L|42:296,1,83.9999974365235,0|0,1:0|1:0,2:0:0:0:
248,374,3489,6,0,P|237:333|239:291,1,83.9999974365235,0|0,1:0|1:0,2:0:0:0:
390,328,3750,2,0,P|393:286|383:246,1,83.9999974365235,0|0,1:0|1:0,2:0:0:0:
291,202,4011,1,0,1:0:0:0:
276,105,4141,1,0,1:0:0:0:
340,31,4271,1,0,1:0:0:0:
440,33,4402,102,0,B|476:48|476:48|507:125|453:163,1,167.999994873047,4|0,1:0|1:0,2:0:0:0:
400,249,4793,2,0,L|420:349,1,83.9999974365235,0|0,1:0|1:0,2:0:0:0:
310,202,5054,2,0,L|293:119,1,83.9999974365235,0|0,1:0|1:0,2:0:0:0:
244,287,5315,2,0,L|264:387,1,83.9999974365235,0|0,1:0|1:0,2:0:0:0:
160,226,5576,6,0,P|118:220|78:230,1,83.9999974365235,0|0,1:0|1:0,2:0:0:0:
246,155,5837,2,0,P|287:160|327:150,1,83.9999974365235,0|0,1:0|1:0,2:0:0:0:
381,64,6098,1,0,3:0:0:0:
293,14,6228,1,0,3:0:0:0:
209,70,6358,1,0,3:0:0:0:
121,20,6489,102,0,P|82:62|55:184,1,167.999994873047,4|0,3:1|3:0,2:0:0:0:
121,241,6880,2,0,L|39:296,1,83.9999974365235,0|0,1:0|1:0,2:0:0:0:
220,252,7141,2,0,L|213:153,1,83.9999974365235,0|0,1:0|1:0,2:0:0:0:
160,332,7402,2,0,L|248:375,1,83.9999974365235,0|0,1:0|1:0,2:0:0:0:
313,305,7663,6,0,P|352:323|393:327,1,83.9999974365235,0|0,1:0|1:0,2:0:0:0:
512,264,7924,2,0,P|473:246|432:242,1,83.9999974365235,0|0,1:0|1:0,2:0:0:0:
447,144,8185,1,0,3:2:0:0:
397,59,8315,1,0,3:0:0:0:
304,25,8446,1,8,3:2:0:0:
211,57,8576,101,4,1:0:0:0:
211,57,8837,2,0,P|235:125|218:211,1,140,0|0,1:0|1:0,2:0:0:0:
157,238,9228,2,0,L|144:332,1,70,2|2,3:2|3:2,2:0:0:0:
244,289,9489,2,0,L|257:383,1,70,2|0,3:2|3:0,0:0:0:0:
350,235,9750,2,0,L|337:329,1,70,0|0,3:0|3:0,0:0:0:0:
437,286,10011,2,0,L|450:380,1,70,0|0,3:0|3:0,0:0:0:0:
506,217,10272,5,8,2:0:0:0:
506,217,10402,2,0,P|484:172|377:122,1,140,4|0,3:1|2:0,2:0:0:0:
331,94,10793,2,0,L|316:15,9,46.6666666666667,2|2|2|2|2|2|2|2|2|8,3:1|2:1|2:1|2:1|2:1|2:1|2:1|2:1|2:1|2:0,0:0:0:0:
293,175,11706,6,0,P|231:205|162:206,1,140,4|0,1:0|2:0,2:0:0:0:
99,262,12098,2,0,P|70:242|36:234,1,70,0|0,3:0|0:0,0:0:0:0:
33,318,12358,1,12,2:0:0:0:
364,370,12880,6,0,P|341:296|355:210,1,140,0|0,3:0|3:0,0:0:0:0:
291,176,13272,1,0,3:0:0:0:
291,176,13402,2,0,P|295:106|273:40,1,140,12|0,3:2|3:0,2:0:0:0:
347,0,13793,2,0,L|443:22,1,70,4|0,1:0|0:0,2:0:0:0:
473,173,14185,102,0,P|414:227|339:225,2,140,0|8|0,3:0|2:0|2:0,2:0:0:0:
457,94,14837,1,0,2:0:0:0:
457,94,14967,2,0,L|376:85,1,70,2|0,3:2|0:0,2:0:0:0:
341,15,15228,2,0,L|260:24,1,70,2|0,3:2|0:0,0:0:0:0:
218,88,15489,1,8,2:0:0:0:
137,76,15619,1,0,1:0:0:0:
74,128,15749,1,0,1:0:0:0:
72,210,15880,6,0,B|119:228|119:228|156:266|126:309,1,140,4|0,1:0|2:0,2:0:0:0:
67,370,16272,2,0,P|36:344|23:286,1,70,0|0,3:0|0:0,0:0:0:0:
204,353,16532,102,0,P|249:318|337:301,1,140,12|0,2:0|2:0,2:0:0:0:
396,351,16924,1,0,3:0:0:0:
396,351,17054,2,0,L|478:364,1,70,8|0,2:0|2:0,0:0:0:0:
512,278,17315,2,0,L|430:265,1,70,0|0,3:0|3:0,0:0:0:0:
408,190,17576,1,12,3:2:0:0:
334,222,17706,1,0,2:0:0:0:
264,180,17836,1,8,2:0:0:0:
259,100,17967,6,0,P|341:88|393:39,1,140,4|0,1:0|3:0,2:0:0:0:
184,20,18358,2,0,L|168:119,1,70,8|0,2:0|3:0,2:0:0:0:
77,76,18619,2,0,L|93:175,1,70,8|0,2:0|3:0,2:0:0:0:
43,221,18880,101,8,3:2:0:0:
51,223,18945,1,0,3:0:0:0:
59,225,19010,1,0,3:0:0:0:
68,228,19075,1,0,3:0:0:0:
76,230,19141,2,0,L|82:276,7,35,0|0|0|0|8|0|0|0,3:0|3:0|3:0|3:0|3:2|3:0|3:0|3:0,0:0:0:0:
76,230,19663,6,0,L|160:210,1,70,8|0,2:0|3:0,0:0:0:0:
203,279,19924,2,0,L|287:259,1,70,12|0,3:2|1:0,2:0:0:0:
449,186,21880,2,0,L|441:261,1,70,0|8,3:0|2:0,0:0:0:0:
384,124,22141,6,0,P|326:120|247:157,1,140,4|0,3:1|3:0,2:0:0:0:
252,152,22532,1,8,2:0:0:0:
272,233,22663,2,0,P|330:237|409:200,1,140,0|0,3:0|3:0,0:0:0:0:
404,205,23054,1,8,2:0:0:0:
144,269,23445,5,0,3:0:0:0:
144,269,23576,2,0,L|160:343,1,70,8|0,2:0|3:0,0:0:0:0:
74,381,23837,1,0,2:0:0:0:
74,381,23968,2,0,L|58:307,1,70,0|8,3:0|2:0,0:0:0:0:
6,247,24228,102,0,P|42:187|31:93,1,140,4|0,3:1|3:0,2:0:0:0:
41,118,24619,1,8,2:0:0:0:
168,151,24750,2,0,P|132:211|143:305,1,140,0|0,3:0|3:0,0:0:0:0:
216,276,25141,2,0,L|231:356,1,70,8|0,2:0|0:0,2:0:0:0:
310,323,25402,5,0,2:0:0:0:
309,322,25532,2,0,P|338:343|370:355,1,70,0|8,3:0|2:0,0:0:0:0:
504,338,25793,2,0,P|475:317|443:305,1,70,0|0,3:0|2:0,2:0:0:0:
342,193,26054,2,0,P|371:214|403:226,1,70,0|8,3:0|2:0,0:0:0:0:
474,182,26315,102,0,L|456:31,1,140,4|0,3:1|3:0,2:0:0:0:
457,42,26706,1,8,2:0:0:0:
363,30,26837,2,0,L|381:181,1,140,0|0,3:0|3:0,0:0:0:0:
379,169,27228,1,8,2:0:0:0:
122,33,27619,5,0,3:0:0:0:
121,33,27750,2,0,P|155:31|188:42,1,70,8|0,2:0|3:0,0:0:0:0:
78,109,28011,2,0,P|44:111|11:100,1,70,0|0,2:0|3:0,0:0:0:0:
10,99,28206,1,0,3:0:0:0:
10,99,28272,1,8,3:2:0:0:
71,291,28532,102,0,L|154:276,1,70,4|0,3:2|2:0,0:0:0:0:
209,325,28793,1,0,2:0:0:0:
209,325,28924,1,0,3:0:0:0:
247,223,29054,2,0,L|330:238,1,70,12|0,3:2|2:0,0:0:0:0:
385,189,29315,1,0,2:0:0:0:
385,189,29446,1,0,3:0:0:0:
471,298,29576,6,0,P|501:237|486:147,1,140,4|8,3:2|3:2,0:0:0:0:
437,105,29967,1,0,3:0:0:0:
437,105,30032,1,0,3:0:0:0:
437,105,30098,2,0,L|480:71,4,35,0|0|0|0|8,3:0|3:0|3:0|3:0|3:2,0:0:0:0:
371,158,30489,70,0,L|224:181,1,140,4|0,3:1|3:0,2:0:0:0:
234,263,30880,2,0,P|245:295|250:330,1,70,8|0,2:0|3:0,2:0:0:0:
151,285,31141,2,0,P|154:319|149:354,1,70,0|0,2:0|3:0,2:0:0:0:
65,284,31402,2,0,P|58:318|45:350,1,70,8|0,2:0|2:0,2:0:0:0:
19,210,31663,6,0,P|25:145|84:75,1,140,0|8,2:0|2:0,2:0:0:0:
139,129,32054,2,0,L|224:136,1,70,0|0,3:0|0:0,2:0:0:0:
250,208,32315,2,0,L|335:215,1,70,0|8,3:0|2:0,0:0:0:0:
356,289,32576,102,0,P|416:259|511:262,1,140,4|0,3:1|3:0,2:0:0:0:
488,171,32967,2,0,P|496:122|490:78,1,70,8|0,2:0|3:0,2:0:0:0:
406,120,33228,2,0,P|401:70|383:29,1,70,0|0,2:0|3:0,2:0:0:0:
313,91,33489,2,0,P|295:44|268:9,1,70,8|0,2:0|3:0,2:0:0:0:
269,165,33750,6,0,L|262:321,1,140,8|0,3:2|3:0,0:0:0:0:
180,323,34141,2,0,P|149:306|115:300,1,70,8|0,2:0|3:0,0:0:0:0:
0,348,34402,2,0,P|30:364|64:370,1,70,8|0,2:0|3:0,0:0:0:0:
66,233,34663,102,0,P|33:165|51:79,1,140,4|0,3:1|3:0,2:0:0:0:
108,54,35054,2,0,L|202:73,1,70,8|0,2:0|3:0,2:0:0:0:
321,32,35315,2,0,L|227:13,1,70,0|0,2:0|3:0,2:0:0:0:
153,149,35576,2,0,L|247:168,1,70,8|0,2:0|2:0,2:0:0:0:
366,127,35837,2,0,L|272:108,1,70,0|0,2:0|3:0,2:0:0:0:
263,239,36098,5,8,2:0:0:0:
263,239,36228,1,0,3:0:0:0:
334,282,36358,2,0,L|342:328,4,35,0|0|0|0|8,3:0|3:0|3:0|3:0|3:2,0:0:0:0:
414,361,36750,2,0,P|437:334|447:301,1,70,4|0,3:1|0:0,2:0:0:0:
499,234,37011,101,8,3:2:0:0:
499,234,37141,2,0,L|483:142,1,70,8|0,3:2|3:0,0:0:0:0:
410,126,37402,1,8,3:2:0:0:
410,126,37532,2,0,L|426:34,1,70,8|0,3:2|3:0,0:0:0:0:
341,181,37793,5,8,3:2:0:0:
232,125,37924,1,12,3:2:0:0:
232,125,38054,1,0,3:0:0:0:
171,235,38185,2,0,P|196:289|188:382,2,140,0|0|8,3:0|3:0|3:2,0:0:0:0:
86,237,38837,6,0,L|60:72,1,140,4|0,3:1|3:0,2:0:0:0:
127,42,39228,1,8,2:0:0:0:
127,42,39358,1,0,3:0:0:0:
199,82,39489,6,0,P|269:76|332:103,1,140,0|8,3:0|2:0,2:0:0:0:
416,89,39880,1,0,2:0:0:0:
416,89,40011,2,0,P|421:158|394:221,1,140,0|8,3:0|2:0,2:0:0:0:
321,263,40402,1,0,3:0:0:0:
377,324,40532,102,0,L|465:315,2,70,0|0|8,3:0|3:0|2:0,0:0:0:0:
307,372,40924,2,0,P|257:356|224:263,1,140,4|0,3:1|3:0,2:0:0:0:
157,224,41315,2,0,P|163:189|159:155,1,70,8|0,2:0|2:0,2:0:0:0:
81,273,41576,2,0,P|75:307|79:341,1,70,0|0,3:0|3:0,2:0:0:0:
18,207,41837,5,8,2:0:0:0:
69,135,41967,1,0,3:0:0:0:
69,135,42032,1,0,3:0:0:0:
69,135,42098,2,0,L|57:47,1,70,8|0,2:0|3:0,2:0:0:0:
139,21,42358,1,0,3:0:0:0:
139,21,42424,1,0,3:0:0:0:
139,21,42489,2,0,P|223:43|257:86,1,140,8|0,2:0|3:0,2:0:0:0:
239,164,42880,1,8,2:0:0:0:
304,217,43011,102,0,L|448:190,1,140,4|0,3:1|3:0,2:0:0:0:
488,120,43402,1,8,2:0:0:0:
488,120,43532,1,0,3:0:0:0:
438,51,43663,6,0,P|403:44|369:52,1,70,0|0,3:0|3:0,2:0:0:0:
228,98,43924,2,0,P|262:104|296:96,1,70,8|0,2:0|2:0,2:0:0:0:
418,162,44185,2,0,P|383:155|349:163,1,70,0|0,3:0|3:0,2:0:0:0:
207,208,44446,2,0,P|241:214|275:206,1,70,8|0,2:0|3:0,0:0:0:0:
360,286,44706,102,0,L|328:275,4,35,0|0|0|0|8,3:0|3:0|3:0|3:0|3:2,0:0:0:0:
265,332,45098,2,0,P|204:336|118:389,1,140,4|0,3:1|3:0,2:0:0:0:
65,324,45489,1,8,3:2:0:0:
65,324,45619,1,0,3:0:0:0:
116,257,45750,1,0,3:0:0:0:
116,257,45880,1,0,3:0:0:0:
55,198,46011,1,8,3:2:0:0:
55,198,46141,1,0,3:0:0:0:
84,118,46272,6,0,L|72:73,7,35,12|0|0|0|8|0|0|0,3:2|3:0|3:0|3:0|3:2|3:0|3:0|3:0,0:0:0:0:
84,118,46793,2,0,L|175:138,1,70,12|12,2:0|2:0,2:0:0:0:
152,133,47185,6,0,P|193:88|301:65,1,167.999994873047,4|0,3:1|3:0,2:0:0:0:
383,15,47576,2,0,L|400:112,1,83.9999974365235,8|0,2:0|2:0,2:0:0:0:
505,192,47837,1,0,3:0:0:0:
505,192,47967,2,0,L|488:95,1,83.9999974365235,0|8,3:0|2:0,0:0:0:0:
430,267,48228,6,0,L|235:247,1,167.999994873047,4|0,3:2|3:0,2:0:0:0:
174,299,48619,2,0,P|175:340|164:381,1,83.9999974365235,8|0,2:0|2:0,2:0:0:0:
84,256,48880,2,0,P|82:214|93:173,1,83.9999974365235,0|0,3:0|3:0,0:0:0:0:
27,97,49141,1,8,2:0:0:0:
104,31,49272,102,0,P|166:35|247:124,1,167.999994873047,4|0,3:2|3:0,2:0:0:0:
341,105,49663,2,0,L|321:219,1,83.9999974365235,8|0,2:0|2:0,2:0:0:0:
427,184,49924,2,0,L|378:288,1,83.9999974365235,0|0,3:0|3:0,2:0:0:0:
489,282,50185,2,0,L|414:370,1,83.9999974365235,8|0,2:0|2:0,2:0:0:0:
336,325,50445,5,0,3:0:0:0:
336,325,50576,1,0,3:0:0:0:
244,365,50706,2,0,P|225:320|193:279,1,83.9999974365235,8|0,2:0|3:0,0:0:0:0:
199,131,50967,2,0,P|218:176|250:217,1,83.9999974365235,0|0,3:0|3:0,0:0:0:0:
337,224,51228,1,8,2:0:0:0:
392,140,51358,102,0,P|371:75|306:0,1,167.999994873047,4|0,3:1|3:0,2:0:0:0:
218,52,51750,2,0,L|123:46,1,83.9999974365235,8|0,2:0|2:0,2:0:0:0:
0,119,52011,1,0,3:0:0:0:
0,119,52141,2,0,L|95:125,1,83.9999974365235,0|8,3:0|2:0,0:0:0:0:
144,204,52402,6,0,P|217:166|300:168,1,167.999994873047,4|0,3:2|3:0,2:0:0:0:
384,111,52793,1,8,2:0:0:0:
384,111,52924,1,0,2:0:0:0:
469,163,53054,2,0,L|526:146,4,41.9999987182618,0|0|0|0|8,3:0|3:0|3:0|3:0|3:2,0:0:0:0:
413,247,53445,2,0,L|401:340,1,83.9999974365235,4|0,3:2|0:0,2:0:0:0:
310,373,53706,101,8,3:2:0:0:
250,291,53837,2,0,P|206:268|156:273,1,83.9999974365235,0|0,3:0|3:0,0:0:0:0:
142,172,54097,1,8,3:2:0:0:
243,161,54228,2,0,P|284:134|305:88,1,83.9999974365235,0|0,3:0|3:0,0:0:0:0:
400,127,54488,1,4,3:2:0:0:
359,220,54619,2,0,L|402:252,7,41.9999987182618,0|0|0|0|0|0|0|0,3:0|3:0|3:0|3:0|3:0|3:0|3:0|3:0,0:0:0:0:
359,220,55141,6,0,L|381:321,1,83.9999974365235,0|0,3:0|3:0,0:0:0:0:
298,366,55402,1,8,3:2:0:0:
229,291,55532,102,0,B|198:315|198:315|123:312|110:237,1,167.999994873047,4|0,3:1|3:0,2:0:0:0:
16,197,55924,2,0,L|1:103,1,83.9999974365235,8|0,2:0|2:0,2:0:0:0:
88,42,56185,1,0,3:0:0:0:
88,42,56315,2,0,L|103:136,1,83.9999974365235,0|8,3:0|2:0,0:0:0:0:
193,166,56576,6,0,P|237:155|305:37,1,167.999994873047,4|0,3:2|3:0,2:0:0:0:
397,18,56967,1,8,2:0:0:0:
397,18,57098,1,0,2:0:0:0:
460,95,57228,2,0,L|475:197,1,83.9999974365235,0|0,3:0|3:0,2:0:0:0:
421,265,57489,1,8,2:0:0:0:
344,198,57619,102,0,P|303:191|261:194,1,83.9999974365235,4|0,3:2|0:0,2:0:0:0:
113,262,57880,2,0,P|154:269|196:266,1,83.9999974365235,0|8,3:0|2:0,0:0:0:0:
348,341,58141,2,0,P|306:333|264:336,1,83.9999974365235,0|0,2:0|3:0,0:0:0:0:
178,383,58402,1,0,3:0:0:0:
84,345,58532,6,0,P|76:283|20:188,1,167.999994873047,12|4,2:0|2:0,2:0:0:0:
108,134,58924,1,0,3:0:0:0:
108,134,58989,1,0,3:0:0:0:
108,134,59054,2,0,L|202:122,1,83.9999974365235,8|0,3:2|3:0,2:0:0:0:
258,47,59315,2,0,L|267:-12,4,41.9999987182618,0|0|0|0|8,3:0|3:0|3:0|3:0|3:2,0:0:0:0:
346,95,59706,102,0,P|364:178|334:288,1,167.999994873047,4|0,3:1|3:0,2:0:0:0:
166,289,60098,2,0,P|147:205|177:95,1,167.999994873047,12|0,3:2|3:0,2:0:0:0:
256,192,60489,1,0,3:0:0:0:
256,192,60619,1,8,2:0:0:0:
379,124,60750,6,0,P|374:209|318:307,1,167.999994873047,4|0,3:1|3:0,2:0:0:0:
133,260,61142,2,0,P|137:174|193:76,1,167.999994873047,12|0,3:2|3:0,2:0:0:0:
256,192,61532,1,0,3:0:0:0:
256,192,61663,1,8,2:0:0:0:
404,160,61793,6,0,P|377:241|297:321,1,167.999994873047,4|0,3:1|3:0,2:0:0:0:
108,224,62185,2,0,P|134:142|214:62,1,167.999994873047,8|8,2:0|2:0,0:0:0:0:
289,66,62576,1,0,3:0:0:0:
289,66,62706,2,0,L|373:55,1,83.9999974365235,0|0,3:0|3:0,0:0:0:0:
458,1,62967,5,4,3:2:0:0:
495,94,63098,2,0,P|457:169|470:277,1,167.999994873047,8|8,3:2|3:2,0:0:0:0:
460,251,63489,1,14,3:2:0:0:
219,209,63880,6,0,P|281:179|350:178,1,140,4|0,1:0|2:0,2:0:0:0:
413,122,64272,2,0,P|442:142|476:150,1,70,0|0,3:0|0:0,0:0:0:0:
479,66,64532,1,12,2:0:0:0:
148,14,65054,6,0,P|171:88|157:174,1,140,0|0,3:0|3:0,0:0:0:0:
221,208,65446,1,0,3:0:0:0:
221,208,65576,2,0,P|217:278|239:344,1,140,12|0,3:2|3:0,2:0:0:0:
165,384,65967,2,0,L|69:362,1,70,4|0,1:0|0:0,2:0:0:0:
39,211,66359,102,0,P|98:157|173:159,2,140,0|8|0,3:0|2:0|2:0,2:0:0:0:
55,290,67011,1,0,2:0:0:0:
55,290,67141,2,0,L|136:299,1,70,2|0,3:2|0:0,2:0:0:0:
171,369,67402,2,0,L|252:360,1,70,2|0,3:2|0:0,0:0:0:0:
294,296,67663,1,8,2:0:0:0:
375,308,67793,1,0,1:0:0:0:
438,256,67923,1,0,1:0:0:0:
440,174,68054,6,0,B|393:156|393:156|356:118|386:75,1,140,4|0,1:0|2:0,2:0:0:0:
445,14,68446,2,0,P|476:40|489:98,1,70,0|0,3:0|0:0,0:0:0:0:
308,31,68706,102,0,P|263:66|175:83,1,140,12|0,2:0|2:0,2:0:0:0:
116,33,69098,1,0,3:0:0:0:
116,33,69228,2,0,L|34:20,1,70,8|0,2:0|2:0,0:0:0:0:
0,106,69489,2,0,L|82:119,1,70,0|0,3:0|3:0,0:0:0:0:
104,194,69750,1,12,3:2:0:0:
178,162,69880,1,0,2:0:0:0:
248,204,70010,1,8,2:0:0:0:
253,284,70141,6,0,P|171:296|119:345,1,140,4|0,1:0|3:0,2:0:0:0:
328,364,70532,2,0,L|344:265,1,70,8|0,3:2|3:0,2:0:0:0:
435,308,70793,2,0,L|419:209,1,70,8|0,3:2|3:0,2:0:0:0:
469,163,71054,101,0,3:0:0:0:
461,161,71119,1,0,3:0:0:0:
453,159,71184,1,8,3:2:0:0:
444,156,71249,1,0,2:0:0:0:
436,154,71315,2,0,L|430:108,7,35,0|0|0|0|0|0|0|0,3:0|3:0|3:0|3:0|3:0|3:0|3:0|3:0,0:0:0:0:
436,154,71837,6,0,L|352:174,1,70,8|0,3:2|3:0,0:0:0:0:
314,235,72098,1,0,3:0:0:0:
233,213,72228,6,0,P|198:166|217:61,1,140,4|0,3:1|3:0,2:0:0:0:
143,25,72619,1,0,3:0:0:0:
88,16,72749,1,0,3:0:0:0:
39,40,72879,1,8,2:0:0:0:
12,88,73010,1,0,3:0:0:0:
18,143,73140,1,0,3:0:0:0:
55,184,73271,1,0,3:0:0:0:
61,268,73402,6,0,L|141:283,1,70,0|0,3:0|3:0,0:0:0:0:
270,243,73663,2,0,L|190:228,1,70,0|0,3:0|3:0,0:0:0:0:
166,153,73924,1,8,2:0:0:0:
226,95,74054,2,0,L|219:40,2,35,0|0|0,3:0|3:0|3:0,0:0:0:0:
296,141,74315,102,0,L|460:118,1,140,4|0,3:2|3:0,2:0:0:0:
483,190,74706,1,0,3:0:0:0:
493,244,74836,1,0,3:0:0:0:
476,297,74966,1,8,2:0:0:0:
436,335,75097,1,0,3:0:0:0:
382,351,75227,1,0,3:0:0:0:
328,339,75358,1,0,3:0:0:0:
310,256,75489,6,0,P|265:242|210:248,1,70,0|0,3:0|3:0,0:0:0:0:
113,289,75750,2,0,P|158:303|213:297,1,70,0|0,3:0|3:0,0:0:0:0:
185,172,76011,1,8,3:2:0:0:
185,172,76141,1,4,1:2:0:0:
103,194,76272,1,4,1:2:0:0:
103,194,76402,2,0,P|83:130|99:43,1,140,4|0,3:1|3:0,2:0:0:0:
176,52,76793,102,0,L|169:5,3,35,8|0|0|0,3:2|3:0|3:0|3:0,0:0:0:0:
225,70,77054,2,0,L|230:22,3,35,8|0|0|0,3:2|3:0|3:0|3:0,0:0:0:0:
267,100,77315,2,0,L|284:55,3,35,8|0|0|0,3:2|3:0|3:0|3:0,0:0:0:0:
267,100,77576,2,0,L|257:190,1,70,8|0,3:2|3:0,0:0:0:0:
356,264,77837,2,0,L|366:174,1,70,8|0,3:2|3:0,0:0:0:0:
450,126,78098,1,4,3:0:0:0:
447,117,78163,1,4,3:0:0:0:
445,109,78228,1,4,3:0:0:0:
442,100,78293,1,4,3:0:0:0:
440,92,78358,1,4,3:2:0:0:
441,93,78619,6,0,L|358:108,1,70,4|0,3:2|3:0,0:0:0:0:
303,59,78880,1,0,2:0:0:0:
303,59,79011,1,0,3:0:0:0:
265,161,79141,2,0,L|182:146,1,70,4|0,3:2|3:0,0:0:0:0:
127,195,79402,1,0,2:0:0:0:
127,195,79533,1,0,3:0:0:0:
41,86,79663,102,0,P|11:147|26:237,1,140,4|0,3:2|3:0,0:0:0:0:
75,279,80054,1,0,3:0:0:0:
75,279,80119,1,0,3:0:0:0:
75,279,80185,2,0,L|32:313,4,35,0|0|0|0|8,3:0|3:0|3:0|3:0|3:2,0:0:0:0:
141,226,80576,86,0,L|288:203,1,140,4|0,3:1|3:0,2:0:0:0:
278,121,80967,2,0,P|267:89|262:54,1,70,8|0,2:0|3:0,2:0:0:0:
361,99,81228,2,0,P|358:65|363:30,1,70,0|0,2:0|3:0,2:0:0:0:
447,100,81489,2,0,P|454:66|467:34,1,70,8|0,2:0|2:0,2:0:0:0:
493,174,81750,6,0,P|487:239|428:309,1,140,0|8,2:0|2:0,2:0:0:0:
373,255,82141,2,0,L|288:248,1,70,0|0,3:0|0:0,2:0:0:0:
262,176,82402,2,0,L|177:169,1,70,0|8,3:0|2:0,0:0:0:0:
156,95,82663,102,0,P|96:125|1:122,1,140,4|0,3:1|3:0,2:0:0:0:
24,213,83054,2,0,P|16:262|22:306,1,70,8|0,2:0|3:0,2:0:0:0:
106,264,83315,2,0,P|111:314|129:355,1,70,0|0,2:0|3:0,2:0:0:0:
199,293,83576,2,0,P|217:340|244:375,1,70,8|0,2:0|3:0,2:0:0:0:
243,219,83837,6,0,L|250:63,1,140,8|0,3:2|3:0,0:0:0:0:
332,61,84228,2,0,P|363:78|397:84,1,70,8|0,2:0|3:0,0:0:0:0:
512,36,84489,2,0,P|482:20|448:14,1,70,8|0,2:0|3:0,0:0:0:0:
446,151,84750,102,0,P|479:219|461:305,1,140,4|0,3:1|3:0,2:0:0:0:
404,330,85141,2,0,L|310:311,1,70,8|0,2:0|3:0,2:0:0:0:
191,352,85402,2,0,L|285:371,1,70,0|0,2:0|3:0,2:0:0:0:
359,235,85663,2,0,L|265:216,1,70,8|0,2:0|2:0,2:0:0:0:
146,257,85924,2,0,L|240:276,1,70,0|0,2:0|3:0,2:0:0:0:
249,145,86185,5,8,2:0:0:0:
249,145,86315,1,0,3:0:0:0:
178,102,86445,2,0,L|170:56,4,35,0|0|0|0|8,3:0|3:0|3:0|3:0|3:2,0:0:0:0:
98,23,86837,2,0,P|75:50|65:83,1,70,4|0,3:1|2:0,2:0:0:0:
12,148,87098,101,0,1:0:0:0:
87,182,87228,1,0,1:0:0:0:
138,248,87358,1,0,1:0:0:0:
153,330,87489,2,0,L|243:350,1,70,0|0,1:0|1:0,2:0:0:0:
357,293,87750,2,0,L|267:273,1,70,0|0,1:0|1:0,2:0:0:0:
232,182,88011,5,0,1:0:0:0:
232,182,88141,1,0,3:0:0:0:
341,149,88272,2,0,P|316:95|324:2,2,140,8|8|0,3:2|3:2|3:0,2:0:0:0:
426,147,88924,6,0,L|452:312,1,140,4|0,3:1|3:0,2:0:0:0:
385,342,89315,1,8,2:0:0:0:
385,342,89445,1,0,3:0:0:0:
313,302,89576,6,0,P|243:308|180:281,1,140,0|8,3:0|2:0,2:0:0:0:
96,295,89967,1,0,2:0:0:0:
96,295,90098,2,0,P|91:226|118:163,1,140,0|8,3:0|2:0,2:0:0:0:
191,121,90489,1,0,3:0:0:0:
135,60,90619,102,0,L|47:69,2,70,0|0|8,3:0|3:0|2:0,0:0:0:0:
205,12,91011,2,0,P|255:28|288:121,1,140,4|0,3:1|3:0,2:0:0:0:
355,160,91402,2,0,P|349:195|353:229,1,70,8|0,2:0|2:0,2:0:0:0:
431,111,91663,2,0,P|437:77|433:43,1,70,0|0,3:0|3:0,2:0:0:0:
494,177,91924,5,8,2:0:0:0:
443,249,92054,1,0,3:0:0:0:
443,249,92119,1,0,3:0:0:0:
443,249,92185,2,0,L|455:337,1,70,8|0,2:0|3:0,2:0:0:0:
373,363,92445,1,0,3:0:0:0:
373,363,92511,1,0,3:0:0:0:
373,363,92576,2,0,P|289:341|255:298,1,140,8|0,2:0|3:0,0:0:0:0:
273,220,92967,1,8,2:0:0:0:
208,167,93098,102,0,L|64:194,1,140,4|0,3:1|3:0,2:0:0:0:
24,264,93489,1,8,2:0:0:0:
24,264,93619,1,0,3:0:0:0:
74,333,93750,6,0,P|109:340|143:332,1,70,0|0,3:0|3:0,2:0:0:0:
284,286,94011,2,0,P|250:280|216:288,1,70,8|0,2:0|2:0,2:0:0:0:
94,222,94272,2,0,P|129:229|163:221,1,70,0|0,3:0|3:0,2:0:0:0:
305,176,94533,2,0,P|271:170|237:178,1,70,8|0,2:0|3:0,0:0:0:0:
151,97,94793,102,0,L|184:109,4,35,0|0|0|0|8,3:0|3:0|3:0|3:0|3:2,0:0:0:0:
247,52,95185,2,0,P|308:48|394:-5,1,140,4|0,3:1|3:0,2:0:0:0:
447,60,95576,1,8,3:2:0:0:
447,60,95706,1,0,3:0:0:0:
396,127,95837,1,0,3:0:0:0:
396,127,95967,1,0,3:0:0:0:
457,186,96098,1,8,3:2:0:0:
457,186,96228,1,0,3:0:0:0:
428,266,96359,6,0,L|440:311,7,35,12|0|0|0|8|0|0|0,3:2|3:0|3:0|3:0|3:2|3:0|3:0|3:0,0:0:0:0:
428,266,96880,2,0,L|337:246,1,70,12|12,2:0|2:0,2:0:0:0:
360,251,97272,6,0,P|319:296|211:319,1,167.999994873047,4|0,3:1|3:0,2:0:0:0:
129,369,97663,2,0,L|112:272,1,83.9999974365235,8|0,2:0|2:0,2:0:0:0:
7,192,97924,1,0,3:0:0:0:
7,192,98054,2,0,L|24:289,1,83.9999974365235,0|8,3:0|2:0,0:0:0:0:
82,117,98315,6,0,L|277:137,1,167.999994873047,4|0,3:2|3:0,2:0:0:0:
338,85,98706,2,0,P|337:44|348:3,1,83.9999974365235,8|0,2:0|2:0,2:0:0:0:
428,128,98967,2,0,P|430:170|419:211,1,83.9999974365235,0|0,3:0|3:0,0:0:0:0:
485,287,99228,1,8,2:0:0:0:
408,353,99359,102,0,P|346:349|265:260,1,167.999994873047,4|0,3:2|3:0,2:0:0:0:
171,279,99750,2,0,L|191:165,1,83.9999974365235,8|0,2:0|2:0,2:0:0:0:
85,200,100011,2,0,L|134:96,1,83.9999974365235,0|0,3:0|3:0,2:0:0:0:
23,102,100272,2,0,L|98:14,1,83.9999974365235,8|0,2:0|2:0,2:0:0:0:
176,59,100532,5,0,3:0:0:0:
176,59,100663,1,0,3:0:0:0:
268,19,100793,2,0,P|287:64|319:105,1,83.9999974365235,8|0,2:0|3:0,0:0:0:0:
313,253,101054,2,0,P|294:208|262:167,1,83.9999974365235,0|0,3:0|3:0,0:0:0:0:
175,160,101315,1,8,2:0:0:0:
120,244,101445,102,0,P|141:309|206:384,1,167.999994873047,4|0,3:1|3:0,2:0:0:0:
294,332,101837,2,0,L|389:338,1,83.9999974365235,8|0,2:0|2:0,2:0:0:0:
512,265,102098,1,0,3:0:0:0:
512,265,102228,2,0,L|417:259,1,83.9999974365235,0|8,3:0|2:0,0:0:0:0:
368,180,102489,6,0,P|295:218|212:216,1,167.999994873047,4|0,3:2|3:0,2:0:0:0:
128,273,102880,1,8,2:0:0:0:
128,273,103011,1,0,2:0:0:0:
43,221,103141,2,0,L|-14:238,4,41.9999987182618,0|0|0|0|8,3:0|3:0|3:0|3:0|3:2,0:0:0:0:
99,137,103532,2,0,L|111:44,1,83.9999974365235,4|0,3:2|0:0,2:0:0:0:
202,11,103793,101,8,3:2:0:0:
262,93,103924,2,0,P|306:116|356:111,1,83.9999974365235,0|0,3:0|3:0,0:0:0:0:
370,212,104184,1,8,3:2:0:0:
269,223,104315,2,0,P|228:250|207:296,1,83.9999974365235,0|0,3:0|3:0,0:0:0:0:
112,257,104575,1,4,3:2:0:0:
153,164,104706,2,0,L|110:132,7,41.9999987182618,0|0|0|0|0|0|0|0,3:0|3:0|3:0|3:0|3:0|3:0|3:0|3:0,0:0:0:0:
153,164,105228,6,0,L|131:63,1,83.9999974365235,0|0,3:0|3:0,0:0:0:0:
214,18,105489,1,8,3:2:0:0:
283,93,105619,102,0,B|314:69|314:69|389:72|402:147,1,167.999994873047,4|0,3:1|3:0,2:0:0:0:
496,187,106011,2,0,L|511:281,1,83.9999974365235,8|0,2:0|2:0,2:0:0:0:
424,342,106272,1,0,3:0:0:0:
424,342,106402,2,0,L|409:248,1,83.9999974365235,0|8,3:0|2:0,0:0:0:0:
319,218,106663,6,0,P|275:229|207:347,1,167.999994873047,4|0,3:2|3:0,2:0:0:0:
115,366,107054,1,8,2:0:0:0:
115,366,107185,1,0,2:0:0:0:
52,289,107315,2,0,L|37:187,1,83.9999974365235,0|0,3:0|3:0,2:0:0:0:
91,119,107576,1,8,2:0:0:0:
168,186,107706,102,0,P|209:193|251:190,1,83.9999974365235,4|0,3:2|0:0,2:0:0:0:
399,122,107967,2,0,P|358:115|316:118,1,83.9999974365235,0|8,3:0|2:0,0:0:0:0:
164,43,108228,2,0,P|206:51|248:48,1,83.9999974365235,0|0,2:0|3:0,0:0:0:0:
336,0,108489,1,0,3:0:0:0:
428,39,108619,6,0,P|436:101|492:196,1,167.999994873047,12|4,2:0|2:0,2:0:0:0:
404,250,109011,1,0,3:0:0:0:
404,250,109076,1,0,3:0:0:0:
404,250,109141,2,0,L|310:262,1,83.9999974365235,8|0,3:2|3:0,2:0:0:0:
254,337,109402,2,0,L|245:396,4,41.9999987182618,0|0|0|0|8,3:0|3:0|3:0|3:0|3:2,0:0:0:0:
166,289,109793,102,0,P|148:206|178:96,1,167.999994873047,4|0,3:1|3:0,2:0:0:0:
346,95,110185,2,0,P|365:179|335:289,1,167.999994873047,12|0,3:2|3:0,2:0:0:0:
256,192,110576,1,0,3:0:0:0:
256,192,110706,1,8,2:0:0:0:
133,260,110837,6,0,P|138:175|194:77,1,167.999994873047,4|0,3:1|3:0,2:0:0:0:
379,124,111229,2,0,P|375:210|319:308,1,167.999994873047,12|0,3:2|3:0,2:0:0:0:
256,192,111619,1,0,3:0:0:0:
256,192,111750,1,8,2:0:0:0:
108,224,111880,6,0,P|135:143|215:63,1,167.999994873047,4|0,3:1|3:0,2:0:0:0:
286,108,112272,1,4,1:2:0:0:
286,108,112402,1,4,1:2:0:0:
360,40,112532,2,0,L|350:-6,2,41.9999987182618,0|0|0,3:0|3:0|3:0,0:0:0:0:
443,97,112793,6,0,P|465:136|465:193,1,83.9999974365235,8|0,3:2|3:0,2:0:0:0:
409,257,113054,1,8,3:0:0:0:
409,257,113185,2,0,L|314:246,1,83.9999974365235,0|8,3:0|3:2,0:0:0:0:
299,347,113445,1,0,3:0:0:0:
299,347,113576,2,0,L|204:358,1,83.9999974365235,8|8,3:2|3:2,0:0:0:0:
143,285,113837,37,12,3:2:0:0:
143,285,113967,2,0,P|132:228|156:159,1,112,4|0,3:2|3:0,2:0:0:0:
143,285,115924,5,0,3:0:0:0:
143,285,115989,1,0,3:0:0:0:
143,285,116054,2,0,P|132:228|156:159,1,112,4|0,3:2|3:0,2:0:0:0:
385,30,116967,102,0,L|399:115,1,70,4|0,1:2|0:0,2:0:0:0:
336,220,117228,2,0,L|322:135,1,70,0|0,3:0|0:0,0:0:0:0:
247,106,117489,2,0,L|239:53,8,35,0|0|0|0|0|0|0|0|8,3:0|3:0|3:0|3:0|3:0|3:0|3:0|3:0|3:2,0:0:0:0:
186,164,118141,6,0,P|123:176|59:242,1,140,4|0,3:1|2:0,2:0:0:0:
7,285,118532,1,0,3:0:0:0:
166,337,118793,1,4,3:0:0:0:
264,201,119054,1,0,3:0:0:0:
166,65,119315,1,0,3:0:0:0:
7,118,119576,1,0,3:0:0:0:
7,285,119837,101,8,2:0:0:0:
87,306,119967,2,0,L|173:292,1,70,8|0,2:0|0:0,0:0:0:0:
206,227,120228,6,0,P|276:242|331:305,1,140,4|0,3:1|3:0,2:0:0:0:
376,297,120554,1,0,3:0:0:0:
376,297,120619,2,0,L|386:361,3,35,0|0|0|0,3:0|3:0|3:0|3:0,0:0:0:0:
376,297,120880,102,0,L|464:310,1,70,8|0,3:2|3:0,2:0:0:0:
425,217,121141,2,0,L|513:204,1,70,0|0,3:0|3:0,0:0:0:0:
371,118,121402,2,0,L|459:131,1,70,0|0,3:0|3:0,0:0:0:0:
420,38,121663,2,0,L|508:25,1,70,0|0,3:0|3:0,0:0:0:0:
335,0,121924,2,0,P|278:15|239:102,1,140,8|4,3:2|3:2,0:0:0:0:
78,30,122445,86,0,L|94:118,1,70,4|0,1:0|3:0,2:0:0:0:
41,167,122706,1,0,3:0:0:0:
41,167,122837,2,0,L|-19:158,2,35,0|0|4,3:0|3:0|3:2,0:0:0:0:
103,223,123098,1,0,3:0:0:0:
103,223,123228,2,0,L|156:215,2,35,0|0|0,3:0|3:0|3:0,0:0:0:0:
46,285,123489,6,0,L|64:373,1,70,2|0,2:1|3:0,0:0:0:0:
148,382,123750,1,0,3:0:0:0:
148,382,123815,1,0,3:0:0:0:
148,382,123880,1,0,3:0:0:0:
216,332,124011,2,0,L|234:244,1,70,4|0,2:0|3:0,0:0:0:0:
318,235,124272,1,0,3:0:0:0:
318,235,124337,1,0,3:0:0:0:
318,235,124402,1,0,3:0:0:0:
396,264,124532,102,0,L|413:313,2,35,4|0|0,3:1|2:0|3:0,2:0:0:0:
437,190,124793,1,0,3:0:0:0:
437,190,124924,2,0,L|476:223,2,35,0|0|4,3:0|3:0|3:2,0:0:0:0:
435,105,125184,1,0,3:0:0:0:
435,105,125315,2,0,L|485:114,2,35,0|0|0,3:0|3:0|3:0,0:0:0:0:
386,36,125576,6,0,P|343:37|302:64,1,70,4|0,2:1|3:0,0:0:0:0:
186,129,125837,2,0,P|229:128|270:101,1,70,0|0,3:0|3:0,0:0:0:0:
409,128,126098,2,0,P|366:129|325:156,1,70,4|0,3:2|3:0,0:0:0:0:
209,221,126359,2,0,P|252:220|293:193,1,70,4|0,3:2|0:0,2:0:0:0:
344,256,126619,102,0,L|400:268,2,35,4|0|0,1:0|2:0|3:0,2:0:0:0:
281,312,126880,1,0,3:0:0:0:
281,312,127011,2,0,L|323:350,2,35,0|0|4,3:0|3:0|3:2,0:0:0:0:
198,328,127271,1,0,3:0:0:0:
198,328,127402,2,0,L|215:382,2,35,0|0|0,3:0|3:0|3:0,0:0:0:0:
122,289,127663,6,0,L|105:197,1,70,4|0,2:1|3:0,0:0:0:0:
176,168,127924,1,0,3:0:0:0:
176,168,127989,1,0,3:0:0:0:
176,168,128054,1,0,3:0:0:0:
256,141,128185,2,0,L|273:49,1,70,4|0,2:0|3:0,0:0:0:0:
202,20,128446,1,0,3:0:0:0:
202,20,128511,1,0,3:0:0:0:
202,20,128576,1,0,3:0:0:0:
129,61,128706,102,0,P|70:58|32:41,1,70,4|0,3:2|3:0,2:0:0:0:
199,127,128967,2,0,P|258:130|296:147,1,70,0|0,3:0|3:0,2:0:0:0:
124,179,129228,2,0,P|65:176|27:159,1,70,4|0,3:2|3:0,2:0:0:0:
194,245,129489,2,0,P|253:248|291:265,1,70,4|0,3:2|3:0,0:0:0:0:
303,325,129750,85,8,3:2:0:0:
303,325,129880,2,0,L|451:313,1,140,6|0,2:1|2:0,2:0:0:0:
357,235,130272,1,8,3:2:0:0:
357,235,130402,2,0,L|496:185,1,140,6|0,2:1|2:0,2:0:0:0:
256,192,130793,12,8,134445,3:2:0:0:
3,28,134967,5,4,1:0:0:0:
3,28,135098,1,0,1:0:0:0:
56,92,135228,2,0,L|66:185,1,70,4|0,1:2|1:0,2:0:0:0:
98,243,135489,1,4,1:2:0:0:
98,243,135620,1,0,1:0:0:0:
151,179,135750,2,0,L|161:86,1,70,4|0,1:2|1:0,2:0:0:0:
193,28,136011,1,4,1:2:0:0:
193,28,136142,1,0,1:0:0:0:
246,92,136272,2,0,L|256:185,1,70,4|0,1:2|1:0,2:0:0:0:
288,243,136532,1,4,1:2:0:0:
288,243,136663,1,0,1:0:0:0:
341,179,136793,2,0,L|351:86,1,70,0|0,3:0|3:0,0:0:0:0:
426,45,137054,5,12,3:2:0:0:
496,117,137185,2,0,P|453:161|437:203,1,83.9999974365235,0|0,3:0|3:0,0:0:0:0:
481,273,137445,1,12,3:2:0:0:
409,343,137576,2,0,P|365:300|323:284,1,83.9999974365235,0|0,3:0|3:0,0:0:0:0:
253,328,137836,1,12,3:2:0:0:
183,256,137967,2,0,P|226:212|242:170,1,83.9999974365235,0|0,3:0|3:0,0:0:0:0:
198,100,138227,1,12,3:2:0:0:
270,30,138358,2,0,P|314:73|356:89,1,83.9999974365235,0|0,3:0|3:0,0:0:0:0:
423,32,138619,22,0,P|451:78|427:185,1,140,12|0,3:2|0:0,0:0:0:0:
443,161,139141,1,4,2:1:0:0:
250,367,139663,22,0,P|261:335|255:294,1,70,6|0,2:0|2:0,2:0:0:0:
172,206,139924,2,0,P|161:238|167:279,1,70,2|0,2:0|2:0,2:0:0:0:
261,189,140185,2,0,L|305:180,7,35,0|0|0|0|0|0|0|0,3:0|3:0|3:0|3:0|3:0|3:0|3:0|3:0,0:0:0:0:
261,189,140706,2,0,L|280:41,1,140,8|2,3:2|3:2,0:0:0:0:
45,26,141228,6,0,P|21:94|37:183,1,140,4|0,3:1|2:0,2:0:0:0:
108,185,141619,1,2,2:0:0:0:
108,185,141750,2,0,L|99:271,1,70,8|0,2:0|2:0,2:0:0:0:
168,304,142011,102,0,L|309:276,1,140,2|4,2:0|2:0,2:0:0:0:
369,350,142402,2,0,L|228:378,1,140,0|0,3:0|2:0,2:0:0:0:
86,340,142793,2,0,L|34:379,5,46.6666666666667,10|2|2|2|2|2,2:0|2:0|2:0|2:0|2:0|2:0,0:0:0:0:
86,340,143315,6,0,P|74:307|117:209,1,140,6|0,3:2|2:0,2:0:0:0:
188,245,143706,1,0,3:0:0:0:
188,245,143837,2,0,L|268:257,1,70,8|0,2:0|0:0,2:0:0:0:
320,200,144098,1,2,2:0:0:0:
380,258,144228,102,0,P|455:243|507:177,1,140,0|0,3:0|2:0,2:0:0:0:
441,124,144619,2,0,L|521:108,1,70,2|0,3:2|2:0,2:0:0:0:
355,85,144880,2,0,L|286:98,1,70,8|0,2:0|2:0,2:0:0:0:
233,164,145141,2,0,L|226:215,3,35,12|0|4|0,2:0|2:0|2:0|2:0,2:0:0:0:
233,164,145402,6,0,P|199:155|164:157,1,70,0|0,3:0|3:0,0:0:0:0:
111,223,145663,1,0,3:0:0:0:
173,293,145793,1,0,3:0:0:0:
173,293,145858,1,0,3:0:0:0:
173,293,145924,2,0,P|206:301|241:299,1,70,8|0,3:2|3:0,2:0:0:0:
306,244,146185,1,0,3:0:0:0:
306,244,146250,1,0,3:0:0:0:
306,244,146316,2,0,P|339:236|374:238,1,70,0|0,3:0|2:0,2:0:0:0:
437,293,146576,101,0,3:0:0:0:
481,222,146706,2,0,L|515:226,2,35,0|0|0,3:0|3:0|3:0,0:0:0:0:
450,143,146967,2,0,L|455:64,1,70,8|0,3:2|3:0,0:0:0:0:
369,16,147228,2,0,L|364:95,1,70,0|0,3:0|3:0,0:0:0:0:
299,139,147489,5,4,3:1:0:0:
299,139,147619,1,0,2:0:0:0:
234,84,147750,2,0,P|189:83|141:107,1,70,2|0,2:0|2:0,2:0:0:0:
95,44,148011,2,0,P|36:99|31:185,1,140,8|0,3:2|2:0,2:0:0:0:
89,208,148402,1,2,2:0:0:0:
51,283,148532,102,0,L|205:322,1,140,2|0,3:2|2:0,2:0:0:0:
239,250,148924,1,0,3:0:0:0:
239,250,148989,1,0,3:0:0:0:
238,250,149054,2,0,P|269:233|304:232,1,70,10|0,3:2|2:0,2:0:0:0:
418,288,149315,2,0,P|387:304|352:305,1,70,0|8,3:0|2:0,0:0:0:0:
413,202,149576,5,6,2:0:0:0:
413,202,149706,1,2,2:0:0:0:
498,177,149837,2,0,L|505:90,1,70,0|0,2:0|3:0,2:0:0:0:
435,11,150098,2,0,L|428:98,1,70,8|0,3:2|0:0,2:0:0:0:
352,113,150358,2,0,L|364:165,3,35,0|0|2|2,2:0|0:0|2:0|2:0,0:0:0:0:
352,113,150619,102,0,P|297:89|195:94,1,140,2|2,3:2|3:2,0:0:0:0:
151,34,151011,1,2,3:2:0:0:
75,62,151141,1,10,3:2:0:0:
56,140,151271,1,2,3:2:0:0:
110,199,151402,1,2,2:0:0:0:
190,187,151532,1,10,3:2:0:0:
257,239,151663,6,0,L|248:321,1,70,6|2,2:0|2:0,0:0:0:0:
333,202,151924,2,0,L|342:120,1,70,2|2,2:0|3:2,0:0:0:0:
379,269,152185,2,0,L|370:351,1,70,10|2,3:2|2:0,0:0:0:0:
455,232,152446,2,0,L|464:150,1,70,2|2,3:2|3:2,0:0:0:0:
412,95,152706,102,0,B|399:64|399:64|416:17|501:24,2,140,2|0|8,2:0|3:0|2:0,0:0:0:0:
354,157,153358,2,0,B|367:188|367:188|350:235|265:228,1,140,0|0,3:0|3:0,2:0:0:0:
199,264,153750,6,0,L|196:310,2,35,0|0|0,3:0|3:0|3:0,0:0:0:0:
133,219,154011,1,0,3:0:0:0:
133,219,154141,2,0,L|114:269,2,35,0|0|8,3:0|3:0|3:2,0:0:0:0:
81,159,154402,1,0,3:0:0:0:
81,159,154532,2,0,L|49:202,2,35,0|0|0,3:0|3:0|3:0,0:0:0:0:
56,78,154793,101,8,3:2:0:0:
126,32,154924,1,0,3:0:0:0:
185,90,155054,1,4,3:2:0:0:
255,44,155185,1,0,3:0:0:0:
315,101,155315,2,0,L|333:180,1,70,0|8,3:0|3:2,0:0:0:0:
277,235,155576,2,0,L|259:314,1,70,8|8,3:2|3:2,0:0:0:0:
316,367,155837,5,12,3:2:0:0:
431,132,156358,69,0,2:0:0:0:
196,17,157402,6,0,L|211:113,1,70,0|0,3:0|3:0,0:0:0:0:
281,125,157663,1,0,3:0:0:0:
281,125,157793,1,12,3:2:0:0:
81,252,158445,101,0,2:0:0:0:
315,366,158967,6,0,P|394:356|445:299,1,140,0|8,3:0|3:2,2:0:0:0:
366,268,159358,2,0,L|377:189,1,70,0|0,3:0|1:0,0:0:0:0:
285,198,159619,2,0,L|316:124,1,70,0|0,1:0|1:0,0:0:0:0:
431,132,159880,1,12,1:2:0:0:
431,132,160532,101,0,2:0:0:0:
196,17,161054,5,4,2:1:0:0:
30,327,161576,102,0,L|170:347,1,140,8|0,2:0|3:0,2:0:0:0:
221,271,161967,2,0,L|81:251,1,140,4|0,3:1|2:0,2:0:0:0:
28,182,162358,6,0,P|42:149|65:123,1,70,8|0,2:0|2:0,2:0:0:0:
99,9,162619,2,0,P|120:37|130:70,1,70,8|0,2:0|2:0,2:0:0:0:
212,157,162880,2,0,P|176:161|142:153,1,70,8|0,2:0|2:0,2:0:0:0:
253,75,163141,102,0,P|303:52|376:55,1,105,8|0,3:2|3:0,0:0:0:0:
357,98,163402,2,0,P|407:121|480:118,1,105,8|0,3:2|3:0,0:0:0:0:
496,93,163663,1,8,3:2:0:0:
503,188,163793,1,0,3:0:0:0:
450,269,163923,1,8,3:2:0:0:
359,300,164054,6,0,L|267:283,1,70,4|4,1:2|1:2,2:0:0:0:
158,361,164315,1,8,3:2:0:0:
158,361,164445,2,0,L|243:347,1,70,2|2,3:2|2:0,2:0:0:0:
230,222,164706,1,8,3:2:0:0:
230,222,164837,2,0,P|241:173|189:78,1,140,8|0,3:2|3:0,0:0:0:0:
110,75,165228,102,0,L|117:17,7,35,8|8|8|8|0|0|0|0,3:2|3:2|3:2|3:2|3:0|3:0|3:0|3:0,0:0:0:0:
110,75,165750,2,0,L|35:87,1,70,12|12,3:2|3:2,2:0:0:0:
40,86,166141,22,0,P|20:143|75:254,1,167.999994873047,4|0,3:1|3:0,2:0:0:0:
145,190,166532,2,0,P|199:195|246:225,1,83.9999974365235,8|0,2:0|2:0,2:0:0:0:
330,321,166793,1,0,3:0:0:0:
330,321,166924,2,0,P|276:316|229:286,1,83.9999974365235,0|8,3:0|2:0,0:0:0:0:
392,253,167185,6,0,L|370:71,1,167.999994873047,4|0,3:2|3:0,2:0:0:0:
291,24,167576,2,0,L|199:11,1,83.9999974365235,8|0,2:0|2:0,2:0:0:0:
65,99,167837,2,0,L|157:86,1,83.9999974365235,0|0,3:0|3:0,0:0:0:0:
227,150,168098,1,8,2:0:0:0:
165,229,168228,102,0,P|156:298|205:384,1,167.999994873047,4|0,3:2|3:0,2:0:0:0:
283,321,168619,2,0,P|331:314|387:325,1,83.9999974365235,8|0,2:0|2:0,2:0:0:0:
338,220,168880,2,0,P|386:225|437:250,1,83.9999974365235,0|0,3:0|3:0,2:0:0:0:
417,137,169141,2,0,P|462:154|505:192,1,83.9999974365235,8|0,2:0|2:0,2:0:0:0:
411,43,169402,5,0,3:0:0:0:
411,43,169532,1,0,3:0:0:0:
316,22,169663,1,8,2:0:0:0:
316,22,169793,1,0,3:0:0:0:
306,120,169924,1,0,3:0:0:0:
237,191,170054,1,0,3:0:0:0:
138,202,170185,1,8,2:0:0:0:
55,149,170315,102,0,B|17:119|17:119|20:49|109:39,1,167.999994873047,4|0,3:1|3:0,2:0:0:0:
257,101,170706,2,0,P|215:102|171:84,1,83.9999974365235,8|0,2:0|2:0,2:0:0:0:
316,22,170967,1,0,3:0:0:0:
316,22,171098,2,0,P|357:20|401:38,1,83.9999974365235,0|8,3:0|2:0,0:0:0:0:
497,33,171358,6,0,P|481:107|510:204,1,167.999994873047,4|0,3:2|3:0,2:0:0:0:
412,239,171750,1,8,2:0:0:0:
412,239,171880,1,0,2:0:0:0:
456,329,172011,2,0,L|500:355,4,41.9999987182618,0|0|0|0|8,3:0|3:0|3:0|3:0|3:2,0:0:0:0:
359,358,172402,2,0,P|321:331|270:321,1,83.9999974365235,4|0,3:2|0:0,2:0:0:0:
190,356,172663,101,8,3:2:0:0:
165,258,172793,2,0,L|81:212,1,83.9999974365235,0|0,3:0|3:0,0:0:0:0:
73,117,173055,1,8,3:2:0:0:
170,144,173185,2,0,L|251:94,1,83.9999974365235,0|0,3:0|3:0,0:0:0:0:
338,134,173446,1,4,3:2:0:0:
266,205,173576,2,0,L|269:261,7,41.9999987182618,0|0|0|0|0|0|0|0,3:0|3:0|3:0|3:0|3:0|3:0|3:0|3:0,0:0:0:0:
266,205,174098,6,0,L|358:231,1,83.9999974365235,0|0,3:0|3:0,0:0:0:0:
400,312,174358,1,8,3:2:0:0:
481,251,174489,102,0,P|501:195|450:96,1,167.999994873047,4|0,3:1|3:0,2:0:0:0:
358,81,174880,2,0,P|381:36|427:5,1,83.9999974365235,8|0,2:0|2:0,2:0:0:0:
265,123,175141,1,0,3:0:0:0:
265,123,175272,2,0,P|220:100|189:54,1,83.9999974365235,0|8,3:0|2:0,0:0:0:0:
283,223,175532,6,0,L|101:249,1,167.999994873047,4|0,3:2|3:0,2:0:0:0:
41,177,175924,1,8,2:0:0:0:
41,177,176054,1,0,2:0:0:0:
85,86,176185,2,0,L|183:96,1,83.9999974365235,0|0,3:0|3:0,2:0:0:0:
245,29,176445,1,8,2:0:0:0:
327,86,176576,102,0,P|322:128|328:170,1,83.9999974365235,4|0,3:2|0:0,2:0:0:0:
489,222,176837,2,0,P|455:197|416:181,1,83.9999974365235,0|8,3:0|2:0,0:0:0:0:
291,294,177098,2,0,P|329:276|362:251,1,83.9999974365235,0|0,2:0|3:0,0:0:0:0:
222,223,177358,1,0,3:0:0:0:
139,282,177489,6,0,P|70:272|-9:175,1,167.999994873047,12|4,2:0|2:0,2:0:0:0:
37,116,177880,1,0,3:0:0:0:
37,116,177945,1,0,3:0:0:0:
37,116,178011,2,0,L|141:98,1,83.9999974365235,8|0,3:2|3:0,2:0:0:0:
181,21,178272,2,0,L|132:15,4,41.9999987182618,0|0|0|0|8,3:0|3:0|3:0|3:0|3:2,0:0:0:0:
222,116,178663,102,0,P|292:115|401:155,1,167.999994873047,4|0,3:1|3:0,2:0:0:0:
290,268,179054,2,0,P|220:269|111:229,1,167.999994873047,12|0,3:2|3:0,2:0:0:0:
256,192,179445,1,0,3:0:0:0:
256,192,179576,1,8,2:0:0:0:
245,84,179706,6,0,P|312:101|407:167,1,167.999994873047,4|0,3:1|3:0,2:0:0:0:
267,300,180097,2,0,P|199:282|104:216,1,167.999994873047,12|0,3:2|3:0,2:0:0:0:
256,192,180489,1,0,3:0:0:0:
256,192,180619,1,8,3:2:0:0:
275,59,180750,6,0,P|336:93|410:182,1,167.999994873047,4|0,3:1|3:0,2:0:0:0:
441,253,181141,2,0,L|493:221,7,41.9999987182618,8|0|0|0|0|0|0|0,3:2|2:0|3:0|2:0|3:0|3:0|3:0|3:0,2:0:0:0:
441,253,181663,6,0,L|358:264,1,70,0|0,3:0|3:0,0:0:0:0:
309,319,181924,1,8,3:2:0:0:
309,319,182054,2,0,P|283:295|270:263,1,70,8|0,3:2|3:0,2:0:0:0:
190,251,182315,1,8,3:2:0:0:
190,251,182445,2,0,P|188:216|201:184,1,70,0|0,3:0|3:0,0:0:0:0:
205,99,182706,1,8,3:2:0:0:
289,97,182837,38,0,P|356:107|429:159,1,140,4|0,3:1|2:0,2:0:0:0:
485,193,183228,2,0,L|476:270,1,70,0|0,3:0|2:0,2:0:0:0:
394,279,183489,1,8,2:0:0:0:
394,279,183619,2,0,L|403:356,1,70,0|0,2:0|2:0,0:0:0:0:
311,326,183880,6,0,L|158:307,1,140,4|0,3:2|2:0,2:0:0:0:
100,262,184272,2,0,P|39:293|13:357,2,140,0|8|0,3:0|2:0|2:0,2:0:0:0:
153,195,184924,102,0,B|144:159|144:159|171:114|232:123,1,140,4|0,3:2|2:0,2:0:0:0:
267,200,185315,1,0,3:0:0:0:
301,242,185445,1,0,2:0:0:0:
354,261,185575,1,8,2:0:0:0:
408,250,185706,1,0,3:0:0:0:
448,212,185836,1,0,3:0:0:0:
464,159,185967,1,0,3:0:0:0:
428,82,186098,5,0,3:0:0:0:
428,82,186228,2,0,L|351:93,1,70,8|0,3:2|3:0,0:0:0:0:
237,14,186489,1,0,3:0:0:0:
237,14,186619,2,0,L|314:25,1,70,8|0,3:2|3:0,0:0:0:0:
284,144,186880,1,0,3:0:0:0:
284,144,187011,102,0,P|224:143|146:199,1,140,4|0,3:1|2:0,2:0:0:0:
89,246,187402,2,0,L|11:237,1,70,0|0,3:0|2:0,2:0:0:0:
135,322,187663,1,8,2:0:0:0:
135,322,187793,2,0,L|213:331,1,70,0|0,2:0|2:0,0:0:0:0:
275,375,188054,6,0,P|292:317|270:217,1,140,4|0,3:2|2:0,2:0:0:0:
343,183,188445,2,0,P|333:149|335:114,1,70,0|0,3:0|2:0,2:0:0:0:
425,218,188706,2,0,P|434:251|432:286,1,70,8|0,2:0|2:0,0:0:0:0:
491,156,188967,1,0,2:0:0:0:
491,156,189098,102,0,L|461:7,1,140,4|0,3:2|3:0,2:0:0:0:
391,63,189489,1,8,2:0:0:0:
391,63,189619,2,0,L|298:54,1,70,0|0,3:0|3:0,0:0:0:0:
259,113,189880,1,8,3:2:0:0:
259,113,190010,2,0,L|166:104,1,70,0|0,3:0|3:0,0:0:0:0:
127,163,190272,1,8,3:2:0:0:
127,163,190402,2,0,L|34:154,1,70,0|0,3:0|3:0,0:0:0:0:
21,79,190663,6,0,L|6:38,2,35,0|0|0,3:0|3:0|3:0,0:0:0:0:
97,38,190924,1,12,3:2:0:0:
97,38,191054,1,8,3:2:0:0:
170,78,191185,38,0,P|244:76|327:7,1,167.999994873047,4|0,3:1|3:0,2:0:0:0:
409,61,191576,2,0,P|451:60|490:74,1,83.9999974365235,8|0,2:0|2:0,2:0:0:0:
426,154,191837,1,0,3:0:0:0:
426,154,191967,2,0,P|384:154|345:140,1,83.9999974365235,0|8,3:0|2:0,0:0:0:0:
486,224,192228,6,0,P|485:304|396:369,1,167.999994873047,4|0,3:2|3:0,2:0:0:0:
352,297,192620,1,8,2:0:0:0:
352,297,192750,1,0,2:0:0:0:
286,373,192880,2,0,L|177:378,1,83.9999974365235,0|0,3:0|3:0,0:0:0:0:
136,299,193141,1,8,2:0:0:0:
37,277,193272,102,0,P|53:238|61:184,1,83.9999974365235,4|0,3:2|0:0,2:0:0:0:
230,188,193532,2,0,P|188:193|137:213,1,83.9999974365235,0|8,3:0|2:0,0:0:0:0:
57,66,193793,2,0,P|82:99|125:133,1,83.9999974365235,0|0,2:0|3:0,0:0:0:0:
188,57,194054,1,0,3:0:0:0:
279,100,194185,6,0,L|395:107,1,83.9999974365235,12|0,2:0|3:0,0:0:0:0:
454,146,194445,1,0,3:0:0:0:
458,155,194510,1,0,3:0:0:0:
462,165,194575,1,0,3:0:0:0:
467,174,194640,1,0,3:0:0:0:
471,184,194706,2,0,L|355:191,1,83.9999974365235,8|0,3:2|3:0,2:0:0:0:
512,277,194967,2,0,L|396:270,1,83.9999974365235,0|0,3:0|3:0,2:0:0:0:
358,344,195228,1,8,3:2:0:0:
273,290,195358,102,0,P|202:283|97:312,1,167.999994873047,4|0,3:1|3:0,2:0:0:0:
239,94,195750,2,0,P|310:101|415:72,1,167.999994873047,12|0,3:2|3:0,2:0:0:0:
256,192,196141,1,0,3:0:0:0:
256,192,196272,1,8,2:0:0:0:
256,300,196402,6,0,P|184:305|86:352,1,167.999994873047,4|0,3:1|3:0,2:0:0:0:
256,84,196794,2,0,P|327:78|425:31,1,167.999994873047,12|0,3:2|3:0,2:0:0:0:
256,192,197185,1,0,3:0:0:0:
256,192,197316,1,8,2:0:0:0:
240,312,197445,102,0,P|170:329|82:392,1,167.999994873047,4|0,3:1|3:0,2:0:0:0:
272,72,197837,2,0,P|342:55|430:-8,1,167.999994873047,8|8,3:2|3:2,2:0:0:0:
470,90,198228,1,4,3:0:0:0:
470,90,198358,2,0,L|489:185,1,83.9999974365235,8|0,3:2|3:0,2:0:0:0:
387,194,198619,2,0,L|354:131,8,41.9999987182618,0|0|0|0|8|8|8|8|8,3:0|3:0|3:0|3:0|3:2|3:2|3:2|3:2|3:2,0:0:0:0:
128,347,199532,6,0,P|189:320|295:336,1,167.999994873047,4|0,3:1|3:0,2:0:0:0:
363,263,199923,2,0,L|459:268,1,83.9999974365235,0|0,1:0|1:0,2:0:0:0:
318,171,200184,2,0,L|414:176,1,83.9999974365235,0|0,1:0|1:0,2:0:0:0:
374,83,200445,2,0,L|470:88,1,83.9999974365235,0|0,1:0|1:0,2:0:0:0:
264,10,200706,102,0,P|275:51|273:93,1,83.9999974365235,0|0,1:0|1:0,2:0:0:0:
122,56,200967,2,0,P|119:98|129:138,1,83.9999974365235,0|0,1:0|1:0,2:0:0:0:
221,182,201228,1,0,1:0:0:0:
236,279,201358,1,0,1:0:0:0:
172,353,201488,1,0,1:0:0:0:
72,351,201619,6,0,B|36:336|36:336|5:259|59:221,1,167.999994873047,4|0,1:0|1:0,2:0:0:0:
112,135,202010,2,0,L|92:35,1,83.9999974365235,0|0,1:0|1:0,2:0:0:0:
202,182,202271,2,0,L|219:265,1,83.9999974365235,0|0,1:0|1:0,2:0:0:0:
268,97,202532,2,0,L|248:-3,1,83.9999974365235,0|0,1:0|1:0,2:0:0:0:
352,158,202793,102,0,P|394:164|434:154,1,83.9999974365235,0|0,1:0|1:0,2:0:0:0:
266,229,203054,2,0,P|225:224|185:234,1,83.9999974365235,0|0,1:0|1:0,2:0:0:0:
131,320,203315,1,0,3:0:0:0:
219,370,203445,1,0,3:0:0:0:
303,314,203575,1,0,3:0:0:0:
391,364,203706,6,0,P|430:322|457:200,1,167.999994873047,4|0,3:1|3:0,2:0:0:0:
510,129,204098,2,0,L|413:116,1,83.9999974365235,4|0,3:2|2:0,2:0:0:0:
330,87,204358,2,0,L|340:22,7,41.9999987182618,12|0|0|0|0|0|0|0,3:2|3:0|3:0|3:0|3:0|3:0|3:0|3:0,0:0:0:0:
286,122,204880,2,0,L|296:187,7,41.9999987182618,0|0|0|0|0|0|0|0,3:0|3:0|3:0|3:0|3:0|3:0|3:0|3:0,0:0:0:0:
241,87,205402,2,0,L|251:22,7,41.9999987182618,12|0|0|0|0|0|0|0,3:2|3:0|3:0|3:0|3:0|3:0|3:0|3:0,0:0:0:0:
197,122,205924,2,0,L|207:187,7,41.9999987182618,0|0|0|0|0|0|0|0,3:0|3:0|3:0|3:0|3:0|3:0|3:0|3:0,0:0:0:0:
152,87,206445,2,0,L|162:22,7,41.9999987182618,12|0|0|0|0|0|0|0,3:2|3:0|3:0|3:0|3:0|3:0|3:0|3:0,0:0:0:0:
108,122,206967,2,0,L|118:187,7,41.9999987182618,0|0|0|0|0|0|0|0,3:0|3:0|3:0|3:0|3:0|3:0|3:0|3:0,0:0:0:0:
108,122,207489,102,0,L|19:114,1,83.9999974365235,12|0,3:2|3:0,2:0:0:0:
180,209,207750,1,0,3:0:0:0:
180,209,207880,2,0,L|269:217,1,83.9999974365235,4|0,3:1|0:0,2:0:0:0:
326,136,208141,1,8,3:2:0:0:
413,186,208272,2,0,P|436:233|439:287,1,83.9999974365235,0|0,3:0|3:0,2:0:0:0:
256,192,208532,12,12,209967,3:2:0:0:
334,216,210228,5,2,2:3:0:0:
325,213,210293,1,0,2:0:0:0:
317,210,210358,1,2,2:3:0:0:
309,207,210423,1,2,2:3:0:0:
300,204,210489,1,2,2:3:0:0:
251,274,210619,2,0,L|202:349,1,70,4|0,1:2|1:0,2:0:0:0:
181,225,210880,2,0,L|106:176,1,70,0|0,1:0|1:0,0:0:0:0:
230,155,211141,2,0,L|279:80,1,70,0|0,1:0|1:0,0:0:0:0:
300,204,211402,2,0,L|375:253,1,70,0|0,1:0|1:0,0:0:0:0:
378,324,211663,5,12,3:2:0:0:
378,324,211793,1,12,3:2:0:0:
