osu file format v14

[General]
AudioFilename: audio.mp3
AudioLeadIn: 0
PreviewTime:46272
Countdown: 0
SampleSet: Soft
StackLeniency: 0.4
Mode: 0
LetterboxInBreaks: 0
WidescreenStoryboard: 1

[Editor]
Bookmarks: 2837,11837,22272,30619,38967,47315,50967,64011,72358,80706,89054,97402,100011,114098,122445,139141,155837,166272,182967,191315,199663,211663
DistanceSpacing: 0.4
BeatDivisor: 3
GridSize: 16
TimelineZoom: 2.4

[Metadata]
Title:Blow
TitleUnicode:Blow
Artist:UNDEAD CORPORATION
ArtistUnicode:UNDEAD CORPORATION
Creator:hehe
Version:Heilia's Extreme
Source:
Tags:deathstream flash back metal rock core japanese english handsome heilia -mikan bazz_b featured artist fa
BeatmapID:2340905
BeatmapSetID:1019640

[Difficulty]
HPDrainRate:5
CircleSize:4
OverallDifficulty:8.8
ApproachRate:9.3
SliderMultiplier:1.8
SliderTickRate:1

[Events]
//Background and Video events
0,0,"blow.jpg",0,0
//Break Periods
//Storyboard Layer 0 (Background)
//Storyboard Layer 1 (Fail)
//Storyboard Layer 2 (Pass)
//Storyboard Layer 3 (Foreground)
//Storyboard Layer 4 (Overlay)
//Storyboard Sound Samples

[TimingPoints]
359,260.869565217391,4,2,1,40,1,0
359,-100,4,2,1,40,0,0
2445,-83.3333333333333,4,2,1,70,0,0
4402,-100,4,2,1,70,0,0
4663,-83.3333333333333,4,2,1,70,0,0
8576,-66.6666666666667,4,2,1,70,0,0
10272,-133.333333333333,4,2,1,70,0,0
11576,-100,4,2,1,60,0,0
12098,-133.333333333333,4,2,1,60,0,0
12358,-83.3333333333333,4,2,1,60,0,0
12619,-133.333333333333,4,2,1,60,0,0
13402,-83.3333333333333,4,2,1,60,0,0
13793,-133.333333333333,4,2,1,60,0,0
14185,-100,4,2,1,60,0,0
16272,-133.333333333333,4,2,1,60,0,0
16532,-83.3333333333333,4,2,1,60,0,0
16793,-133.333333333333,4,2,1,60,0,0
17576,-83.3333333333333,4,2,1,60,0,0
17967,-100,4,2,1,60,0,0
19924,-100,4,2,1,50,0,0
20315,-133.333333333333,4,2,1,50,0,0
22141,-100,4,2,1,50,0,0
30489,-100,4,2,1,70,0,0
38837,-100,4,2,1,60,0,0
46793,-66.6666666666667,4,2,1,70,0,0
47185,-83.3333333333333,4,2,1,80,0,1
58532,-66.6666666666667,4,2,1,80,0,1
59706,-76.9230769230769,4,2,1,80,0,1
60358,-133.333333333333,4,2,1,80,0,1
60750,-76.9230769230769,4,2,1,90,0,1
61402,-133.333333333333,4,2,1,90,0,1
61793,-76.9230769230769,4,2,1,100,0,1
63750,-76.9230769230769,4,2,1,80,0,1
63880,-133.333333333333,4,2,1,60,0,0
64532,-83.3333333333333,4,2,1,60,0,0
64793,-133.333333333333,4,2,1,60,0,0
65576,-83.3333333333333,4,2,1,60,0,0
65837,-133.333333333333,4,2,1,60,0,0
66358,-100,4,2,1,60,0,0
68445,-133.333333333333,4,2,1,60,0,0
68706,-83.3333333333333,4,2,1,60,0,0
68967,-133.333333333333,4,2,1,60,0,0
69750,-83.3333333333333,4,2,1,60,0,0
70011,-133.333333333333,4,2,1,60,0,0
70532,-83.3333333333333,4,2,1,60,0,0
72228,-83.3333333333333,4,2,1,50,0,0
72489,-100,4,2,1,50,0,0
76793,-100,4,2,1,60,0,0
78358,-133.333333333333,4,2,1,60,0,0
79663,-100,4,2,1,60,0,0
80576,-100,4,2,1,70,0,0
88924,-100,4,2,1,60,0,0
96880,-66.6666666666667,4,2,1,70,0,0
97272,-83.3333333333333,4,2,1,80,0,1
108619,-66.6666666666667,4,2,1,80,0,1
109793,-76.9230769230769,4,2,1,80,0,1
110445,-133.333333333333,4,2,1,80,0,1
110837,-76.9230769230769,4,2,1,90,0,1
111489,-133.333333333333,4,2,1,90,0,1
111880,-76.9230769230769,4,2,1,100,0,1
112272,-100,4,2,1,90,0,1
113837,-100,4,2,1,60,0,1
113967,-250,4,2,1,60,0,0
120228,-100,4,2,1,60,0,0
122054,-133.333333333333,4,2,1,60,0,0
122445,-133.333333333333,4,2,1,70,0,0
129880,-333.333333333333,4,2,1,70,0,0
130793,-133.333333333333,4,2,1,60,0,0
134445,-133.333333333333,4,2,1,70,0,0
134967,-133.333333333333,4,2,1,90,0,1
136793,-133.333333333333,4,2,1,80,0,0
137054,-133.333333333333,4,2,1,80,0,1
137185,-133.333333333333,4,2,1,85,0,0
137445,-133.333333333333,4,2,1,85,0,1
137576,-133.333333333333,4,2,1,90,0,0
137837,-133.333333333333,4,2,1,90,0,1
137967,-133.333333333333,4,2,1,95,0,0
138228,-133.333333333333,4,2,1,95,0,1
138358,-133.333333333333,4,2,1,100,0,0
138619,-133.333333333333,4,2,1,100,0,1
138750,-133.333333333333,4,2,1,100,0,0
139663,-166.666666666667,4,2,1,60,0,0
147489,-166.666666666667,4,2,1,70,0,0
149576,-133.333333333333,4,2,1,70,0,0
156358,-133.333333333333,4,2,1,50,0,0
162358,-133.333333333333,4,2,1,60,0,0
164054,-100,4,2,1,60,0,0
165750,-66.6666666666667,4,2,1,70,0,0
166141,-83.3333333333333,4,2,1,80,0,1
177489,-66.6666666666667,4,2,1,80,0,1
178663,-76.9230769230769,4,2,1,80,0,1
179315,-133.333333333333,4,2,1,80,0,1
179706,-76.9230769230769,4,2,1,90,0,1
180358,-133.333333333333,4,2,1,90,0,1
180749,-133.333333333333,4,2,1,100,0,1
180750,-76.9230769230769,4,2,1,100,0,1
181141,-76.9230769230769,4,2,1,90,0,1
181924,-76.9230769230769,4,2,1,100,0,1
182706,-76.9230769230769,4,2,1,60,0,0
182837,-100,4,2,1,60,0,0
190924,-100,4,2,1,70,0,0
191185,-83.3333333333333,4,2,1,80,0,1
194185,-66.6666666666667,4,2,1,80,0,1
195358,-76.9230769230769,4,2,1,80,0,1
196011,-133.333333333333,4,2,1,80,0,1
196402,-76.9230769230769,4,2,1,90,0,1
197054,-133.333333333333,4,2,1,90,0,1
197445,-76.9230769230769,4,2,1,100,0,1
199141,-76.9230769230769,4,2,1,70,0,1
199532,-83.3333333333333,4,2,1,70,0,0
201619,-100,4,2,1,70,0,0
202011,-83.3333333333333,4,2,1,70,0,0
203706,-100,4,2,1,70,0,0
204098,-83.3333333333333,4,2,1,70,0,0
204358,-83.3333333333333,4,2,1,60,0,0
207489,-83.3333333333333,4,2,1,70,0,0
207880,-83.3333333333333,4,2,1,80,0,0
208532,-83.3333333333333,4,2,1,100,0,1
209967,-83.3333333333333,4,2,1,80,0,0

[Colours]
Combo1 : 255,34,34
Combo2 : 225,190,185
Combo3 : 225,143,108
Combo4 : 181,214,251
Combo5 : 62,151,240
Combo6 : 233,184,254
Combo7 : 235,80,223
Combo8 : 255,164,166

[HitObjects]
350,152,359,5,2,0:3:0:0:
386,261,489,2,0,P|395:235|390:199,2,45,0|0|8,0:0|0:0|0:0,0:0:0:0:
159,270,750,6,0,P|220:220|330:230,1,180,0|0,3:0|3:0,0:0:0:0:
429,145,1228,101,0,3:0:0:0:
429,145,1315,1,0,3:0:0:0:
429,145,1402,6,0,L|419:33,1,90,8|8,3:2|0:3,0:0:0:0:
341,62,1662,2,0,L|351:174,1,90,0|0,3:0|3:0,0:0:0:0:
468,251,1924,101,8,0:0:0:0:
465,273,1989,1,8,0:0:0:0:
463,295,2054,1,8,0:0:0:0:
461,318,2119,1,8,0:0:0:0:
459,340,2185,2,0,L|402:328,3,45,0|0|0|0,3:0|3:0|3:0|3:0,0:0:0:0:
358,382,2445,86,0,P|347:320|291:307,1,107.999996704102,4|0,1:0|0:0,0:0:0:0:
308,319,2641,1,8,0:1:0:0:
308,319,2706,6,0,L|245:324,3,53.9999983520508,0|8|0|8,1:0|0:1|1:0|0:1,0:0:0:0:
192,373,2967,2,0,L|167:314,3,53.9999983520508,0|8|0|8,1:0|0:1|1:0|0:1,0:0:0:0:
104,279,3228,2,0,L|152:237,3,53.9999983520508,0|8|0|8,1:0|0:1|1:0|0:1,0:0:0:0:
220,218,3489,102,0,P|201:189|176:172,3,53.9999983520508,0|8|0|8,1:0|0:1|1:0|0:1,0:0:0:0:
203,101,3750,2,0,P|168:102|141:116,3,53.9999983520508,0|8|0|8,1:0|0:1|1:0|0:1,0:0:0:0:
90,61,4011,2,0,P|74:91|72:121,3,53.9999983520508,0|8|0|8,1:0|0:1|1:0|0:1,0:0:0:0:
0,137,4272,6,0,P|18:165|43:182,1,53.9999983520508,0|8,1:0|0:1,0:0:0:0:
21,257,4402,2,0,P|44:201|112:182,1,135,4|8,1:0|0:1,0:0:0:0:
111,181,4663,1,0,1:0:0:0:
201,209,4793,102,0,L|192:138,3,53.9999983520508,0|8|0|8,1:0|0:1|1:0|0:1,0:0:0:0:
273,170,5054,2,0,L|264:99,3,53.9999983520508,0|8|0|8,1:0|0:1|1:0|0:1,0:0:0:0:
345,131,5315,2,0,L|336:60,3,53.9999983520508,0|8|0|8,1:0|0:1|1:0|0:1,0:0:0:0:
379,10,5576,6,0,B|355:-5|355:-5|296:5,3,53.9999983520508,0|8|0|8,1:0|0:1|1:0|0:1,0:0:0:0:
268,43,5837,2,0,B|242:40|242:40|219:57,3,53.9999983520508,0|8|0|8,1:0|0:1|1:0|0:1,0:0:0:0:
142,67,6098,101,0,3:0:0:0:
123,242,6228,1,0,3:0:0:0:
158,160,6358,6,0,L|92:153,1,53.9999983520508,0|0,3:0|0:0,0:0:0:0:
37,91,6489,2,0,P|60:149|-10:250,1,161.999995056153,4|0,3:1|0:0,0:0:0:0:
20,234,6750,1,0,3:0:0:0:
36,319,6880,102,0,P|65:311|101:313,3,53.9999983520508,0|8|0|8,1:0|0:1|1:0|0:1,1:0:0:0:
123,242,7141,2,0,P|152:249|182:269,3,53.9999983520508,0|8|0|8,1:0|0:1|1:0|0:1,1:0:0:0:
247,241,7402,2,0,P|268:262|284:294,3,53.9999983520508,0|8|0|8,1:0|0:1|1:0|0:1,1:0:0:0:
348,319,7663,6,0,L|341:386,3,53.9999983520508,0|8|0|8,1:0|0:1|1:0|0:1,1:0:0:0:
420,381,7924,2,0,L|425:327,3,53.9999983520508,0|8|0|8,1:0|0:1|1:0|0:1,1:0:0:0:
495,287,8185,102,0,P|435:285|409:213,1,107.999996704102,0|0,3:2|3:0,0:0:0:0:
417,177,8380,1,0,1:0:0:0:
417,177,8445,2,0,L|424:99,1,53.9999983520508,8|0,3:2|0:0,0:0:0:0:
487,77,8576,6,0,L|314:87,1,135.000005149842,4|0,1:0|0:0,0:0:0:0:
298,7,8837,101,0,1:0:0:0:
274,31,8902,1,0,1:0:0:0:
260,61,8967,1,0,1:0:0:0:
257,95,9032,1,0,1:0:0:0:
266,127,9097,1,0,1:0:0:0:
194,164,9228,5,2,3:2:0:0:
207,185,9293,1,0,3:0:0:0:
226,201,9358,1,2,3:2:0:0:
249,211,9423,1,0,3:0:0:0:
274,212,9488,1,2,3:2:0:0:
353,161,9619,1,0,3:0:0:0:
487,309,9750,101,0,3:0:0:0:
425,258,9881,1,0,3:0:0:0:
347,257,10011,1,0,3:0:0:0:
278,293,10142,1,0,3:0:0:0:
237,360,10272,2,0,B|88:340,1,135.000005149842,8|0,0:0|0:0,0:0:0:0:
21,333,10663,5,0,3:0:0:0:
21,333,10728,1,0,3:0:0:0:
21,333,10793,2,0,L|27:407,8,45.0000017166138,2|2|2|2|2|2|2|2|2,3:1|0:1|0:1|0:1|0:1|0:1|0:1|0:1|0:1,0:0:0:0:
72,266,11576,6,0,L|78:204,1,45,8|0,0:0|0:0,0:0:0:0:
7,111,11706,2,0,P|64:186|151:160,1,180,4|0,1:0|0:0,0:0:0:0:
309,72,12098,6,0,L|312:139,1,67.5000025749208,0|0,3:0|0:0,0:0:0:0:
220,57,12358,86,0,L|226:164,1,107.999996704102,12|0,0:0|0:0,0:0:0:0:
316,72,12619,22,0,L|319:139,1,67.5000025749208
431,329,12880,102,0,L|428:261,1,67.5000025749208,0|0,3:0|0:0,0:0:0:0:
507,140,13141,1,0,3:0:0:0:
512,162,13206,1,0,3:0:0:0:
512,185,13271,1,0,3:0:0:0:
508,207,13336,1,0,3:0:0:0:
500,227,13402,102,0,P|461:189|399:188,1,107.999996704102,12|0,3:2|0:0,0:0:0:0:
242,235,13663,5,0,3:0:0:0:
320,140,13793,2,0,L|337:300,1,135.000005149842,4|0,1:0|3:0,0:0:0:0:
298,356,14185,2,0,L|189:340,1,90,0|0,3:0|0:0,0:0:0:0:
133,284,14380,1,0,0:0:0:0:
122,300,14445,2,0,L|32:313,1,90,8|0,0:0|0:0,0:0:0:0:
0,146,14706,2,0,P|-3:190|18:228,1,90
233,214,14967,6,0,P|170:163|70:177,2,180,2|2|8,3:2|3:2|0:0,0:0:0:0:
311,157,15619,2,0,L|421:147,1,90,0|0,1:0|1:0,0:0:0:0:
479,43,15880,102,0,P|438:121|459:218,1,180,4|0,1:0|0:0,0:0:0:0:
498,299,16272,2,0,P|452:289|403:288,1,67.5000025749208,0|0,3:0|0:0,0:0:0:0:
358,348,16467,1,0,0:0:0:0:
348,337,16532,102,0,L|238:344,1,107.999996704102,12|0,0:0|0:0,0:0:0:0:
324,245,16793,6,0,L|257:249,1,67.5000025749208,0|0,0:0|3:0,0:0:0:0:
453,208,17054,6,0,P|457:154|443:123,1,67.5000025749208,8|0,0:0|0:0,0:0:0:0:
380,0,17315,1,0,3:0:0:0:
375,22,17380,1,0,3:0:0:0:
375,45,17445,1,0,3:0:0:0:
379,67,17510,1,0,3:0:0:0:
387,87,17576,86,0,P|421:58|490:66,1,107.999996704102,12|0,3:2|0:0,0:0:0:0:
297,15,17837,21,8,0:0:0:0:
345,233,17967,2,0,P|357:146|250:92,1,180,4|0,1:0|3:0,0:0:0:0:
135,164,18358,2,0,P|191:128|240:141,1,90,8|0,0:0|3:0,0:0:0:0:
196,298,18619,2,0,L|202:201,1,90,8|0,0:0|3:0,0:0:0:0:
219,49,18880,1,8,3:2:0:0:
104,0,19011,101,0,3:0:0:0:
110,6,19076,1,0,3:0:0:0:
116,12,19141,2,0,L|105:86,1,45,0|0,3:0|3:0,0:0:0:0:
31,53,19272,2,0,L|42:127,1,45,0|0,3:0|0:0,0:0:0:0:
90,170,19402,6,0,L|164:159,2,45,8|0|0,3:2|3:0|3:0,0:0:0:0:
8,384,19663,102,0,P|36:367|68:366,1,45,8|0,0:0|0:0,0:0:0:0:
119,331,19793,2,0,P|151:330|179:345,1,45,0|0,3:0|3:0,0:0:0:0:
241,340,19924,2,0,P|269:355|286:382,1,45,12|0,3:2|0:0,0:0:0:0:
375,384,20054,5,0,1:0:0:0:
375,384,20315,2,0,P|366:332|343:303,1,67.5000025749208,2|0,0:0|0:0,0:0:0:0:
441,268,20576,101,0,0:0:0:0:
434,291,20706,2,0,P|401:251|366:237,1,67.5000025749208
436,158,20967,5,0,0:0:0:0:
440,181,21097,2,0,P|391:162|354:168,1,67.5000025749208
373,66,21358,101,0,0:0:0:0:
389,83,21488,2,0,P|337:91|308:114,1,67.5000025749208
254,48,21750,5,0,0:0:0:0:
158,131,21880,1,0,3:0:0:0:
40,88,22011,1,8,0:0:0:0:
78,180,22141,6,0,L|89:279,1,90,4|0,3:1|0:0,0:0:0:0:
97,361,22402,1,0,3:0:0:0:
97,361,22532,1,8,0:0:0:0:
158,131,22663,6,0,L|169:230,1,90,0|0,3:0|0:0,0:0:0:0:
179,313,22924,1,0,3:0:0:0:
179,313,23054,1,8,0:0:0:0:
319,10,23445,101,0,3:0:0:0:
319,10,23576,2,0,L|327:99,1,90,8|0,0:0|3:0,0:0:0:0:
397,208,23837,2,0,P|425:178|418:82,1,135
423,89,24098,1,8,0:0:0:0:
437,291,24228,6,0,L|337:281,1,90,4|0,3:1|0:0,0:0:0:0:
255,273,24489,1,0,3:0:0:0:
255,273,24619,1,8,0:0:0:0:
484,377,24750,102,0,L|384:367,1,90,0|0,3:0|0:0,0:0:0:0:
302,359,25011,1,0,3:0:0:0:
302,359,25141,1,8,0:0:0:0:
132,118,25532,5,0,3:0:0:0:
132,118,25663,2,0,P|151:74|123:10,2,90,8|0|0,0:0|3:0|0:0,0:0:0:0:
92,206,26054,2,0,L|101:299,1,90,0|8,3:0|0:0,0:0:0:0:
186,384,26315,102,0,L|196:284,1,90,4|0,3:1|0:0,0:0:0:0:
204,202,26576,1,0,3:0:0:0:
204,202,26706,1,8,0:0:0:0:
270,347,26837,6,0,L|280:247,1,90,0|0,3:0|0:0,0:0:0:0:
288,165,27098,1,0,3:0:0:0:
288,165,27228,1,8,0:0:0:0:
450,195,27619,101,0,3:0:0:0:
450,195,27750,2,0,P|470:142|445:86,2,90,8|0|0,0:0|3:0|0:0,0:0:0:0:
509,263,28141,1,0,3:0:0:0:
509,263,28206,1,0,3:0:0:0:
509,263,28272,2,0,P|437:238|348:254,1,135,8|0,3:2|0:0,0:0:0:0:
379,242,28532,5,4,3:2:0:0:
287,265,28663,1,0,0:0:0:0:
314,174,28793,1,0,0:0:0:0:
314,174,28924,1,0,3:0:0:0:
352,333,29054,101,12,3:2:0:0:
222,197,29185,1,0,0:0:0:0:
405,153,29315,1,0,0:0:0:0:
405,153,29445,1,0,3:0:0:0:
352,333,29576,6,0,L|358:384,2,45,4|0|0,3:2|0:0|3:0,0:0:0:0:
262,326,29837,2,0,L|268:377,2,45,8|0|0,3:2|0:0|3:0,0:0:0:0:
172,319,30098,2,0,L|178:370,2,45,0|0|0,3:0|0:0|0:0,0:0:0:0:
77,308,30358,101,8,3:2:0:0:
6,129,30489,2,0,P|-11:189|39:263,1,135,4|0,3:1|0:0,0:0:0:0:
20,250,30750,1,0,3:0:0:0:
49,383,30880,86,0,P|93:386|132:366,1,90,8|0,0:0|3:0,0:0:0:0:
104,233,31141,2,0,P|60:230|20:251,1,90,0|0,0:0|3:0,0:0:0:0:
49,383,31402,2,0,P|93:385|132:365,1,90,8|0,0:0|0:0,0:0:0:0:
195,288,31663,6,0,L|300:281,1,90,0|0,0:0|3:0,0:0:0:0:
340,363,31924,1,8,0:0:0:0:
340,363,32054,2,0,P|319:290|397:224,1,180,0|0,3:0|3:0,0:0:0:0:
406,117,32445,1,8,0:0:0:0:
302,121,32576,102,0,P|247:187|163:168,1,180,4|0,3:1|3:0,0:0:0:0:
65,132,32967,2,0,P|84:174|93:223,1,90,8|0,0:0|3:0,0:0:0:0:
38,304,33228,2,0,P|83:298|133:305,1,90,0|0,0:0|3:0,0:0:0:0:
193,382,33489,2,0,P|202:336|223:291,1,90,8|0,0:0|3:0,0:0:0:0:
315,258,33750,5,8,3:2:0:0:
315,258,33880,2,0,P|328:214|305:165,1,90,0|0,0:0|3:0,0:0:0:0:
152,116,34141,2,0,L|253:124,1,90,8|0,0:0|3:0,0:0:0:0:
146,201,34402,2,0,L|247:209,1,90,8|0,0:0|3:0,0:0:0:0:
313,174,34663,102,0,B|386:167|386:167|414:142|414:142|482:136,1,180,4|0,3:1|3:0,0:0:0:0:
434,313,35054,2,0,L|447:217,1,90,8|0,0:0|3:0,0:0:0:0:
300,84,35315,2,0,L|312:173,1,90,0|0,0:0|3:0,0:0:0:0:
347,339,35576,2,0,L|360:243,1,90,8|0,0:0|0:0,0:0:0:0:
213,110,35837,2,0,L|225:199,1,90,0|0,0:0|3:0,0:0:0:0:
173,311,36098,5,8,0:0:0:0:
89,356,36228,1,0,3:0:0:0:
19,294,36358,1,0,3:0:0:0:
21,271,36423,1,0,3:0:0:0:
23,249,36488,1,0,3:0:0:0:
26,226,36553,1,0,3:0:0:0:
28,204,36618,1,8,3:2:0:0:
0,97,36750,102,0,P|36:159|118:135,1,135,4|0,3:1|0:0,0:0:0:0:
92,158,37011,1,8,3:2:0:0:
181,89,37141,2,0,P|226:82|263:122,1,90,8|0,3:2|3:0,0:0:0:0:
259,109,37337,1,0,3:0:0:0:
259,109,37402,5,8,3:2:0:0:
364,106,37532,1,8,3:2:0:0:
463,102,37663,2,0,B|478:56|478:56|456:15,1,90,0|8,3:0|3:2,0:0:0:0:
414,186,37924,102,0,P|403:222|423:277,1,90,12|0,3:2|3:0,0:0:0:0:
468,357,38185,2,0,L|355:349,1,90,0|0,3:0|3:0,0:0:0:0:
328,259,38445,5,0,3:0:0:0:
184,336,38575,1,0,3:0:0:0:
328,259,38706,1,8,3:2:0:0:
258,382,38837,6,0,B|269:318|269:318|244:279|244:279|256:206,1,180,4|0,3:1|3:0,0:0:0:0:
325,136,39228,2,0,L|314:40,1,90,8|0,0:0|3:0,0:0:0:0:
228,31,39489,5,0,3:0:0:0:
228,31,39619,1,0,3:0:0:0:
123,0,39750,2,0,B|142:102,1,90,8|0,0:0|0:0,0:0:0:0:
109,179,40011,101,0,3:0:0:0:
109,179,40141,1,0,3:0:0:0:
214,148,40272,2,0,B|195:250,1,90,8|0,0:0|3:0,0:0:0:0:
137,352,40532,6,0,P|182:322|239:335,1,90,0|0,3:0|3:0,0:0:0:0:
309,369,40793,1,8,0:0:0:0:
309,369,40924,2,0,P|422:328|418:268,1,180,4|0,3:1|3:0,0:0:0:0:
459,207,41315,2,0,P|421:200|371:219,1,90,8|0,0:0|0:0,0:0:0:0:
398,39,41576,101,0,3:0:0:0:
398,39,41706,1,0,3:0:0:0:
448,107,41837,2,0,P|406:122|362:117,1,90,8|0,0:0|3:0,0:0:0:0:
270,49,42098,5,8,0:0:0:0:
270,49,42163,1,0,3:0:0:0:
270,49,42228,2,0,P|265:75|245:106,3,45,0|0|0|0,3:0|3:0|3:0|3:0,0:0:0:0:
186,51,42489,1,8,0:0:0:0:
186,51,42554,1,0,3:0:0:0:
186,51,42619,2,0,P|164:36|128:28,3,45,0|0|0|0,3:0|3:0|3:0|3:0,0:0:0:0:
126,108,42880,2,0,P|105:117|83:121,1,45,0|0,3:0|3:0,0:0:0:0:
0,70,43011,102,0,P|38:111|14:214,1,135,4|0,3:1|0:0,0:0:0:0:
35,186,43272,1,0,3:0:0:0:
4,282,43402,2,0,P|61:269|124:270,1,90,8|0,0:0|3:0,0:0:0:0:
280,308,43663,5,0,3:0:0:0:
280,308,43793,1,0,3:0:0:0:
191,242,43924,2,0,B|176:330,1,90,8|0,0:0|0:0,0:0:0:0:
286,208,44185,101,0,3:0:0:0:
286,208,44315,1,0,3:0:0:0:
375,142,44446,2,0,B|389:230,1,90,8|0,0:0|3:0,0:0:0:0:
486,174,44706,5,0,3:0:0:0:
486,174,44772,1,0,3:0:0:0:
486,174,44837,2,0,L|477:117,1,45,0|0,3:0|3:0,0:0:0:0:
473,23,44967,101,8,3:2:0:0:
473,23,45098,2,0,B|423:67|423:67|292:38,1,180,4|0,3:1|3:0,0:0:0:0:
225,51,45489,6,0,L|231:-5,3,45,8|0|0|0,3:2|3:0|3:0|3:0,0:0:0:0:
146,141,45750,102,0,L|140:85,3,45,0|0|0|0,3:0|3:0|3:0|3:0,0:0:0:0:
221,228,46011,6,0,L|227:172,3,45,8|0|0|0,3:2|3:0|3:0|3:0,0:0:0:0:
86,253,46272,101,12,3:2:0:0:
102,283,46337,1,0,3:0:0:0:
124,308,46402,1,0,3:0:0:0:
152,327,46467,1,0,3:0:0:0:
183,340,46532,1,8,3:2:0:0:
216,346,46598,1,0,3:0:0:0:
250,343,46663,1,0,3:0:0:0:
282,334,46728,1,0,3:0:0:0:
311,317,46793,6,0,L|319:400,1,67.5000025749208,12|0,0:0|0:0,0:0:0:0:
390,309,46924,2,0,L|398:392,1,67.5000025749208,12|0,0:0|0:0,0:0:0:0:
512,101,47185,6,0,P|460:153|376:130,1,161.999995056153,4|0,3:1|0:0,0:0:0:0:
380,134,47446,1,0,3:0:0:0:
193,91,47576,2,0,P|212:158|240:210,1,107.999996704102,8|0,0:0|0:0,0:0:0:0:
310,0,47837,2,0,P|293:66|290:126,1,107.999996704102,0|0,3:0|3:0,0:0:0:0:
70,38,48098,1,8,0:0:0:0:
70,38,48228,6,0,P|122:103|219:50,1,161.999995056153,4|0,3:2|0:0,0:0:0:0:
192,90,48489,1,0,3:0:0:0:
304,292,48619,2,0,L|289:184,1,107.999996704102,8|0,0:0|0:0,0:0:0:0:
138,313,48880,2,0,L|123:205,1,107.999996704102,0|0,3:0|3:0,0:0:0:0:
244,384,49141,1,8,0:0:0:0:
244,384,49272,102,0,P|298:332|412:346,1,161.999995056153,4|0,3:2|0:0,0:0:0:0:
381,329,49532,1,0,3:0:0:0:
439,186,49663,2,0,P|439:246|455:292,1,107.999996704102,8|0,0:0|0:0,0:0:0:0:
401,101,49924,2,0,P|349:131|317:169,1,107.999996704102,0|0,3:0|3:0,0:0:0:0:
472,38,50185,2,0,P|421:7|372:-1,1,107.999996704102,8|0,0:0|0:0,0:0:0:0:
80,16,50445,5,0,3:0:0:0:
80,16,50576,1,0,3:0:0:0:
194,52,50706,2,0,L|317:41,1,107.999996704102,8|0,0:0|3:0,0:0:0:0:
260,128,50967,101,0,3:0:0:0:
343,169,51097,1,0,3:0:0:0:
302,252,51228,1,8,0:0:0:0:
219,211,51358,6,0,P|208:125|188:28,1,161.999995056153,4|0,3:1|0:0,0:0:0:0:
193,51,51619,1,0,3:0:0:0:
377,0,51750,2,0,P|338:40|254:9,1,107.999996704102,8|0,0:0|0:0,0:0:0:0:
108,23,52011,2,0,P|97:80|144:124,1,107.999996704102,0|0,3:0|3:0,0:0:0:0:
226,142,52272,1,8,0:0:0:0:
226,142,52402,102,0,P|260:204|208:292,1,161.999995056153,4|0,3:2|0:0,0:0:0:0:
225,281,52663,1,0,3:0:0:0:
160,384,52793,2,0,P|218:361|286:354,1,107.999996704102,8|0,0:0|0:0,0:0:0:0:
315,293,53054,5,0,3:0:0:0:
315,293,53119,1,0,3:0:0:0:
315,293,53185,2,0,L|380:303,2,53.9999983520508,0|0|0,3:0|0:0|0:0,0:0:0:0:
446,356,53445,102,0,P|386:304|437:211,1,161.999995056153,4|0,3:2|0:0,0:0:0:0:
411,240,53706,2,0,L|416:125,1,107.999996704102,8|0,3:2|3:0,0:0:0:0:
416,132,53902,1,0,3:0:0:0:
416,132,53967,1,0,3:0:0:0:
507,243,54098,2,0,L|512:128,1,107.999996704102,8|0,3:2|3:0,0:0:0:0:
512,135,54294,1,0,3:0:0:0:
512,135,54359,1,0,3:0:0:0:
512,44,54489,6,0,L|444:51,1,53.9999983520508,4|0,3:2|0:0,0:0:0:0:
358,53,54619,102,0,L|366:-3,3,53.9999983520508,0|0|0|0,3:0|3:0|3:0|3:0,0:0:0:0:
278,53,54880,2,0,L|271:-3,3,53.9999983520508,0|0|0|0,3:0|3:0|3:0|3:0,0:0:0:0:
270,135,55141,6,0,L|213:105,1,53.9999983520508,0|0,3:0|3:0,0:0:0:0:
146,138,55272,2,0,L|142:75,1,53.9999983520508,0|0,3:0|0:0,0:0:0:0:
78,38,55402,2,0,L|130:4,1,53.9999983520508,8|0,3:2|0:0,0:0:0:0:
204,32,55532,102,0,L|198:198,1,161.999995056153,4|0,3:1|0:0,0:0:0:0:
198,193,55793,1,0,3:0:0:0:
276,317,55924,2,0,P|295:249|274:204,1,107.999996704102,8|0,0:0|0:0,0:0:0:0:
116,205,56185,2,0,P|97:273|118:318,1,107.999996704102,0|0,3:0|3:0,0:0:0:0:
193,362,56445,1,8,0:0:0:0:
193,362,56576,6,0,P|261:342|389:345,1,161.999995056153,4|0,3:2|0:0,0:0:0:0:
351,338,56837,1,0,3:0:0:0:
506,283,56967,2,0,P|483:343|434:374,1,107.999996704102,8|0,0:0|0:0,0:0:0:0:
367,186,57228,2,0,P|408:235|410:292,1,107.999996704102,0|0,3:0|3:0,0:0:0:0:
495,166,57489,1,8,0:0:0:0:
495,166,57619,102,0,P|467:101|518:24,1,161.999995056153,4|0,3:2|0:0,0:0:0:0:
510,27,57880,1,0,3:0:0:0:
387,80,58011,2,0,P|380:132|366:185,1,107.999996704102,8|0,0:0|0:0,0:0:0:0:
267,6,58272,2,0,P|283:56|293:110,1,107.999996704102,0|0,3:0|3:0,0:0:0:0:
198,208,58532,38,0,P|212:143|179:81,1,135.000005149842,12|0,0:0|3:0,0:0:0:0:
61,223,58793,2,0,P|31:163|45:99,1,135.000005149842,4|0,0:0|3:0,0:0:0:0:
45,99,58989,1,0,3:0:0:0:
45,99,59054,1,8,3:2:0:0:
198,208,59185,69,0,3:0:0:0:
195,224,59250,1,0,3:0:0:0:
193,242,59315,1,0,3:0:0:0:
191,260,59381,1,0,3:0:0:0:
189,278,59446,1,0,3:0:0:0:
112,350,59576,1,8,3:2:0:0:
29,289,59706,6,0,L|13:161,1,116.999994644165,4|0,3:1|0:0,0:0:0:0:
108,216,59967,1,0,3:0:0:0:
22,321,60098,102,0,L|-1:141,1,175.499991966248,12|0,3:2|0:0,0:0:0:0:
67,103,60358,6,0,P|77:67|65:29,2,67.5000025749208,0|0|8,3:0|3:0|0:0,0:0:0:0:
244,92,60750,102,0,P|295:60|355:76,1,116.999994644165,4|0,3:1|0:0,0:0:0:0:
392,150,61011,1,0,3:0:0:0:
222,170,61141,6,0,P|233:85|313:49,1,175.499991966248,12|0,3:2|0:0,0:0:0:0:
374,0,61402,102,0,L|457:10,2,67.5000025749208,0|0|8,3:0|3:0|0:0,0:0:0:0:
392,150,61793,6,0,B|363:195|363:195|381:255,1,116.999994644165,4|0,3:1|0:0,0:0:0:0:
466,207,62054,1,0,3:0:0:0:
374,136,62185,102,0,B|345:181|345:181|380:311,1,175.499991966248,8|0,0:0|0:0,0:0:0:0:
442,341,62445,38,0,P|392:336|333:364,1,116.999994644165,8|0,0:0|3:0,0:0:0:0:
178,363,62706,2,0,P|127:337|70:341,1,116.999994644165,0|0,3:0|3:0,0:0:0:0:
285,265,62967,101,4,3:2:0:0:
335,186,63098,1,8,3:2:0:0:
275,114,63228,1,0,3:0:0:0:
188,149,63358,1,8,3:2:0:0:
195,243,63489,1,14,3:2:0:0:
444,68,63880,22,0,P|421:148|474:227,1,168.750006437302,4|0,1:0|0:0,0:0:0:0:
456,239,64272,2,0,L|361:232,1,67.5000025749208,0|0,3:0|0:0,0:0:0:0:
467,350,64532,102,0,L|344:341,1,107.999996704102,12|0,0:0|0:0,0:0:0:0:
456,251,64793,6,0,L|361:244,1,67.5000025749208
318,177,65054,6,0,P|295:203|215:192,1,101.250003862381,0|0,3:0|0:0,0:0:0:0:
220,195,65315,2,0,L|178:191,3,33.7500012874604,0|0|0|0,3:0|3:0|3:0|3:0,0:0:0:0:
231,205,65576,86,0,L|237:83,1,107.999996704102,12|0,3:2|0:0,0:0:0:0:
108,135,65837,21,0,3:0:0:0:
186,24,65967,2,0,P|111:20|71:63,1,135.000005149842,4|0,1:0|3:0,0:0:0:0:
26,138,66358,102,0,P|33:183|32:240,1,90,0|0,3:0|0:0,0:0:0:0:
24,334,66619,2,0,P|59:305|109:277,1,90,8|0,0:0|0:0,0:0:0:0:
195,236,66880,2,0,P|152:219|103:190,1,90
219,118,67141,6,0,L|8:96,2,180,2|2|8,3:2|3:2|0:0,0:0:0:0:
322,107,67793,2,0,L|313:2,1,90,0|0,1:0|1:0,0:0:0:0:
452,182,68054,102,0,P|352:139|264:200,1,225,4|0,1:0|0:0,0:0:0:0:
299,362,68445,6,0,L|306:267,1,67.5000025749208,0|0,3:0|0:0,0:0:0:0:
188,373,68706,86,0,L|197:250,1,107.999996704102,12|0,0:0|0:0,0:0:0:0:
287,362,68967,22,0,L|294:267,1,67.5000025749208,0|0,0:0|3:0,0:0:0:0:
359,225,69228,102,0,P|421:231|468:183,1,101.250003862381,8|0,0:0|0:0,0:0:0:0:
458,200,69489,2,0,L|499:204,3,33.7500012874604,0|0|0|0,3:0|3:0|3:0|3:0,0:0:0:0:
451,210,69750,102,0,L|443:94,1,107.999996704102,12|0,3:2|0:0,0:0:0:0:
279,48,70011,5,8,0:0:0:0:
363,124,70141,2,0,P|300:164|243:147,1,135.000005149842,4|0,1:0|3:0,0:0:0:0:
201,81,70532,6,0,L|194:18,2,53.9999983520508,8|0|0,3:2|0:0|3:0,0:0:0:0:
108,92,70793,2,0,L|101:29,2,53.9999983520508,8|0|0,3:2|0:0|3:0,0:0:0:0:
162,170,71054,101,0,3:0:0:0:
151,307,71185,2,0,L|155:253,2,53.9999983520508,8|0|0,3:2|0:0|3:0,0:0:0:0:
246,149,71445,5,0,3:0:0:0:
235,286,71576,2,0,L|239:232,2,53.9999983520508,0|0|0,3:0|3:0|3:0,0:0:0:0:
332,193,71837,101,8,3:2:0:0:
491,246,71967,1,0,3:0:0:0:
332,193,72098,1,0,3:0:0:0:
418,142,72228,22,0,L|402:328,1,161.999995056153,4|0,3:1|0:0,0:0:0:0:
406,322,72489,5,0,3:0:0:0:
338,364,72619,1,0,3:0:0:0:
259,357,72750,1,0,3:0:0:0:
199,306,72880,1,8,0:0:0:0:
182,228,73011,1,0,3:0:0:0:
213,156,73141,102,0,L|205:50,1,90,0|0,3:0|3:0,0:0:0:0:
314,112,73402,1,0,3:0:0:0:
401,38,73532,1,0,3:0:0:0:
314,112,73663,2,0,L|307:201,1,90,0|0,3:0|3:0,0:0:0:0:
291,294,73924,5,8,0:0:0:0:
162,314,74054,2,0,L|220:305,2,45,0|0|0,3:0|3:0|3:0,0:0:0:0:
76,368,74315,102,0,P|112:263|88:242,1,135,4|0,3:2|0:0,0:0:0:0:
96,255,74576,5,0,3:0:0:0:
125,185,74706,1,0,3:0:0:0:
180,133,74837,1,0,3:0:0:0:
250,105,74968,1,8,0:0:0:0:
325,106,75098,1,0,3:0:0:0:
395,136,75228,102,0,L|402:34,1,90,0|0,3:0|3:0,0:0:0:0:
489,9,75489,1,0,3:0:0:0:
489,9,75619,2,0,L|475:209,1,180,0|0,3:0|3:0,0:0:0:0:
476,188,75945,1,0,3:0:0:0:
476,188,76011,5,8,3:2:0:0:
396,234,76141,2,0,L|403:325,1,90,4|4,1:2|1:2,0:0:0:0:
469,384,76402,102,0,P|387:355|292:362,1,180,4|0,3:1|3:0,0:0:0:0:
219,364,76793,6,0,P|222:337|235:313,3,45,8|0|0|0,3:2|3:0|3:0|3:0,0:0:0:0:
190,258,77054,2,0,P|214:247|241:247,3,45,8|0|0|0,3:2|3:0|3:0|3:0,0:0:0:0:
312,249,77315,102,0,P|308:222|295:198,3,45,8|0|0|0,3:2|3:0|3:0|3:0,0:0:0:0:
341,143,77576,2,0,P|316:132|289:132,3,45,8|0|0|0,3:2|3:0|3:0|3:0,0:0:0:0:
220,129,77837,6,0,P|224:102|237:78,3,45,8|0|0|0,3:2|3:0|3:0|3:0,0:0:0:0:
191,23,78098,2,0,P|216:12|243:12,3,45,4|4|4|4,3:0|3:0|3:0|3:0,0:0:0:0:
301,52,78358,102,0,L|391:45,1,67.5000025749208,4|0,3:2|0:0,0:0:0:0:
466,76,78619,5,4,3:2:0:0:
453,169,78750,1,0,3:0:0:0:
440,261,78880,1,0,0:0:0:0:
440,261,79011,1,0,3:0:0:0:
442,30,79141,101,4,3:2:0:0:
458,160,79271,1,0,3:0:0:0:
474,290,79402,1,0,0:0:0:0:
474,290,79532,1,0,3:0:0:0:
395,340,79663,6,0,L|389:391,2,45,4|0|0,3:2|3:0|3:0,0:0:0:0:
306,292,79924,1,0,3:0:0:0:
353,204,80054,1,0,3:0:0:0:
306,292,80185,2,0,L|202:300,1,90,0|0,3:0|3:0,0:0:0:0:
126,265,80445,101,8,3:2:0:0:
88,338,80576,2,0,L|73:166,1,135,4|0,3:1|0:0,0:0:0:0:
76,203,80837,1,0,3:0:0:0:
136,141,80967,86,0,P|145:90|123:52,1,90,8|0,0:0|3:0,0:0:0:0:
2,72,81228,2,0,P|-7:122|14:160,1,90,0|0,0:0|3:0,0:0:0:0:
136,141,81489,2,0,P|145:90|123:52,1,90,8|0,0:0|0:0,0:0:0:0:
201,6,81750,6,0,L|306:-1,1,90,0|0,0:0|3:0,0:0:0:0:
360,73,82011,1,8,0:0:0:0:
360,73,82141,2,0,P|293:127|312:211,1,180,0|0,3:0|3:0,0:0:0:0:
372,297,82532,1,8,0:0:0:0:
465,262,82663,102,0,P|531:207|512:123,1,180,4|0,3:1|3:0,0:0:0:0:
438,72,83054,2,0,P|473:42|518:21,1,90,8|0,0:0|3:0,0:0:0:0:
350,89,83315,2,0,P|342:43|346:-6,1,90,0|0,0:0|3:0,0:0:0:0:
320,173,83576,2,0,P|276:156|235:128,1,90,8|0,0:0|3:0,0:0:0:0:
414,167,83837,5,8,3:2:0:0:
414,167,83967,2,0,L|405:315,1,135
397,311,84228,102,0,L|504:324,1,90,8|0,0:0|3:0,0:0:0:0:
295,374,84489,2,0,L|402:387,1,90,8|0,0:0|3:0,0:0:0:0:
148,327,84750,6,0,B|221:320|221:320|249:295|249:295|317:289,1,180,4|0,3:1|3:0,0:0:0:0:
378,205,85141,2,0,P|388:162|384:102,1,90,8|0,0:0|3:0,0:0:0:0:
274,17,85402,2,0,P|264:60|268:120,1,90,0|0,0:0|3:0,0:0:0:0:
469,152,85663,2,0,P|467:107|448:50,1,90,8|0,0:0|0:0,0:0:0:0:
179,78,85924,2,0,P|180:122|199:179,1,90,0|0,0:0|3:0,0:0:0:0:
216,286,86185,101,8,0:0:0:0:
291,344,86315,1,0,3:0:0:0:
371,296,86445,1,0,3:0:0:0:
373,273,86510,1,0,3:0:0:0:
375,250,86575,1,0,3:0:0:0:
376,227,86640,1,0,3:0:0:0:
378,205,86705,1,8,3:2:0:0:
414,124,86837,6,0,P|363:174|290:130,1,135,4|0,3:1|0:0,0:0:0:0:
309,159,87098,101,0,1:0:0:0:
302,34,87228,2,0,L|307:98,2,45,0|0|0,1:0|0:0|1:0,0:0:0:0:
230,126,87489,5,0,1:0:0:0:
101,150,87619,1,0,1:0:0:0:
80,21,87750,1,0,1:0:0:0:
209,0,87880,1,0,1:0:0:0:
230,126,88011,102,0,L|226:184,3,45,0|0|0|0,1:0|0:0|3:0|3:0,0:0:0:0:
220,246,88272,2,0,L|216:304,3,45,8|0|0|0,3:2|0:0|3:0|3:0,0:0:0:0:
209,369,88532,5,8,3:2:0:0:
231,367,88597,1,0,3:2:0:0:
253,365,88662,1,0,3:0:0:0:
276,364,88727,1,0,3:2:0:0:
298,362,88792,1,0,3:0:0:0:
387,333,88924,6,0,P|436:280|399:171,1,180,4|0,3:1|3:0,0:0:0:0:
325,136,89315,2,0,L|314:40,1,90,8|0,0:0|3:0,0:0:0:0:
211,31,89576,5,0,3:0:0:0:
211,31,89706,1,0,3:0:0:0:
128,0,89837,2,0,P|123:44|165:98,1,90,8|0,0:0|0:0,0:0:0:0:
134,172,90098,101,0,3:0:0:0:
134,172,90228,1,0,3:0:0:0:
217,141,90358,2,0,P|222:185|180:239,1,90,8|0,0:0|3:0,0:0:0:0:
175,384,90619,6,0,P|180:340|138:286,1,90,0|0,3:0|3:0,0:0:0:0:
69,252,90880,1,8,0:0:0:0:
69,252,91011,2,0,P|29:165|73:80,1,180,4|0,3:1|3:0,0:0:0:0:
160,89,91402,2,0,L|167:-8,1,90,8|0,0:0|0:0,0:0:0:0:
338,57,91663,101,0,3:0:0:0:
338,57,91793,1,0,3:0:0:0:
249,8,91924,2,0,L|242:97,1,90,8|0,0:0|3:0,0:0:0:0:
197,173,92185,5,8,0:0:0:0:
197,173,92250,1,8,0:0:0:0:
197,173,92315,2,0,P|202:199|222:230,3,45,0|0|0|0,3:0|0:0|3:0|3:0,0:0:0:0:
176,288,92576,1,8,0:0:0:0:
176,288,92641,1,8,0:0:0:0:
176,288,92706,2,0,P|201:296|237:294,3,45,0|0|0|0,3:0|0:0|3:0|3:0,0:0:0:0:
254,365,92967,2,0,P|277:353|302:326,1,45,0|0,3:0|0:0,0:0:0:0:
369,372,93098,102,0,P|331:331|355:228,1,135,4|0,3:1|0:0,0:0:0:0:
333,255,93359,1,0,3:0:0:0:
420,200,93489,2,0,P|433:143|432:80,1,90,8|0,0:0|3:0,0:0:0:0:
341,121,93750,5,0,3:0:0:0:
341,121,93880,1,0,3:0:0:0:
363,17,94011,2,0,B|275:32,1,90,8|0,0:0|0:0,0:0:0:0:
186,0,94272,101,0,3:0:0:0:
186,0,94402,1,0,3:0:0:0:
208,104,94533,2,0,B|120:89,1,90,8|0,0:0|3:0,0:0:0:0:
34,121,94793,5,0,3:0:0:0:
34,121,94859,1,0,3:0:0:0:
34,121,94924,2,0,L|43:178,1,45,0|0,3:0|0:0,0:0:0:0:
11,249,95054,101,8,3:2:0:0:
11,249,95185,2,0,P|73:179|175:207,1,180,4|0,3:1|3:0,0:0:0:0:
199,266,95576,6,0,L|255:260,3,45,8|0|0|0,3:2|3:0|3:0|3:0,0:0:0:0:
315,198,95837,102,0,L|371:204,3,45,0|0|0|0,3:0|3:0|3:0|3:0,0:0:0:0:
431,266,96098,6,0,L|487:260,3,45,8|0|0|0,3:2|0:0|3:0|3:0,0:0:0:0:
499,173,96358,101,12,3:2:0:0:
509,141,96423,1,0,3:0:0:0:
509,107,96488,1,0,3:0:0:0:
498,75,96553,1,0,3:0:0:0:
477,49,96618,1,8,3:2:0:0:
450,30,96684,1,0,3:0:0:0:
417,21,96749,1,0,3:0:0:0:
384,23,96814,1,0,3:0:0:0:
352,36,96880,6,0,L|343:153,1,67.5000025749208,12|0,0:0|0:0,0:0:0:0:
271,27,97011,2,0,L|262:144,1,67.5000025749208,12|0,0:0|0:0,0:0:0:0:
31,379,97272,6,0,P|95:354|229:357,1,161.999995056153,4|0,3:1|0:0,0:0:0:0:
188,348,97532,1,0,3:0:0:0:
276,269,97663,2,0,P|303:216|288:167,1,107.999996704102,8|0,0:0|0:0,0:0:0:0:
161,148,97924,2,0,P|134:201|149:250,1,107.999996704102,0|0,3:0|3:0,0:0:0:0:
276,269,98185,1,8,0:0:0:0:
276,269,98315,6,0,L|463:252,1,161.999995056153,4|0,3:2|0:0,0:0:0:0:
512,158,98576,1,0,3:0:0:0:
512,158,98706,2,0,P|450:152|399:142,1,107.999996704102,8|0,0:0|0:0,0:0:0:0:
333,43,98967,2,0,P|271:49|220:59,1,107.999996704102,0|0,3:0|3:0,0:0:0:0:
122,0,99228,1,8,0:0:0:0:
122,0,99358,102,0,P|185:65|148:164,1,161.999995056153,4|0,3:2|0:0,0:0:0:0:
177,130,99619,1,0,3:0:0:0:
117,229,99750,2,0,P|170:218|223:214,1,107.999996704102,8|0,0:0|0:0,0:0:0:0:
261,384,100011,2,0,P|225:343|195:298,1,107.999996704102,0|0,3:0|3:0,0:0:0:0:
325,180,100272,2,0,P|307:230|283:279,1,107.999996704102,8|0,0:0|0:0,0:0:0:0:
177,130,100532,5,0,3:0:0:0:
177,130,100663,1,0,3:0:0:0:
257,63,100793,2,0,L|374:72,1,107.999996704102,8|0,0:0|3:0,0:0:0:0:
496,210,101054,101,0,3:0:0:0:
439,137,101184,1,0,3:0:0:0:
351,165,101314,1,8,0:0:0:0:
352,258,101445,6,0,P|290:323|183:298,1,161.999995056153,4|0,3:1|0:0,0:0:0:0:
222,323,101706,1,0,3:0:0:0:
143,384,101837,2,0,P|128:328|122:267,1,107.999996704102,8|0,0:0|0:0,0:0:0:0:
229,127,102098,2,0,P|222:179|208:232,1,107.999996704102,0|0,3:0|3:0,0:0:0:0:
77,193,102358,1,8,0:0:0:0:
77,193,102489,102,0,P|78:96|0:53,1,161.999995056153,4|0,3:2|0:0,0:0:0:0:
32,58,102750,1,0,3:0:0:0:
114,0,102880,2,0,P|166:4|231:18,1,107.999996704102,8|0,0:0|0:0,0:0:0:0:
313,4,103141,5,0,3:0:0:0:
313,4,103206,1,0,3:0:0:0:
313,4,103272,2,0,L|305:61,2,53.9999983520508,0|0|0,3:0|0:0|0:0,0:0:0:0:
269,145,103532,102,0,P|315:86|413:133,1,161.999995056153,4|0,3:2|0:0,0:0:0:0:
386,112,103793,2,0,L|374:221,1,107.999996704102,8|0,3:2|3:0,0:0:0:0:
374,219,103989,1,0,3:0:0:0:
374,219,104054,1,0,3:0:0:0:
479,120,104185,2,0,L|467:229,1,107.999996704102,8|0,3:2|3:0,0:0:0:0:
467,227,104381,1,0,3:0:0:0:
467,227,104446,1,0,3:0:0:0:
418,310,104576,6,0,L|340:305,1,53.9999983520508,4|0,3:2|0:0,0:0:0:0:
281,297,104706,102,0,P|282:323|292:348,3,53.9999983520508,0|0|0|0,3:0|3:0|3:0|3:0,0:0:0:0:
247,225,104967,2,0,P|224:239|207:261,3,53.9999983520508,0|0|0|0,3:0|3:0|3:0|3:0,0:0:0:0:
314,167,105228,6,0,L|337:236,1,53.9999983520508,0|0,3:0|3:0,0:0:0:0:
283,91,105358,2,0,L|355:90,1,53.9999983520508,0|0,3:0|3:0,0:0:0:0:
202,91,105489,2,0,L|223:21,1,53.9999983520508,8|0,3:2|3:0,0:0:0:0:
102,30,105619,102,0,P|156:83|147:172,1,161.999995056153,4|0,3:1|0:0,0:0:0:0:
151,164,105880,1,0,3:0:0:0:
111,290,106011,2,0,P|140:265|233:274,1,107.999996704102,8|0,0:0|0:0,0:0:0:0:
287,334,106272,2,0,P|332:366|393:360,1,107.999996704102,0|0,3:0|3:0,0:0:0:0:
498,327,106532,1,8,0:0:0:0:
498,327,106663,6,0,P|456:255|489:162,1,161.999995056153,4|0,3:2|0:0,0:0:0:0:
472,181,106924,1,0,3:0:0:0:
499,0,107054,2,0,P|523:52|505:111,1,107.999996704102,8|0,0:0|0:0,0:0:0:0:
407,10,107315,2,0,P|397:62|420:109,1,107.999996704102,0|0,3:0|3:0,0:0:0:0:
472,181,107576,1,8,0:0:0:0:
472,181,107706,102,0,P|401:151|297:184,1,161.999995056153,4|0,3:2|0:0,0:0:0:0:
320,167,107967,1,0,3:0:0:0:
228,0,108098,2,0,P|275:15|351:55,1,107.999996704102,8|0,0:0|0:0,0:0:0:0:
140,121,108358,2,0,P|190:110|277:108,1,107.999996704102,0|0,3:0|3:0,0:0:0:0:
25,15,108619,38,0,L|38:158,1,135.000005149842,12|0,0:0|3:0,0:0:0:0:
115,222,108880,2,0,L|102:365,1,135.000005149842,4|0,0:0|3:0,0:0:0:0:
102,356,109076,1,0,3:0:0:0:
102,356,109141,1,8,3:2:0:0:
220,320,109272,69,0,3:0:0:0:
236,317,109337,1,0,3:0:0:0:
253,313,109402,1,0,3:0:0:0:
271,308,109468,1,0,3:0:0:0:
288,304,109533,1,0,3:0:0:0:
370,373,109663,1,8,3:2:0:0:
468,338,109793,6,0,B|497:285|497:285|478:225,1,116.999994644165,4|0,3:1|0:0,0:0:0:0:
382,277,110054,1,0,3:0:0:0:
479,351,110185,102,0,B|512:289|512:289|473:175,1,175.499991966248,12|0,3:2|0:0,0:0:0:0:
414,149,110445,6,0,P|442:121|497:117,2,67.5000025749208,0|0|8,3:0|3:0|0:0,0:0:0:0:
318,41,110837,102,0,L|310:160,1,116.999994644165,4|0,3:1|0:0,0:0:0:0:
206,86,111098,1,0,3:0:0:0:
334,11,111228,6,0,L|321:192,1,175.499991966248,12|0,3:2|0:0,0:0:0:0:
363,257,111489,102,0,L|439:251,2,67.5000025749208,0|0|8,3:0|3:0|0:0,0:0:0:0:
295,322,111880,6,0,P|238:260|140:293,1,175.499991966248,4|0,3:1|0:0,0:0:0:0:
117,345,112141,1,0,3:0:0:0:
23,247,112272,22,0,L|28:189,3,45,4|0|4|0,1:2|0:0|1:2|0:0,0:0:0:0:
11,125,112532,101,0,3:0:0:0:
11,125,112598,1,0,3:0:0:0:
11,125,112663,2,0,P|40:123|77:143,1,45,0|0,3:0|0:0,0:0:0:0:
134,110,112793,6,0,P|121:83|85:61,1,45,8|0,3:2|0:0,0:0:0:0:
82,2,112924,2,0,P|103:-3|126:0,1,45,0|0,3:0|0:0,0:0:0:0:
194,49,113054,101,8,3:0:0:0:
317,205,113185,1,0,3:0:0:0:
315,213,113250,1,0,3:0:0:0:
313,221,113315,1,8,3:2:0:0:
318,49,113445,5,0,3:0:0:0:
195,205,113576,1,8,3:2:0:0:
197,213,113641,1,0,3:0:0:0:
199,221,113706,1,8,3:2:0:0:
256,128,113837,37,12,3:2:0:0:
256,368,113967,2,0,L|256:286,1,72,4|0,3:2|3:0,0:0:0:0:
442,223,115924,5,0,3:0:0:0:
438,218,115989,1,0,3:0:0:0:
434,213,116054,2,0,L|440:134,1,72,4|0,3:2|3:0,0:0:0:0:
109,86,116967,102,0,L|180:90,1,72,4|0,1:2|3:0,0:0:0:0:
301,131,117489,6,0,L|297:162,3,18,0|0|0|0,3:0|3:0|3:0|3:0,0:0:0:0:
286,222,117750,2,0,L|282:253,3,18,0|0|0|0,3:0|3:0|3:0|3:0,0:0:0:0:
271,315,118011,101,8,3:2:0:0:
176,346,118141,2,0,L|277:339,1,90,4|0,3:1|0:0,0:0:0:0:
344,338,118532,5,0,3:0:0:0:
455,281,118793,101,4,3:0:0:0:
437,157,119054,5,0,3:0:0:0:
313,135,119315,101,0,3:0:0:0:
255,247,119576,5,0,3:0:0:0:
364,231,119837,101,8,0:0:0:0:
364,231,119967,1,8,0:0:0:0:
512,69,120228,6,0,L|359:78,1,135,4|0,3:1|0:0,0:0:0:0:
383,95,120489,102,0,L|331:93,1,45,0|0,3:0|3:0,0:0:0:0:
266,90,120619,1,0,3:0:0:0:
266,90,120685,1,0,3:0:0:0:
266,90,120750,2,0,L|214:88,1,45,0|0,3:0|0:0,0:0:0:0:
145,67,120880,6,0,P|147:106|161:131,1,45,8|0,3:2|0:0,0:0:0:0:
114,92,121011,2,0,P|135:124|159:139,1,45,0|0,3:0|0:0,0:0:0:0:
206,168,121141,102,0,P|204:207|190:232,1,45,0|0,3:0|3:0,0:0:0:0:
237,193,121272,2,0,P|215:225|191:240,1,45,0|0,3:0|3:0,0:0:0:0:
163,294,121402,6,0,L|159:342,3,45,0|0|0|0,3:0|3:0|3:0|3:0,0:0:0:0:
239,304,121663,2,0,L|235:352,3,45,0|0|0|0,3:0|3:0|3:0|3:0,0:0:0:0:
313,336,121924,101,8,3:2:0:0:
438,312,122054,2,0,P|391:250|294:267,1,168.750006437302,0|0,3:0|0:0,0:0:0:0:
307,256,122445,86,0,L|302:199,2,33.7500012874604,4|0|0,1:0|0:0|3:0,0:0:0:0:
296,145,122706,5,0,3:0:0:0:
388,81,122837,2,0,L|341:114,2,33.7500012874604,0|0|4,3:0|3:0|3:2,0:0:0:0:
296,145,123098,101,0,3:0:0:0:
194,97,123229,2,0,L|246:121,2,33.7500012874604,0|0|0,3:0|0:0|0:0,0:0:0:0:
147,278,123489,5,2,0:1:0:0:
228,266,123619,2,0,L|220:315,1,33.7500012874604,0|0,3:0|0:0,0:0:0:0:
70,292,123750,2,0,L|90:337,2,33.7500012874604,0|0|0,3:0|3:0|3:0,0:0:0:0:
306,298,124141,102,0,L|285:343,1,33.7500012874604,0|0,3:0|0:0,0:0:0:0:
7,345,124272,2,0,L|37:383,2,33.7500012874604,0|0|0,3:0|3:0|3:0,0:0:0:0:
80,141,124532,6,0,L|136:148,2,33.7500012874604,4|0|0,3:1|0:0|3:0,0:0:0:0:
193,155,124793,101,0,3:0:0:0:
172,44,124924,2,0,L|182:99,2,33.7500012874604,0|0|4,3:0|3:0|3:2,0:0:0:0:
193,155,125185,5,0,3:0:0:0:
292,100,125315,2,0,L|242:127,2,33.7500012874604,0|0|0,3:0|3:0|3:0,0:0:0:0:
378,102,125576,101,4,0:1:0:0:
473,120,125706,1,0,3:0:0:0:
455,216,125837,1,0,3:0:0:0:
359,197,125967,1,0,3:0:0:0:
388,17,126098,5,4,3:2:0:0:
292,100,126228,1,0,3:0:0:0:
174,57,126358,2,0,L|62:68,1,101.250003862381,4|0,3:2|0:0,0:0:0:0:
73,67,126619,102,0,L|82:123,2,33.7500012874604,4|0|0,1:0|0:0|3:0,0:0:0:0:
93,176,126880,5,0,3:0:0:0:
7,248,127011,2,0,L|50:211,2,33.7500012874604,0|0|4,3:0|3:0|3:2,0:0:0:0:
93,176,127272,101,0,3:0:0:0:
199,215,127403,2,0,L|145:195,2,33.7500012874604,0|0|0,3:0|0:0|0:0,0:0:0:0:
348,228,127663,5,4,0:1:0:0:
381,334,127793,2,0,L|383:287,1,33.7500012874604,0|0,3:0|0:0,0:0:0:0:
302,328,127924,2,0,L|304:281,2,33.7500012874604,0|0|0,3:0|3:0|3:0,0:0:0:0:
348,228,128185,101,4,0:2:0:0:
458,341,128315,2,0,L|460:294,1,33.7500012874604,0|0,3:0|0:0,0:0:0:0:
224,326,128445,2,0,L|226:279,2,33.7500012874604,0|0|0,3:0|3:0|3:0,0:0:0:0:
348,228,128706,5,4,3:2:0:0:
443,210,128836,1,0,3:0:0:0:
425,114,128967,1,0,3:0:0:0:
329,133,129098,1,0,3:0:0:0:
311,37,129228,101,4,3:2:0:0:
425,114,129358,1,0,3:0:0:0:
348,228,129489,1,4,3:2:0:0:
234,151,129619,1,0,3:0:0:0:
253,246,129750,85,8,3:2:0:0:
253,246,129880,2,0,L|248:309,1,53.9999983520508,6|0,0:1|0:0,0:0:0:0:
172,331,130272,5,8,3:2:0:0:
172,331,130402,2,0,L|177:394,1,53.9999983520508,6|0,0:1|0:0,0:0:0:0:
97,285,130793,102,0,L|104:229,2,33.7500012874604,4|0|0,3:1|3:0|3:0,0:0:0:0:
111,172,131054,5,0,3:0:0:0:
0,193,131185,2,0,L|55:183,2,33.7500012874604,0|0|0,3:0|0:0|3:0,0:0:0:0:
111,172,131446,101,0,3:0:0:0:
56,73,131576,2,0,L|83:123,2,33.7500012874604,0|0|0,3:0|3:0|3:0,0:0:0:0:
256,265,131837,5,8,3:2:0:0:
175,253,131967,2,0,L|183:302,1,33.7500012874604,0|0,3:0|3:0,0:0:0:0:
333,279,132098,2,0,L|313:324,2,33.7500012874604,0|0|0,3:0|3:0|3:0,0:0:0:0:
97,285,132489,102,0,L|117:330,1,33.7500012874604,0|0,3:0|3:0,0:0:0:0:
396,332,132620,2,0,L|365:370,2,33.7500012874604,0|0|0,3:0|3:0|3:0,0:0:0:0:
512,265,132880,6,0,L|509:227,2,33.7500012874604,0|0|0,3:0|3:0|3:0,0:0:0:0:
501,152,133141,101,0,3:0:0:0:
388,163,133272,2,0,L|426:160,2,33.7500012874604,0|0|0,3:0|0:0|3:0,0:0:0:0:
501,152,133532,5,0,3:0:0:0:
490,39,133663,2,0,L|493:77,2,33.7500012874604,0|0|0,3:0|3:0|3:0,0:0:0:0:
300,13,133924,101,8,3:2:0:0:
205,31,134054,1,0,3:0:0:0:
223,127,134185,1,0,3:0:0:0:
319,108,134315,1,0,3:0:0:0:
388,163,134445,5,8,3:2:0:0:
384,178,134510,1,8,3:0:0:0:
381,195,134575,1,8,3:0:0:0:
378,212,134640,1,8,3:0:0:0:
375,229,134706,2,0,L|382:330,1,101.250003862381,8|8,3:0|3:0,0:0:0:0:
377,344,134967,102,0,L|313:341,3,33.7500012874604,4|0|0|0,1:0|3:0|1:0|3:0,0:0:0:0:
276,377,135228,2,0,L|259:315,3,33.7500012874604,0|0|0|0,1:0|3:0|1:0|3:0,0:0:0:0:
213,291,135489,2,0,L|266:255,3,33.7500012874604,0|0|0|0,1:0|3:0|1:0|3:0,0:0:0:0:
275,204,135750,2,0,L|325:244,3,33.7500012874604,0|0|0|0,1:0|3:0|1:0|3:0,0:0:0:0:
376,236,136011,6,0,L|373:193,3,33.7500012874604,0|0|0|0,1:0|3:0|1:0|3:0,0:0:0:0:
367,128,136272,2,0,L|364:85,3,33.7500012874604,0|0|0|0,1:0|3:0|1:0|3:0,0:0:0:0:
377,12,136532,102,0,P|345:67|258:57,1,135.000005149842,0|0,1:0|3:0,0:0:0:0:
279,71,136858,1,0,3:0:0:0:
279,71,136924,1,0,3:0:0:0:
201,47,137054,21,12,3:2:0:0:
100,23,137185,1,0,3:0:0:0:
97,32,137250,1,0,3:0:0:0:
94,41,137315,1,0,3:0:0:0:
217,131,137445,21,12,3:2:0:0:
24,108,137576,1,0,3:0:0:0:
25,117,137641,1,0,3:0:0:0:
27,126,137706,1,0,3:0:0:0:
233,215,137837,21,12,3:2:0:0:
0,244,137968,1,0,3:0:0:0:
6,251,138033,1,0,3:0:0:0:
12,257,138098,1,0,3:0:0:0:
249,299,138228,21,12,3:2:0:0:
0,379,138358,1,0,3:0:0:0:
8,382,138423,1,0,3:0:0:0:
16,384,138488,1,0,3:0:0:0:
319,371,138619,6,0,L|324:313,1,33.7500012874604,14|0,3:2|0:0,0:0:0:0:
166,295,138750,2,0,L|161:237,1,33.7500012874604,10|0,0:0|0:0,0:0:0:0:
399,352,138880,2,0,L|404:294,1,33.7500012874604,10|0,0:0|0:0,0:0:0:0:
88,275,139011,2,0,L|83:217,1,33.7500012874604,10|0,0:0|0:0,0:0:0:0:
256,192,139141,5,6,0:0:0:0:
256,192,139663,2,0,L|264:75,1,107.999996704102,6|2,0:0|0:0,0:0:0:0:
427,16,140185,53,0,3:0:0:0:
432,35,140250,1,0,3:0:0:0:
434,55,140315,1,0,3:0:0:0:
430,75,140380,1,0,3:0:0:0:
422,93,140445,2,0,L|424:128,3,26.9999991760254,0|0|0|0,3:0|3:0|3:0|3:0,0:0:0:0:
475,180,140706,6,0,B|450:162|450:162|355:182,1,107.999996704102,8|2,3:2|3:2,0:0:0:0:
245,145,141228,2,0,P|208:91|222:-2,2,161.999995056153,4|2|2,3:1|0:2|0:2,0:0:0:0:
410,206,142272,2,0,L|403:267,1,53.9999983520508,4|0,0:0|3:0,0:0:0:0:
319,364,142793,101,2,0:0:0:0:
345,315,142879,5,2,0:0:0:0:
323,264,142967,101,2,0:0:0:0:
269,250,143054,5,2,0:0:0:0:
225,284,143141,101,2,0:0:0:0:
225,339,143228,5,2,0:0:0:0:
265,375,143315,102,0,L|99:362,1,161.999995056153,6|0,3:2|3:0,0:0:0:0:
103,362,143837,1,8,0:0:0:0:
0,197,144098,1,2,0:2:0:0:
0,197,144228,2,0,P|-18:263|39:345,1,161.999995056153,0|2,3:0|3:2,0:0:0:0:
170,303,144880,6,0,L|174:240,1,53.9999983520508,8|0,0:0|0:0,0:0:0:0:
236,178,145141,1,12,0:0:0:0:
232,158,145206,1,0,0:0:0:0:
228,138,145271,1,4,0:0:0:0:
224,118,145336,1,0,0:0:0:0:
221,98,145402,102,0,L|273:104,2,26.9999991760254,0|0|0,3:0|3:0|3:0,0:0:0:0:
326,110,145663,1,0,3:0:0:0:
389,26,145793,6,0,L|357:68,2,26.9999991760254,0|0|8,3:0|3:0|3:2,0:0:0:0:
326,110,146054,1,0,3:0:0:0:
368,207,146185,102,0,L|347:158,2,26.9999991760254,0|0|0,3:0|3:0|3:0,0:0:0:0:
461,262,146576,5,0,3:0:0:0:
456,369,146707,2,0,L|458:330,2,26.9999991760254,0|0|0,3:0|3:0|3:0,0:0:0:0:
379,353,146967,2,0,L|361:318,2,26.9999991760254,8|0|0,3:2|3:0|3:0,0:0:0:0:
302,370,147228,2,0,L|269:348,2,26.9999991760254,0|0|0,3:0|3:0|3:0,0:0:0:0:
197,370,147489,102,0,L|202:293,1,53.9999983520508,4|0,3:1|0:0,0:0:0:0:
124,217,147750,2,0,L|120:270,1,53.9999983520508,2|0,0:0|0:0,0:0:0:0:
128,278,147946,1,0,3:0:0:0:
128,278,148011,2,0,P|167:235|229:236,1,107.999996704102,8|0,3:2|0:0,0:0:0:0:
339,266,148402,5,2,0:0:0:0:
339,266,148467,1,2,0:0:0:0:
339,266,148532,2,0,L|346:147,1,107.999996704102,2|0,3:2|0:0,0:0:0:0:
383,86,148924,101,0,3:0:0:0:
383,86,148989,1,0,3:0:0:0:
383,86,149054,2,0,P|417:84|448:112,1,53.9999983520508,10|0,3:2|0:0,0:0:0:0:
394,2,149315,5,0,3:0:0:0:
298,94,149445,1,8,0:0:0:0:
182,30,149576,102,0,L|176:116,1,67.5000025749208,6|2,0:0|0:0,0:0:0:0:
242,263,149837,2,0,L|246:195,1,67.5000025749208,0|0,0:0|3:0,0:0:0:0:
244,158,150032,1,0,3:0:0:0:
244,158,150098,6,0,P|173:191|109:159,1,135.000005149842,8|0,3:2|0:0,0:0:0:0:
67,65,150489,101,2,0:0:0:0:
73,71,150554,1,2,0:0:0:0:
79,77,150619,2,0,L|68:126,2,33.7500012874604,2|2|2,3:2|0:0|0:0,0:0:0:0:
195,36,150880,5,2,3:2:0:0:
189,43,150945,1,2,3:2:0:0:
183,50,151011,1,2,3:2:0:0:
177,56,151076,1,2,3:2:0:0:
171,64,151141,2,0,L|179:112,1,33.7500012874604,10|2,3:2|0:0,0:0:0:0:
123,172,151272,2,0,P|194:139|258:171,1,135.000005149842,0|0,3:0|3:0,0:0:0:0:
200,263,151663,102,2,L|193:322,2,45.0000017166138,6|2|2,3:2|0:0|0:0,0:0:0:0:
280,256,151924,2,2,L|273:315,2,45.0000017166138
360,249,152185,2,2,L|353:308,2,45.0000017166138,10|2|2,0:0|0:0|0:0,0:0:0:0:
440,242,152445,2,2,L|433:301,2,45.0000017166138,2|2|2,3:2|0:0|0:0,0:0:0:0:
495,166,152706,5,2,0:0:0:0:
491,148,152793,101,2,0:0:0:0:
487,130,152880,5,2,0:0:0:0:
484,112,152967,102,0,P|451:74|405:90,1,90.0000034332277,0|0,3:0|0:0,0:0:0:0:
359,138,153228,1,8,0:0:0:0:
359,138,153358,2,0,L|211:116,1,135.000005149842,0|0,3:0|3:0,0:0:0:0:
114,50,153750,6,0,L|110:13,2,33.7500012874604,0|0|0,3:0|3:0|3:0,0:0:0:0:
128,176,154011,1,0,3:0:0:0:
128,176,154141,1,0,3:0:0:0:
219,120,154272,102,0,L|223:83,2,33.7500012874604,8|0|0,3:2|0:0|3:0,0:0:0:0:
205,246,154533,1,0,3:0:0:0:
205,246,154663,1,0,3:0:0:0:
315,185,154793,5,8,3:2:0:0:
319,190,154858,1,0,3:0:0:0:
323,195,154924,2,0,L|317:249,1,33.7500012874604,0|0,3:0|3:0,0:0:0:0:
404,257,155054,101,4,3:2:0:0:
400,262,155119,1,0,3:0:0:0:
396,267,155185,2,0,L|402:321,1,33.7500012874604,0|0,3:0|0:0,0:0:0:0:
326,347,155315,6,0,L|275:350,1,33.7500012874604,0|0,3:0|3:0,0:0:0:0:
218,354,155445,2,0,L|167:357,1,33.7500012874604,8|0,3:2|0:0,0:0:0:0:
107,368,155576,101,8,3:2:0:0:
86,149,155706,1,8,3:2:0:0:
305,128,155837,1,12,3:2:0:0:
401,205,157402,85,0,3:0:0:0:
496,220,157532,1,0,3:0:0:0:
511,126,157663,1,0,3:0:0:0:
416,111,157793,1,12,3:2:0:0:
303,384,158967,6,0,L|307:299,1,67.5000025749208,0|0,3:0|3:0,0:0:0:0:
306,317,159163,1,0,3:0:0:0:
306,317,159228,1,8,3:2:0:0:
265,237,159358,1,0,3:0:0:0:
319,163,159489,101,0,1:0:0:0:
187,190,159620,1,0,1:0:0:0:
160,58,159750,1,0,1:0:0:0:
292,31,159880,1,12,1:2:0:0:
292,31,161054,5,4,0:1:0:0:
408,114,161576,102,0,L|400:190,1,67.5000025749208,8|0,0:0|0:0,0:0:0:0:
440,257,161837,1,0,3:0:0:0:
440,257,161967,2,0,P|394:216|313:233,1,135.000005149842,4|0,3:1|0:0,0:0:0:0:
255,293,162358,2,0,L|178:298,1,67.5000025749208,8|0,0:0|0:0,0:0:0:0:
110,247,162619,5,8,0:0:0:0:
80,125,162750,1,0,0:0:0:0:
202,95,162880,1,8,0:0:0:0:
231,217,163011,1,0,0:0:0:0:
317,144,163141,102,0,L|314:90,3,33.7500012874604,8|0|0|0,3:2|3:0|3:0|3:0,0:0:0:0:
323,252,163402,2,0,L|320:198,3,33.7500012874604,8|0|0|0,3:2|3:0|3:0|3:0,0:0:0:0:
328,330,163663,5,8,3:2:0:0:
486,250,163793,1,0,3:0:0:0:
328,330,163924,1,8,3:2:0:0:
412,376,164054,102,0,B|423:312|423:312|398:273|398:273|410:200,1,180,4|8,1:2|3:2,0:0:0:0:
459,135,164445,6,0,P|448:102|449:83,1,45,2|2,3:2|0:0,0:0:0:0:
382,51,164576,2,0,P|405:24|422:16,2,45,2|2|8,0:0|0:0|3:2,0:0:0:0:
374,131,164837,101,8,3:2:0:0:
351,130,164902,1,8,3:2:0:0:
329,123,164967,1,0,3:0:0:0:
306,122,165032,1,0,3:0:0:0:
284,127,165098,2,0,L|278:75,1,45,0|0,3:0|0:0,0:0:0:0:
221,21,165228,5,8,3:2:0:0:
189,11,165293,1,8,3:2:0:0:
155,11,165358,1,8,3:2:0:0:
123,22,165423,1,8,3:2:0:0:
97,43,165488,1,0,3:0:0:0:
78,70,165554,1,0,3:0:0:0:
69,103,165619,1,0,3:0:0:0:
71,136,165684,1,0,3:0:0:0:
84,168,165750,102,0,L|201:177,1,67.5000025749208,12|0,3:2|0:0,0:0:0:0:
75,249,165881,2,0,L|192:258,1,67.5000025749208,12|0,3:2|0:0,0:0:0:0:
229,374,166141,22,0,P|250:314|214:213,1,161.999995056153,4|0,3:1|0:0,0:0:0:0:
222,222,166402,1,0,3:0:0:0:
343,117,166532,2,0,P|332:170|313:224,1,107.999996704102,8|0,0:0|0:0,0:0:0:0:
217,27,166793,2,0,P|234:78|245:133,1,107.999996704102,0|0,3:0|3:0,0:0:0:0:
485,90,167054,1,8,0:0:0:0:
485,90,167185,6,0,P|428:143|428:232,1,161.999995056153,4|0,3:2|0:0,0:0:0:0:
424,223,167445,1,0,3:0:0:0:
437,355,167576,2,0,P|404:317|348:314,1,107.999996704102,8|0,0:0|0:0,0:0:0:0:
216,288,167837,2,0,P|186:325|118:325,1,107.999996704102,0|0,3:0|3:0,0:0:0:0:
44,384,168098,1,8,0:0:0:0:
44,384,168228,102,0,P|78:317|26:214,1,161.999995056153,4|0,3:2|0:0,0:0:0:0:
53,237,168489,1,0,3:0:0:0:
98,123,168619,2,0,P|46:92|-2:83,1,107.999996704102,8|0,0:0|0:0,0:0:0:0:
190,133,168880,2,0,P|190:72|173:26,1,107.999996704102,0|0,3:0|3:0,0:0:0:0:
209,225,169141,2,0,P|261:195|293:157,1,107.999996704102,8|0,0:0|0:0,0:0:0:0:
507,3,169402,5,0,3:0:0:0:
507,3,169533,1,0,3:0:0:0:
460,86,169663,2,0,L|338:93,1,107.999996704102,8|0,0:0|3:0,0:0:0:0:
174,28,169924,101,0,3:0:0:0:
268,76,170054,1,0,3:0:0:0:
174,28,170185,1,8,0:0:0:0:
268,76,170315,6,0,P|244:142|287:244,1,161.999995056153,4|0,3:1|0:0,0:0:0:0:
270,226,170576,1,0,3:0:0:0:
364,365,170706,2,0,P|379:308|334:262,1,107.999996704102,8|0,0:0|0:0,0:0:0:0:
217,383,170967,2,0,P|189:336|212:283,1,107.999996704102,0|0,3:0|3:0,0:0:0:0:
353,271,171228,1,8,0:0:0:0:
353,271,171358,102,0,L|364:105,1,161.999995056153,4|0,3:2|0:0,0:0:0:0:
363,109,171619,1,0,3:0:0:0:
479,16,171750,2,0,P|489:68|422:101,1,107.999996704102,8|0,0:0|0:0,0:0:0:0:
467,196,172011,5,0,3:0:0:0:
467,196,172076,1,0,3:0:0:0:
467,196,172142,2,0,L|458:255,2,53.9999983520508,0|0|0,3:0|0:0|0:0,0:0:0:0:
484,330,172402,102,0,P|431:271|324:289,1,161.999995056153,4|0,3:2|0:0,0:0:0:0:
340,278,172663,2,0,L|349:165,1,107.999996704102,8|0,3:2|3:0,0:0:0:0:
348,170,172858,1,0,3:0:0:0:
348,170,172924,1,0,3:0:0:0:
239,269,173054,2,0,L|248:156,1,107.999996704102,8|0,3:2|3:0,0:0:0:0:
247,161,173249,1,0,3:0:0:0:
247,161,173315,1,0,3:0:0:0:
308,84,173445,6,0,L|303:25,1,53.9999983520508,4|0,3:2|0:0,0:0:0:0:
183,113,173576,102,0,P|202:95|226:84,3,53.9999983520508,0|0|0|0,3:0|3:0|3:0|3:0,0:0:0:0:
105,138,173837,2,0,P|98:111|102:84,3,53.9999983520508,0|0|0|0,3:0|3:0|3:0|3:0,0:0:0:0:
55,226,174098,6,0,L|117:240,1,53.9999983520508,0|0,3:0|3:0,0:0:0:0:
148,307,174229,2,0,L|191:261,1,53.9999983520508,0|0,3:0|0:0,0:0:0:0:
265,266,174359,2,0,L|246:206,1,53.9999983520508,8|0,3:2|3:0,0:0:0:0:
173,192,174489,102,0,L|189:373,1,161.999995056153,4|0,3:1|0:0,0:0:0:0:
187,353,174750,1,0,3:0:0:0:
413,361,174880,2,0,L|303:373,1,107.999996704102,8|0,0:0|0:0,0:0:0:0:
474,265,175141,2,0,L|364:277,1,107.999996704102,0|0,3:0|3:0,0:0:0:0:
333,174,175402,1,8,0:0:0:0:
333,174,175532,6,0,P|297:82|332:19,1,161.999995056153,4|0,3:2|0:0,0:0:0:0:
321,29,175793,1,0,3:0:0:0:
489,50,175924,2,0,P|450:81|391:62,1,107.999996704102,8|0,0:0|0:0,0:0:0:0:
215,37,176185,2,0,P|175:4|108:45,1,107.999996704102,0|0,3:0|3:0,0:0:0:0:
45,115,176445,1,8,0:0:0:0:
45,115,176576,102,0,P|79:169|52:274,1,161.999995056153,4|0,3:2|0:0,0:0:0:0:
62,261,176837,1,0,3:0:0:0:
3,370,176967,2,0,P|64:354|131:347,1,107.999996704102,8|0,0:0|0:0,0:0:0:0:
208,252,177228,2,0,P|269:268|336:275,1,107.999996704102,0|0,3:0|3:0,0:0:0:0:
512,324,177489,38,0,L|495:174,1,135.000005149842,12|0,0:0|3:0,0:0:0:0:
365,336,177750,2,0,L|348:186,1,135.000005149842,4|0,0:0|3:0,0:0:0:0:
350,201,177945,1,0,3:0:0:0:
350,201,178011,1,8,3:2:0:0:
497,189,178141,69,0,3:0:0:0:
494,173,178206,1,0,3:0:0:0:
492,155,178271,1,0,3:0:0:0:
490,137,178337,1,0,3:0:0:0:
488,119,178402,1,0,3:0:0:0:
421,43,178532,1,8,3:2:0:0:
349,113,178663,6,0,L|220:103,1,116.999994644165,4|0,3:1|0:0,0:0:0:0:
301,19,178924,1,0,3:0:0:0:
384,130,179055,102,0,L|203:116,1,175.499991966248,12|0,3:2|0:0,0:0:0:0:
147,69,179315,6,0,P|134:35|139:3,2,67.5000025749208,0|0|8,3:0|3:0|0:0,0:0:0:0:
78,210,179706,102,0,P|129:178|189:194,1,116.999994644165,4|0,3:1|0:0,0:0:0:0:
226,268,179967,1,0,3:0:0:0:
56,288,180097,6,0,P|67:203|147:167,1,175.499991966248,12|0,3:2|0:0,0:0:0:0:
209,116,180358,102,0,L|290:109,2,67.5000025749208,0|0|8,3:0|3:0|3:2,0:0:0:0:
310,0,180750,22,0,P|286:65|298:178,1,175.499991966248,4|0,3:1|0:0,0:0:0:0:
349,228,181011,1,0,3:0:0:0:
427,9,181141,2,0,P|438:95|411:178,1,175.499991966248,8|0,3:2|0:0,0:0:0:0:
349,228,181402,5,0,3:0:0:0:
351,257,181467,1,0,3:0:0:0:
353,286,181532,1,0,3:0:0:0:
355,315,181597,1,0,3:0:0:0:
357,344,181663,2,0,L|421:337,3,58.4999973220826,0|0|0|0,3:0|3:0|3:0|3:0,0:0:0:0:
284,384,181924,101,8,3:2:0:0:
267,241,182054,1,8,3:2:0:0:
267,241,182119,1,0,0:0:0:0:
267,241,182185,2,0,L|259:168,1,58.4999973220826,0|0,3:0|3:0,0:0:0:0:
194,374,182315,5,8,3:2:0:0:
177,231,182445,1,0,3:0:0:0:
177,231,182510,1,0,3:0:0:0:
177,231,182576,2,0,L|169:158,1,58.4999973220826,0|0,3:0|3:0,0:0:0:0:
104,364,182706,101,8,3:2:0:0:
87,221,182837,54,0,L|72:34,1,180,4|0,3:1|0:0,0:0:0:0:
72,41,183228,1,0,3:0:0:0:
256,128,183489,5,8,0:0:0:0:
170,172,183619,2,0,L|178:75,1,90
425,221,183880,102,0,L|440:34,1,180,4|0,3:2|0:0,0:0:0:0:
439,41,184271,1,0,3:0:0:0:
256,128,184532,5,8,0:0:0:0:
342,172,184662,2,0,L|334:75,1,90
243,315,184924,102,0,L|423:301,1,180,4|0,3:2|0:0,0:0:0:0:
422,301,185315,1,0,3:0:0:0:
88,188,185576,5,8,0:0:0:0:
179,153,185706,2,0,L|164:262,1,90,0|0,3:0|3:0,0:0:0:0:
74,384,186098,101,0,3:0:0:0:
74,384,186228,2,0,L|86:275,1,90,8|0,3:2|3:0,0:0:0:0:
230,377,186489,5,0,3:0:0:0:
230,377,186619,2,0,L|242:268,1,90,8|0,3:2|3:0,0:0:0:0:
399,374,186880,101,0,3:0:0:0:
399,374,187011,2,0,L|419:187,1,180,4|0,3:1|0:0,0:0:0:0:
418,195,187402,1,0,3:0:0:0:
402,23,187663,5,8,0:0:0:0:
364,110,187794,2,0,L|471:98,1,90
113,374,188054,102,0,L|93:187,1,180,4|0,3:2|0:0,0:0:0:0:
94,195,188445,1,0,3:0:0:0:
110,23,188705,5,8,0:0:0:0:
148,110,188836,2,0,L|40:98,1,90
0,274,189098,102,0,L|187:294,1,180,4|0,3:2|3:0,0:0:0:0:
349,296,189489,5,8,0:0:0:0:
275,159,189619,1,0,3:0:0:0:
275,159,189750,1,0,3:0:0:0:
209,384,189880,101,8,3:2:0:0:
283,247,190010,1,0,3:0:0:0:
283,247,190141,1,0,3:0:0:0:
142,334,190272,6,0,P|120:300|125:233,1,90,8|0,3:2|3:0,0:0:0:0:
180,171,190532,1,0,3:0:0:0:
178,148,190597,1,0,0:0:0:0:
176,126,190662,1,0,3:0:0:0:
174,103,190727,1,0,3:0:0:0:
172,81,190792,101,0,3:0:0:0:
275,159,190924,1,12,3:2:0:0:
395,116,191054,1,8,3:2:0:0:
487,205,191185,22,0,P|491:264|420:346,1,161.999995056153,4|0,3:1|0:0,0:0:0:0:
431,341,191445,1,0,3:0:0:0:
293,384,191576,2,0,L|306:244,1,107.999996704102,8|0,0:0|0:0,0:0:0:0:
189,257,191837,2,0,L|176:117,1,107.999996704102,0|0,3:0|3:0,0:0:0:0:
321,28,192098,1,8,0:0:0:0:
321,28,192228,6,0,P|269:80|185:57,1,161.999995056153,4|0,3:2|0:0,0:0:0:0:
189,61,192489,1,0,3:0:0:0:
0,118,192619,2,0,P|35:177|76:220,1,107.999996704102,8|0,0:0|0:0,0:0:0:0:
92,0,192880,2,0,P|93:69|106:127,1,107.999996704102,0|0,3:0|3:0,0:0:0:0:
164,297,193141,1,8,0:0:0:0:
164,297,193272,102,0,P|183:212|268:168,1,161.999995056153,4|0,3:2|0:0,0:0:0:0:
241,171,193532,1,0,3:0:0:0:
210,0,193663,2,0,P|189:49|199:103,1,107.999996704102,8|0,0:0|0:0,0:0:0:0:
323,12,193924,2,0,P|331:64|311:113,1,107.999996704102,0|0,3:0|3:0,0:0:0:0:
322,370,194185,38,0,P|325:302|303:239,1,135.000005149842,12|0,0:0|3:0,0:0:0:0:
512,350,194445,2,0,P|489:286|493:219,1,135.000005149842,0|0,3:0|3:0,0:0:0:0:
493,219,194641,1,0,3:0:0:0:
493,219,194707,1,8,3:2:0:0:
322,370,194837,69,0,3:0:0:0:
305,370,194902,1,0,3:0:0:0:
287,372,194967,1,0,3:0:0:0:
269,373,195033,1,0,3:0:0:0:
251,375,195098,1,0,3:0:0:0:
158,323,195228,1,8,3:2:0:0:
247,265,195358,6,0,B|276:212|276:212|257:152,1,116.999994644165,4|0,3:1|0:0,0:0:0:0:
157,198,195619,1,0,3:0:0:0:
254,277,195750,102,0,B|287:215|287:215|248:101,1,175.499991966248,12|0,3:2|0:0,0:0:0:0:
189,66,196011,6,0,P|217:38|272:34,2,67.5000025749208,0|0|8,3:0|3:0|0:0,0:0:0:0:
157,198,196402,102,0,P|106:166|46:182,1,116.999994644165,4|0,3:1|0:0,0:0:0:0:
9,256,196663,1,0,3:0:0:0:
179,276,196793,6,0,P|168:191|88:155,1,175.499991966248,12|0,3:2|0:0,0:0:0:0:
46,91,197054,102,0,L|40:19,2,67.5000025749208,0|0|8,3:0|3:0|0:0,0:0:0:0:
189,66,197445,6,0,L|318:56,1,116.999994644165,4|0,3:1|0:0,0:0:0:0:
256,146,197706,1,0,3:0:0:0:
158,55,197837,102,0,L|339:41,1,175.499991966248,8|0,3:2|3:0,0:0:0:0:
396,103,198098,38,0,L|532:110,1,116.999994644165,8|4,3:2|3:0,0:0:0:0:
377,354,198358,2,0,L|513:361,1,116.999994644165,8|0,3:2|3:0,0:0:0:0:
256,146,198619,37,0,3:0:0:0:
240,171,198684,1,0,3:0:0:0:
237,199,198749,1,0,3:0:0:0:
246,226,198814,1,0,3:0:0:0:
266,248,198880,2,0,L|144:254,1,116.999994644165,8|8,3:2|3:2,0:0:0:0:
42,138,199141,5,8,3:2:0:0:
54,154,199402,101,2,0:0:0:0:
1,337,199532,2,0,L|109:332,1,107.999996704102,4|0,3:1|0:0,0:0:0:0:
365,368,199793,69,0,3:0:0:0:
365,368,199858,1,0,3:0:0:0:
365,368,199923,2,0,P|336:360|300:362,3,53.9999983520508,0|8|0|8,1:0|0:1|1:0|0:1,1:0:0:0:
263,299,200184,2,0,P|234:306|204:326,3,53.9999983520508,0|8|0|8,1:0|0:1|1:0|0:1,1:0:0:0:
141,290,200445,2,0,P|120:311|104:343,3,53.9999983520508,0|8|0|8,1:0|0:1|1:0|0:1,1:0:0:0:
75,247,200706,102,0,L|59:185,3,53.9999983520508,0|8|0|8,1:0|0:1|1:0|0:1,1:0:0:0:
0,141,200967,2,0,L|53:106,3,53.9999983520508,0|8|0|8,1:0|0:1|1:0|0:1,1:0:0:0:
77,38,201228,2,0,L|126:77,3,53.9999983520508,0|8|0|8,1:0|0:1|1:0|0:1,1:0:0:0:
199,79,201488,6,0,L|175:137,1,53.9999983520508,0|8,1:0|0:1,0:0:0:0:
145,200,201619,2,0,P|195:168|266:192,1,135,4|8,1:0|0:1,0:0:0:0:
263,189,201880,1,0,1:0:0:0:
309,263,202011,102,0,L|380:272,3,53.9999983520508,0|8|0|8,1:0|0:1|1:0|0:1,1:0:0:0:
348,191,202272,2,0,L|419:200,3,53.9999983520508,0|8|0|8,1:0|0:1|1:0|0:1,1:0:0:0:
387,119,202533,2,0,L|458:128,3,53.9999983520508,0|8|0|8,1:0|0:1|1:0|0:1,1:0:0:0:
404,44,202793,6,0,B|376:35|376:35|322:60,3,53.9999983520508,0|0|0|0,1:0|1:0|1:0|1:0,1:0:0:0:
305,104,203054,2,0,B|279:107|279:107|261:130,3,53.9999983520508,0|0|0|0,1:0|1:0|1:0|1:0,1:0:0:0:
261,217,203315,101,0,3:0:0:0:
292,370,203445,1,0,3:0:0:0:
303,290,203575,6,0,L|237:297,1,53.9999983520508,0|0,3:0|1:0,0:0:0:0:
211,380,203706,2,0,L|70:365,1,135,4|0,3:1|0:0,0:0:0:0:
76,365,203967,1,0,3:0:0:0:
0,337,204098,102,0,P|17:308|43:290,3,53.9999983520508,4|0|0|0,1:2|1:0|1:0|1:0,1:0:0:0:
29,219,204358,2,0,P|63:220|90:234,3,53.9999983520508,12|0|0|0,1:2|1:0|1:0|1:0,1:0:0:0:
140,178,204619,2,0,P|155:208|157:239,3,53.9999983520508,0|0|0|0,1:0|1:0|1:0|1:0,1:0:0:0:
237,255,204880,6,0,L|231:178,3,53.9999983520508,0|0|0|0,1:0|1:0|1:0|1:0,1:0:0:0:
314,253,205141,2,0,L|308:176,3,53.9999983520508,0|0|0|0,1:0|1:0|1:0|1:0,1:0:0:0:
391,251,205402,2,0,L|385:174,3,53.9999983520508,12|0|0|0,1:2|1:0|1:0|1:0,1:0:0:0:
468,249,205663,2,0,L|462:172,3,53.9999983520508,0|0|0|0,1:0|1:0|1:0|1:0,1:0:0:0:
493,125,205924,102,0,P|503:96|496:62,3,53.9999983520508,0|0|0|0,1:0|1:0|1:0|1:0,1:0:0:0:
413,113,206185,6,0,L|407:-2,1,107.999996704102,0|0,3:0|3:0,0:0:0:0:
303,0,206380,1,0,3:0:0:0:
315,11,206445,2,0,L|320:118,1,107.999996704102,12|0,3:2|3:0,0:0:0:0:
401,226,206706,2,0,L|395:333,1,107.999996704102,0|0,3:0|3:0,0:0:0:0:
278,369,206967,101,0,3:0:0:0:
278,369,207098,2,0,P|230:321|162:332,1,107.999996704102,0|0,3:0|3:0,0:0:0:0:
15,379,207358,2,0,L|154:366,1,107.999996704102,0|12,3:0|3:2,0:0:0:0:
7,292,207619,2,0,L|114:281,1,107.999996704102,0|0,3:0|3:0,0:0:0:0:
269,264,207880,6,0,P|214:210|218:129,1,161.999995056153,4|0,3:1|0:0,0:0:0:0:
236,131,208141,2,0,L|229:75,4,53.9999983520508,8|0|0|0|0,3:2|3:0|3:0|3:0|3:0,0:0:0:0:
321,73,208532,101,12,3:2:0:0:
191,311,208663,1,8,3:2:0:0:
385,153,208793,1,8,3:2:0:0:
125,229,208924,1,8,3:2:0:0:
374,256,209054,1,8,3:2:0:0:
136,126,209185,1,8,3:2:0:0:
294,321,209315,1,8,3:2:0:0:
217,60,209445,1,8,3:2:0:0:
448,150,209576,5,8,3:2:0:0:
322,126,209706,1,8,3:2:0:0:
346,0,209837,1,8,3:2:0:0:
472,24,209967,1,12,3:2:0:0:
263,265,210228,69,2,0:3:0:0:
263,265,210293,1,2,3:0:0:0:
263,265,210358,1,2,0:3:0:0:
250,363,210489,1,2,0:3:0:0:
162,226,210619,5,4,1:2:0:0:
171,306,210750,1,0,1:0:0:0:
222,98,210880,101,0,1:0:0:0:
142,107,211011,1,0,1:0:0:0:
350,158,211141,5,0,1:0:0:0:
341,78,211272,1,0,1:0:0:0:
290,286,211402,101,0,1:0:0:0:
370,277,211533,1,0,1:0:0:0:
256,192,211663,37,12,3:2:0:0:
256,192,211793,1,12,3:2:0:0:
