osu file format v14

[General]
AudioFilename: audio.mp3
AudioLeadIn: 0
PreviewTime:46272
Countdown: 0
SampleSet: Soft
StackLeniency: 0.4
Mode: 0
LetterboxInBreaks: 0
WidescreenStoryboard: 1

[Editor]
Bookmarks: 2445,11837,22272,30619,38967,47315,64011,72358,80706,89054,97402,114098,122445,139141,155837,166272,182967,191315,199663,211663
DistanceSpacing: 1.6
BeatDivisor: 3
GridSize: 32
TimelineZoom: 1.7

[Metadata]
Title:Blow
TitleUnicode:Blow
Artist:UNDEAD CORPORATION
ArtistUnicode:UNDEAD CORPORATION
Creator:hehe
Version:Extra
Source:
Tags:deathstream flash back metal rock core japanese english handsome heilia -mikan bazz_b featured artist fa
BeatmapID:3325194
BeatmapSetID:1019640

[Difficulty]
HPDrainRate:5
CircleSize:4
OverallDifficulty:8.5
ApproachRate:9.2
SliderMultiplier:1.4
SliderTickRate:1

[Events]
//Background and Video events
0,0,"blow.jpg",0,0
//Break Periods
//Storyboard Layer 0 (Background)
//Storyboard Layer 1 (Fail)
//Storyboard Layer 2 (Pass)
//Storyboard Layer 3 (Foreground)
//Storyboard Layer 4 (Overlay)
//Storyboard Sound Samples

[TimingPoints]
359,260.869565217391,4,2,1,40,1,0
2445,-71.4285714285714,4,2,1,70,0,0
10793,-100,4,2,1,70,0,0
11576,-100,4,2,1,60,0,0
11706,-83.3333333333333,4,2,1,60,0,0
19924,-83.3333333333333,4,2,1,50,0,0
21880,-100,4,2,1,50,0,0
30489,-83.3333333333333,4,2,1,70,0,0
38837,-100,4,2,1,60,0,0
46793,-83.3333333333333,4,2,1,70,0,0
47185,-71.4285714285714,4,2,1,80,0,1
60750,-62.5,4,2,1,90,0,1
61793,-55.5555555555556,4,2,1,100,0,1
62576,-71.4285714285714,4,2,1,100,0,1
63750,-71.4285714285714,4,2,1,80,0,0
63880,-83.3333333333333,4,2,1,60,0,0
72228,-125,4,2,1,50,0,0
76532,-100,4,2,1,50,0,0
76793,-100,4,2,1,60,0,0
77576,-83.3333333333333,4,2,1,60,0,0
78880,-100,4,2,1,60,0,0
80576,-83.3333333333333,4,2,1,70,0,0
88924,-100,4,2,1,60,0,0
96880,-83.3333333333333,4,2,1,70,0,0
97272,-71.4285714285714,4,2,1,80,0,1
110837,-62.5,4,2,1,90,0,1
111880,-55.5555555555556,4,2,1,100,0,1
112272,-55.5555555555556,4,2,1,90,0,1
112532,-71.4285714285714,4,2,1,90,0,1
113837,-71.4285714285714,4,2,1,60,0,0
113967,-125,4,2,1,60,0,0
120228,-83.3333333333333,4,2,1,60,0,0
122445,-83.3333333333333,4,2,1,70,0,0
126358,-100,4,2,1,70,0,0
126619,-83.3333333333333,4,2,1,70,0,0
129880,-100,4,2,1,70,0,0
130793,-100,4,2,1,60,0,0
134445,-100,4,2,1,70,0,0
134967,-71.4285714285714,4,2,1,90,0,1
136793,-100,4,2,1,80,0,0
137054,-100,4,2,1,80,0,1
137184,-100,4,2,1,85,0,0
137445,-100,4,2,1,85,0,1
137575,-100,4,2,1,90,0,0
137837,-100,4,2,1,90,0,1
137967,-100,4,2,1,95,0,0
138228,-100,4,2,1,95,0,1
138358,-100,4,2,1,100,0,0
138619,-100,4,2,1,100,0,1
138750,-100,4,2,1,100,0,0
139663,-100,4,2,1,60,0,0
147489,-100,4,2,1,70,0,0
156358,-100,4,2,1,50,0,0
162358,-83.3333333333333,4,2,1,60,0,0
165750,-83.3333333333333,4,2,1,70,0,0
166141,-71.4285714285714,4,2,1,80,0,1
179706,-62.5,4,2,1,90,0,1
180750,-55.5555555555556,4,2,1,100,0,1
181141,-71.4285714285714,4,2,1,90,0,1
181924,-71.4285714285714,4,2,1,100,0,1
182706,-71.4285714285714,4,2,1,60,0,0
182837,-100,4,2,1,60,0,0
190924,-100,4,2,1,70,0,0
191185,-71.4285714285714,4,2,1,80,0,1
196402,-62.5,4,2,1,90,0,1
197445,-55.5555555555556,4,2,1,100,0,1
198358,-71.4285714285714,4,2,1,100,0,1
199141,-71.4285714285714,4,2,1,70,0,0
204358,-71.4285714285714,4,2,1,60,0,0
207489,-71.4285714285714,4,2,1,70,0,0
207880,-71.4285714285714,4,2,1,80,0,0
208532,-50,4,2,1,100,0,1
209967,-71.4285714285714,4,2,1,80,0,0

[Colours]
Combo1 : 255,34,34
Combo2 : 225,190,185
Combo3 : 225,143,108
Combo4 : 181,214,251
Combo5 : 62,151,240
Combo6 : 233,184,254
Combo7 : 235,80,223
Combo8 : 255,164,166

[HitObjects]
71,244,359,5,2,2:3:0:0:
41,323,489,2,0,L|-8:339,2,35,0|0|8,2:0|2:0|2:0,2:0:0:0:
71,244,750,2,0,P|149:259|212:225,1,140,0|0,3:0|3:0,2:0:0:0:
273,299,1228,5,0,3:0:0:0:
273,299,1315,1,0,3:0:0:0:
273,299,1402,2,0,L|254:366,1,70,8|8,3:2|2:3,2:0:0:0:
341,243,1663,2,0,L|322:175,1,70,0|0,3:0|3:0,2:0:0:0:
443,292,1924,101,8,2:0:0:0:
443,292,1989,1,8,2:0:0:0:
443,292,2054,1,8,2:0:0:0:
443,292,2119,1,8,2:0:0:0:
443,292,2185,2,0,L|485:274,3,35,0|0|0|0,3:0|3:0|3:0|3:0,0:0:0:0:
443,292,2445,2,0,P|440:217|446:162,1,97.9999970092774,4|0,1:0|2:0,2:0:0:0:
512,117,2706,85,0,1:0:0:0:
461,33,2836,1,0,1:0:0:0:
365,11,2966,1,0,1:0:0:0:
283,64,3097,1,0,1:0:0:0:
263,160,3227,1,0,1:0:0:0:
319,241,3358,1,0,1:0:0:0:
416,257,3489,6,0,P|465:251|513:255,1,97.9999970092774,0|0,1:0|1:0,2:0:0:0:
354,338,3750,2,0,P|305:344|256:339,1,97.9999970092774,0|0,1:0|1:0,2:0:0:0:
174,286,4011,1,0,1:0:0:0:
159,189,4141,1,0,1:0:0:0:
174,286,4272,1,0,1:0:0:0:
103,353,4402,102,0,B|48:334|48:334|16:256|63:200,1,195.999994018555,4|0,1:0|1:0,2:0:0:0:
159,189,4793,1,0,1:0:0:0:
254,204,4923,1,0,1:0:0:0:
320,277,5054,1,0,1:0:0:0:
403,321,5184,1,0,1:0:0:0:
486,276,5314,1,0,1:0:0:0:
495,183,5445,1,0,1:0:0:0:
422,123,5576,6,0,P|412:75|414:26,1,97.9999970092774,0|0,1:0|1:0,2:0:0:0:
338,174,5837,2,0,P|348:221|346:270,1,97.9999970092774,0|0,1:0|1:0,2:0:0:0:
67,144,6098,1,0,3:0:0:0:
241,117,6228,1,0,3:0:0:0:
67,144,6358,1,0,3:0:0:0:
241,117,6489,102,0,P|177:46|82:53,1,195.999994018555,4|0,3:1|3:0,2:0:0:0:
67,144,6880,1,0,1:0:0:0:
8,219,7010,1,0,1:0:0:0:
17,314,7140,1,0,1:0:0:0:
90,376,7271,1,0,1:0:0:0:
186,369,7401,1,0,1:0:0:0:
250,299,7532,1,0,1:0:0:0:
247,203,7663,6,0,L|124:194,1,97.9999970092774,0|0,1:0|1:0,2:0:0:0:
340,156,7924,2,0,L|463:165,1,97.9999970092774,0|0,1:0|1:0,2:0:0:0:
272,82,8185,1,0,3:2:0:0:
344,16,8315,2,0,L|405:20,2,48.9999985046387,0|0|8,3:0|3:0|3:2,0:0:0:0:
272,82,8576,102,0,P|307:172|304:269,1,195.999994018555,4|0,1:0|1:0,0:0:0:0:
173,352,8967,1,0,1:0:0:0:
162,348,9032,1,0,1:0:0:0:
150,344,9097,1,0,1:0:0:0:
138,341,9162,1,0,1:0:0:0:
127,337,9228,2,0,L|111:215,1,97.9999970092774,2|2,3:2|3:2,2:0:0:0:
160,67,9489,2,0,L|176:189,1,97.9999970092774,2|0,3:2|3:0,0:0:0:0:
24,322,9750,2,0,L|8:200,1,97.9999970092774,0|0,3:0|3:0,0:0:0:0:
57,52,10011,2,0,L|73:174,1,97.9999970092774,0|0,3:0|3:0,0:0:0:0:
210,254,10272,5,8,2:0:0:0:
210,254,10402,2,0,P|280:284|406:265,1,195.999994018555,4|0,3:1|2:0,2:0:0:0:
458,193,10793,102,0,L|517:205,8,46.6666666666667,2|2|2|2|2|2|2|2|2,3:1|2:1|2:1|2:1|2:1|2:1|2:1|2:1|2:1,0:0:0:0:
400,115,11576,1,8,2:0:0:0:
395,269,11706,22,0,P|339:329|258:345,1,167.999994873047,4|0,1:0|2:0,2:0:0:0:
225,232,12098,2,0,P|158:202|85:215,1,125.999996154785,0|0,3:0|0:0,0:0:0:0:
98,214,12358,6,0,P|62:283|81:387,2,167.999994873047,12|0|0,2:0|2:0|3:0,2:0:0:0:
414,170,13141,1,0,3:0:0:0:
414,170,13206,1,0,3:0:0:0:
414,170,13272,1,0,3:0:0:0:
414,170,13337,1,0,3:0:0:0:
414,170,13402,102,0,P|450:101|431:-3,1,167.999994873047,12|0,3:2|3:0,2:0:0:0:
316,70,13793,2,0,P|248:62|135:125,1,167.999994873047,4|0,1:0|3:0,2:0:0:0:
0,154,14185,6,0,P|40:164|82:164,1,83.9999974365235,0|0,3:0|2:0,2:0:0:0:
229,242,14445,2,0,P|188:233|147:234,1,83.9999974365235,8|0,2:0|2:0,2:0:0:0:
0,298,14706,2,0,P|40:307|82:307,1,83.9999974365235,0|0,2:0|2:0,2:0:0:0:
194,142,14967,101,2,3:2:0:0:
194,142,15228,1,2,3:2:0:0:
194,142,15489,1,8,2:0:0:0:
218,270,15619,1,0,1:0:0:0:
347,246,15749,1,0,1:0:0:0:
322,116,15880,6,0,P|396:80|479:82,1,167.999994873047,4|0,1:0|2:0,2:0:0:0:
256,33,16272,2,0,P|193:62|131:56,1,125.999996154785,0|0,3:0|0:0,0:0:0:0:
130,51,16532,102,0,L|46:45,1,83.9999974365235,12|0,2:0|2:0,2:0:0:0:
186,150,16793,1,0,2:0:0:0:
128,233,16924,1,0,3:0:0:0:
197,309,17054,2,0,L|280:314,1,83.9999974365235,8|0,2:0|2:0,0:0:0:0:
434,255,17315,1,0,3:0:0:0:
434,255,17380,1,0,3:0:0:0:
434,255,17445,1,0,3:0:0:0:
434,255,17511,1,0,3:0:0:0:
434,255,17576,6,0,L|350:249,1,83.9999974365235,12|0,3:2|2:0,2:0:0:0:
292,165,17837,1,8,2:0:0:0:
346,80,17967,2,0,P|424:68|516:120,1,167.999994873047,4|0,1:0|3:0,2:0:0:0:
393,349,18358,101,8,2:0:0:0:
393,349,18489,1,0,3:0:0:0:
292,165,18619,1,8,2:0:0:0:
292,165,18750,1,0,3:0:0:0:
253,302,18880,5,8,3:2:0:0:
242,305,18945,1,0,3:0:0:0:
232,308,19010,1,0,3:0:0:0:
222,311,19075,1,0,3:0:0:0:
212,314,19141,2,0,L|160:306,3,41.9999987182618,0|0|0|0,3:0|3:0|3:0|3:0,0:0:0:0:
58,231,19402,2,0,L|99:237,3,41.9999987182618,8|0|0|0,3:2|3:0|3:0|3:0,2:0:0:0:
215,181,19663,2,0,L|173:174,3,41.9999987182618,8|0|0|0,2:0|3:0|3:0|3:0,0:0:0:0:
123,97,19924,2,0,L|17:77,1,83.9999974365235,12|0,3:2|1:0,2:0:0:0:
369,285,20315,101,2,2:0:0:0:
369,285,20445,1,0,2:0:0:0:
369,285,20576,1,0,2:0:0:0:
369,285,20706,1,0,2:0:0:0:
369,285,20837,1,0,2:0:0:0:
369,285,20967,1,0,2:0:0:0:
369,285,21098,1,0,2:0:0:0:
369,285,21228,1,0,2:0:0:0:
369,285,21359,1,0,2:0:0:0:
369,285,21489,1,0,2:0:0:0:
369,285,21620,1,0,2:0:0:0:
369,285,21750,1,0,2:0:0:0:
435,234,21880,2,0,L|428:147,1,70,0|8,3:0|2:0,0:0:0:0:
369,366,22141,22,0,P|301:353|248:308,1,140,4|0,3:1|3:0,2:0:0:0:
163,312,22532,1,8,2:0:0:0:
88,272,22663,1,0,3:0:0:0:
73,189,22793,2,0,L|84:109,2,70,0|0|8,2:0|3:0|2:0,0:0:0:0:
217,146,23445,2,0,L|206:65,2,70,0|8|0,3:0|2:0|3:0,0:0:0:0:
344,67,23967,2,0,L|313:-7,1,70,0|8,3:0|2:0,0:0:0:0:
421,21,24228,6,0,P|473:54|491:135,1,140,4|0,3:1|3:0,2:0:0:0:
492,126,24619,1,8,2:0:0:0:
411,135,24749,1,0,3:0:0:0:
359,199,24879,1,0,2:0:0:0:
368,280,25010,1,0,3:0:0:0:
432,331,25141,2,0,P|464:317|518:315,1,70,8|0,2:0|0:0,2:0:0:0:
319,345,25402,101,0,2:0:0:0:
319,345,25532,2,0,P|287:359|233:361,1,70,0|8,3:0|2:0,0:0:0:0:
168,297,25793,2,0,L|158:389,1,70,0|0,3:0|2:0,2:0:0:0:
94,225,26054,2,0,L|60:311,1,70,0|8,3:0|2:0,0:0:0:0:
15,168,26315,6,0,P|63:117|76:49,1,140,4|0,3:1|3:0,2:0:0:0:
156,27,26706,1,8,2:0:0:0:
231,60,26836,1,0,3:0:0:0:
267,134,26967,2,0,L|346:146,2,70,0|0|8,2:0|3:0|2:0,0:0:0:0:
187,248,27619,2,0,L|266:239,2,70,0|8|0,3:0|2:0|3:0,0:0:0:0:
139,378,28141,1,0,3:0:0:0:
139,378,28206,1,0,3:0:0:0:
139,378,28272,2,0,L|213:348,1,70,8|0,3:2|2:0,2:0:0:0:
418,319,28532,101,4,3:2:0:0:
349,368,28663,1,0,2:0:0:0:
342,284,28793,2,0,P|349:249|360:216,1,70,0|0,2:0|3:0,0:0:0:0:
211,92,29054,1,12,3:2:0:0:
280,43,29185,1,0,2:0:0:0:
286,127,29315,2,0,P|279:161|268:194,1,70,0|0,2:0|3:0,0:0:0:0:
213,261,29576,6,0,P|151:236|53:248,1,140,4|8,3:2|3:2,0:0:0:0:
15,294,29967,1,0,3:0:0:0:
15,294,30032,1,0,3:0:0:0:
15,294,30098,2,0,L|30:343,4,35,0|0|0|0|8,3:0|3:0|3:0|3:0|3:2,0:0:0:0:
20,148,30489,70,0,B|38:167|38:167|120:163|145:88,1,167.999994873047,4|0,3:1|3:0,2:0:0:0:
295,34,30880,2,0,P|253:29|211:32,1,83.9999974365235,8|0,2:0|3:0,2:0:0:0:
369,109,31141,2,0,P|410:113|452:110,1,83.9999974365235,0|0,2:0|3:0,2:0:0:0:
293,179,31402,2,0,P|251:174|209:177,1,83.9999974365235,8|0,2:0|2:0,2:0:0:0:
370,253,31663,6,0,P|436:271|479:381,1,167.999994873047,0|8,2:0|2:0,2:0:0:0:
267,376,32054,2,0,L|279:284,1,83.9999974365235,0|0,3:0|0:0,2:0:0:0:
191,208,32315,2,0,L|179:300,1,83.9999974365235,0|8,3:0|2:0,0:0:0:0:
46,377,32576,102,0,P|28:294|3:214,1,167.999994873047,4|0,3:1|3:0,2:0:0:0:
128,145,32967,2,0,L|37:134,1,83.9999974365235,8|0,2:0|3:0,2:0:0:0:
263,125,33228,2,0,L|189:69,1,83.9999974365235,0|0,2:0|3:0,2:0:0:0:
389,175,33489,2,0,L|353:90,1,83.9999974365235,8|0,2:0|3:0,2:0:0:0:
401,28,33685,1,0,3:0:0:0:
401,28,33750,6,0,P|467:49|498:153,1,167.999994873047,8|0,3:2|3:0,0:0:0:0:
425,251,34141,1,8,2:0:0:0:
425,251,34272,1,0,3:0:0:0:
321,165,34402,2,0,P|279:173|240:188,1,83.9999974365235,8|0,2:0|3:0,0:0:0:0:
196,368,34663,2,0,P|237:360|276:345,1,83.9999974365235,4|0,3:1|0:0,2:0:0:0:
316,267,34924,1,0,3:0:0:0:
59,345,35054,102,0,L|39:259,1,83.9999974365235,8|0,2:0|3:0,2:0:0:0:
327,15,35315,2,0,L|347:101,1,83.9999974365235,0|0,2:0|3:0,2:0:0:0:
161,379,35576,2,0,L|141:293,1,83.9999974365235,8|0,2:0|2:0,2:0:0:0:
429,49,35837,2,0,L|449:135,1,83.9999974365235,0|0,2:0|3:0,2:0:0:0:
509,305,36098,6,0,P|428:281|345:285,1,167.999994873047,8|0,2:0|3:0,0:0:0:0:
340,295,36424,1,0,3:0:0:0:
336,304,36489,1,0,3:0:0:0:
331,314,36554,1,0,3:0:0:0:
327,323,36619,1,8,3:2:0:0:
248,255,36750,2,0,P|209:271|167:277,1,83.9999974365235,4|0,3:1|0:0,2:0:0:0:
52,340,37011,101,8,3:2:0:0:
52,340,37141,2,0,L|36:241,1,83.9999974365235,8|0,3:2|3:0,0:0:0:0:
89,96,37402,1,8,3:2:0:0:
89,96,37532,2,0,L|105:195,1,83.9999974365235,8|0,3:2|3:0,0:0:0:0:
185,232,37793,1,8,3:2:0:0:
256,169,37924,2,0,P|295:181|329:206,1,83.9999974365235,12|0,3:2|3:0,2:0:0:0:
418,356,38185,6,0,P|411:293|415:230,1,125.999996154785,0|0,3:0|3:0,0:0:0:0:
468,235,38445,2,0,P|474:172|470:109,1,125.999996154785,0|0,3:0|3:0,0:0:0:0:
417,97,38706,1,8,3:2:0:0:
345,19,38837,6,0,P|276:23|219:62,1,140,4|0,3:1|3:0,2:0:0:0:
235,164,39228,1,8,2:0:0:0:
235,164,39358,1,0,3:0:0:0:
138,215,39489,6,0,P|126:152|101:57,1,140,0|8,3:0|2:0,2:0:0:0:
28,179,39880,1,0,2:0:0:0:
28,179,40011,2,0,P|40:242|65:337,1,140,0|8,3:0|2:0,2:0:0:0:
127,361,40402,1,0,3:0:0:0:
209,353,40532,1,0,3:0:0:0:
268,296,40663,1,0,3:0:0:0:
279,215,40793,1,8,2:0:0:0:
418,244,40924,102,0,B|445:202|445:202|441:153|403:125,1,140,4|0,3:1|3:0,2:0:0:0:
160,48,41315,2,0,B|133:90|133:90|137:139|174:166,1,140,8|0,2:0|3:0,2:0:0:0:
279,215,41706,1,0,3:0:0:0:
239,313,41837,6,0,L|271:354,3,35,8|0|0|0,2:0|0:0|3:0|3:0,2:0:0:0:
171,363,42098,1,8,2:0:0:0:
153,363,42163,1,0,2:0:0:0:
136,359,42228,1,0,3:0:0:0:
120,352,42293,1,0,3:0:0:0:
106,341,42358,1,0,3:0:0:0:
96,328,42424,1,0,3:0:0:0:
88,312,42489,2,0,L|110:220,1,70,8|0,2:0|3:0,2:0:0:0:
52,118,42750,2,0,L|30:210,1,70,0|8,3:0|2:0,0:0:0:0:
190,213,43011,102,0,P|201:144|197:74,1,140,4|0,3:1|3:0,2:0:0:0:
271,2,43402,1,8,2:0:0:0:
271,2,43532,1,0,3:0:0:0:
324,82,43663,6,0,L|481:66,1,140,0|8,3:0|2:0,2:0:0:0:
415,179,44054,1,0,2:0:0:0:
415,179,44185,2,0,L|275:193,1,140,0|8,3:0|2:0,2:0:0:0:
223,259,44576,1,0,3:0:0:0:
280,320,44706,1,0,3:0:0:0:
288,322,44771,1,0,3:0:0:0:
296,325,44836,1,0,3:0:0:0:
305,327,44901,1,0,3:0:0:0:
313,330,44966,1,8,3:2:0:0:
453,303,45098,102,0,P|467:235|458:166,1,140,4|0,3:1|3:0,2:0:0:0:
361,186,45489,1,8,3:2:0:0:
303,107,45619,1,0,3:0:0:0:
217,156,45750,1,0,3:0:0:0:
130,111,45880,1,0,3:0:0:0:
60,180,46011,1,8,3:2:0:0:
103,267,46141,1,0,3:0:0:0:
201,252,46272,5,12,3:2:0:0:
213,264,46337,1,0,3:0:0:0:
227,274,46402,1,0,3:0:0:0:
242,281,46467,1,0,3:0:0:0:
259,288,46532,1,8,3:2:0:0:
276,291,46598,1,0,3:0:0:0:
294,292,46663,1,0,3:0:0:0:
311,289,46728,1,0,3:0:0:0:
328,284,46793,2,0,L|316:180,1,83.9999974365235,12|12,2:0|2:0,2:0:0:0:
318,200,47185,6,0,B|300:156|300:156|368:97|436:139,1,195.999994018555,4|0,3:1|3:0,2:0:0:0:
412,267,47576,2,0,P|460:268|506:284,1,97.9999970092774,8|0,2:0|2:0,2:0:0:0:
336,344,47837,2,0,P|287:342|241:326,1,97.9999970092774,0|0,3:0|3:0,2:0:0:0:
146,255,48098,1,8,2:0:0:0:
74,348,48228,6,0,P|40:304|38:154,1,195.999994018555,4|0,3:2|3:0,2:0:0:0:
120,24,48619,2,0,L|-4:43,1,97.9999970092774,8|0,2:0|2:0,2:0:0:0:
216,94,48880,2,0,L|340:75,1,97.9999970092774,0|0,3:0|3:0,0:0:0:0:
402,2,49141,1,8,2:0:0:0:
473,95,49272,102,0,P|491:198|462:293,1,195.999994018555,4|0,3:2|3:0,2:0:0:0:
274,378,49663,2,0,P|258:331|254:283,1,97.9999970092774,8|0,2:0|2:0,2:0:0:0:
407,196,49924,2,0,P|375:232|334:259,1,97.9999970092774,0|0,3:0|3:0,2:0:0:0:
183,172,50185,2,0,P|230:181|274:202,1,97.9999970092774,8|0,2:0|2:0,2:0:0:0:
158,302,50445,5,0,3:0:0:0:
158,302,50576,1,0,3:0:0:0:
60,234,50706,2,0,P|56:177|44:114,1,97.9999970092774,8|0,2:0|3:0,0:0:0:0:
143,30,50967,2,0,P|147:87|159:150,1,97.9999970092774,0|0,3:0|3:0,0:0:0:0:
256,184,51228,1,8,2:0:0:0:
363,138,51358,102,0,B|383:99|383:99|328:38|244:66,1,195.999994018555,4|0,3:1|3:0,2:0:0:0:
45,22,51750,2,0,L|143:30,1,97.9999970092774,8|0,2:0|2:0,2:0:0:0:
171,142,52011,2,0,L|73:134,1,97.9999970092774,0|0,3:0|3:0,2:0:0:0:
13,236,52272,1,8,2:0:0:0:
100,313,52402,6,0,P|221:318|285:364,1,195.999994018555,4|0,3:2|3:0,2:0:0:0:
486,338,52793,2,0,P|437:342|390:330,1,97.9999970092774,8|0,2:0|2:0,2:0:0:0:
313,241,53054,1,0,3:0:0:0:
311,229,53119,1,0,3:0:0:0:
309,217,53184,1,0,3:0:0:0:
307,205,53249,1,0,3:0:0:0:
304,193,53314,1,8,3:2:0:0:
383,105,53445,2,0,P|432:101|479:113,1,97.9999970092774,4|0,3:2|0:0,2:0:0:0:
316,23,53706,102,0,L|205:46,1,97.9999970092774,8|0,3:2|3:0,2:0:0:0:
220,43,53902,1,0,3:0:0:0:
220,43,53967,1,0,3:0:0:0:
184,162,54098,2,0,L|294:138,1,97.9999970092774,8|0,3:2|3:0,2:0:0:0:
279,142,54294,1,0,3:0:0:0:
279,142,54359,1,0,3:0:0:0:
370,215,54489,1,4,3:2:0:0:
299,308,54619,6,0,L|311:363,3,48.9999985046387,0|0|0|0,3:0|3:0|3:0|3:0,0:0:0:0:
215,334,54880,2,0,L|212:390,3,48.9999985046387,0|0|0|0,3:0|3:0|3:0|3:0,0:0:0:0:
127,348,55141,1,0,3:0:0:0:
102,349,55206,1,0,3:0:0:0:
78,344,55271,1,0,3:0:0:0:
57,332,55336,1,0,3:0:0:0:
40,314,55401,1,8,3:2:0:0:
29,292,55467,1,0,3:0:0:0:
25,267,55532,102,0,P|40:171|35:73,1,195.999994018555,4|0,3:1|3:0,2:0:0:0:
147,33,55924,2,0,L|255:45,1,97.9999970092774,8|0,2:0|2:0,2:0:0:0:
293,151,56185,2,0,L|195:140,1,97.9999970092774,0|0,3:0|3:0,2:0:0:0:
127,235,56445,1,8,2:0:0:0:
204,323,56576,6,0,P|293:283|390:279,1,195.999994018555,4|0,3:2|3:0,2:0:0:0:
482,353,56967,1,8,2:0:0:0:
496,235,57098,1,0,2:0:0:0:
405,161,57228,2,0,P|385:102|384:42,1,97.9999970092774,0|0,3:0|3:0,2:0:0:0:
321,240,57489,1,8,2:0:0:0:
321,240,57619,102,0,P|341:299|342:359,1,97.9999970092774,4|0,3:2|0:0,2:0:0:0:
202,290,57880,2,0,P|189:351|160:403,1,97.9999970092774,0|8,3:0|2:0,0:0:0:0:
73,272,58141,2,0,P|41:310|1:339,1,97.9999970092774,0|0,2:0|3:0,0:0:0:0:
17,168,58402,1,0,3:0:0:0:
103,88,58532,6,0,L|237:66,1,97.9999970092774,12|0,2:0|3:0,2:0:0:0:
346,157,58793,2,0,L|212:179,1,97.9999970092774,4|0,2:0|3:0,2:0:0:0:
164,254,59054,1,8,3:2:0:0:
264,333,59185,1,0,3:0:0:0:
264,333,59250,1,0,3:0:0:0:
264,333,59315,2,0,L|256:396,4,48.9999985046387,0|0|0|0|8,3:0|3:0|3:0|3:0|3:2,0:0:0:0:
380,313,59706,102,0,P|409:233|414:118,1,195.999994018555,4|0,3:1|3:0,2:0:0:0:
132,71,60098,2,0,P|103:151|98:266,1,195.999994018555,12|0,3:2|3:0,2:0:0:0:
256,192,60489,1,0,3:0:0:0:
256,192,60619,1,8,2:0:0:0:
415,293,60750,6,0,P|434:184|418:57,1,224,4|0,3:1|3:0,2:0:0:0:
97,91,61142,2,0,P|78:200|94:327,1,224,12|0,3:2|3:0,2:0:0:0:
256,192,61532,1,0,3:0:0:0:
256,192,61663,1,8,2:0:0:0:
459,264,61793,6,0,P|459:134|424:9,1,251.999992309571,4|0,3:1|3:0,2:0:0:0:
53,120,62185,2,0,P|53:250|88:375,1,251.999992309571,8|8,2:0|2:0,0:0:0:0:
201,382,62576,2,0,L|222:251,1,97.9999970092774,0|0,3:0|3:0,0:0:0:0:
151,194,62837,1,0,3:0:0:0:
151,194,62902,1,0,3:0:0:0:
151,194,62967,5,4,3:2:0:0:
267,170,63098,2,0,P|323:163|381:174,1,97.9999970092774,8|0,3:2|3:0,0:0:0:0:
431,77,63358,2,0,P|375:84|317:73,1,97.9999970092774,8|14,3:2|3:2,0:0:0:0:
334,78,63750,5,0,2:0:0:0:
117,115,63880,2,0,P|173:55|254:39,1,167.999994873047,4|0,1:0|2:0,2:0:0:0:
287,152,64272,2,0,P|354:182|427:169,1,125.999996154785,0|0,3:0|0:0,0:0:0:0:
414,170,64532,6,0,P|450:101|431:-3,2,167.999994873047,12|0|0,2:0|2:0|3:0,2:0:0:0:
98,214,65315,1,0,3:0:0:0:
98,214,65380,1,0,3:0:0:0:
98,214,65446,1,0,3:0:0:0:
98,214,65511,1,0,3:0:0:0:
98,214,65576,102,0,P|62:283|81:387,1,167.999994873047,12|0,3:2|3:0,2:0:0:0:
196,314,65967,2,0,P|264:322|377:259,1,167.999994873047,4|0,1:0|3:0,2:0:0:0:
512,230,66359,6,0,P|472:220|430:220,1,83.9999974365235,0|0,3:0|2:0,2:0:0:0:
283,142,66619,2,0,P|324:151|365:150,1,83.9999974365235,8|0,2:0|2:0,2:0:0:0:
512,86,66880,2,0,P|472:77|430:77,1,83.9999974365235,0|0,2:0|2:0,2:0:0:0:
318,242,67141,101,2,3:2:0:0:
318,242,67402,1,2,3:2:0:0:
318,242,67663,1,8,2:0:0:0:
294,114,67793,1,0,1:0:0:0:
165,138,67923,1,0,1:0:0:0:
190,268,68054,6,0,P|116:304|33:302,1,167.999994873047,4|0,1:0|2:0,2:0:0:0:
256,351,68446,2,0,P|319:322|381:328,1,125.999996154785,0|0,3:0|0:0,0:0:0:0:
382,333,68706,102,0,L|466:339,1,83.9999974365235,12|0,2:0|2:0,2:0:0:0:
326,234,68967,1,0,2:0:0:0:
384,151,69098,1,0,3:0:0:0:
315,75,69228,2,0,L|232:70,1,83.9999974365235,8|0,2:0|2:0,0:0:0:0:
78,129,69489,1,0,3:0:0:0:
78,129,69554,1,0,3:0:0:0:
78,129,69619,1,0,3:0:0:0:
78,129,69685,1,0,3:0:0:0:
78,129,69750,6,0,L|162:135,1,83.9999974365235,12|0,3:2|2:0,2:0:0:0:
220,219,70011,1,8,2:0:0:0:
166,304,70141,2,0,P|88:316|-4:264,1,167.999994873047,4|0,1:0|3:0,2:0:0:0:
119,35,70532,102,0,L|166:4,3,41.9999987182618,8|0|0|0,3:2|2:0|3:0|3:0,2:0:0:0:
161,134,70793,2,0,L|186:83,3,41.9999987182618,8|0|0|0,3:2|2:0|3:0|3:0,2:0:0:0:
243,156,71054,1,0,3:0:0:0:
243,166,71119,1,0,3:0:0:0:
244,177,71184,1,8,3:2:0:0:
245,187,71249,1,0,2:0:0:0:
246,198,71315,6,0,P|285:215|344:210,1,83.9999974365235,0|0,3:0|3:0,0:0:0:0:
496,180,71576,2,0,P|457:163|398:168,1,83.9999974365235,0|0,3:0|3:0,0:0:0:0:
337,98,71837,1,8,3:2:0:0:
312,0,71967,1,0,3:0:0:0:
337,98,72097,1,0,3:0:0:0:
288,187,72228,6,0,L|178:208,1,112,4|0,3:1|3:0,2:0:0:0:
89,267,72619,1,0,3:0:0:0:
84,256,72749,1,0,3:0:0:0:
79,246,72879,1,8,2:0:0:0:
74,236,73010,1,0,3:0:0:0:
69,226,73140,1,0,3:0:0:0:
64,216,73271,1,0,3:0:0:0:
138,126,73402,2,0,L|149:191,3,56,0|0|0|0,3:0|3:0|3:0|3:0,0:0:0:0:
256,88,73924,2,0,L|233:149,2,56,8|0|0,2:0|3:0|3:0,0:0:0:0:
349,47,74315,6,0,L|478:23,1,112,4|0,3:2|3:0,2:0:0:0:
440,129,74706,1,0,3:0:0:0:
451,130,74836,1,0,3:0:0:0:
462,132,74966,1,8,2:0:0:0:
473,134,75097,1,0,3:0:0:0:
484,136,75227,1,0,3:0:0:0:
495,138,75358,1,0,3:0:0:0:
396,232,75489,2,0,L|477:218,1,56,0|0,3:0|3:0,0:0:0:0:
500,323,75750,2,0,L|419:309,1,56,0|0,3:0|3:0,0:0:0:0:
444,313,75945,1,0,3:0:0:0:
444,313,76011,1,8,3:2:0:0:
372,366,76141,101,4,1:2:0:0:
372,366,76272,1,4,1:2:0:0:
308,299,76402,1,4,3:1:0:0:
308,299,76532,2,0,P|295:249|298:197,1,105
298,196,76793,2,0,L|364:202,11,35,8|0|0|0|8|0|0|0|8|0|0|0,3:2|3:0|3:0|3:0|3:2|3:0|3:0|3:0|3:2|3:0|3:0|3:0,0:0:0:0:
217,242,77576,6,0,L|161:261,3,41.9999987182618,8|0|0|0,3:2|3:0|3:0|3:0,0:0:0:0:
137,180,77837,2,0,L|81:199,3,41.9999987182618,8|0|0|0,3:2|3:0|3:0|3:0,0:0:0:0:
104,106,78098,1,4,3:0:0:0:
101,95,78163,1,4,3:0:0:0:
99,85,78228,1,4,3:0:0:0:
96,75,78293,1,4,3:0:0:0:
94,65,78358,1,4,3:2:0:0:
94,65,78619,101,4,3:2:0:0:
163,16,78750,1,0,3:0:0:0:
170,100,78880,2,0,P|163:135|152:168,1,70,0|0,2:0|3:0,0:0:0:0:
301,292,79141,1,4,3:2:0:0:
232,341,79272,1,0,3:0:0:0:
226,257,79402,2,0,P|233:223|244:190,1,70,0|0,2:0|3:0,0:0:0:0:
299,123,79663,6,0,P|361:148|459:136,1,140,4|0,3:2|3:0,0:0:0:0:
497,90,80054,1,0,3:0:0:0:
497,90,80119,1,0,3:0:0:0:
497,90,80185,2,0,L|482:41,4,35,0|0|0|0|8,3:0|3:0|3:0|3:0|3:2,0:0:0:0:
492,236,80576,70,0,B|474:217|474:217|392:221|367:296,1,167.999994873047,4|0,3:1|3:0,2:0:0:0:
217,350,80967,2,0,P|259:355|301:352,1,83.9999974365235,8|0,2:0|3:0,2:0:0:0:
143,275,81228,2,0,P|102:271|60:274,1,83.9999974365235,0|0,2:0|3:0,2:0:0:0:
219,205,81489,2,0,P|261:210|303:207,1,83.9999974365235,8|0,2:0|2:0,2:0:0:0:
142,131,81750,6,0,P|76:113|33:3,1,167.999994873047,0|8,2:0|2:0,2:0:0:0:
245,8,82141,2,0,L|233:100,1,83.9999974365235,0|0,3:0|0:0,2:0:0:0:
321,176,82402,2,0,L|333:84,1,83.9999974365235,0|8,3:0|2:0,0:0:0:0:
466,7,82663,102,0,P|484:90|509:170,1,167.999994873047,4|0,3:1|3:0,2:0:0:0:
384,239,83054,2,0,L|475:250,1,83.9999974365235,8|0,2:0|3:0,2:0:0:0:
249,259,83315,2,0,L|323:315,1,83.9999974365235,0|0,2:0|3:0,2:0:0:0:
123,209,83576,2,0,L|159:294,1,83.9999974365235,8|0,2:0|3:0,2:0:0:0:
111,356,83772,1,0,3:0:0:0:
111,356,83837,6,0,P|45:335|14:231,1,167.999994873047,8|0,3:2|3:0,0:0:0:0:
87,133,84228,1,8,2:0:0:0:
87,133,84359,1,0,3:0:0:0:
191,219,84489,2,0,P|233:211|272:196,1,83.9999974365235,8|0,2:0|3:0,0:0:0:0:
316,16,84750,2,0,P|275:24|236:39,1,83.9999974365235,4|0,3:1|0:0,2:0:0:0:
196,117,85011,1,0,3:0:0:0:
453,39,85141,102,0,L|473:125,1,83.9999974365235,8|0,2:0|3:0,2:0:0:0:
185,369,85402,2,0,L|165:283,1,83.9999974365235,0|0,2:0|3:0,2:0:0:0:
351,5,85663,2,0,L|371:91,1,83.9999974365235,8|0,2:0|2:0,2:0:0:0:
83,335,85924,2,0,L|63:249,1,83.9999974365235,0|0,2:0|3:0,2:0:0:0:
3,79,86185,6,0,P|84:103|167:99,1,167.999994873047,8|0,2:0|3:0,0:0:0:0:
172,89,86511,1,0,3:0:0:0:
176,80,86576,1,0,3:0:0:0:
181,70,86641,1,0,3:0:0:0:
185,61,86706,1,8,3:2:0:0:
264,129,86837,2,0,P|303:113|345:107,1,83.9999974365235,4|0,3:1|2:0,2:0:0:0:
403,41,87098,101,0,1:0:0:0:
424,122,87228,1,0,1:0:0:0:
406,203,87358,1,0,1:0:0:0:
354,268,87489,1,0,1:0:0:0:
278,302,87619,1,0,1:0:0:0:
195,298,87750,1,0,1:0:0:0:
122,258,87880,1,0,1:0:0:0:
76,188,88011,1,0,1:0:0:0:
66,106,88141,1,0,3:0:0:0:
94,28,88272,6,0,P|101:91|97:154,1,125.999996154785,8|0,3:2|3:0,2:0:0:0:
44,149,88532,2,0,P|38:212|42:275,1,125.999996154785,8|0,3:2|2:0,2:0:0:0:
95,287,88793,1,0,3:0:0:0:
167,365,88924,6,0,P|236:361|293:322,1,140,4|0,3:1|3:0,2:0:0:0:
277,220,89315,1,8,2:0:0:0:
277,220,89445,1,0,3:0:0:0:
374,169,89576,6,0,P|386:232|411:327,1,140,0|8,3:0|2:0,2:0:0:0:
484,205,89967,1,0,2:0:0:0:
484,205,90098,2,0,P|472:142|447:47,1,140,0|8,3:0|2:0,2:0:0:0:
385,23,90489,1,0,3:0:0:0:
303,31,90619,1,0,3:0:0:0:
244,88,90750,1,0,3:0:0:0:
233,169,90880,1,8,2:0:0:0:
94,140,91011,102,0,B|67:182|67:182|71:231|109:259,1,140,4|0,3:1|3:0,2:0:0:0:
352,336,91402,2,0,B|379:294|379:294|375:245|338:218,1,140,8|0,2:0|3:0,2:0:0:0:
233,169,91793,1,0,3:0:0:0:
213,54,91924,6,0,L|296:34,1,70,8|0,2:0|3:0,2:0:0:0:
281,37,92119,1,0,3:0:0:0:
281,37,92185,1,8,2:0:0:0:
391,35,92315,2,0,L|407:-7,2,35,0|0|0,3:0|3:0|3:0,0:0:0:0:
438,124,92576,2,0,L|416:216,1,70,8|0,2:0|3:0,0:0:0:0:
474,318,92837,2,0,L|496:226,1,70,0|8,3:0|2:0,0:0:0:0:
322,171,93098,102,0,P|311:240|315:310,1,140,4|0,3:1|3:0,2:0:0:0:
241,382,93489,1,8,2:0:0:0:
241,382,93619,1,0,3:0:0:0:
188,302,93750,6,0,L|31:318,1,140,0|8,3:0|2:0,2:0:0:0:
97,205,94141,1,0,2:0:0:0:
97,205,94272,2,0,L|237:191,1,140,0|8,3:0|2:0,2:0:0:0:
289,125,94663,1,0,3:0:0:0:
231,64,94793,1,0,3:0:0:0:
224,62,94858,1,0,3:0:0:0:
216,59,94923,1,0,3:0:0:0:
207,57,94988,1,0,3:0:0:0:
199,54,95053,1,8,3:2:0:0:
59,81,95185,102,0,P|45:149|54:218,1,140,4|0,3:1|3:0,2:0:0:0:
151,198,95576,1,8,3:2:0:0:
209,277,95706,1,0,3:0:0:0:
295,228,95837,1,0,3:0:0:0:
382,273,95967,1,0,3:0:0:0:
452,204,96098,1,8,3:2:0:0:
409,117,96228,1,0,3:0:0:0:
311,132,96359,5,12,3:2:0:0:
299,120,96424,1,0,3:0:0:0:
285,110,96489,1,0,3:0:0:0:
270,103,96554,1,0,3:0:0:0:
253,96,96619,1,8,3:2:0:0:
236,93,96685,1,0,3:0:0:0:
218,92,96750,1,0,3:0:0:0:
201,95,96815,1,0,3:0:0:0:
184,100,96880,2,0,L|196:204,1,83.9999974365235,12|12,2:0|2:0,2:0:0:0:
194,184,97272,6,0,B|212:228|212:228|144:287|76:245,1,195.999994018555,4|0,3:1|3:0,2:0:0:0:
100,117,97663,2,0,P|52:116|6:100,1,97.9999970092774,8|0,2:0|2:0,2:0:0:0:
176,40,97924,2,0,P|225:42|271:58,1,97.9999970092774,0|0,3:0|3:0,2:0:0:0:
366,129,98185,1,8,2:0:0:0:
438,36,98315,6,0,P|472:80|474:230,1,195.999994018555,4|0,3:2|3:0,2:0:0:0:
392,360,98706,2,0,L|516:341,1,97.9999970092774,8|0,2:0|2:0,2:0:0:0:
296,290,98967,2,0,L|172:309,1,97.9999970092774,0|0,3:0|3:0,0:0:0:0:
110,382,99228,1,8,2:0:0:0:
39,289,99359,102,0,P|21:186|50:91,1,195.999994018555,4|0,3:2|3:0,2:0:0:0:
238,6,99750,2,0,P|254:53|258:101,1,97.9999970092774,8|0,2:0|2:0,2:0:0:0:
105,188,100011,2,0,P|137:152|178:125,1,97.9999970092774,0|0,3:0|3:0,2:0:0:0:
329,212,100272,2,0,P|282:203|238:182,1,97.9999970092774,8|0,2:0|2:0,2:0:0:0:
354,82,100532,5,0,3:0:0:0:
354,82,100663,1,0,3:0:0:0:
452,150,100793,2,0,P|456:207|468:270,1,97.9999970092774,8|0,2:0|3:0,0:0:0:0:
369,354,101054,2,0,P|365:297|353:234,1,97.9999970092774,0|0,3:0|3:0,0:0:0:0:
256,200,101315,1,8,2:0:0:0:
149,246,101445,102,0,B|129:285|129:285|184:346|268:318,1,195.999994018555,4|0,3:1|3:0,2:0:0:0:
467,362,101837,2,0,L|369:354,1,97.9999970092774,8|0,2:0|2:0,2:0:0:0:
341,242,102098,2,0,L|439:250,1,97.9999970092774,0|0,3:0|3:0,2:0:0:0:
499,148,102359,1,8,2:0:0:0:
412,71,102489,6,0,P|291:66|227:20,1,195.999994018555,4|0,3:2|3:0,2:0:0:0:
26,46,102880,2,0,P|75:42|122:54,1,97.9999970092774,8|0,2:0|2:0,2:0:0:0:
199,143,103141,1,0,3:0:0:0:
201,155,103206,1,0,3:0:0:0:
203,167,103271,1,0,3:0:0:0:
205,179,103336,1,0,3:0:0:0:
208,191,103401,1,8,3:2:0:0:
129,279,103532,2,0,P|80:283|33:271,1,97.9999970092774,4|0,3:2|0:0,2:0:0:0:
196,361,103793,102,0,L|307:338,1,97.9999970092774,8|0,3:2|3:0,2:0:0:0:
292,341,103989,1,0,3:0:0:0:
292,341,104054,1,0,3:0:0:0:
328,222,104185,2,0,L|218:246,1,97.9999970092774,8|0,3:2|3:0,2:0:0:0:
233,242,104381,1,0,3:0:0:0:
233,242,104446,1,0,3:0:0:0:
142,169,104576,1,4,3:2:0:0:
213,76,104706,6,0,L|201:21,3,48.9999985046387,0|0|0|0,3:0|3:0|3:0|3:0,0:0:0:0:
297,50,104967,2,0,L|300:-6,3,48.9999985046387,0|0|0|0,3:0|3:0|3:0|3:0,0:0:0:0:
385,36,105228,1,0,3:0:0:0:
410,35,105293,1,0,3:0:0:0:
434,40,105358,1,0,3:0:0:0:
455,52,105423,1,0,3:0:0:0:
472,70,105488,1,8,3:2:0:0:
483,92,105554,1,0,3:0:0:0:
487,117,105619,102,0,P|472:213|477:311,1,195.999994018555,4|0,3:1|3:0,2:0:0:0:
365,351,106011,2,0,L|257:339,1,97.9999970092774,8|0,2:0|2:0,2:0:0:0:
219,233,106272,2,0,L|317:244,1,97.9999970092774,0|0,3:0|3:0,2:0:0:0:
385,149,106532,1,8,2:0:0:0:
308,61,106663,6,0,P|219:101|122:105,1,195.999994018555,4|0,3:2|3:0,2:0:0:0:
30,31,107054,1,8,2:0:0:0:
16,149,107185,1,0,2:0:0:0:
107,223,107315,2,0,P|127:282|128:342,1,97.9999970092774,0|0,3:0|3:0,2:0:0:0:
191,144,107576,1,8,2:0:0:0:
191,144,107706,102,0,P|171:85|170:25,1,97.9999970092774,4|0,3:2|0:0,2:0:0:0:
310,94,107967,2,0,P|323:33|352:-19,1,97.9999970092774,0|8,3:0|2:0,0:0:0:0:
439,112,108228,2,0,P|471:74|511:45,1,97.9999970092774,0|0,2:0|3:0,0:0:0:0:
495,216,108489,1,0,3:0:0:0:
409,296,108619,6,0,L|275:318,1,97.9999970092774,12|0,2:0|3:0,2:0:0:0:
166,227,108880,2,0,L|300:205,1,97.9999970092774,4|0,2:0|3:0,2:0:0:0:
348,130,109141,1,8,3:2:0:0:
248,51,109272,1,0,3:0:0:0:
248,51,109337,1,0,3:0:0:0:
248,51,109402,2,0,L|256:-12,4,48.9999985046387,0|0|0|0|8,3:0|3:0|3:0|3:0|3:2,0:0:0:0:
132,71,109793,102,0,P|103:151|98:266,1,195.999994018555,4|0,3:1|3:0,2:0:0:0:
380,313,110185,2,0,P|409:233|414:118,1,195.999994018555,12|0,3:2|3:0,2:0:0:0:
256,192,110576,1,0,3:0:0:0:
256,192,110706,1,8,2:0:0:0:
97,91,110837,6,0,P|78:200|94:327,1,224,4|0,3:1|3:0,2:0:0:0:
415,293,111229,2,0,P|434:184|418:57,1,224,12|0,3:2|3:0,2:0:0:0:
256,192,111619,1,0,3:0:0:0:
256,192,111750,1,8,2:0:0:0:
53,120,111880,6,0,P|53:250|88:375,1,251.999992309571,4|0,3:1|3:0,2:0:0:0:
188,309,112272,1,4,1:2:0:0:
291,363,112402,1,4,1:2:0:0:
389,300,112532,2,0,P|379:246|385:202,1,97.9999970092774,0|0,3:0|3:0,0:0:0:0:
482,138,112793,2,0,P|492:192|486:236,1,97.9999970092774,8|0,3:2|3:0,2:0:0:0:
370,79,113054,5,8,3:0:0:0:
370,79,113185,2,0,L|262:98,1,97.9999970092774,0|8,3:0|3:2,0:0:0:0:
188,219,113445,1,0,3:0:0:0:
188,219,113576,2,0,L|296:200,1,97.9999970092774,8|8,3:2|3:2,0:0:0:0:
449,274,113837,37,12,3:2:0:0:
448,274,113967,2,0,P|394:289|340:278,1,112,4|0,3:2|3:0,2:0:0:0:
449,274,115924,5,0,3:0:0:0:
449,274,115989,1,0,3:0:0:0:
448,274,116054,2,0,P|394:289|340:278,1,112,4|0,3:2|3:0,2:0:0:0:
133,47,116967,102,0,L|205:30,1,56,4|0,1:2|0:0,2:0:0:0:
80,135,117228,2,0,L|8:152,1,56,0|0,3:0|0:0,0:0:0:0:
168,174,117489,1,0,3:0:0:0:
171,179,117554,1,0,3:0:0:0:
175,185,117619,1,0,3:0:0:0:
179,191,117684,1,0,3:0:0:0:
182,197,117750,2,0,L|226:214,4,28,0|0|0|0|8,3:0|3:0|3:0|3:0|3:2,0:0:0:0:
326,282,118141,6,0,P|373:253|428:244,1,112,4|0,3:1|2:0,2:0:0:0:
512,257,118532,1,0,3:0:0:0:
508,246,118792,1,4,3:0:0:0:
505,235,119053,1,0,3:0:0:0:
502,224,119314,1,0,3:0:0:0:
499,213,119575,1,0,3:0:0:0:
496,203,119837,2,0,L|507:138,1,56,8|8,2:0|2:0,0:0:0:0:
345,25,120228,102,0,P|266:39|196:113,1,167.999994873047,4|0,3:1|3:0,2:0:0:0:
202,104,120554,1,0,3:0:0:0:
201,111,120619,1,0,3:0:0:0:
200,118,120684,1,0,3:0:0:0:
199,125,120749,1,0,3:0:0:0:
198,132,120815,1,0,3:0:0:0:
197,138,120880,6,0,L|237:163,3,41.9999987182618,8|0|0|0,3:2|2:0|3:0|2:0,2:0:0:0:
208,237,121141,2,0,L|255:238,3,41.9999987182618,0|0|0|0,3:0|3:0|3:0|3:0,0:0:0:0:
267,317,121402,2,0,L|308:294,3,41.9999987182618,0|0|0|0,3:0|3:0|3:0|3:0,0:0:0:0:
358,356,121663,2,0,L|382:316,3,41.9999987182618,0|0|0|0,3:0|3:0|3:0|3:0,0:0:0:0:
455,349,121924,2,0,B|504:330|504:330|521:267|470:227,1,167.999994873047,8|4,3:2|3:2,0:0:0:0:
65,349,122445,69,4,1:0:0:0:
65,349,122576,1,0,3:0:0:0:
10,252,122706,2,0,L|24:153,1,83.9999974365235,0|0,3:0|3:0,0:0:0:0:
21,168,122902,1,0,3:0:0:0:
21,168,122967,1,4,3:2:0:0:
113,233,123098,2,0,L|127:134,1,83.9999974365235,0|0,3:0|3:0,0:0:0:0:
124,149,123294,1,0,3:0:0:0:
124,149,123359,1,0,3:0:0:0:
70,63,123489,6,0,P|109:46|151:45,1,83.9999974365235,2|0,2:1|3:0,0:0:0:0:
227,112,123750,1,0,3:0:0:0:
227,112,123815,1,0,3:0:0:0:
227,112,123880,1,0,3:0:0:0:
311,57,124011,2,0,P|349:40|391:39,1,83.9999974365235,4|0,2:0|3:0,0:0:0:0:
467,106,124272,1,0,3:0:0:0:
467,106,124337,1,0,3:0:0:0:
467,106,124402,1,0,3:0:0:0:
415,219,124532,102,0,L|457:268,2,41.9999987182618,4|0|0,3:1|2:0|3:0,2:0:0:0:
325,172,124793,2,0,L|228:179,1,83.9999974365235,0|0,3:0|3:0,0:0:0:0:
241,178,124989,1,0,3:0:0:0:
241,178,125054,1,4,3:2:0:0:
336,277,125185,2,0,L|239:284,1,83.9999974365235,0|0,3:0|3:0,0:0:0:0:
252,283,125381,1,0,3:0:0:0:
252,283,125446,1,0,3:0:0:0:
187,360,125576,6,0,P|139:353|101:327,1,83.9999974365235,4|0,2:1|3:0,0:0:0:0:
56,251,125837,1,0,3:0:0:0:
74,154,125967,1,0,3:0:0:0:
151,93,126098,1,4,3:2:0:0:
250,100,126228,1,0,3:0:0:0:
318,171,126358,2,0,B|416:182,1,70,4|0,3:2|0:0,2:0:0:0:
470,235,126619,102,0,L|489:294,2,41.9999987182618,4|0|0,1:0|2:0|3:0,2:0:0:0:
491,137,126880,2,0,P|493:95|477:56,1,83.9999974365235,0|0,3:0|3:0,0:0:0:0:
477,56,127076,1,0,3:0:0:0:
477,56,127141,1,4,3:2:0:0:
377,71,127272,2,0,P|375:112|391:151,1,83.9999974365235,0|0,3:0|3:0,0:0:0:0:
391,151,127468,1,0,3:0:0:0:
391,151,127533,1,0,3:0:0:0:
357,245,127663,6,0,L|257:234,1,83.9999974365235,4|0,2:1|3:0,0:0:0:0:
193,297,127924,1,0,3:0:0:0:
193,297,127989,1,0,3:0:0:0:
193,297,128054,1,0,3:0:0:0:
299,153,128185,2,0,L|199:142,1,83.9999974365235,4|0,2:0|3:0,0:0:0:0:
135,205,128445,1,0,3:0:0:0:
135,205,128511,1,0,3:0:0:0:
135,205,128576,1,0,3:0:0:0:
125,103,128706,101,4,3:2:0:0:
35,141,128836,1,0,3:0:0:0:
2,233,128967,1,0,3:0:0:0:
47,320,129097,1,0,3:0:0:0:
141,346,129228,1,4,3:2:0:0:
196,262,129358,1,0,3:0:0:0:
290,297,129489,1,4,3:2:0:0:
344,212,129619,1,0,3:0:0:0:
438,247,129750,85,8,3:2:0:0:
438,247,129880,2,0,L|457:95,1,140,6|0,2:1|2:0,2:0:0:0:
355,170,130272,1,8,3:2:0:0:
355,170,130402,2,0,L|334:18,1,140,6|0,2:1|2:0,2:0:0:0:
135,81,130793,6,0,L|177:55,15,35,4|0|0|0|0|0|0|0|4|0|0|0|0|0|0|0,3:1|3:0|3:0|3:0|3:0|3:0|3:0|3:0|3:2|3:0|3:0|3:0|3:0|3:0|3:0|3:0,0:0:0:0:
49,92,131837,2,0,L|23:50,15,35,12|0|0|0|0|0|0|0|4|0|0|0|0|0|0|0,3:2|3:0|3:0|3:0|3:0|3:0|3:0|3:0|3:2|3:0|3:0|3:0|3:0|3:0|3:0|3:0,0:0:0:0:
60,178,132880,2,0,L|18:204,15,35,4|0|0|0|0|0|0|0|4|0|0|0|0|0|0|0,3:2|3:0|3:0|3:0|3:0|3:0|3:0|3:0|3:2|3:0|3:0|3:0|3:0|3:0|3:0|3:0,0:0:0:0:
146,166,133924,2,0,L|172:208,7,35,12|0|0|0|0|0|0|0,3:2|3:0|3:0|3:0|3:0|3:0|3:0|3:0,0:0:0:0:
230,152,134445,1,8,3:2:0:0:
247,151,134510,1,8,3:0:0:0:
264,153,134575,1,8,3:0:0:0:
281,157,134640,1,8,3:0:0:0:
298,164,134705,1,8,3:0:0:0:
313,172,134771,1,8,3:0:0:0:
328,182,134836,1,8,3:0:0:0:
341,193,134901,1,8,3:0:0:0:
352,207,134967,102,0,L|339:313,1,97.9999970092774,4|0,1:0|1:0,2:0:0:0:
366,114,135228,2,0,L|472:127,1,97.9999970092774,4|0,1:2|1:0,2:0:0:0:
273,100,135489,2,0,L|286:-6,1,97.9999970092774,4|0,1:2|1:0,2:0:0:0:
259,193,135750,2,0,L|153:180,1,97.9999970092774,4|0,1:2|1:0,2:0:0:0:
68,219,136011,1,4,1:2:0:0:
5,145,136141,1,0,1:0:0:0:
55,61,136272,1,4,1:2:0:0:
150,82,136402,1,0,1:0:0:0:
218,12,136532,1,4,1:2:0:0:
313,33,136662,1,0,1:0:0:0:
313,33,136793,2,0,P|332:84|337:142,1,105,0|0,3:0|3:0,0:0:0:0:
332,148,137054,22,0,L|238:162,1,70,12|0,3:2|3:0,2:0:0:0:
262,158,137250,1,0,3:0:0:0:
262,158,137315,1,0,3:0:0:0:
276,252,137445,2,0,L|187:217,1,70,12|0,3:2|3:0,2:0:0:0:
210,226,137641,1,0,3:0:0:0:
210,226,137706,1,0,3:0:0:0:
173,311,137837,2,0,L|113:236,1,70,12|0,3:2|3:0,2:0:0:0:
129,256,138033,1,0,3:0:0:0:
129,256,138098,1,0,3:0:0:0:
54,312,138228,2,0,L|39:217,1,70,12|0,3:2|3:0,2:0:0:0:
43,242,138424,1,0,3:0:0:0:
43,242,138489,1,0,3:0:0:0:
87,105,138619,22,0,P|138:129|242:114,1,140,12|0,3:2|2:0,2:0:0:0:
219,124,139141,1,4,2:1:0:0:
487,32,139663,22,0,L|403:25,1,70,6|0,2:0|2:0,2:0:0:0:
357,85,139924,2,0,L|273:78,1,70,2|0,2:0|2:0,2:0:0:0:
212,40,140185,2,0,L|202:-5,7,35,0|0|0|0|0|0|0|0,3:0|3:0|3:0|3:0|3:0|3:0|3:0|3:0,0:0:0:0:
212,40,140706,2,0,P|180:104|177:192,1,140,8|2,3:2|3:2,0:0:0:0:
61,355,141228,6,0,B|68:323|68:323|123:303|168:335,1,140,4|0,3:1|2:0,2:0:0:0:
248,379,141619,1,2,2:0:0:0:
248,379,141750,2,0,L|259:295,1,70,8|0,2:0|2:0,2:0:0:0:
216,235,142011,102,0,P|276:200|345:195,1,140,2|4,2:0|2:0,2:0:0:0:
468,319,142402,2,0,P|407:353|338:358,1,140,0|0,3:0|2:0,2:0:0:0:
461,121,142793,2,0,L|478:182,5,46.6666666666667,10|2|2|2|2|2,2:0|2:0|2:0|2:0|2:0|2:0,0:0:0:0:
483,41,143315,6,0,B|431:22|431:22|387:43|383:86,1,140,6|0,3:2|2:0,2:0:0:0:
345,171,143706,1,0,3:0:0:0:
345,171,143837,2,0,P|311:162|281:144,1,70,8|0,2:0|0:0,2:0:0:0:
220,12,144098,1,2,2:0:0:0:
220,12,144229,2,0,P|229:45|228:80,1,70,0|0,3:0|0:0,2:0:0:0:
144,199,144488,1,0,2:0:0:0:
144,199,144619,2,0,P|168:174|199:157,1,70,2|0,3:2|2:0,2:0:0:0:
309,248,144880,1,8,2:0:0:0:
66,370,145141,101,12,3:2:0:0:
62,361,145206,1,0,3:0:0:0:
59,353,145271,1,4,3:2:0:0:
55,345,145337,1,0,3:0:0:0:
52,337,145402,2,0,L|-14:325,2,35,0|0|0,3:0|3:0|3:0,0:0:0:0:
118,285,145663,1,0,3:0:0:0:
118,285,145793,2,0,L|66:241,2,35,0|0|8,3:0|3:0|3:2,0:0:0:0:
201,272,146054,1,0,3:0:0:0:
201,272,146184,2,0,L|178:208,2,35,0|0|0,3:0|3:0|3:0,0:0:0:0:
419,362,146576,5,0,3:0:0:0:
489,314,146706,1,0,3:0:0:0:
489,314,146772,1,0,3:0:0:0:
489,314,146837,2,0,P|484:275|466:220,1,70,0|8,3:0|3:2,0:0:0:0:
409,193,147098,1,0,3:0:0:0:
479,145,147228,1,0,3:0:0:0:
479,145,147294,1,0,3:0:0:0:
479,145,147358,1,0,3:0:0:0:
426,79,147489,102,0,P|394:64|359:63,1,70,4|0,3:1|2:0,2:0:0:0:
254,180,147750,2,0,P|285:194|320:195,1,70,2|0,2:0|2:0,2:0:0:0:
218,13,148011,2,0,P|156:34|110:113,1,140,8|0,3:2|2:0,2:0:0:0:
50,148,148402,1,2,2:0:0:0:
50,148,148532,6,0,B|34:188|34:188|67:240|123:217,1,140,2|0,3:2|2:0,2:0:0:0:
189,175,148924,1,0,3:0:0:0:
189,175,148989,1,0,3:0:0:0:
189,175,149054,2,0,P|205:211|212:256,1,70,10|0,3:2|2:0,2:0:0:0:
275,295,149315,1,0,3:0:0:0:
275,295,149445,1,8,2:0:0:0:
333,234,149576,102,0,L|415:221,1,70,6|2,2:0|2:0,0:0:0:0:
499,295,149837,2,0,L|417:308,1,70,0|0,2:0|3:0,2:0:0:0:
282,167,150098,2,0,P|329:140|423:146,1,140,8|0,3:2|2:0,2:0:0:0:
470,67,150489,1,2,2:0:0:0:
470,67,150619,6,0,L|485:1,5,46.6666666666667,2|2|2|2|2|2,3:2|2:0|2:0|2:0|0:2|0:2,0:0:0:0:
373,8,151141,2,0,L|384:69,5,46.6666666666667,10|2|2|2|2|2,3:2|2:0|0:2|2:0|2:0|2:0,0:0:0:0:
279,81,151663,2,0,L|294:15,5,46.6666666666667,6|2|2|2|2|2,3:2|2:0|2:0|2:0|3:2|0:2,0:0:0:0:
182,22,152185,2,0,L|193:83,5,46.6666666666667,10|2|2|2|2|2,3:2|2:0|0:2|3:2|2:0|2:0,0:0:0:0:
108,89,152706,2,0,L|46:80,2,46.6666666666667,2|2|2,2:0|2:0|2:0,0:0:0:0:
170,147,152967,102,0,P|180:181|180:216,1,70,0|0,3:0|2:0,2:0:0:0:
7,287,153228,1,8,2:0:0:0:
7,287,153358,2,0,P|-6:243|10:149,1,140,0|0,3:0|3:0,2:0:0:0:
114,287,153750,6,0,L|103:332,2,35,0|0|0,3:0|3:0|3:0,0:0:0:0:
201,330,154011,1,0,3:0:0:0:
201,330,154141,2,0,L|213:374,2,35,0|0|8,3:0|3:0|3:2,0:0:0:0:
297,323,154402,1,0,3:0:0:0:
297,323,154532,2,0,L|330:355,2,35,0|0|0,3:0|3:0|3:0,0:0:0:0:
344,249,154793,102,0,P|379:245|414:250,1,70,8|0,3:2|3:0,0:0:0:0:
268,190,155054,1,4,3:2:0:0:
268,190,155185,2,0,P|233:193|198:188,1,70,0|0,3:0|3:0,0:0:0:0:
323,114,155445,5,8,3:2:0:0:
289,21,155576,1,8,3:2:0:0:
223,97,155706,1,8,3:2:0:0:
388,37,155837,1,12,3:2:0:0:
411,324,156358,69,0,2:0:0:0:
124,347,157402,5,0,3:0:0:0:
79,256,157532,1,0,3:0:0:0:
124,347,157663,1,0,3:0:0:0:
223,351,157793,2,0,P|254:334|276:307,1,70,12|0,3:2|0:0,0:0:0:0:
101,60,158445,101,0,2:0:0:0:
388,37,158967,6,0,P|356:95|342:182,1,140,0|8,3:0|3:2,2:0:0:0:
421,192,159358,1,0,3:0:0:0:
420,276,159488,1,0,1:0:0:0:
341,302,159619,1,0,1:0:0:0:
291,234,159749,1,0,1:0:0:0:
341,166,159880,1,12,1:2:0:0:
411,324,160532,101,0,2:0:0:0:
124,347,161054,5,4,2:1:0:0:
101,60,161576,102,0,P|156:93|203:159,1,140,8|0,2:0|3:0,2:0:0:0:
210,292,161967,2,0,P|155:259|108:193,1,140,4|0,3:1|2:0,2:0:0:0:
231,41,162358,6,0,L|325:18,1,83.9999974365235,8|0,2:0|2:0,2:0:0:0:
334,103,162619,2,0,L|430:105,1,83.9999974365235,8|0,2:0|2:0,2:0:0:0:
417,189,162880,2,0,L|509:216,1,83.9999974365235,8|0,2:0|2:0,2:0:0:0:
441,327,163141,102,0,P|381:345|319:337,1,125.999996154785,8|0,3:2|3:0,0:0:0:0:
317,286,163402,2,0,P|257:268|195:276,1,125.999996154785,8|0,3:2|3:0,0:0:0:0:
168,320,163663,1,8,3:2:0:0:
73,336,163793,1,0,3:0:0:0:
13,261,163923,1,8,3:2:0:0:
49,172,164054,6,0,P|121:179|216:125,1,167.999994873047,4|8,1:2|3:2,2:0:0:0:
270,55,164445,2,0,L|254:4,3,41.9999987182618,2|2|2|2,3:2|2:0|2:0|2:0,2:0:0:0:
358,62,164706,2,0,L|342:11,3,41.9999987182618,8|8|8|8,3:2|3:2|3:2|3:2,0:0:0:0:
452,69,164967,2,0,L|436:18,3,41.9999987182618,0|0|0|0,3:0|3:0|3:0|3:0,0:0:0:0:
503,142,165228,101,8,3:2:0:0:
504,162,165293,1,8,3:2:0:0:
500,183,165358,1,8,3:2:0:0:
492,202,165423,1,8,3:2:0:0:
479,218,165488,1,0,3:0:0:0:
462,231,165554,1,0,3:0:0:0:
443,239,165619,1,0,3:0:0:0:
422,242,165684,1,0,3:0:0:0:
401,240,165750,2,0,L|303:216,1,83.9999974365235,12|12,3:2|3:2,2:0:0:0:
319,220,166141,22,0,B|288:183|288:183|203:213|216:297,1,195.999994018555,4|0,3:1|3:0,2:0:0:0:
111,378,166532,2,0,P|122:330|119:281,1,97.9999970092774,8|0,2:0|2:0,2:0:0:0:
27,201,166793,2,0,P|15:248|18:297,1,97.9999970092774,0|0,3:0|3:0,2:0:0:0:
122,144,167054,1,8,2:0:0:0:
24,77,167185,6,0,P|76:34|218:22,1,195.999994018555,4|0,3:2|3:0,2:0:0:0:
262,117,167576,2,0,L|240:227,1,97.9999970092774,8|0,2:0|2:0,2:0:0:0:
384,96,167837,2,0,L|406:-14,1,97.9999970092774,0|0,3:0|3:0,0:0:0:0:
412,212,168098,1,8,2:0:0:0:
319,284,168228,102,0,P|250:258|121:264,1,195.999994018555,4|0,3:2|3:0,2:0:0:0:
32,193,168619,2,0,P|14:147|12:98,1,97.9999970092774,8|0,2:0|2:0,2:0:0:0:
129,117,168880,1,0,3:0:0:0:
129,117,169011,1,0,3:0:0:0:
220,43,169141,2,0,P|237:88|239:137,1,97.9999970092774,8|0,2:0|2:0,2:0:0:0:
209,251,169402,5,0,3:0:0:0:
292,334,169533,1,0,3:0:0:0:
405,304,169663,1,8,2:0:0:0:
436,190,169794,1,0,3:0:0:0:
353,107,169924,1,0,3:0:0:0:
239,137,170054,1,0,3:0:0:0:
150,59,170185,1,8,2:0:0:0:
35,90,170315,102,0,B|18:130|18:130|48:212|140:192,1,195.999994018555,4|0,3:1|3:0,2:0:0:0:
237,260,170706,2,0,L|224:370,1,97.9999970092774,8|0,2:0|2:0,2:0:0:0:
330,201,170967,2,0,L|343:91,1,97.9999970092774,0|0,3:0|3:0,2:0:0:0:
437,35,171228,1,8,2:0:0:0:
496,135,171358,6,0,P|505:212|441:326,1,195.999994018555,4|0,3:2|3:0,2:0:0:0:
345,364,171750,2,0,L|329:243,1,97.9999970092774,8|0,2:0|2:0,2:0:0:0:
214,280,172011,1,0,3:0:0:0:
202,276,172076,1,0,3:0:0:0:
190,272,172141,1,0,3:0:0:0:
178,269,172206,1,0,3:0:0:0:
167,265,172271,1,8,3:2:0:0:
63,322,172402,2,0,L|47:201,1,97.9999970092774,4|0,3:2|0:0,2:0:0:0:
116,64,172663,102,0,P|68:70|28:97,1,97.9999970092774,8|0,3:2|3:0,2:0:0:0:
28,97,172858,1,0,3:0:0:0:
28,97,172924,1,0,3:0:0:0:
173,164,173054,2,0,P|221:158|261:131,1,97.9999970092774,8|0,3:2|3:0,2:0:0:0:
262,132,173249,1,0,3:0:0:0:
262,132,173315,1,0,3:0:0:0:
320,30,173445,1,4,3:2:0:0:
431,70,173576,6,0,L|489:56,3,48.9999985046387,0|0|0|0,3:0|3:0|3:0|3:0,0:0:0:0:
405,156,173837,2,0,L|347:142,3,48.9999985046387,0|0|0|0,3:0|3:0|3:0|3:0,0:0:0:0:
480,209,174098,1,0,3:0:0:0:
485,232,174163,1,0,3:0:0:0:
483,257,174228,1,0,3:0:0:0:
474,279,174293,1,0,3:0:0:0:
458,298,174358,1,8,3:2:0:0:
437,310,174424,1,0,3:0:0:0:
413,316,174489,102,0,P|351:282|212:293,1,195.999994018555,4|0,3:1|3:0,2:0:0:0:
38,167,174880,2,0,P|15:210|8:258,1,97.9999970092774,8|0,2:0|2:0,2:0:0:0:
91,377,175141,2,0,P|113:333|120:285,1,97.9999970092774,0|0,3:0|3:0,2:0:0:0:
183,185,175402,1,8,2:0:0:0:
292,226,175532,6,0,P|387:208|461:146,1,195.999994018555,4|0,3:2|3:0,2:0:0:0:
498,33,175924,1,8,2:0:0:0:
387,71,176054,1,0,2:0:0:0:
286,9,176185,2,0,L|270:126,1,97.9999970092774,0|0,3:0|3:0,2:0:0:0:
168,52,176445,1,8,2:0:0:0:
100,149,176576,102,0,P|59:121|13:106,1,97.9999970092774,4|0,3:2|0:0,2:0:0:0:
218,188,176837,2,0,P|262:166|298:134,1,97.9999970092774,0|8,3:0|2:0,0:0:0:0:
126,270,177097,2,0,P|122:318|132:366,1,97.9999970092774,0|0,2:0|3:0,0:0:0:0:
241,320,177358,1,0,3:0:0:0:
345,375,177489,6,0,L|460:362,1,97.9999970092774,12|0,2:0|3:0,2:0:0:0:
480,252,177750,2,0,L|365:265,1,97.9999970092774,4|0,2:0|3:0,2:0:0:0:
311,169,178011,1,8,3:2:0:0:
394,87,178141,1,0,3:0:0:0:
394,87,178206,1,0,3:0:0:0:
394,87,178272,2,0,L|457:97,4,48.9999985046387,0|0|0|0|8,3:0|3:0|3:0|3:0|3:2,0:0:0:0:
283,46,178663,102,0,P|185:53|95:114,1,195.999994018555,4|0,3:1|3:0,2:0:0:0:
229,338,179054,2,0,P|327:331|417:270,1,195.999994018555,12|0,3:2|3:0,2:0:0:0:
256,192,179445,1,0,3:0:0:0:
256,192,179576,1,8,2:0:0:0:
251,24,179706,6,0,P|107:78|71:137,1,224,4|0,3:1|3:0,2:0:0:0:
261,360,180097,2,0,P|405:306|441:247,1,224,12|0,3:2|3:0,2:0:0:0:
256,192,180489,1,0,3:0:0:0:
256,192,180619,1,8,3:2:0:0:
212,2,180750,6,0,P|110:45|46:179,1,251.999992309571,4|0,3:1|3:0,2:0:0:0:
101,270,181141,2,0,L|85:330,3,48.9999985046387,8|0|0|0,3:2|2:0|3:0|2:0,2:0:0:0:
177,313,181402,2,0,L|177:375,3,48.9999985046387,0|0|0|0,3:0|3:0|3:0|3:0,0:0:0:0:
261,334,181663,2,0,L|277:393,3,48.9999985046387,0|0|0|0,3:0|3:0|3:0|3:0,0:0:0:0:
354,335,181924,5,8,3:2:0:0:
354,335,182054,2,0,P|368:284|365:229,1,97.9999970092774,8|0,3:2|3:0,2:0:0:0:
405,203,182250,1,0,3:0:0:0:
405,203,182315,2,0,L|463:210,6,48.9999985046387,8|0|0|0|0|0|8,3:2|3:0|3:0|3:0|3:0|3:0|3:2,0:0:0:0:
499,80,182837,38,0,P|441:40|373:29,1,140,4|0,3:1|2:0,2:0:0:0:
320,95,183228,2,0,L|330:179,1,70,0|0,3:0|2:0,2:0:0:0:
233,72,183489,2,0,L|223:-12,1,70,8|0,2:0|2:0,0:0:0:0:
160,127,183750,1,0,2:0:0:0:
160,127,183880,6,0,P|181:195|175:276,1,140,4|0,3:2|2:0,2:0:0:0:
99,350,184272,2,0,P|101:316|92:281,1,70,0|0,3:0|2:0,2:0:0:0:
0,210,184532,2,0,P|-2:243|6:278,1,70,8|0,2:0|2:0,0:0:0:0:
66,142,184793,1,0,2:0:0:0:
66,142,184924,102,0,P|113:129|214:142,1,140,4|0,3:2|2:0,2:0:0:0:
263,196,185315,1,0,3:0:0:0:
263,196,185445,1,0,2:0:0:0:
337,148,185576,2,0,L|329:74,3,70,8|0|0|0,2:0|3:0|3:0|3:0,0:0:0:0:
403,212,186098,2,0,L|411:286,3,70,0|8|0|0,3:0|3:2|3:0|3:0,0:0:0:0:
346,336,186619,2,0,P|311:337|278:349,1,70,8|0,3:2|3:0,0:0:0:0:
201,383,186880,1,0,3:0:0:0:
201,383,187011,6,0,P|183:325|192:242,1,140,4|0,3:1|2:0,2:0:0:0:
267,213,187402,2,0,L|346:223,1,70,0|0,3:0|2:0,2:0:0:0:
400,167,187663,2,0,L|479:177,1,70,8|0,2:0|2:0,0:0:0:0:
499,254,187924,1,0,2:0:0:0:
498,254,188054,102,0,P|443:294|374:295,1,140,4|0,3:2|2:0,2:0:0:0:
299,335,188445,2,0,P|280:303|242:270,1,70,0|0,3:0|2:0,2:0:0:0:
133,246,188706,2,0,P|152:278|190:311,1,70,8|0,2:0|2:0,0:0:0:0:
277,199,188967,1,0,2:0:0:0:
276,199,189098,6,0,P|290:131|270:64,1,140,4|0,3:2|3:0,2:0:0:0:
196,35,189489,1,8,2:0:0:0:
196,35,189619,2,0,L|105:50,1,70,0|0,3:0|3:0,0:0:0:0:
28,142,189880,1,8,3:2:0:0:
28,142,190010,2,0,L|119:127,1,70,0|0,3:0|3:0,0:0:0:0:
211,196,190272,1,8,3:2:0:0:
211,196,190402,2,0,L|120:211,1,70,0|0,3:0|3:0,0:0:0:0:
122,296,190663,101,0,3:0:0:0:
122,296,190728,1,0,3:0:0:0:
122,296,190793,1,0,3:0:0:0:
257,268,190924,1,12,3:2:0:0:
122,296,191054,1,8,3:2:0:0:
351,365,191185,54,0,B|389:357|389:357|421:278|360:212,1,195.999994018555,4|0,3:1|3:0,2:0:0:0:
410,105,191576,2,0,L|516:81,1,97.9999970092774,8|0,2:0|2:0,2:0:0:0:
330,20,191837,2,0,L|224:44,1,97.9999970092774,0|0,3:0|3:0,2:0:0:0:
163,135,192098,1,8,2:0:0:0:
76,54,192228,6,0,P|24:136|23:233,1,195.999994018555,4|0,3:2|3:0,2:0:0:0:
89,331,192619,1,8,2:0:0:0:
152,231,192750,1,0,2:0:0:0:
249,296,192880,2,0,P|259:220|250:164,1,97.9999970092774,0|0,3:0|3:0,0:0:0:0:
361,254,193141,1,8,2:0:0:0:
416,358,193272,102,0,L|529:338,1,97.9999970092774,4|0,3:2|0:0,2:0:0:0:
407,188,193532,2,0,L|520:208,1,97.9999970092774,0|8,3:0|2:0,0:0:0:0:
400,34,193793,2,0,L|513:14,1,97.9999970092774,0|0,2:0|3:0,0:0:0:0:
311,119,194054,1,0,3:0:0:0:
234,28,194185,6,0,P|184:74|169:117,1,97.9999970092774,12|0,2:0|3:0,0:0:0:0:
221,271,194445,1,0,3:0:0:0:
221,271,194511,1,0,3:0:0:0:
221,271,194576,1,0,3:0:0:0:
221,271,194641,1,0,3:0:0:0:
221,271,194706,2,0,P|271:225|286:182,1,97.9999970092774,8|0,3:2|3:0,2:0:0:0:
97,189,194967,2,0,P|47:235|32:278,1,97.9999970092774,0|0,3:0|3:0,2:0:0:0:
112,351,195228,1,8,3:2:0:0:
228,359,195358,102,0,P|324:315|421:322,1,195.999994018555,4|0,3:1|3:0,2:0:0:0:
284,25,195750,2,0,P|188:69|91:62,1,195.999994018555,12|0,3:2|3:0,2:0:0:0:
256,192,196141,1,0,3:0:0:0:
256,192,196272,1,8,2:0:0:0:
247,364,196402,6,0,P|353:331|462:348,1,224,4|0,3:1|3:0,2:0:0:0:
265,20,196794,2,0,P|158:52|49:35,1,224,12|0,3:2|3:0,2:0:0:0:
256,192,197185,1,0,3:0:0:0:
256,192,197315,1,8,2:0:0:0:
263,374,197445,102,0,P|361:354|513:384,1,251.999992309571,4|0,3:1|3:0,2:0:0:0:
249,10,197837,2,0,P|151:30|-1:0,1,251.999992309571,8|8,3:2|3:2,2:0:0:0:
23,152,198228,1,4,3:0:0:0:
23,152,198358,2,0,L|130:140,1,97.9999970092774,8|0,3:2|3:0,2:0:0:0:
211,215,198619,2,0,L|219:159,3,48.9999985046387,0|0|0|0,3:0|3:0|3:0|3:0,0:0:0:0:
298,199,198880,2,0,L|320:146,3,48.9999985046387,8|8|8|8,3:2|3:2|3:2|3:2,0:0:0:0:
389,188,199141,1,8,3:2:0:0:
78,12,199532,6,0,P|84:109|80:207,1,195.999994018555,4|0,3:1|3:0,2:0:0:0:
0,267,199923,101,0,1:0:0:0:
51,351,200053,1,0,1:0:0:0:
147,373,200185,1,0,1:0:0:0:
229,320,200314,1,0,1:0:0:0:
249,224,200444,1,0,1:0:0:0:
193,143,200575,1,0,1:0:0:0:
96,127,200706,6,0,P|47:133|-1:129,1,97.9999970092774,0|0,1:0|1:0,2:0:0:0:
158,46,200967,2,0,P|207:40|256:45,1,97.9999970092774,0|0,1:0|1:0,2:0:0:0:
338,98,201228,1,0,1:0:0:0:
353,195,201358,1,0,1:0:0:0:
338,98,201489,1,0,1:0:0:0:
409,31,201619,102,0,B|464:50|464:50|496:128|449:184,1,195.999994018555,4|0,1:0|1:0,2:0:0:0:
353,195,202010,1,0,1:0:0:0:
258,180,202140,1,0,1:0:0:0:
192,107,202271,1,0,1:0:0:0:
109,63,202401,1,0,1:0:0:0:
26,108,202531,1,0,1:0:0:0:
17,201,202662,1,0,1:0:0:0:
90,261,202793,6,0,P|100:309|98:358,1,97.9999970092774,0|0,1:0|1:0,2:0:0:0:
174,210,203054,2,0,P|164:163|166:114,1,97.9999970092774,0|0,1:0|1:0,2:0:0:0:
445,240,203315,1,0,3:0:0:0:
271,267,203445,1,0,3:0:0:0:
445,240,203575,1,0,3:0:0:0:
271,267,203706,102,0,P|335:338|430:331,1,195.999994018555,4|0,3:1|3:0,2:0:0:0:
445,240,204098,2,0,L|431:124,1,97.9999970092774,4|0,3:2|2:0,2:0:0:0:
386,65,204358,6,0,L|407:22,7,48.9999985046387,12|0|0|0|0|0|0|0,3:2|3:0|3:0|3:0|3:0|3:0|3:0|3:0,0:0:0:0:
303,69,204880,2,0,L|300:21,7,48.9999985046387,0|0|0|0|0|0|0|0,3:0|3:0|3:0|3:0|3:0|3:0|3:0|3:0,0:0:0:0:
235,114,205402,2,0,L|208:73,7,48.9999985046387,12|0|0|0|0|0|0|0,3:2|3:0|3:0|3:0|3:0|3:0|3:0|3:0,0:0:0:0:
197,187,205924,2,0,L|154:165,7,48.9999985046387,0|0|0|0|0|0|0|0,3:0|3:0|3:0|3:0|3:0|3:0|3:0|3:0,0:0:0:0:
201,269,206445,2,0,L|153:271,7,48.9999985046387,12|0|0|0|0|0|0|0,3:2|3:0|3:0|3:0|3:0|3:0|3:0|3:0,0:0:0:0:
245,338,206967,2,0,L|204:364,7,48.9999985046387,0|0|0|0|0|0|0|0,3:0|3:0|3:0|3:0|3:0|3:0|3:0|3:0,0:0:0:0:
327,332,207489,102,0,P|332:284|324:236,1,97.9999970092774,12|0,3:2|3:0,2:0:0:0:
210,153,207750,1,0,3:0:0:0:
210,153,207880,2,0,P|204:201|212:249,1,97.9999970092774,4|0,3:1|0:0,2:0:0:0:
320,128,208141,1,8,3:2:0:0:
326,123,208206,1,0,3:0:0:0:
333,118,208271,1,0,3:0:0:0:
340,114,208336,1,0,3:0:0:0:
347,109,208401,1,0,3:0:0:0:
353,105,208467,1,0,3:0:0:0:
360,100,208532,6,0,B|372:66|372:66|360:26,21,70,12|0|8|0|8|0|8|0|8|0|8|0|8|0|8|0|8|0|8|0|8|0,3:2|3:0|3:2|3:0|3:2|3:0|3:2|3:0|3:2|3:0|3:2|3:0|3:2|3:0|3:2|3:0|3:2|3:0|3:2|3:0|3:2|3:0,0:0:0:0:
454,80,209967,70,0,L|445:194,1,97.9999970092774,12|0,3:2|0:0,0:0:0:0:
398,290,210228,1,2,2:3:0:0:
393,278,210293,1,0,2:0:0:0:
389,267,210358,1,2,2:3:0:0:
385,255,210423,1,2,2:3:0:0:
380,244,210489,1,2,2:3:0:0:
292,296,210619,6,0,P|243:287|168:322,1,97.9999970092774,4|0,1:2|1:0,2:0:0:0:
19,261,210880,2,0,P|68:270|143:235,1,97.9999970092774,0|0,1:0|1:0,0:0:0:0:
273,180,211141,2,0,P|224:171|149:206,1,97.9999970092774,0|0,1:0|1:0,0:0:0:0:
0,145,211402,2,0,P|49:154|124:119,1,97.9999970092774,0|0,1:0|1:0,0:0:0:0:
134,61,211663,5,12,3:2:0:0:
134,61,211793,1,12,3:2:0:0:
