osu file format v14

[General]
AudioFilename: 15 - Bloodthirsty Nightmare Lullaby.mp3
AudioLeadIn: 0
PreviewTime: 29308
Countdown: 0
SampleSet: None
StackLeniency: 0.7
Mode: 0
LetterboxInBreaks: 0
WidescreenStoryboard: 1

[Editor]
Bookmarks: 10642,29308,33308,34641,39975,43975,45308,47975,50641,52641,61308,63975,70641,73308,79975,82641,85308,94641,95975,99975,101308,106641,115975,126641,147975
DistanceSpacing: 0.6
BeatDivisor: 6
GridSize: 4
TimelineZoom: 2.519999

[Metadata]
Title:Bloodthirsty Nightmare Lullaby
TitleUnicode:Bloodthirsty Nightmare Lullaby
Artist:UNDEAD CORPORATION
ArtistUnicode:UNDEAD CORPORATION
Creator:DT-sama
Version:CS3
Source:東方Project
Tags:when you wanna map the empress but also the better song.
BeatmapID:1951424
BeatmapSetID:934713

[Difficulty]
HPDrainRate:4
CircleSize:3
OverallDifficulty:9.7
ApproachRate:10
SliderMultiplier:2.7
SliderTickRate:1

[Events]
//Background and Video events
0,0,"bgggggggg.jpg",0,0
//Break Periods
2,96175,99414
//Storyboard Layer 0 (Background)
//Storyboard Layer 1 (Fail)
//Storyboard Layer 2 (Pass)
//Storyboard Layer 3 (Foreground)
//Storyboard Sound Samples

[TimingPoints]
10642,333.333333333333,4,1,2,70,1,0
85308,-100,4,1,2,70,0,1
94641,-100,4,1,2,70,0,0
159308,333.333333333333,4,1,2,70,1,0

[Colours]
Combo1 : 255,255,128
Combo2 : 140,255,100
Combo3 : 250,180,220
Combo4 : 172,251,253

[HitObjects]
51,132,10642,5,0,0:0:0:0:
101,178,10725,1,0,0:0:0:0:
169,184,10808,1,0,0:0:0:0:
228,140,10892,1,0,0:0:0:0:
267,82,10975,1,0,0:0:0:0:
335,58,11058,1,0,0:0:0:0:
399,80,11142,1,0,0:0:0:0:
430,144,11225,1,0,0:0:0:0:
410,214,11308,5,0,0:0:0:0:
448,155,11392,1,0,0:0:0:0:
438,91,11475,1,0,0:0:0:0:
375,62,11558,1,0,0:0:0:0:
308,81,11642,1,0,0:0:0:0:
276,143,11725,1,0,0:0:0:0:
304,205,11808,1,0,0:0:0:0:
369,231,11892,1,0,0:0:0:0:
433,217,11975,5,0,0:0:0:0:
380,170,12059,1,0,0:0:0:0:
315,169,12142,1,0,0:0:0:0:
277,227,12225,1,0,0:0:0:0:
285,296,12309,1,0,0:0:0:0:
342,338,12392,1,0,0:0:0:0:
407,321,12475,1,0,0:0:0:0:
443,260,12559,1,0,0:0:0:0:
419,193,12642,5,0,0:0:0:0:
359,232,12726,1,0,0:0:0:0:
342,294,12809,1,0,0:0:0:0:
388,346,12892,1,0,0:0:0:0:
457,356,12976,1,0,0:0:0:0:
512,312,13059,1,0,0:0:0:0:
512,245,13142,1,0,0:0:0:0:
463,194,13226,1,0,0:0:0:0:
396,184,13308,5,0,0:0:0:0:
323,182,13392,1,0,0:0:0:0:
265,143,13475,1,0,0:0:0:0:
251,77,13558,1,0,0:0:0:0:
271,11,13641,5,0,0:0:0:0:
216,57,13724,1,0,0:0:0:0:
141,65,13808,1,0,0:0:0:0:
79,30,13891,1,0,0:0:0:0:
91,99,13974,1,0,0:0:0:0:
64,162,14058,1,0,0:0:0:0:
10,212,14141,5,0,0:0:0:0:
91,204,14224,1,0,0:0:0:0:
162,243,14308,1,0,0:0:0:0:
214,301,14391,1,0,0:0:0:0:
295,310,14474,1,0,0:0:0:0:
366,274,14558,1,0,0:0:0:0:
396,199,14642,5,0,0:0:0:0:
401,173,14725,1,0,0:0:0:0:
408,147,14808,1,0,0:0:0:0:
416,118,14892,1,0,0:0:0:0:
311,133,14975,5,0,0:0:0:0:
316,107,15058,1,0,0:0:0:0:
323,81,15141,1,0,0:0:0:0:
331,52,15225,1,0,0:0:0:0:
431,25,15308,5,0,0:0:0:0:
478,53,15392,1,0,0:0:0:0:
500,103,15475,1,0,0:0:0:0:
499,156,15558,1,0,0:0:0:0:
443,211,15642,1,0,0:0:0:0:
406,255,15725,1,0,0:0:0:0:
405,310,15808,1,0,0:0:0:0:
436,354,15892,1,0,0:0:0:0:
488,284,15975,5,0,0:0:0:0:
441,243,16058,1,0,0:0:0:0:
379,227,16142,1,0,0:0:0:0:
321,244,16225,1,0,0:0:0:0:
269,286,16308,1,0,0:0:0:0:
202,288,16392,1,0,0:0:0:0:
141,251,16475,1,0,0:0:0:0:
131,184,16558,1,0,0:0:0:0:
172,122,16642,5,0,0:0:0:0:
110,174,16725,1,0,0:0:0:0:
34,158,16808,1,0,0:0:0:0:
5,88,16892,1,0,0:0:0:0:
41,23,16975,1,0,0:0:0:0:
112,3,17058,1,0,0:0:0:0:
172,44,17142,1,0,0:0:0:0:
244,49,17225,1,0,0:0:0:0:
303,15,17308,5,0,0:0:0:0:
270,73,17391,1,0,0:0:0:0:
296,136,17475,1,0,0:0:0:0:
358,162,17558,1,0,0:0:0:0:
425,146,17641,1,0,0:0:0:0:
459,83,17725,1,0,0:0:0:0:
433,22,17808,1,0,0:0:0:0:
363,8,17891,1,0,0:0:0:0:
298,40,17975,1,0,0:0:0:0:
294,113,18058,1,0,0:0:0:0:
343,161,18141,1,0,0:0:0:0:
395,222,18225,1,0,0:0:0:0:
402,296,18308,1,0,0:0:0:0:
346,343,18391,1,0,0:0:0:0:
260,342,18475,1,0,0:0:0:0:
212,268,18558,1,0,0:0:0:0:
235,183,18641,5,0,0:0:0:0:
274,158,18725,1,0,0:0:0:0:
321,155,18808,1,0,0:0:0:0:
359,167,18891,1,0,0:0:0:0:
402,177,18975,1,0,0:0:0:0:
445,162,19058,1,0,0:0:0:0:
470,125,19141,1,0,0:0:0:0:
462,81,19225,1,0,0:0:0:0:
381,43,19308,5,0,0:0:0:0:
357,54,19364,1,0,0:0:0:0:
328,59,19419,1,0,0:0:0:0:
297,58,19475,1,0,0:0:0:0:
264,50,19530,1,0,0:0:0:0:
230,46,19586,1,0,0:0:0:0:
197,53,19641,1,0,0:0:0:0:
175,63,19697,1,0,0:0:0:0:
153,71,19753,1,0,0:0:0:0:
132,78,19808,1,0,0:0:0:0:
113,87,19864,1,0,0:0:0:0:
93,96,19919,1,0,0:0:0:0:
71,111,19975,5,0,0:0:0:0:
45,142,20030,1,0,0:0:0:0:
42,186,20086,1,0,0:0:0:0:
58,219,20141,1,0,0:0:0:0:
231,283,20308,1,0,0:0:0:0:
241,239,20364,1,0,0:0:0:0:
235,195,20419,1,0,0:0:0:0:
206,165,20475,1,0,0:0:0:0:
119,298,20641,5,0,0:0:0:0:
335,237,20753,1,0,0:0:0:0:
174,92,20864,1,0,0:0:0:0:
119,298,20975,1,0,0:0:0:0:
442,352,21086,1,0,0:0:0:0:
339,86,21197,1,0,0:0:0:0:
119,298,21308,5,0,0:0:0:0:
181,353,21391,1,0,0:0:0:0:
254,359,21475,1,0,0:0:0:0:
312,307,21558,1,0,0:0:0:0:
362,237,21641,1,0,0:0:0:0:
447,220,21725,1,0,0:0:0:0:
512,276,21808,1,0,0:0:0:0:
504,370,21891,1,0,0:0:0:0:
416,322,21975,5,0,0:0:0:0:
390,259,22058,1,0,0:0:0:0:
399,194,22141,1,0,0:0:0:0:
444,140,22225,1,0,0:0:0:0:
499,105,22308,1,0,0:0:0:0:
490,38,22391,1,0,0:0:0:0:
426,14,22475,1,0,0:0:0:0:
391,64,22558,1,0,0:0:0:0:
331,87,22641,5,0,0:0:0:0:
270,62,22725,1,0,0:0:0:0:
212,61,22808,1,0,0:0:0:0:
171,106,22891,1,0,0:0:0:0:
116,69,22975,1,0,0:0:0:0:
53,69,23058,1,0,0:0:0:0:
4,21,23141,5,0,0:0:0:0:
41,81,23225,1,0,0:0:0:0:
40,158,23308,1,0,0:0:0:0:
12,228,23391,1,0,0:0:0:0:
43,305,23475,1,0,0:0:0:0:
116,329,23558,1,0,0:0:0:0:
194,303,23641,1,0,0:0:0:0:
234,242,23725,1,0,0:0:0:0:
300,202,23808,1,0,0:0:0:0:
375,222,23891,1,0,0:0:0:0:
422,289,23975,5,0,0:0:0:0:
401,263,24030,1,0,0:0:0:0:
394,224,24086,1,0,0:0:0:0:
412,194,24141,1,0,0:0:0:0:
440,170,24197,1,0,0:0:0:0:
454,139,24253,1,0,0:0:0:0:
454,102,24308,1,0,0:0:0:0:
436,68,24364,1,0,0:0:0:0:
406,51,24419,5,0,0:0:0:0:
389,74,24475,1,0,0:0:0:0:
366,87,24530,1,0,0:0:0:0:
339,91,24586,1,0,0:0:0:0:
311,82,24641,1,0,0:0:0:0:
280,69,24697,1,0,0:0:0:0:
250,76,24753,1,0,0:0:0:0:
226,98,24808,1,0,0:0:0:0:
216,128,24864,1,0,0:0:0:0:
218,158,24919,1,0,0:0:0:0:
239,181,24975,1,0,0:0:0:0:
266,190,25030,1,0,0:0:0:0:
290,183,25086,1,0,0:0:0:0:
300,164,25141,1,0,0:0:0:0:
297,149,25197,1,0,0:0:0:0:
285,136,25253,1,0,0:0:0:0:
265,132,25308,5,0,0:0:0:0:
238,137,25364,1,0,0:0:0:0:
214,157,25419,1,0,0:0:0:0:
207,188,25475,1,0,0:0:0:0:
205,219,25530,1,0,0:0:0:0:
188,246,25586,1,0,0:0:0:0:
164,257,25641,1,0,0:0:0:0:
139,255,25697,1,0,0:0:0:0:
114,240,25753,1,0,0:0:0:0:
103,214,25808,1,0,0:0:0:0:
115,192,25864,1,0,0:0:0:0:
139,179,25919,1,0,0:0:0:0:
166,188,25975,5,0,0:0:0:0:
260,268,26086,1,0,0:0:0:0:
379,234,26197,1,0,0:0:0:0:
112,212,26308,5,0,0:0:0:0:
252,329,26419,1,0,0:0:0:0:
427,270,26530,1,0,0:0:0:0:
281,93,26641,1,0,0:0:0:0:
281,93,27308,5,0,0:0:0:0:
281,93,27975,5,0,0:0:0:0:
272,121,28030,1,0,0:0:0:0:
247,141,28086,1,0,0:0:0:0:
228,164,28141,1,0,0:0:0:0:
201,180,28197,1,0,0:0:0:0:
182,207,28253,1,0,0:0:0:0:
176,236,28308,1,0,0:0:0:0:
181,269,28364,1,0,0:0:0:0:
203,296,28419,5,0,0:0:0:0:
303,240,28530,1,0,0:0:0:0:
327,137,28641,1,0,0:0:0:0:
422,88,28753,1,0,0:0:0:0:
306,108,28864,5,0,0:0:0:0:
430,125,28975,1,0,0:0:0:0:
346,151,29308,2,0,P|286:183|245:187,2,90
220,67,29641,1,0,0:0:0:0:
135,111,29753,1,0,0:0:0:0:
220,67,29864,2,0,L|209:140,1,45
113,204,29975,6,0,P|162:234|211:235,2,90
290,109,30308,1,0,0:0:0:0:
375,153,30420,1,0,0:0:0:0:
290,109,30531,2,0,L|301:182,1,45
397,246,30642,6,0,P|348:276|299:277,2,90
375,153,30975,1,0,0:0:0:0:
290,109,31086,1,0,0:0:0:0:
202,140,31197,1,0,0:0:0:0:
117,108,31308,5,0,0:0:0:0:
214,39,31419,1,0,0:0:0:0:
230,251,31530,1,0,0:0:0:0:
134,202,31641,1,0,0:0:0:0:
202,140,31753,1,0,0:0:0:0:
246,133,31808,1,0,0:0:0:0:
288,144,31864,1,0,0:0:0:0:
329,139,31919,1,0,0:0:0:0:
367,122,31974,6,0,P|416:92|465:91,2,90
293,256,32307,1,0,0:0:0:0:
378,212,32419,1,0,0:0:0:0:
293,256,32530,2,0,L|253:186,1,45
183,102,32641,6,0,P|134:72|85:71,2,90
113,329,32974,1,0,0:0:0:0:
198,285,33086,1,0,0:0:0:0:
113,329,33197,2,0,L|116:257,1,45
109,192,33308,5,0,0:0:0:0:
276,95,33419,1,0,0:0:0:0:
201,270,33530,1,0,0:0:0:0:
155,79,33641,1,0,0:0:0:0:
302,218,33753,5,0,0:0:0:0:
86,192,33864,1,0,0:0:0:0:
291,73,33975,1,0,0:0:0:0:
198,299,34086,1,0,0:0:0:0:
135,47,34197,5,0,0:0:0:0:
335,236,34308,1,0,0:0:0:0:
54,204,34419,1,0,0:0:0:0:
320,54,34530,1,0,0:0:0:0:
196,121,34641,5,0,0:0:0:0:
96,207,34753,1,0,0:0:0:0:
278,216,34864,2,0,L|321:171,1,45
173,97,34975,5,0,0:0:0:0:
123,257,35086,1,0,0:0:0:0:
315,241,35197,2,0,L|325:178,1,45
151,71,35308,5,0,0:0:0:0:
168,298,35419,1,0,0:0:0:0:
363,250,35530,2,0,L|343:197,1,45
125,43,35641,5,0,0:0:0:0:
225,315,35753,1,0,0:0:0:0:
457,98,35864,1,0,0:0:0:0:
512,360,35975,5,0,0:0:0:0:
338,324,36086,1,0,0:0:0:0:
455,196,36197,1,0,0:0:0:0:
445,353,36308,5,0,0:0:0:0:
259,239,36419,1,0,0:0:0:0:
454,149,36530,1,0,0:0:0:0:
388,333,36641,5,0,0:0:0:0:
247,105,36753,1,0,0:0:0:0:
454,107,36864,1,0,0:0:0:0:
335,310,36975,5,0,0:0:0:0:
357,36,37086,1,0,0:0:0:0:
448,54,37197,1,0,0:0:0:0:
360,134,37308,5,0,0:0:0:0:
260,198,37419,1,0,0:0:0:0:
392,121,37530,1,0,0:0:0:0:
239,227,37641,5,0,0:0:0:0:
392,278,37753,1,0,0:0:0:0:
222,80,37864,1,0,0:0:0:0:
77,240,37975,5,0,0:0:0:0:
244,329,38086,1,0,0:0:0:0:
88,80,38197,1,0,0:0:0:0:
128,208,38308,5,0,0:0:0:0:
251,234,38419,1,0,0:0:0:0:
367,152,38530,1,0,0:0:0:0:
450,49,38641,5,0,0:0:0:0:
421,90,38697,1,0,0:0:0:0:
426,139,38753,1,0,0:0:0:0:
456,176,38808,1,0,0:0:0:0:
472,222,38864,1,0,0:0:0:0:
461,265,38919,1,0,0:0:0:0:
423,293,38975,1,0,0:0:0:0:
370,288,39030,1,0,0:0:0:0:
334,250,39086,1,0,0:0:0:0:
291,228,39141,1,0,0:0:0:0:
239,242,39197,1,0,0:0:0:0:
216,292,39253,1,0,0:0:0:0:
235,348,39308,5,0,0:0:0:0:
325,347,39419,1,0,0:0:0:0:
413,346,39530,1,0,0:0:0:0:
499,347,39641,1,0,0:0:0:0:
499,347,39975,6,0,P|460:321|434:275,2,90
512,256,40308,1,0,0:0:0:0:
415,203,40419,1,0,0:0:0:0:
512,256,40530,2,0,L|489:194,1,45
512,59,40641,6,0,P|488:97|451:121,2,90
311,87,40975,1,0,0:0:0:0:
408,34,41086,1,0,0:0:0:0:
311,87,41197,2,0,L|299:141,1,45
264,228,41308,6,0,P|186:242|140:234,2,90
209,144,41641,1,0,0:0:0:0:
301,130,41753,1,0,0:0:0:0:
382,177,41864,1,0,0:0:0:0:
475,151,41975,5,0,0:0:0:0:
397,71,42086,1,0,0:0:0:0:
352,295,42197,1,0,0:0:0:0:
457,262,42308,1,0,0:0:0:0:
382,177,42419,1,0,0:0:0:0:
344,187,42475,1,0,0:0:0:0:
300,184,42530,1,0,0:0:0:0:
263,160,42586,1,0,0:0:0:0:
216,136,42641,6,0,P|149:148|120:175,2,90
192,247,42975,1,0,0:0:0:0:
94,303,43086,1,0,0:0:0:0:
192,247,43197,2,0,L|264:253,1,45
322,199,43308,6,0,P|389:211|418:238,2,90
346,310,43642,1,0,0:0:0:0:
444,366,43753,1,0,0:0:0:0:
346,310,43864,2,0,L|292:275,1,45
117,211,43975,5,0,0:0:0:0:
182,115,44086,1,0,0:0:0:0:
281,180,44197,1,0,0:0:0:0:
222,279,44308,5,0,0:0:0:0:
223,155,44419,1,0,0:0:0:0:
351,154,44530,1,0,0:0:0:0:
353,283,44641,5,0,0:0:0:0:
281,180,44753,1,0,0:0:0:0:
385,107,44864,1,0,0:0:0:0:
460,218,44975,5,0,0:0:0:0:
353,283,45086,1,0,0:0:0:0:
228,228,45197,1,0,0:0:0:0:
220,92,45308,5,0,0:0:0:0:
318,240,45419,1,0,0:0:0:0:
126,194,45530,2,0,L|165:153,1,45
303,58,45641,5,0,0:0:0:0:
295,263,45753,1,0,0:0:0:0:
68,146,45864,2,0,L|140:131,1,45
390,63,45975,5,0,0:0:0:0:
269,278,46086,1,0,0:0:0:0:
42,84,46197,2,0,L|118:90,1,45
463,107,46308,5,0,0:0:0:0:
233,286,46419,1,0,0:0:0:0:
71,21,46530,1,0,0:0:0:0:
116,32,46586,1,0,0:0:0:0:
159,46,46641,5,0,0:0:0:0:
252,159,46753,1,0,0:0:0:0:
105,165,46864,1,0,0:0:0:0:
300,48,46975,5,0,0:0:0:0:
308,232,47086,1,0,0:0:0:0:
135,152,47197,1,0,0:0:0:0:
451,47,47308,5,0,0:0:0:0:
378,303,47419,1,0,0:0:0:0:
167,137,47530,1,0,0:0:0:0:
379,103,47641,5,0,0:0:0:0:
352,259,47753,1,0,0:0:0:0:
170,261,47864,1,0,0:0:0:0:
86,92,47975,5,0,0:0:0:0:
131,122,48030,1,0,0:0:0:0:
186,128,48086,1,0,0:0:0:0:
234,104,48141,1,0,0:0:0:0:
277,83,48197,1,0,0:0:0:0:
324,85,48253,1,0,0:0:0:0:
369,106,48308,1,0,0:0:0:0:
385,140,48364,1,0,0:0:0:0:
379,174,48419,1,0,0:0:0:0:
365,207,48475,1,0,0:0:0:0:
369,239,48530,1,0,0:0:0:0:
397,260,48586,1,0,0:0:0:0:
433,266,48641,5,0,0:0:0:0:
417,278,48697,1,0,0:0:0:0:
401,296,48753,1,0,0:0:0:0:
396,319,48808,1,0,0:0:0:0:
396,343,48864,1,0,0:0:0:0:
386,360,48919,1,0,0:0:0:0:
367,366,48975,5,0,0:0:0:0:
351,361,49030,1,0,0:0:0:0:
340,351,49086,1,0,0:0:0:0:
337,336,49141,1,0,0:0:0:0:
342,326,49197,1,0,0:0:0:0:
355,321,49253,1,0,0:0:0:0:
371,325,49308,5,0,0:0:0:0:
412,323,49364,1,0,0:0:0:0:
459,302,49419,1,0,0:0:0:0:
476,252,49475,1,0,0:0:0:0:
452,208,49530,1,0,0:0:0:0:
453,156,49586,1,0,0:0:0:0:
486,113,49641,1,0,0:0:0:0:
486,68,49697,1,0,0:0:0:0:
447,27,49753,1,0,0:0:0:0:
394,30,49808,1,0,0:0:0:0:
366,66,49864,1,0,0:0:0:0:
376,117,49919,1,0,0:0:0:0:
362,166,49975,5,0,0:0:0:0:
314,192,50030,1,0,0:0:0:0:
256,191,50086,1,0,0:0:0:0:
216,156,50141,1,0,0:0:0:0:
214,101,50197,1,0,0:0:0:0:
247,61,50253,1,0,0:0:0:0:
301,62,50308,5,0,0:0:0:0:
298,166,50419,1,0,0:0:0:0:
225,250,50530,1,0,0:0:0:0:
109,239,50641,5,0,0:0:0:0:
63,152,50753,1,0,0:0:0:0:
110,66,50864,1,0,0:0:0:0:
212,69,50975,1,0,0:0:0:0:
261,157,51086,1,0,0:0:0:0:
346,212,51197,1,0,0:0:0:0:
447,177,51308,5,0,0:0:0:0:
461,69,51419,1,0,0:0:0:0:
364,29,51530,1,0,0:0:0:0:
281,93,51641,1,0,0:0:0:0:
377,141,51753,1,0,0:0:0:0:
289,197,51864,1,0,0:0:0:0:
386,263,51975,5,0,0:0:0:0:
296,336,52086,1,0,0:0:0:0:
169,318,52197,1,0,0:0:0:0:
120,206,52308,1,0,0:0:0:0:
246,160,52419,1,0,0:0:0:0:
285,268,52530,1,0,0:0:0:0:
192,313,52641,6,0,P|125:317|68:284,1,135
142,221,52864,1,0,0:0:0:0:
51,97,52919,6,0,P|126:133|153:130,1,90
211,121,53086,1,0,0:0:0:0:
381,136,53141,6,0,P|345:109|301:99,1,90
211,121,53308,5,0,0:0:0:0:
270,218,53419,1,0,0:0:0:0:
376,242,53530,1,0,0:0:0:0:
490,218,53641,1,0,0:0:0:0:
376,242,53753,1,0,0:0:0:0:
360,364,53864,1,0,0:0:0:0:
376,242,53975,5,0,0:0:0:0:
293,163,54086,1,0,0:0:0:0:
179,173,54197,1,0,0:0:0:0:
110,262,54308,1,0,0:0:0:0:
179,173,54419,1,0,0:0:0:0:
156,59,54530,1,0,0:0:0:0:
179,173,54641,5,0,0:0:0:0:
205,192,54697,1,0,0:0:0:0:
244,206,54753,1,0,0:0:0:0:
283,203,54808,1,0,0:0:0:0:
320,193,54864,1,0,0:0:0:0:
361,196,54919,1,0,0:0:0:0:
395,210,54975,1,0,0:0:0:0:
380,243,55030,1,0,0:0:0:0:
391,281,55086,1,0,0:0:0:0:
418,300,55141,1,0,0:0:0:0:
456,298,55197,1,0,0:0:0:0:
477,271,55253,1,0,0:0:0:0:
469,234,55308,5,0,0:0:0:0:
438,153,55419,1,0,0:0:0:0:
371,84,55530,1,0,0:0:0:0:
275,76,55641,2,0,P|196:119|108:104,1,180
469,234,55975,5,0,0:0:0:0:
427,319,56086,1,0,0:0:0:0:
317,323,56197,1,0,0:0:0:0:
255,236,56308,1,0,0:0:0:0:
144,221,56419,1,0,0:0:0:0:
56,292,56530,1,0,0:0:0:0:
187,324,56641,5,0,0:0:0:0:
144,221,56753,1,0,0:0:0:0:
226,135,56864,1,0,0:0:0:0:
144,221,56975,1,0,0:0:0:0:
226,135,57086,1,0,0:0:0:0:
351,156,57197,1,0,0:0:0:0:
465,78,57308,5,0,0:0:0:0:
351,156,57419,1,0,0:0:0:0:
467,191,57530,1,0,0:0:0:0:
467,191,57641,1,0,0:0:0:0:
351,156,57753,1,0,0:0:0:0:
345,39,57864,1,0,0:0:0:0:
219,10,57975,6,0,P|169:55|151:119,1,135
248,111,58198,1,0,0:0:0:0:
311,272,58253,6,0,P|286:234|280:190,1,90
383,197,58420,1,0,0:0:0:0:
486,181,58475,6,0,P|479:225|456:263,1,90
383,197,58642,5,0,0:0:0:0:
340,108,58753,1,0,0:0:0:0:
234,105,58864,1,0,0:0:0:0:
147,40,58975,1,0,0:0:0:0:
234,105,59086,1,0,0:0:0:0:
189,204,59197,1,0,0:0:0:0:
95,265,59308,5,0,0:0:0:0:
28,373,59419,1,0,0:0:0:0:
95,265,59530,1,0,0:0:0:0:
202,323,59641,1,0,0:0:0:0:
270,219,59753,1,0,0:0:0:0:
202,323,59864,1,0,0:0:0:0:
270,219,59975,5,0,0:0:0:0:
300,199,60030,1,0,0:0:0:0:
335,194,60086,1,0,0:0:0:0:
372,202,60141,1,0,0:0:0:0:
409,197,60197,1,0,0:0:0:0:
436,170,60253,1,0,0:0:0:0:
437,134,60308,1,0,0:0:0:0:
418,164,60364,1,0,0:0:0:0:
416,202,60419,1,0,0:0:0:0:
437,227,60475,1,0,0:0:0:0:
444,260,60530,1,0,0:0:0:0:
433,296,60586,1,0,0:0:0:0:
410,320,60641,5,0,0:0:0:0:
272,313,60753,1,0,0:0:0:0:
191,213,60864,1,0,0:0:0:0:
235,108,60975,1,0,0:0:0:0:
356,97,61086,5,0,0:0:0:0:
365,183,61141,1,0,0:0:0:0:
373,256,61197,1,0,0:0:0:0:
379,305,61253,1,0,0:0:0:0:
384,337,61308,5,0,0:0:0:0:
45,165,62475,5,0,0:0:0:0:
97,201,62530,1,0,0:0:0:0:
162,204,62586,1,0,0:0:0:0:
210,187,62641,2,0,P|238:154|320:147,2,90
292,264,62975,2,0,P|262:297|220:311,2,90
209,187,63308,5,0,0:0:0:0:
271,85,63419,1,0,0:0:0:0:
397,83,63530,1,0,0:0:0:0:
209,187,63641,5,0,0:0:0:0:
293,163,63753,1,0,0:0:0:0:
380,201,63864,1,0,0:0:0:0:
209,187,63975,5,0,0:0:0:0:
121,261,64086,1,0,0:0:0:0:
25,148,64197,1,0,0:0:0:0:
119,73,64308,2,0,P|187:64|231:85,2,90
296,184,64641,2,0,P|228:193|184:172,2,90
312,76,64975,5,0,0:0:0:0:
456,120,65086,1,0,0:0:0:0:
440,296,65197,1,0,0:0:0:0:
313,257,65308,2,0,P|277:236|253:191,2,90
378,166,65641,5,0,0:0:0:0:
352,100,65753,1,0,0:0:0:0:
287,79,65864,1,0,0:0:0:0:
378,166,65975,5,0,0:0:0:0:
270,115,66086,1,0,0:0:0:0:
156,166,66197,1,0,0:0:0:0:
253,107,66308,5,0,0:0:0:0:
90,152,66419,1,0,0:0:0:0:
148,315,66530,1,0,0:0:0:0:
253,107,66641,5,0,0:0:0:0:
410,63,66753,1,0,0:0:0:0:
430,204,66864,1,0,0:0:0:0:
284,214,66975,2,0,P|232:232|198:283,2,90
364,337,67308,2,0,P|416:319|450:268,2,90
252,339,67641,5,0,0:0:0:0:
150,331,67753,1,0,0:0:0:0:
120,306,67864,1,0,0:0:0:0:
108,211,67975,2,0,P|61:175|25:167,2,90
216,250,68308,5,0,0:0:0:0:
238,179,68419,1,0,0:0:0:0:
190,125,68530,1,0,0:0:0:0:
184,253,68641,5,0,0:0:0:0:
293,185,68753,1,0,0:0:0:0:
274,73,68864,1,0,0:0:0:0:
271,216,68975,5,0,0:0:0:0:
375,115,69086,1,0,0:0:0:0:
486,221,69197,1,0,0:0:0:0:
382,324,69308,5,0,0:0:0:0:
212,297,69419,1,0,0:0:0:0:
382,324,69530,2,0,L|351:278,1,45
226,152,69641,2,0,P|166:175|134:226,2,90
212,297,69975,5,0,0:0:0:0:
382,270,70086,1,0,0:0:0:0:
212,297,70197,2,0,L|243:251,1,45
368,125,70308,2,0,P|428:148|460:199,2,90
302,199,70641,5,0,0:0:0:0:
156,220,70753,1,0,0:0:0:0:
302,199,70864,2,0,L|262:237,1,45
155,313,70975,2,0,P|79:304|52:274,1,90
156,220,71197,1,0,0:0:0:0:
176,208,71253,1,0,0:0:0:0:
194,194,71308,6,0,P|204:140|178:91,2,90
82,158,71641,1,0,0:0:0:0:
66,185,71697,1,0,0:0:0:0:
48,212,71753,1,0,0:0:0:0:
192,108,71864,1,0,0:0:0:0:
220,114,71919,1,0,0:0:0:0:
258,123,71975,5,0,0:0:0:0:
404,144,72087,1,0,0:0:0:0:
258,123,72198,2,0,L|298:161,1,45
405,237,72309,2,0,P|481:228|508:198,1,90
404,144,72531,1,0,0:0:0:0:
384,132,72587,1,0,0:0:0:0:
366,118,72642,6,0,P|356:64|382:15,2,90
478,82,72975,1,0,0:0:0:0:
494,109,73031,1,0,0:0:0:0:
512,136,73087,1,0,0:0:0:0:
368,32,73198,1,0,0:0:0:0:
327,41,73253,1,0,0:0:0:0:
298,48,73308,5,0,0:0:0:0:
194,128,73419,1,0,0:0:0:0:
312,242,73530,1,0,0:0:0:0:
329,151,73641,2,0,P|381:125|427:131,2,90
372,309,73975,2,0,P|320:335|274:329,2,90
329,151,74308,5,0,0:0:0:0:
213,174,74419,1,0,0:0:0:0:
175,277,74530,1,0,0:0:0:0:
89,347,74641,2,0,P|27:346|-2:335,2,90
308,248,74975,5,0,0:0:0:0:
217,237,75086,1,0,0:0:0:0:
137,274,75197,1,0,0:0:0:0:
308,248,75308,5,0,0:0:0:0:
191,147,75420,1,0,0:0:0:0:
44,197,75531,1,0,0:0:0:0:
199,182,75642,5,0,0:0:0:0:
46,142,75753,1,0,0:0:0:0:
88,17,75864,1,0,0:0:0:0:
203,77,75975,2,0,P|257:89|303:67,2,90
397,32,76308,5,0,0:0:0:0:
434,120,76419,1,0,0:0:0:0:
393,211,76530,1,0,0:0:0:0:
378,112,76641,5,0,0:0:0:0:
327,206,76753,1,0,0:0:0:0:
376,309,76864,1,0,0:0:0:0:
272,211,76975,5,0,0:0:0:0:
314,314,77086,1,0,0:0:0:0:
202,356,77197,1,0,0:0:0:0:
151,248,77308,1,0,0:0:0:0:
122,228,77364,1,0,0:0:0:0:
87,215,77419,1,0,0:0:0:0:
46,212,77475,1,0,0:0:0:0:
74,189,77530,1,0,0:0:0:0:
72,152,77586,1,0,0:0:0:0:
56,122,77641,5,0,0:0:0:0:
117,61,77753,1,0,0:0:0:0:
207,64,77864,1,0,0:0:0:0:
56,122,77975,5,0,0:0:0:0:
162,50,78086,1,0,0:0:0:0:
307,102,78197,1,0,0:0:0:0:
131,44,78308,5,0,0:0:0:0:
331,112,78419,1,0,0:0:0:0:
265,310,78530,1,0,0:0:0:0:
63,237,78641,5,0,0:0:0:0:
187,117,78753,1,0,0:0:0:0:
353,211,78864,1,0,0:0:0:0:
416,64,78975,2,0,P|477:36|511:41,1,90
476,144,79197,5,0,0:0:0:0:
427,162,79253,1,0,0:0:0:0:
381,148,79308,1,0,0:0:0:0:
294,91,79419,1,0,0:0:0:0:
182,103,79530,1,0,0:0:0:0:
155,211,79641,1,0,0:0:0:0:
236,288,79753,1,0,0:0:0:0:
344,261,79864,1,0,0:0:0:0:
439,308,79975,6,0,P|486:323|537:313,1,90
488,231,80197,1,0,0:0:0:0:
488,231,80253,1,0,0:0:0:0:
488,231,80308,5,0,0:0:0:0:
451,204,80364,1,0,0:0:0:0:
401,195,80419,1,0,0:0:0:0:
356,216,80475,1,0,0:0:0:0:
313,227,80530,1,0,0:0:0:0:
269,216,80586,1,0,0:0:0:0:
237,185,80641,1,0,0:0:0:0:
241,143,80697,1,0,0:0:0:0:
279,116,80752,1,0,0:0:0:0:
326,129,80808,1,0,0:0:0:0:
351,168,80864,1,0,0:0:0:0:
338,207,80919,1,0,0:0:0:0:
319,239,80975,1,0,0:0:0:0:
318,277,81030,1,0,0:0:0:0:
342,310,81086,1,0,0:0:0:0:
385,323,81141,1,0,0:0:0:0:
425,310,81197,1,0,0:0:0:0:
443,271,81252,1,0,0:0:0:0:
483,243,81308,5,0,0:0:0:0:
472,220,81364,1,0,0:0:0:0:
462,198,81419,1,0,0:0:0:0:
428,185,81475,1,0,0:0:0:0:
428,162,81530,1,0,0:0:0:0:
430,136,81586,1,0,0:0:0:0:
454,114,81641,5,0,0:0:0:0:
451,91,81697,1,0,0:0:0:0:
449,69,81753,1,0,0:0:0:0:
432,52,81808,1,0,0:0:0:0:
437,37,81864,1,0,0:0:0:0:
445,20,81919,1,0,0:0:0:0:
464,1,81975,5,0,0:0:0:0:
464,1,82030,1,0,0:0:0:0:
464,1,82086,1,0,0:0:0:0:
464,1,82141,1,0,0:0:0:0:
464,1,82197,1,0,0:0:0:0:
464,1,82253,1,0,0:0:0:0:
464,1,82308,6,0,L|517:-28,5,45
483,94,82641,5,0,0:0:0:0:
385,88,82753,1,0,0:0:0:0:
315,28,82864,1,0,0:0:0:0:
381,107,82975,5,0,0:0:0:0:
263,72,83086,1,0,0:0:0:0:
166,122,83197,1,0,0:0:0:0:
279,100,83308,5,0,0:0:0:0:
135,176,83419,1,0,0:0:0:0:
157,312,83530,1,0,0:0:0:0:
295,249,83641,2,0,P|371:230|405:239,2,90
242,236,83975,5,0,0:0:0:0:
267,218,84030,1,0,0:0:0:0:
298,205,84086,1,0,0:0:0:0:
330,199,84141,1,0,0:0:0:0:
363,200,84197,1,0,0:0:0:0:
396,204,84253,1,0,0:0:0:0:
429,216,84308,5,0,0:0:0:0:
109,202,84975,5,0,0:0:0:0:
210,115,85086,1,0,0:0:0:0:
339,102,85197,1,0,0:0:0:0:
452,40,85308,5,0,0:0:0:0:
474,85,85364,1,0,0:0:0:0:
480,137,85419,1,0,0:0:0:0:
451,171,85475,1,0,0:0:0:0:
433,223,85530,1,0,0:0:0:0:
451,273,85586,1,0,0:0:0:0:
494,320,85641,1,0,0:0:0:0:
435,308,85697,1,0,0:0:0:0:
382,330,85753,1,0,0:0:0:0:
337,361,85808,1,0,0:0:0:0:
280,366,85864,1,0,0:0:0:0:
226,343,85919,1,0,0:0:0:0:
215,282,85975,6,0,L|238:201,2,45
169,173,86141,2,0,L|157:217,2,45
267,177,86308,5,0,0:0:0:0:
312,186,86363,1,0,0:0:0:0:
341,224,86419,1,0,0:0:0:0:
316,245,86474,1,0,0:0:0:0:
301,264,86530,1,0,0:0:0:0:
291,293,86585,1,0,0:0:0:0:
296,319,86641,1,0,0:0:0:0:
336,315,86697,1,0,0:0:0:0:
371,337,86753,1,0,0:0:0:0:
404,358,86808,1,0,0:0:0:0:
449,353,86864,1,0,0:0:0:0:
492,364,86919,1,0,0:0:0:0:
460,324,86975,1,0,0:0:0:0:
449,286,87030,1,0,0:0:0:0:
457,253,87086,1,0,0:0:0:0:
491,236,87141,1,0,0:0:0:0:
506,198,87197,1,0,0:0:0:0:
500,168,87253,1,0,0:0:0:0:
467,150,87308,1,0,0:0:0:0:
452,116,87364,1,0,0:0:0:0:
455,78,87419,1,0,0:0:0:0:
486,58,87475,1,0,0:0:0:0:
475,24,87530,1,0,0:0:0:0:
432,14,87586,1,0,0:0:0:0:
404,42,87641,6,0,L|336:49,5,45
361,115,87975,5,0,0:0:0:0:
317,127,88030,1,0,0:0:0:0:
280,115,88086,1,0,0:0:0:0:
244,92,88141,1,0,0:0:0:0:
205,73,88197,1,0,0:0:0:0:
158,73,88253,1,0,0:0:0:0:
107,103,88308,1,0,0:0:0:0:
93,155,88364,1,0,0:0:0:0:
112,207,88419,1,0,0:0:0:0:
161,228,88475,1,0,0:0:0:0:
213,220,88530,1,0,0:0:0:0:
266,231,88586,1,0,0:0:0:0:
296,277,88641,5,0,0:0:0:0:
329,237,88697,1,0,0:0:0:0:
377,220,88753,1,0,0:0:0:0:
426,235,88808,1,0,0:0:0:0:
470,212,88864,1,0,0:0:0:0:
484,157,88919,1,0,0:0:0:0:
447,105,88975,1,0,0:0:0:0:
404,135,89030,1,0,0:0:0:0:
404,187,89086,1,0,0:0:0:0:
432,224,89141,1,0,0:0:0:0:
441,273,89197,1,0,0:0:0:0:
412,323,89253,1,0,0:0:0:0:
371,353,89308,5,0,0:0:0:0:
358,351,89364,1,0,0:0:0:0:
345,349,89419,1,0,0:0:0:0:
332,346,89475,1,0,0:0:0:0:
316,343,89530,1,0,0:0:0:0:
303,341,89586,1,0,0:0:0:0:
290,339,89641,1,0,0:0:0:0:
277,336,89697,1,0,0:0:0:0:
262,335,89753,1,0,0:0:0:0:
249,333,89809,1,0,0:0:0:0:
236,331,89864,1,0,0:0:0:0:
223,328,89920,1,0,0:0:0:0:
207,325,89975,1,0,0:0:0:0:
194,323,90031,1,0,0:0:0:0:
181,321,90086,1,0,0:0:0:0:
168,318,90142,1,0,0:0:0:0:
153,317,90197,1,0,0:0:0:0:
136,313,90253,1,0,0:0:0:0:
119,309,90308,6,0,L|100:255,2,45
170,201,90475,2,0,L|184:243,2,45
75,183,90641,5,0,0:0:0:0:
98,151,90697,1,0,0:0:0:0:
131,127,90753,1,0,0:0:0:0:
171,120,90808,1,0,0:0:0:0:
212,130,90864,1,0,0:0:0:0:
244,152,90919,1,0,0:0:0:0:
273,171,90975,1,0,0:0:0:0:
307,174,91030,1,0,0:0:0:0:
340,160,91086,1,0,0:0:0:0:
359,126,91141,1,0,0:0:0:0:
357,95,91197,1,0,0:0:0:0:
335,70,91253,1,0,0:0:0:0:
293,62,91308,5,0,0:0:0:0:
312,91,91364,1,0,0:0:0:0:
349,103,91419,1,0,0:0:0:0:
385,110,91475,1,0,0:0:0:0:
418,127,91530,1,0,0:0:0:0:
438,156,91586,1,0,0:0:0:0:
442,192,91641,1,0,0:0:0:0:
427,224,91697,1,0,0:0:0:0:
411,254,91753,1,0,0:0:0:0:
421,286,91808,1,0,0:0:0:0:
445,308,91864,1,0,0:0:0:0:
478,320,91919,1,0,0:0:0:0:
488,354,91975,5,0,0:0:0:0:
478,352,92030,1,0,0:0:0:0:
468,353,92086,1,0,0:0:0:0:
458,353,92141,1,0,0:0:0:0:
449,353,92197,1,0,0:0:0:0:
438,352,92253,1,0,0:0:0:0:
426,352,92308,1,0,0:0:0:0:
415,351,92364,1,0,0:0:0:0:
404,350,92419,1,0,0:0:0:0:
392,350,92475,1,0,0:0:0:0:
381,348,92530,1,0,0:0:0:0:
370,347,92586,1,0,0:0:0:0:
358,346,92641,1,0,0:0:0:0:
345,345,92697,1,0,0:0:0:0:
334,343,92753,1,0,0:0:0:0:
324,345,92808,2,0,L|280:326,2,45
336,258,92975,6,0,L|307:215,1,45
220,161,93086,1,0,0:0:0:0:
81,183,93197,1,0,0:0:0:0:
39,323,93308,5,0,0:0:0:0:
196,308,93419,1,0,0:0:0:0:
264,188,93530,1,0,0:0:0:0:
193,62,93641,5,0,0:0:0:0:
128,53,93696,1,0,0:0:0:0:
102,107,93752,1,0,0:0:0:0:
144,152,93808,1,0,0:0:0:0:
205,133,93863,1,0,0:0:0:0:
266,143,93919,1,0,0:0:0:0:
313,184,93974,1,0,0:0:0:0:
376,189,94030,1,0,0:0:0:0:
431,155,94086,5,0,0:0:0:0:
406,45,94197,1,0,0:0:0:0:
281,53,94308,1,0,0:0:0:0:
263,173,94419,1,0,0:0:0:0:
169,236,94530,1,0,0:0:0:0:
139,235,94586,1,0,0:0:0:0:
96,215,94641,5,0,0:0:0:0:
119,243,94697,1,0,0:0:0:0:
131,278,94753,1,0,0:0:0:0:
131,311,94808,1,0,0:0:0:0:
141,349,94864,1,0,0:0:0:0:
176,360,94919,1,0,0:0:0:0:
204,348,94975,1,0,0:0:0:0:
225,336,95030,1,0,0:0:0:0:
251,333,95086,1,0,0:0:0:0:
270,339,95141,1,0,0:0:0:0:
299,345,95197,1,0,0:0:0:0:
322,333,95253,1,0,0:0:0:0:
347,332,95308,5,0,0:0:0:0:
372,344,95364,1,0,0:0:0:0:
399,354,95419,1,0,0:0:0:0:
426,345,95475,1,0,0:0:0:0:
450,323,95530,1,0,0:0:0:0:
453,298,95586,1,0,0:0:0:0:
438,278,95641,1,0,0:0:0:0:
414,261,95697,1,0,0:0:0:0:
411,237,95753,1,0,0:0:0:0:
427,217,95808,1,0,0:0:0:0:
451,212,95864,1,0,0:0:0:0:
479,190,95919,1,0,0:0:0:0:
479,155,95975,5,0,0:0:0:0:
184,154,99864,5,0,0:0:0:0:
128,228,99975,5,0,0:0:0:0:
245,300,100086,1,0,0:0:0:0:
279,164,100197,1,0,0:0:0:0:
141,258,100308,5,0,0:0:0:0:
283,267,100419,1,0,0:0:0:0:
221,124,100530,1,0,0:0:0:0:
175,285,100641,5,0,0:0:0:0:
321,219,100753,1,0,0:0:0:0:
137,119,100864,1,0,0:0:0:0:
219,297,100975,5,0,0:0:0:0:
294,182,101086,1,0,0:0:0:0:
66,160,101197,1,0,0:0:0:0:
213,325,101308,5,0,0:0:0:0:
371,286,101419,1,0,0:0:0:0:
261,261,101530,1,0,0:0:0:0:
300,229,101586,1,0,0:0:0:0:
339,197,101641,5,0,0:0:0:0:
181,158,101752,1,0,0:0:0:0:
291,133,101863,1,0,0:0:0:0:
250,101,101919,1,0,0:0:0:0:
216,72,101975,5,0,0:0:0:0:
374,33,102086,1,0,0:0:0:0:
264,8,102197,1,0,0:0:0:0:
379,67,102308,5,0,0:0:0:0:
464,146,102419,1,0,0:0:0:0:
408,250,102530,1,0,0:0:0:0:
468,338,102641,5,0,0:0:0:0:
334,225,102753,1,0,0:0:0:0:
333,330,102864,1,0,0:0:0:0:
356,320,102919,1,0,0:0:0:0:
381,309,102975,5,0,0:0:0:0:
191,237,103086,1,0,0:0:0:0:
191,237,103197,1,0,0:0:0:0:
274,297,103308,1,0,0:0:0:0:
304,259,103364,1,0,0:0:0:0:
334,225,103419,5,0,0:0:0:0:
116,134,103530,1,0,0:0:0:0:
215,95,103641,1,0,0:0:0:0:
310,134,103753,1,0,0:0:0:0:
397,81,103864,1,0,0:0:0:0:
397,81,103919,1,0,0:0:0:0:
397,81,103975,5,0,0:0:0:0:
420,120,104030,1,0,0:0:0:0:
428,164,104086,1,0,0:0:0:0:
411,206,104141,1,0,0:0:0:0:
416,250,104197,1,0,0:0:0:0:
444,281,104253,1,0,0:0:0:0:
402,294,104308,1,0,0:0:0:0:
373,317,104364,1,0,0:0:0:0:
358,349,104419,1,0,0:0:0:0:
313,361,104475,1,0,0:0:0:0:
271,354,104530,1,0,0:0:0:0:
249,311,104586,1,0,0:0:0:0:
266,258,104641,5,0,0:0:0:0:
220,273,104697,1,0,0:0:0:0:
182,251,104753,1,0,0:0:0:0:
168,208,104808,1,0,0:0:0:0:
192,168,104864,1,0,0:0:0:0:
237,164,104919,1,0,0:0:0:0:
282,197,104975,1,0,0:0:0:0:
337,196,105030,1,0,0:0:0:0:
380,150,105086,1,0,0:0:0:0:
362,94,105141,1,0,0:0:0:0:
305,67,105197,1,0,0:0:0:0:
256,91,105253,1,0,0:0:0:0:
248,151,105308,5,0,0:0:0:0:
262,171,105364,1,0,0:0:0:0:
277,189,105419,1,0,0:0:0:0:
291,208,105475,1,0,0:0:0:0:
304,223,105531,1,0,0:0:0:0:
316,240,105586,1,0,0:0:0:0:
330,257,105641,1,0,0:0:0:0:
344,277,105697,1,0,0:0:0:0:
359,295,105752,1,0,0:0:0:0:
373,314,105808,1,0,0:0:0:0:
386,329,105864,1,0,0:0:0:0:
398,346,105919,1,0,0:0:0:0:
412,364,105975,5,0,0:0:0:0:
465,288,106086,1,0,0:0:0:0:
466,190,106197,1,0,0:0:0:0:
466,93,106308,1,0,0:0:0:0:
466,93,106641,6,0,P|430:58|381:48,2,90
381,148,106975,1,0,0:0:0:0:
312,197,107086,1,0,0:0:0:0:
323,280,107197,1,0,0:0:0:0:
351,124,107308,5,0,0:0:0:0:
275,172,107419,1,0,0:0:0:0:
263,199,107475,1,0,0:0:0:0:
253,224,107530,1,0,0:0:0:0:
316,333,107641,1,0,0:0:0:0:
97,265,107753,1,0,0:0:0:0:
142,156,107864,1,0,0:0:0:0:
256,91,107975,5,0,0:0:0:0:
271,70,108030,1,0,0:0:0:0:
285,48,108086,2,0,P|294:37|325:24,1,45
476,87,108197,2,0,P|457:104|417:113,1,45
417,29,108308,5,0,0:0:0:0:
354,97,108419,1,0,0:0:0:0:
375,186,108530,1,0,0:0:0:0:
473,333,108641,5,0,0:0:0:0:
368,276,108753,1,0,0:0:0:0:
267,308,108864,1,0,0:0:0:0:
109,298,108975,5,0,0:0:0:0:
161,244,109086,1,0,0:0:0:0:
153,171,109197,1,0,0:0:0:0:
69,123,109308,6,0,P|113:85|162:77,2,90
153,171,109642,1,0,0:0:0:0:
222,122,109753,1,0,0:0:0:0:
211,39,109864,1,0,0:0:0:0:
142,77,109975,5,0,0:0:0:0:
66,125,110086,1,0,0:0:0:0:
54,152,110142,1,0,0:0:0:0:
44,177,110197,1,0,0:0:0:0:
107,286,110308,1,0,0:0:0:0:
245,277,110420,1,0,0:0:0:0:
282,157,110531,1,0,0:0:0:0:
339,45,110642,5,0,0:0:0:0:
379,68,110697,1,0,0:0:0:0:
392,106,110753,1,0,0:0:0:0:
382,139,110808,1,0,0:0:0:0:
391,168,110864,1,0,0:0:0:0:
410,183,110919,1,0,0:0:0:0:
428,195,110975,5,0,0:0:0:0:
494,146,111086,1,0,0:0:0:0:
485,52,111197,1,0,0:0:0:0:
428,195,111308,5,0,0:0:0:0:
353,114,111419,1,0,0:0:0:0:
258,98,111531,1,0,0:0:0:0:
428,195,111642,5,0,0:0:0:0:
292,222,111753,1,0,0:0:0:0:
205,321,111864,1,0,0:0:0:0:
46,314,111975,6,0,L|37:240,1,45
130,230,112086,1,0,0:0:0:0:
46,314,112197,1,0,0:0:0:0:
49,170,112308,1,0,0:0:0:0:
69,132,112364,1,0,0:0:0:0:
108,106,112419,6,0,P|162:83|204:38,1,90
276,36,112641,1,0,0:0:0:0:
287,62,112697,1,0,0:0:0:0:
300,91,112753,1,0,0:0:0:0:
387,148,112864,1,0,0:0:0:0:
435,237,112975,1,0,0:0:0:0:
366,301,113086,1,0,0:0:0:0:
340,303,113141,1,0,0:0:0:0:
315,305,113197,1,0,0:0:0:0:
231,228,113308,5,0,0:0:0:0:
85,207,113420,1,0,0:0:0:0:
231,228,113531,2,0,L|191:190,1,45
84,114,113642,2,0,P|8:123|-19:153,1,90
199,114,113864,1,0,0:0:0:0:
219,102,113920,1,0,0:0:0:0:
237,88,113975,6,0,P|247:34|221:-15,2,90
82,158,114308,1,0,0:0:0:0:
66,185,114364,1,0,0:0:0:0:
48,212,114420,1,0,0:0:0:0:
170,243,114531,1,0,0:0:0:0:
186,270,114586,1,0,0:0:0:0:
204,297,114642,5,0,0:0:0:0:
289,219,114754,1,0,0:0:0:0:
435,198,114865,2,0,L|395:236,1,45
288,312,114976,2,0,P|212:303|185:273,1,90
289,219,115198,1,0,0:0:0:0:
309,207,115254,1,0,0:0:0:0:
327,193,115309,6,0,P|337:139|311:90,2,90
227,192,115641,1,0,0:0:0:0:
209,219,115697,1,0,0:0:0:0:
193,246,115752,1,0,0:0:0:0:
71,277,115863,1,0,0:0:0:0:
89,304,115919,1,0,0:0:0:0:
105,331,115975,5,0,0:0:0:0:
165,284,116086,1,0,0:0:0:0:
174,203,116197,1,0,0:0:0:0:
97,207,116308,5,0,0:0:0:0:
234,231,116419,1,0,0:0:0:0:
316,142,116530,1,0,0:0:0:0:
163,209,116641,5,0,0:0:0:0:
226,214,116752,1,0,0:0:0:0:
269,166,116863,1,0,0:0:0:0:
124,228,116975,5,0,0:0:0:0:
234,231,117086,1,0,0:0:0:0:
303,164,117197,1,0,0:0:0:0:
316,142,117253,1,0,0:0:0:0:
329,118,117308,6,0,P|341:76|374:46,2,90
308,227,117641,5,0,0:0:0:0:
392,207,117752,1,0,0:0:0:0:
440,132,117863,1,0,0:0:0:0:
466,248,117975,5,0,0:0:0:0:
427,281,118086,1,0,0:0:0:0:
368,291,118197,1,0,0:0:0:0:
242,200,118308,5,0,0:0:0:0:
366,167,118419,1,0,0:0:0:0:
417,39,118530,1,0,0:0:0:0:
282,76,118641,6,0,P|210:82|175:61,2,90
383,86,118975,5,0,0:0:0:0:
336,173,119030,1,0,0:0:0:0:
241,197,119086,1,0,0:0:0:0:
142,180,119141,5,0,0:0:0:0:
73,198,119197,1,0,0:0:0:0:
24,258,119253,1,0,0:0:0:0:
0,349,119308,5,0,0:0:0:0:
61,351,119364,1,0,0:0:0:0:
98,321,119419,1,0,0:0:0:0:
93,317,119641,5,0,0:0:0:0:
226,283,119753,1,0,0:0:0:0:
239,159,119864,1,0,0:0:0:0:
298,73,119975,2,0,P|359:58|395:62,2,90
283,95,120308,5,0,0:0:0:0:
214,311,120641,2,0,P|153:326|117:322,2,90
232,300,120975,1,0,0:0:0:0:
250,288,121086,1,0,0:0:0:0:
271,275,121197,1,0,0:0:0:0:
293,259,121308,6,0,P|336:221|387:209,2,90
373,333,121641,5,0,0:0:0:0:
310,343,121753,1,0,0:0:0:0:
253,323,121864,1,0,0:0:0:0:
419,312,121975,5,0,0:0:0:0:
311,377,122086,1,0,0:0:0:0:
203,303,122197,1,0,0:0:0:0:
357,297,122308,5,0,0:0:0:0:
323,310,122364,1,0,0:0:0:0:
287,302,122419,1,0,0:0:0:0:
256,236,122475,1,0,0:0:0:0:
214,222,122530,1,0,0:0:0:0:
170,227,122586,1,0,0:0:0:0:
118,286,122641,6,0,P|60:288|26:275,2,90
103,171,122975,1,0,0:0:0:0:
163,128,123086,1,0,0:0:0:0:
241,137,123197,1,0,0:0:0:0:
468,183,123308,5,0,0:0:0:0:
492,156,123364,1,0,0:0:0:0:
504,119,123419,1,0,0:0:0:0:
415,106,123530,1,0,0:0:0:0:
360,38,123641,1,0,0:0:0:0:
336,65,123697,1,0,0:0:0:0:
324,102,123752,1,0,0:0:0:0:
415,106,123864,1,0,0:0:0:0:
427,257,123975,6,0,P|463:268|528:245,2,90
360,190,124308,5,0,0:0:0:0:
319,197,124364,1,0,0:0:0:0:
288,233,124419,1,0,0:0:0:0:
251,275,124475,1,0,0:0:0:0:
188,281,124530,1,0,0:0:0:0:
133,244,124586,1,0,0:0:0:0:
130,181,124641,1,0,0:0:0:0:
72,135,124697,1,0,0:0:0:0:
2,160,124753,5,0,0:0:0:0:
28,226,124808,1,0,0:0:0:0:
67,244,124864,1,0,0:0:0:0:
109,244,124919,1,0,0:0:0:0:
151,223,124975,1,0,0:0:0:0:
201,209,125030,1,0,0:0:0:0:
244,221,125086,1,0,0:0:0:0:
280,248,125141,1,0,0:0:0:0:
313,255,125197,1,0,0:0:0:0:
345,251,125253,1,0,0:0:0:0:
369,238,125308,6,0,P|397:183|396:134,2,90
284,168,125641,5,0,0:0:0:0:
271,192,125753,1,0,0:0:0:0:
256,217,125864,1,0,0:0:0:0:
159,255,125975,6,0,P|90:253|2:166,1,180
337,94,126308,2,0,P|403:68|510:102,1,180
429,251,126641,5,0,0:0:0:0:
294,335,126753,1,0,0:0:0:0:
294,203,126864,1,0,0:0:0:0:
213,230,126975,1,0,0:0:0:0:
71,171,127086,1,0,0:0:0:0:
46,208,127141,1,0,0:0:0:0:
27,241,127197,1,0,0:0:0:0:
196,143,127308,5,0,0:0:0:0:
253,77,127419,1,0,0:0:0:0:
364,105,127530,1,0,0:0:0:0:
410,232,127641,1,0,0:0:0:0:
490,180,127753,1,0,0:0:0:0:
480,136,127808,1,0,0:0:0:0:
476,92,127864,1,0,0:0:0:0:
476,92,127919,1,0,0:0:0:0:
476,92,127975,6,0,P|382:80|303:134,1,180
312,122,128253,1,0,0:0:0:0:
312,122,128308,1,0,0:0:0:0:
268,234,128419,1,0,0:0:0:0:
148,230,128530,1,0,0:0:0:0:
329,107,128641,5,0,0:0:0:0:
280,257,128753,1,0,0:0:0:0:
122,244,128864,1,0,0:0:0:0:
54,122,128975,1,0,0:0:0:0:
85,89,129030,1,0,0:0:0:0:
128,75,129086,1,0,0:0:0:0:
170,83,129141,1,0,0:0:0:0:
216,84,129197,1,0,0:0:0:0:
261,67,129253,1,0,0:0:0:0:
291,41,129308,6,0,P|350:25|468:83,1,180
456,68,129586,1,0,0:0:0:0:
456,68,129641,1,0,0:0:0:0:
315,266,129753,1,0,0:0:0:0:
304,283,129808,1,0,0:0:0:0:
285,301,129864,1,0,0:0:0:0:
265,312,129919,2,0,P|186:284|133:221,1,135
145,215,130141,1,0,0:0:0:0:
178,29,130253,1,0,0:0:0:0:
216,18,130308,1,0,0:0:0:0:
263,25,130364,1,0,0:0:0:0:
294,56,130419,6,0,P|337:138|308:235,1,180
198,243,130697,1,0,0:0:0:0:
141,218,130753,2,0,P|162:148|184:134,1,90
287,130,130919,1,0,0:0:0:0:
348,151,130975,2,0,P|409:143|440:98,1,90
359,52,131141,1,0,0:0:0:0:
359,52,131197,1,0,0:0:0:0:
359,52,131253,1,0,0:0:0:0:
359,52,131308,2,0,P|347:144|401:226,1,180
494,303,131641,5,0,0:0:0:0:
347,339,131753,1,0,0:0:0:0:
227,264,131864,1,0,0:0:0:0:
80,282,131975,6,0,P|14:216|6:185,2,90
149,205,132308,1,0,0:0:0:0:
141,101,132419,1,0,0:0:0:0:
48,58,132530,1,0,0:0:0:0:
141,101,132641,1,0,0:0:0:0:
176,117,132697,1,0,0:0:0:0:
218,111,132753,1,0,0:0:0:0:
316,87,132864,1,0,0:0:0:0:
388,125,132975,1,0,0:0:0:0:
425,215,133086,1,0,0:0:0:0:
406,241,133141,1,0,0:0:0:0:
374,257,133197,1,0,0:0:0:0:
338,263,133253,1,0,0:0:0:0:
302,285,133308,6,0,P|246:289|198:263,1,90
145,192,133530,1,0,0:0:0:0:
61,204,133641,1,0,0:0:0:0:
66,239,133697,1,0,0:0:0:0:
96,262,133753,1,0,0:0:0:0:
218,241,133864,1,0,0:0:0:0:
302,229,133974,1,0,0:0:0:0:
297,194,134030,1,0,0:0:0:0:
267,171,134086,2,0,P|207:112|210:74,1,90
274,37,134308,1,0,0:0:0:0:
352,76,134419,1,0,0:0:0:0:
388,163,134530,1,0,0:0:0:0:
426,247,134641,6,0,P|487:263|534:243,2,90
322,206,134975,1,0,0:0:0:0:
241,222,135086,1,0,0:0:0:0:
182,298,135197,1,0,0:0:0:0:
99,355,135308,2,0,P|45:331|28:291,2,90
182,298,135641,1,0,0:0:0:0:
241,222,135753,1,0,0:0:0:0:
220,132,135864,1,0,0:0:0:0:
249,43,135975,6,0,P|308:17|350:23,2,90
184,109,136308,1,0,0:0:0:0:
151,194,136419,1,0,0:0:0:0:
205,279,136530,1,0,0:0:0:0:
310,314,136641,1,0,0:0:0:0:
411,264,136753,1,0,0:0:0:0:
446,143,136864,1,0,0:0:0:0:
344,70,136975,1,0,0:0:0:0:
237,163,137086,1,0,0:0:0:0:
296,291,137197,1,0,0:0:0:0:
431,227,137308,6,0,P|470:179|478:132,2,90
323,249,137641,1,0,0:0:0:0:
231,218,137753,1,0,0:0:0:0:
193,225,137808,1,0,0:0:0:0:
165,247,137864,1,0,0:0:0:0:
241,331,137975,1,0,0:0:0:0:
287,335,138030,1,0,0:0:0:0:
327,323,138086,1,0,0:0:0:0:
391,256,138197,1,0,0:0:0:0:
351,164,138308,1,0,0:0:0:0:
310,137,138364,1,0,0:0:0:0:
261,134,138419,1,0,0:0:0:0:
216,147,138475,1,0,0:0:0:0:
176,148,138530,1,0,0:0:0:0:
141,126,138586,1,0,0:0:0:0:
100,103,138641,6,0,P|38:97|-8:113,1,90
56,201,138864,5,0,0:0:0:0:
156,206,138975,1,0,0:0:0:0:
227,151,139086,1,0,0:0:0:0:
316,115,139197,1,0,0:0:0:0:
349,137,139253,1,0,0:0:0:0:
358,182,139308,1,0,0:0:0:0:
257,279,139419,1,0,0:0:0:0:
301,259,139475,1,0,0:0:0:0:
345,280,139530,1,0,0:0:0:0:
425,341,139641,5,0,0:0:0:0:
480,326,139697,1,0,0:0:0:0:
512,273,139753,1,0,0:0:0:0:
494,223,139808,1,0,0:0:0:0:
438,212,139864,1,0,0:0:0:0:
401,167,139919,1,0,0:0:0:0:
401,106,139975,1,0,0:0:0:0:
348,128,140030,1,0,0:0:0:0:
291,102,140086,1,0,0:0:0:0:
252,57,140141,1,0,0:0:0:0:
198,57,140197,1,0,0:0:0:0:
153,92,140253,1,0,0:0:0:0:
151,153,140308,1,0,0:0:0:0:
193,187,140364,1,0,0:0:0:0:
236,226,140419,1,0,0:0:0:0:
221,284,140475,1,0,0:0:0:0:
176,320,140530,1,0,0:0:0:0:
127,316,140586,1,0,0:0:0:0:
81,278,140641,6,0,P|30:222|0:217,2,90
315,286,140975,6,0,P|366:342|396:347,2,90
397,206,141308,5,0,0:0:0:0:
456,117,141419,1,0,0:0:0:0:
401,30,141530,1,0,0:0:0:0:
346,234,141641,5,0,0:0:0:0:
425,125,141753,1,0,0:0:0:0:
313,19,141864,1,0,0:0:0:0:
297,277,141975,5,0,0:0:0:0:
376,138,142086,1,0,0:0:0:0:
203,58,142197,1,0,0:0:0:0:
107,200,142308,1,0,0:0:0:0:
137,268,142364,1,0,0:0:0:0:
212,302,142419,1,0,0:0:0:0:
264,328,142475,1,0,0:0:0:0:
309,330,142530,1,0,0:0:0:0:
363,308,142586,1,0,0:0:0:0:
411,301,142641,6,0,P|471:325|499:358,2,90
262,271,142975,1,0,0:0:0:0:
250,185,143086,1,0,0:0:0:0:
318,123,143197,1,0,0:0:0:0:
428,101,143308,1,0,0:0:0:0:
453,85,143364,1,0,0:0:0:0:
464,59,143419,1,0,0:0:0:0:
357,32,143530,1,0,0:0:0:0:
254,64,143641,1,0,0:0:0:0:
219,97,143697,1,0,0:0:0:0:
177,97,143753,1,0,0:0:0:0:
79,97,143864,1,0,0:0:0:0:
69,212,143975,6,0,P|33:244|-38:249,2,90
169,163,144308,1,0,0:0:0:0:
264,199,144419,1,0,0:0:0:0:
362,177,144530,1,0,0:0:0:0:
457,222,144641,5,0,0:0:0:0:
470,258,144697,1,0,0:0:0:0:
464,294,144753,1,0,0:0:0:0:
267,278,144864,1,0,0:0:0:0:
444,192,144975,1,0,0:0:0:0:
467,248,145030,1,0,0:0:0:0:
456,310,145086,1,0,0:0:0:0:
234,302,145197,1,0,0:0:0:0:
419,67,145308,6,0,P|432:109|423:153,1,90
346,223,145530,1,0,0:0:0:0:
311,231,145586,1,0,0:0:0:0:
274,221,145641,1,0,0:0:0:0:
193,118,145753,1,0,0:0:0:0:
241,115,145808,1,0,0:0:0:0:
288,139,145864,1,0,0:0:0:0:
148,216,145975,1,0,0:0:0:0:
104,179,146030,1,0,0:0:0:0:
92,123,146086,1,0,0:0:0:0:
206,23,146197,1,0,0:0:0:0:
259,32,146253,1,0,0:0:0:0:
293,75,146308,1,0,0:0:0:0:
285,212,146419,1,0,0:0:0:0:
343,244,146475,1,0,0:0:0:0:
402,241,146530,1,0,0:0:0:0:
461,135,146641,6,0,P|483:89|524:62,2,90
436,244,146975,5,0,0:0:0:0:
405,271,147030,1,0,0:0:0:0:
369,291,147086,1,0,0:0:0:0:
329,297,147141,1,0,0:0:0:0:
290,292,147197,1,0,0:0:0:0:
252,258,147253,1,0,0:0:0:0:
214,221,147308,1,0,0:0:0:0:
171,193,147364,1,0,0:0:0:0:
125,182,147419,1,0,0:0:0:0:
85,192,147475,1,0,0:0:0:0:
40,218,147530,1,0,0:0:0:0:
32,290,147586,1,0,0:0:0:0:
89,336,147641,5,0,0:0:0:0:
157,338,147697,1,0,0:0:0:0:
195,285,147753,1,0,0:0:0:0:
229,205,147808,1,0,0:0:0:0:
206,126,147864,1,0,0:0:0:0:
238,57,147919,1,0,0:0:0:0:
310,30,147975,5,0,0:0:0:0:
386,56,148030,1,0,0:0:0:0:
426,132,148086,1,0,0:0:0:0:
388,212,148141,1,0,0:0:0:0:
307,242,148197,1,0,0:0:0:0:
229,205,148253,1,0,0:0:0:0:
206,126,148308,2,0,P|147:78|101:66,2,90
307,242,148641,5,0,0:0:0:0:
258,277,148697,1,0,0:0:0:0:
204,283,148753,1,0,0:0:0:0:
148,260,148808,1,0,0:0:0:0:
91,264,148864,1,0,0:0:0:0:
52,303,148919,1,0,0:0:0:0:
42,364,148975,2,0,P|-13:376|-65:361,2,90
130,333,149308,5,0,0:0:0:0:
160,292,149364,1,0,0:0:0:0:
204,283,149419,1,0,0:0:0:0:
250,290,149475,1,0,0:0:0:0:
297,273,149530,1,0,0:0:0:0:
316,225,149586,1,0,0:0:0:0:
319,180,149641,2,0,P|346:127|381:100,2,90
297,273,149975,5,0,0:0:0:0:
335,300,150030,1,0,0:0:0:0:
379,302,150086,1,0,0:0:0:0:
422,299,150141,1,0,0:0:0:0:
461,318,150197,1,0,0:0:0:0:
486,351,150253,1,0,0:0:0:0:
496,384,150308,1,0,0:0:0:0:
458,371,150364,1,0,0:0:0:0:
440,331,150419,1,0,0:0:0:0:
449,294,150475,1,0,0:0:0:0:
481,258,150530,1,0,0:0:0:0:
490,225,150586,1,0,0:0:0:0:
468,192,150641,6,0,P|439:141|438:80,2,90
502,312,150975,1,0,0:0:0:0:
408,307,151086,1,0,0:0:0:0:
346,229,151197,1,0,0:0:0:0:
275,172,151308,1,0,0:0:0:0:
241,166,151364,1,0,0:0:0:0:
203,177,151419,1,0,0:0:0:0:
179,204,151475,1,0,0:0:0:0:
171,238,151530,1,0,0:0:0:0:
168,258,151586,1,0,0:0:0:0:
150,288,151641,2,0,P|93:295|46:272,2,90
258,248,151975,5,0,0:0:0:0:
351,193,152086,1,0,0:0:0:0:
379,75,152197,1,0,0:0:0:0:
287,290,152308,5,0,0:0:0:0:
327,203,152419,1,0,0:0:0:0:
241,69,152530,1,0,0:0:0:0:
338,313,152641,5,0,0:0:0:0:
299,215,152753,1,0,0:0:0:0:
138,146,152864,1,0,0:0:0:0:
162,306,152975,2,0,P|264:347|357:331,1,180
464,294,153308,5,0,0:0:0:0:
432,236,153364,1,0,0:0:0:0:
368,210,153419,1,0,0:0:0:0:
299,215,153475,1,0,0:0:0:0:
241,180,153530,1,0,0:0:0:0:
235,114,153586,1,0,0:0:0:0:
275,56,153641,2,0,P|330:40|384:44,2,90
334,128,153975,5,0,0:0:0:0:
331,176,154030,1,0,0:0:0:0:
299,215,154086,1,0,0:0:0:0:
255,246,154141,1,0,0:0:0:0:
234,293,154197,1,0,0:0:0:0:
246,343,154253,1,0,0:0:0:0:
297,367,154308,2,0,P|348:345|365:304,2,90
116,321,154641,5,0,0:0:0:0:
117,271,154697,1,0,0:0:0:0:
146,225,154753,1,0,0:0:0:0:
193,203,154808,1,0,0:0:0:0:
224,171,154864,1,0,0:0:0:0:
231,116,154919,1,0,0:0:0:0:
203,74,154975,2,0,P|147:60|88:68,2,90
370,50,155308,5,0,0:0:0:0:
402,70,155364,1,0,0:0:0:0:
418,103,155420,1,0,0:0:0:0:
411,145,155475,1,0,0:0:0:0:
385,181,155531,1,0,0:0:0:0:
336,197,155586,1,0,0:0:0:0:
293,210,155642,1,0,0:0:0:0:
265,251,155697,1,0,0:0:0:0:
266,303,155753,1,0,0:0:0:0:
298,335,155808,1,0,0:0:0:0:
350,337,155864,1,0,0:0:0:0:
393,302,155920,1,0,0:0:0:0:
393,246,155975,6,0,P|371:193|339:176,2,90
316,301,156308,1,0,0:0:0:0:
221,290,156419,1,0,0:0:0:0:
147,220,156530,1,0,0:0:0:0:
142,127,156641,1,0,0:0:0:0:
128,107,156697,1,0,0:0:0:0:
99,98,156753,1,0,0:0:0:0:
79,89,156808,1,0,0:0:0:0:
55,70,156864,1,0,0:0:0:0:
47,47,156919,1,0,0:0:0:0:
50,22,156975,2,0,P|26:76|-16:83,2,90
143,30,157308,5,0,0:0:0:0:
152,78,157364,1,0,0:0:0:0:
197,109,157419,1,0,0:0:0:0:
251,112,157475,1,0,0:0:0:0:
298,136,157530,1,0,0:0:0:0:
317,190,157586,1,0,0:0:0:0:
284,230,157641,1,0,0:0:0:0:
332,241,157697,1,0,0:0:0:0:
366,275,157753,1,0,0:0:0:0:
372,321,157808,1,0,0:0:0:0:
414,347,157864,1,0,0:0:0:0:
468,332,157919,1,0,0:0:0:0:
496,288,157975,5,0,0:0:0:0:
497,194,158086,1,0,0:0:0:0:
494,102,158197,1,0,0:0:0:0:
491,11,158308,1,0,0:0:0:0:
461,132,159308,5,0,0:0:0:0:
411,178,159391,1,0,0:0:0:0:
343,184,159474,1,0,0:0:0:0:
284,140,159558,1,0,0:0:0:0:
245,82,159641,1,0,0:0:0:0:
177,58,159724,1,0,0:0:0:0:
113,80,159808,1,0,0:0:0:0:
82,144,159891,1,0,0:0:0:0:
102,214,159974,5,0,0:0:0:0:
64,155,160058,1,0,0:0:0:0:
74,91,160141,1,0,0:0:0:0:
137,62,160224,1,0,0:0:0:0:
204,81,160308,1,0,0:0:0:0:
236,143,160391,1,0,0:0:0:0:
208,205,160474,1,0,0:0:0:0:
143,231,160558,1,0,0:0:0:0:
79,217,160641,5,0,0:0:0:0:
132,170,160725,1,0,0:0:0:0:
197,169,160808,1,0,0:0:0:0:
235,227,160891,1,0,0:0:0:0:
227,296,160975,1,0,0:0:0:0:
170,338,161058,1,0,0:0:0:0:
105,321,161141,1,0,0:0:0:0:
69,260,161225,1,0,0:0:0:0:
93,193,161308,5,0,0:0:0:0:
153,232,161392,1,0,0:0:0:0:
170,294,161475,1,0,0:0:0:0:
124,346,161558,1,0,0:0:0:0:
55,356,161642,1,0,0:0:0:0:
0,312,161725,1,0,0:0:0:0:
0,245,161808,1,0,0:0:0:0:
49,194,161892,1,0,0:0:0:0:
116,184,161974,5,0,0:0:0:0:
189,182,162058,1,0,0:0:0:0:
247,143,162141,1,0,0:0:0:0:
261,77,162224,1,0,0:0:0:0:
241,11,162307,5,0,0:0:0:0:
296,57,162390,1,0,0:0:0:0:
371,65,162474,1,0,0:0:0:0:
433,30,162557,1,0,0:0:0:0:
421,99,162640,1,0,0:0:0:0:
448,162,162724,1,0,0:0:0:0:
502,212,162807,5,0,0:0:0:0:
421,204,162890,1,0,0:0:0:0:
350,243,162974,1,0,0:0:0:0:
298,301,163057,1,0,0:0:0:0:
217,310,163140,1,0,0:0:0:0:
146,274,163224,1,0,0:0:0:0:
116,199,163308,5,0,0:0:0:0:
111,173,163391,1,0,0:0:0:0:
104,147,163474,1,0,0:0:0:0:
96,118,163558,1,0,0:0:0:0:
201,133,163641,5,0,0:0:0:0:
196,107,163724,1,0,0:0:0:0:
189,81,163807,1,0,0:0:0:0:
181,52,163891,1,0,0:0:0:0:
81,25,163974,5,0,0:0:0:0:
34,53,164058,1,0,0:0:0:0:
12,103,164141,1,0,0:0:0:0:
13,156,164224,1,0,0:0:0:0:
69,211,164308,1,0,0:0:0:0:
106,255,164391,1,0,0:0:0:0:
107,310,164474,1,0,0:0:0:0:
76,354,164558,1,0,0:0:0:0:
24,284,164641,5,0,0:0:0:0:
71,243,164724,1,0,0:0:0:0:
133,227,164808,1,0,0:0:0:0:
191,244,164891,1,0,0:0:0:0:
243,286,164974,1,0,0:0:0:0:
310,288,165058,1,0,0:0:0:0:
371,251,165141,1,0,0:0:0:0:
381,184,165224,1,0,0:0:0:0:
340,122,165308,5,0,0:0:0:0:
402,174,165391,1,0,0:0:0:0:
478,158,165474,1,0,0:0:0:0:
507,88,165558,1,0,0:0:0:0:
471,23,165641,1,0,0:0:0:0:
400,3,165724,1,0,0:0:0:0:
340,44,165808,1,0,0:0:0:0:
268,49,165891,1,0,0:0:0:0:
209,15,165974,5,0,0:0:0:0:
242,73,166057,1,0,0:0:0:0:
216,136,166141,1,0,0:0:0:0:
154,162,166224,1,0,0:0:0:0:
87,146,166307,1,0,0:0:0:0:
53,83,166391,1,0,0:0:0:0:
79,22,166474,1,0,0:0:0:0:
149,8,166557,1,0,0:0:0:0:
214,40,166641,1,0,0:0:0:0:
218,113,166724,1,0,0:0:0:0:
169,161,166807,1,0,0:0:0:0:
117,222,166891,1,0,0:0:0:0:
110,296,166974,1,0,0:0:0:0:
166,343,167057,1,0,0:0:0:0:
252,342,167141,1,0,0:0:0:0:
300,268,167224,1,0,0:0:0:0:
277,183,167307,5,0,0:0:0:0:
238,158,167391,1,0,0:0:0:0:
191,155,167474,1,0,0:0:0:0:
153,167,167557,1,0,0:0:0:0:
110,177,167641,1,0,0:0:0:0:
67,162,167724,1,0,0:0:0:0:
42,125,167807,1,0,0:0:0:0:
50,81,167891,1,0,0:0:0:0:
131,43,167974,5,0,0:0:0:0:
155,54,168030,1,0,0:0:0:0:
184,59,168085,1,0,0:0:0:0:
215,58,168141,1,0,0:0:0:0:
248,50,168196,1,0,0:0:0:0:
282,46,168252,1,0,0:0:0:0:
315,53,168307,1,0,0:0:0:0:
337,63,168363,1,0,0:0:0:0:
359,71,168419,1,0,0:0:0:0:
380,78,168474,1,0,0:0:0:0:
399,87,168530,1,0,0:0:0:0:
419,96,168585,1,0,0:0:0:0:
441,111,168641,5,0,0:0:0:0:
467,142,168696,1,0,0:0:0:0:
470,186,168752,1,0,0:0:0:0:
454,219,168807,1,0,0:0:0:0:
281,283,168974,1,0,0:0:0:0:
271,239,169030,1,0,0:0:0:0:
277,195,169085,1,0,0:0:0:0:
306,165,169141,1,0,0:0:0:0:
393,298,169307,5,0,0:0:0:0:
177,237,169419,1,0,0:0:0:0:
338,92,169530,1,0,0:0:0:0:
393,298,169641,1,0,0:0:0:0:
70,352,169752,1,0,0:0:0:0:
173,86,169863,1,0,0:0:0:0:
393,298,169974,5,0,0:0:0:0:
