osu file format v14

[General]
AudioFilename: Adore Your Pain.mp3
AudioLeadIn: 0
PreviewTime: 56857
Countdown: 0
SampleSet: Normal
StackLeniency: 0.7
Mode: 3
LetterboxInBreaks: 0
SpecialStyle: 0
WidescreenStoryboard: 0

[Editor]
DistanceSpacing: 0.8
BeatDivisor: 2
GridSize: 32
TimelineZoom: 1.8

[Metadata]
Title:Adore your Pain
TitleUnicode:Adore your Pain
Artist:UNDEAD CORPORATION
ArtistUnicode:UNDEAD CORPORATION
Creator:PLiv
Version:A Witness of You
Source:
Tags:
BeatmapID:1215588
BeatmapSetID:573857

[Difficulty]
HPDrainRate:8.8
CircleSize:4
OverallDifficulty:9
ApproachRate:5
SliderMultiplier:1.4
SliderTickRate:1

[Events]
//Background and Video events
0,0,"adorebg.jpg",0,0
//Break Periods
//Storyboard Layer 0 (Background)
//Storyboard Layer 1 (Fail)
//Storyboard Layer 2 (Pass)
//Storyboard Layer 3 (Foreground)
//Storyboard Sound Samples

[TimingPoints]
0,285.714286,4,1,0,70,1,0

[HitObjects]
64,192,0,5,0,0:0:0:0:
192,192,0,1,0,0:0:0:0:
320,192,71,1,0,0:0:0:0:
192,192,143,1,0,0:0:0:0:
320,192,214,1,0,0:0:0:0:
448,192,214,1,0,0:0:0:0:
64,192,286,1,0,0:0:0:0:
192,192,286,1,0,0:0:0:0:
320,192,357,1,0,0:0:0:0:
192,192,429,1,0,0:0:0:0:
320,192,500,1,0,0:0:0:0:
448,192,500,1,0,0:0:0:0:
64,192,571,1,0,0:0:0:0:
192,192,571,1,0,0:0:0:0:
320,192,643,1,0,0:0:0:0:
64,192,714,1,0,0:0:0:0:
448,192,714,1,0,0:0:0:0:
192,192,786,1,0,0:0:0:0:
64,192,857,1,0,0:0:0:0:
320,192,857,1,0,0:0:0:0:
448,192,857,1,0,0:0:0:0:
64,192,1000,1,0,0:0:0:0:
192,192,1000,1,0,0:0:0:0:
448,192,1000,1,0,0:0:0:0:
64,192,1429,1,0,0:0:0:0:
320,192,1429,1,0,0:0:0:0:
448,192,1429,1,0,0:0:0:0:
64,192,1714,1,0,0:0:0:0:
192,192,1720,1,0,0:0:0:0:
448,192,2000,128,0,2286:0:0:0:0:
320,192,2006,1,0,0:0:0:0:
192,192,2280,1,0,0:0:0:0:
64,192,2286,128,0,2857:0:0:0:0:
448,192,2565,1,0,0:0:0:0:
320,192,2571,1,0,0:0:0:0:
320,192,2851,1,0,0:0:0:0:
192,192,2857,128,0,3286:0:0:0:0:
448,192,2857,1,0,0:0:0:0:
448,192,3000,1,0,0:0:0:0:
448,192,3143,1,0,0:0:0:0:
320,192,3286,128,0,3714:0:0:0:0:
448,192,3286,1,0,0:0:0:0:
64,192,3714,1,0,0:0:0:0:
192,192,3714,128,0,4143:0:0:0:0:
320,192,3857,1,0,0:0:0:0:
64,192,4000,1,0,0:0:0:0:
64,192,4286,128,0,4571:0:0:0:0:
192,192,4286,1,0,0:0:0:0:
320,192,4429,1,0,0:0:0:0:
192,192,4571,1,0,0:0:0:0:
448,192,4571,128,0,5143:0:0:0:0:
320,192,4714,1,0,0:0:0:0:
192,192,4857,1,0,0:0:0:0:
320,192,5000,1,0,0:0:0:0:
192,192,5143,128,0,5429:0:0:0:0:
64,192,5286,1,0,0:0:0:0:
320,192,5429,1,0,0:0:0:0:
448,192,5429,1,0,0:0:0:0:
64,192,5500,1,0,0:0:0:0:
192,192,5500,1,0,0:0:0:0:
320,192,5571,128,0,6000:0:0:0:0:
448,192,5571,128,0,6000:0:0:0:0:
64,192,6000,128,0,6286:0:0:0:0:
192,192,6000,128,0,6286:0:0:0:0:
448,192,6286,1,0,0:0:0:0:
192,192,6429,1,0,0:0:0:0:
320,192,6500,1,0,0:0:0:0:
192,192,6571,128,0,6857:0:0:0:0:
320,192,6857,1,0,0:0:0:0:
448,192,6857,1,0,0:0:0:0:
64,192,6929,1,0,0:0:0:0:
192,192,7000,1,0,0:0:0:0:
320,192,7000,1,0,0:0:0:0:
64,192,7143,1,0,0:0:0:0:
448,192,7143,1,0,0:0:0:0:
320,192,7214,1,0,0:0:0:0:
64,192,7286,1,0,0:0:0:0:
192,192,7286,1,0,0:0:0:0:
64,192,7429,1,0,0:0:0:0:
320,192,7429,1,0,0:0:0:0:
448,192,7429,1,0,0:0:0:0:
64,192,7571,1,0,0:0:0:0:
192,192,7571,1,0,0:0:0:0:
448,192,7571,1,0,0:0:0:0:
192,192,7857,128,0,8286:0:0:0:0:
320,192,7857,128,0,8286:0:0:0:0:
64,192,8286,1,0,0:0:0:0:
448,192,8286,1,0,0:0:0:0:
192,192,8571,1,0,0:0:0:0:
320,192,8571,1,0,0:0:0:0:
64,192,9143,1,0,0:0:0:0:
192,192,9143,1,0,0:0:0:0:
320,192,9214,1,0,0:0:0:0:
64,192,9286,1,0,0:0:0:0:
192,192,9286,1,0,0:0:0:0:
320,192,9357,1,0,0:0:0:0:
448,192,9357,1,0,0:0:0:0:
64,192,9500,1,0,0:0:0:0:
192,192,9500,1,0,0:0:0:0:
320,192,9571,1,0,0:0:0:0:
448,192,9571,1,0,0:0:0:0:
192,192,9643,1,0,0:0:0:0:
320,192,9714,1,0,0:0:0:0:
448,192,9714,1,0,0:0:0:0:
64,192,9786,1,0,0:0:0:0:
320,192,9857,1,0,0:0:0:0:
448,192,9857,1,0,0:0:0:0:
192,192,9929,1,0,0:0:0:0:
64,192,10000,1,0,0:0:0:0:
320,192,10000,1,0,0:0:0:0:
64,192,10286,1,0,0:0:0:0:
192,192,10286,1,0,0:0:0:0:
320,192,10286,1,0,0:0:0:0:
448,192,10429,1,0,0:0:0:0:
192,192,10571,1,0,0:0:0:0:
320,192,10571,1,0,0:0:0:0:
448,192,10571,1,0,0:0:0:0:
64,192,10714,1,0,0:0:0:0:
192,192,10714,1,0,0:0:0:0:
320,192,10786,1,0,0:0:0:0:
192,192,10857,1,0,0:0:0:0:
448,192,10857,1,0,0:0:0:0:
64,192,11000,1,0,0:0:0:0:
320,192,11000,1,0,0:0:0:0:
448,192,11000,1,0,0:0:0:0:
64,192,11143,1,0,0:0:0:0:
192,192,11143,1,0,0:0:0:0:
448,192,11214,1,0,0:0:0:0:
192,192,11286,1,0,0:0:0:0:
320,192,11286,1,0,0:0:0:0:
192,192,11429,1,0,0:0:0:0:
320,192,11429,1,0,0:0:0:0:
448,192,11429,1,0,0:0:0:0:
192,192,11571,1,0,0:0:0:0:
64,192,11714,1,0,0:0:0:0:
192,192,11714,1,0,0:0:0:0:
448,192,11714,1,0,0:0:0:0:
64,192,11857,1,0,0:0:0:0:
320,192,11857,1,0,0:0:0:0:
192,192,11929,1,0,0:0:0:0:
320,192,12000,1,0,0:0:0:0:
448,192,12000,1,0,0:0:0:0:
64,192,12143,1,0,0:0:0:0:
320,192,12143,1,0,0:0:0:0:
448,192,12143,1,0,0:0:0:0:
64,192,12286,1,0,0:0:0:0:
192,192,12286,1,0,0:0:0:0:
448,192,12357,1,0,0:0:0:0:
192,192,12429,1,0,0:0:0:0:
320,192,12429,1,0,0:0:0:0:
64,192,12571,1,0,0:0:0:0:
320,192,12571,1,0,0:0:0:0:
448,192,12571,1,0,0:0:0:0:
448,192,12714,1,0,0:0:0:0:
192,192,12857,1,0,0:0:0:0:
320,192,12857,1,0,0:0:0:0:
448,192,12857,1,0,0:0:0:0:
64,192,13000,1,0,0:0:0:0:
448,192,13000,1,0,0:0:0:0:
64,192,13143,1,0,0:0:0:0:
320,192,13143,1,0,0:0:0:0:
192,192,13286,1,0,0:0:0:0:
320,192,13286,1,0,0:0:0:0:
64,192,13429,1,0,0:0:0:0:
192,192,13429,1,0,0:0:0:0:
320,192,13500,1,0,0:0:0:0:
192,192,13571,1,0,0:0:0:0:
448,192,13571,1,0,0:0:0:0:
64,192,13714,1,0,0:0:0:0:
320,192,13714,1,0,0:0:0:0:
192,192,13786,1,0,0:0:0:0:
320,192,13857,1,0,0:0:0:0:
448,192,13857,1,0,0:0:0:0:
192,192,14000,1,0,0:0:0:0:
320,192,14000,1,0,0:0:0:0:
64,192,14071,1,0,0:0:0:0:
320,192,14143,1,0,0:0:0:0:
448,192,14143,1,0,0:0:0:0:
320,192,14286,1,0,0:0:0:0:
448,192,14286,1,0,0:0:0:0:
64,192,14357,1,0,0:0:0:0:
192,192,14429,1,0,0:0:0:0:
320,192,14429,1,0,0:0:0:0:
192,192,14571,1,0,0:0:0:0:
448,192,14571,1,0,0:0:0:0:
320,192,14643,1,0,0:0:0:0:
64,192,14714,1,0,0:0:0:0:
192,192,14714,1,0,0:0:0:0:
64,192,14857,1,0,0:0:0:0:
192,192,14857,1,0,0:0:0:0:
320,192,14857,1,0,0:0:0:0:
448,192,14857,1,0,0:0:0:0:
192,192,15000,1,0,0:0:0:0:
64,192,15143,1,0,0:0:0:0:
320,192,15143,1,0,0:0:0:0:
448,192,15143,1,0,0:0:0:0:
192,192,15286,1,0,0:0:0:0:
320,192,15286,1,0,0:0:0:0:
448,192,15357,1,0,0:0:0:0:
64,192,15429,1,0,0:0:0:0:
192,192,15429,1,0,0:0:0:0:
320,192,15571,1,0,0:0:0:0:
448,192,15571,1,0,0:0:0:0:
64,192,15714,1,0,0:0:0:0:
192,192,15714,1,0,0:0:0:0:
448,192,15786,1,0,0:0:0:0:
192,192,15857,1,0,0:0:0:0:
320,192,15857,1,0,0:0:0:0:
64,192,16000,1,0,0:0:0:0:
192,192,16000,1,0,0:0:0:0:
448,192,16000,1,0,0:0:0:0:
64,192,16143,1,0,0:0:0:0:
320,192,16143,1,0,0:0:0:0:
64,192,16286,1,0,0:0:0:0:
192,192,16286,1,0,0:0:0:0:
320,192,16286,1,0,0:0:0:0:
320,192,16429,1,0,0:0:0:0:
448,192,16429,1,0,0:0:0:0:
192,192,16500,1,0,0:0:0:0:
64,192,16571,1,0,0:0:0:0:
320,192,16571,1,0,0:0:0:0:
192,192,16714,1,0,0:0:0:0:
320,192,16714,1,0,0:0:0:0:
448,192,16714,1,0,0:0:0:0:
64,192,16857,1,0,0:0:0:0:
192,192,16857,1,0,0:0:0:0:
320,192,16929,1,0,0:0:0:0:
192,192,17000,1,0,0:0:0:0:
448,192,17000,1,0,0:0:0:0:
64,192,17143,1,0,0:0:0:0:
192,192,17143,1,0,0:0:0:0:
448,192,17143,1,0,0:0:0:0:
192,192,17286,1,0,0:0:0:0:
448,192,17286,1,0,0:0:0:0:
64,192,17429,1,0,0:0:0:0:
192,192,17429,1,0,0:0:0:0:
320,192,17429,1,0,0:0:0:0:
64,192,17571,1,0,0:0:0:0:
448,192,17571,1,0,0:0:0:0:
192,192,17643,1,0,0:0:0:0:
320,192,17714,1,0,0:0:0:0:
448,192,17714,1,0,0:0:0:0:
64,192,17857,1,0,0:0:0:0:
192,192,17857,1,0,0:0:0:0:
64,192,18000,1,0,0:0:0:0:
448,192,18000,1,0,0:0:0:0:
320,192,18071,1,0,0:0:0:0:
64,192,18143,1,0,0:0:0:0:
192,192,18143,1,0,0:0:0:0:
64,192,18286,1,0,0:0:0:0:
192,192,18286,1,0,0:0:0:0:
320,192,18357,1,0,0:0:0:0:
448,192,18357,1,0,0:0:0:0:
64,192,18429,1,0,0:0:0:0:
192,192,18429,1,0,0:0:0:0:
320,192,18571,1,0,0:0:0:0:
448,192,18571,1,0,0:0:0:0:
64,192,18643,1,0,0:0:0:0:
192,192,18643,1,0,0:0:0:0:
320,192,18714,1,0,0:0:0:0:
448,192,18714,1,0,0:0:0:0:
64,192,18857,1,0,0:0:0:0:
320,192,18857,1,0,0:0:0:0:
192,192,18929,1,0,0:0:0:0:
448,192,18929,1,0,0:0:0:0:
64,192,19000,1,0,0:0:0:0:
320,192,19000,1,0,0:0:0:0:
192,192,19143,1,0,0:0:0:0:
448,192,19143,1,0,0:0:0:0:
64,192,19214,1,0,0:0:0:0:
320,192,19214,1,0,0:0:0:0:
192,192,19286,1,0,0:0:0:0:
448,192,19286,1,0,0:0:0:0:
64,192,19429,1,0,0:0:0:0:
192,192,19429,1,0,0:0:0:0:
320,192,19429,1,0,0:0:0:0:
448,192,19429,1,0,0:0:0:0:
192,192,19714,1,0,0:0:0:0:
192,192,19857,1,0,0:0:0:0:
192,192,20000,1,0,0:0:0:0:
320,192,20000,1,0,0:0:0:0:
448,192,20000,1,0,0:0:0:0:
320,192,20143,1,0,0:0:0:0:
320,192,20286,1,0,0:0:0:0:
320,192,20429,1,0,0:0:0:0:
64,192,20571,1,0,0:0:0:0:
320,192,20571,1,0,0:0:0:0:
448,192,20571,1,0,0:0:0:0:
64,192,20714,1,0,0:0:0:0:
64,192,20857,1,0,0:0:0:0:
64,192,21000,1,0,0:0:0:0:
192,192,21000,1,0,0:0:0:0:
64,192,21143,1,0,0:0:0:0:
192,192,21143,1,0,0:0:0:0:
448,192,21143,1,0,0:0:0:0:
192,192,21286,1,0,0:0:0:0:
320,192,21286,1,0,0:0:0:0:
64,192,21429,1,0,0:0:0:0:
448,192,21429,1,0,0:0:0:0:
192,192,21571,1,0,0:0:0:0:
320,192,21571,1,0,0:0:0:0:
192,192,21857,1,0,0:0:0:0:
320,192,21857,1,0,0:0:0:0:
64,192,22000,1,0,0:0:0:0:
192,192,22000,1,0,0:0:0:0:
320,192,22071,1,0,0:0:0:0:
192,192,22143,1,0,0:0:0:0:
448,192,22143,1,0,0:0:0:0:
192,192,22286,1,0,0:0:0:0:
320,192,22286,1,0,0:0:0:0:
448,192,22286,1,0,0:0:0:0:
64,192,22357,1,0,0:0:0:0:
192,192,22429,1,0,0:0:0:0:
320,192,22429,1,0,0:0:0:0:
320,192,22571,1,0,0:0:0:0:
448,192,22571,1,0,0:0:0:0:
64,192,22643,1,0,0:0:0:0:
192,192,22714,1,0,0:0:0:0:
320,192,22714,1,0,0:0:0:0:
64,192,22857,1,0,0:0:0:0:
320,192,22857,1,0,0:0:0:0:
448,192,22857,1,0,0:0:0:0:
192,192,22929,1,0,0:0:0:0:
320,192,23000,1,0,0:0:0:0:
448,192,23000,1,0,0:0:0:0:
64,192,23143,1,0,0:0:0:0:
192,192,23143,1,0,0:0:0:0:
320,192,23214,1,0,0:0:0:0:
64,192,23286,1,0,0:0:0:0:
448,192,23286,1,0,0:0:0:0:
64,192,23429,1,0,0:0:0:0:
192,192,23429,128,0,23714:0:0:0:0:
320,192,23429,1,0,0:0:0:0:
448,192,23429,1,0,0:0:0:0:
64,192,23714,1,0,0:0:0:0:
320,192,23714,128,0,24000:0:0:0:0:
448,192,23714,1,0,0:0:0:0:
64,192,24000,1,0,0:0:0:0:
192,192,24000,1,0,0:0:0:0:
448,192,24000,128,0,24286:0:0:0:0:
64,192,24286,1,0,0:0:0:0:
64,192,24429,1,0,0:0:0:0:
64,192,24571,1,0,0:0:0:0:
192,192,24571,1,0,0:0:0:0:
320,192,24571,1,0,0:0:0:0:
192,192,24714,1,0,0:0:0:0:
192,192,24857,1,0,0:0:0:0:
192,192,25000,1,0,0:0:0:0:
192,192,25143,1,0,0:0:0:0:
448,192,25143,1,0,0:0:0:0:
448,192,25286,1,0,0:0:0:0:
448,192,25429,1,0,0:0:0:0:
64,192,25571,1,0,0:0:0:0:
320,192,25571,1,0,0:0:0:0:
448,192,25571,1,0,0:0:0:0:
64,192,25714,1,0,0:0:0:0:
320,192,25714,1,0,0:0:0:0:
192,192,25857,1,0,0:0:0:0:
448,192,25857,1,0,0:0:0:0:
64,192,26000,1,0,0:0:0:0:
320,192,26000,1,0,0:0:0:0:
192,192,26143,1,0,0:0:0:0:
320,192,26143,1,0,0:0:0:0:
64,192,26429,1,0,0:0:0:0:
448,192,26429,1,0,0:0:0:0:
64,192,26571,1,0,0:0:0:0:
192,192,26571,1,0,0:0:0:0:
320,192,26643,1,0,0:0:0:0:
64,192,26714,1,0,0:0:0:0:
192,192,26714,1,0,0:0:0:0:
64,192,26857,1,0,0:0:0:0:
192,192,26857,1,0,0:0:0:0:
448,192,26857,1,0,0:0:0:0:
320,192,26929,1,0,0:0:0:0:
192,192,27000,1,0,0:0:0:0:
448,192,27000,1,0,0:0:0:0:
64,192,27143,1,0,0:0:0:0:
448,192,27143,1,0,0:0:0:0:
192,192,27214,1,0,0:0:0:0:
64,192,27286,1,0,0:0:0:0:
320,192,27286,1,0,0:0:0:0:
64,192,27429,1,0,0:0:0:0:
448,192,27429,1,0,0:0:0:0:
320,192,27500,1,0,0:0:0:0:
192,192,27571,1,0,0:0:0:0:
448,192,27571,1,0,0:0:0:0:
64,192,27714,1,0,0:0:0:0:
192,192,27714,1,0,0:0:0:0:
448,192,27714,1,0,0:0:0:0:
320,192,27786,1,0,0:0:0:0:
64,192,27857,1,0,0:0:0:0:
192,192,27857,1,0,0:0:0:0:
448,192,27929,1,0,0:0:0:0:
64,192,28000,1,0,0:0:0:0:
320,192,28000,1,0,0:0:0:0:
448,192,28071,1,0,0:0:0:0:
64,192,28143,1,0,0:0:0:0:
192,192,28143,1,0,0:0:0:0:
320,192,28214,1,0,0:0:0:0:
64,192,28286,1,0,0:0:0:0:
448,192,28286,1,0,0:0:0:0:
64,192,28571,1,0,0:0:0:0:
192,192,28571,1,0,0:0:0:0:
320,192,28643,1,0,0:0:0:0:
448,192,28643,1,0,0:0:0:0:
64,192,28714,1,0,0:0:0:0:
192,192,28714,1,0,0:0:0:0:
64,192,28857,1,0,0:0:0:0:
320,192,28857,1,0,0:0:0:0:
448,192,28857,1,0,0:0:0:0:
64,192,29000,1,0,0:0:0:0:
192,192,29000,1,0,0:0:0:0:
192,192,29143,1,0,0:0:0:0:
320,192,29143,1,0,0:0:0:0:
320,192,29286,1,0,0:0:0:0:
448,192,29286,1,0,0:0:0:0:
64,192,29429,128,0,30571:0:0:0:0:
192,192,29429,1,0,0:0:0:0:
320,192,29429,128,0,30571:0:0:0:0:
192,192,30286,1,0,0:0:0:0:
448,192,30286,1,0,0:0:0:0:
64,192,30857,1,0,0:0:0:0:
448,192,30857,1,0,0:0:0:0:
192,192,30929,1,0,0:0:0:0:
320,192,30929,1,0,0:0:0:0:
64,192,31000,1,0,0:0:0:0:
448,192,31000,1,0,0:0:0:0:
64,192,31143,1,0,0:0:0:0:
192,192,31143,1,0,0:0:0:0:
192,192,31286,1,0,0:0:0:0:
320,192,31286,1,0,0:0:0:0:
320,192,31429,1,0,0:0:0:0:
448,192,31429,1,0,0:0:0:0:
64,192,31571,1,0,0:0:0:0:
320,192,31571,1,0,0:0:0:0:
64,192,31714,128,0,32286:0:0:0:0:
320,192,31714,1,0,0:0:0:0:
448,192,31714,128,0,32286:0:0:0:0:
192,192,32286,1,0,0:0:0:0:
320,192,32286,1,0,0:0:0:0:
64,192,32571,1,0,0:0:0:0:
448,192,32571,1,0,0:0:0:0:
64,192,32857,1,0,0:0:0:0:
192,192,32857,1,0,0:0:0:0:
320,192,32857,1,0,0:0:0:0:
64,192,33143,1,0,0:0:0:0:
192,192,33143,1,0,0:0:0:0:
320,192,33214,1,0,0:0:0:0:
64,192,33286,1,0,0:0:0:0:
448,192,33286,1,0,0:0:0:0:
64,192,33429,1,0,0:0:0:0:
320,192,33429,1,0,0:0:0:0:
448,192,33429,1,0,0:0:0:0:
64,192,33571,1,0,0:0:0:0:
192,192,33571,1,0,0:0:0:0:
448,192,33571,1,0,0:0:0:0:
192,192,33714,1,0,0:0:0:0:
320,192,33714,1,0,0:0:0:0:
448,192,33714,1,0,0:0:0:0:
320,192,33857,1,0,0:0:0:0:
64,192,34000,128,0,34857:0:0:0:0:
192,192,34000,1,0,0:0:0:0:
320,192,34000,1,0,0:0:0:0:
320,192,34857,1,0,0:0:0:0:
448,192,34857,1,0,0:0:0:0:
192,192,34929,1,0,0:0:0:0:
64,192,35000,1,0,0:0:0:0:
320,192,35000,1,0,0:0:0:0:
192,192,35143,1,0,0:0:0:0:
320,192,35143,1,0,0:0:0:0:
448,192,35143,1,0,0:0:0:0:
64,192,35286,1,0,0:0:0:0:
192,192,35286,1,0,0:0:0:0:
320,192,35286,1,0,0:0:0:0:
64,192,35429,1,0,0:0:0:0:
320,192,35429,1,0,0:0:0:0:
448,192,35429,1,0,0:0:0:0:
192,192,35500,1,0,0:0:0:0:
320,192,35571,1,0,0:0:0:0:
448,192,35571,1,0,0:0:0:0:
64,192,35714,1,0,0:0:0:0:
192,192,35714,1,0,0:0:0:0:
448,192,35714,1,0,0:0:0:0:
192,192,35857,1,0,0:0:0:0:
192,192,36000,1,0,0:0:0:0:
320,192,36000,1,0,0:0:0:0:
448,192,36000,1,0,0:0:0:0:
320,192,36143,1,0,0:0:0:0:
64,192,36286,128,0,36857:0:0:0:0:
320,192,36286,1,0,0:0:0:0:
192,192,36714,1,0,0:0:0:0:
320,192,36786,1,0,0:0:0:0:
192,192,36857,1,0,0:0:0:0:
448,192,36857,128,0,37429:0:0:0:0:
320,192,37143,1,0,0:0:0:0:
192,192,37214,1,0,0:0:0:0:
64,192,37286,1,0,0:0:0:0:
320,192,37286,1,0,0:0:0:0:
64,192,37714,1,0,0:0:0:0:
192,192,37714,1,0,0:0:0:0:
320,192,37786,1,0,0:0:0:0:
448,192,37786,1,0,0:0:0:0:
64,192,37857,1,0,0:0:0:0:
192,192,37857,1,0,0:0:0:0:
64,192,38000,1,0,0:0:0:0:
320,192,38000,1,0,0:0:0:0:
448,192,38000,1,0,0:0:0:0:
192,192,38143,1,0,0:0:0:0:
320,192,38143,1,0,0:0:0:0:
320,192,38286,1,0,0:0:0:0:
448,192,38286,1,0,0:0:0:0:
192,192,38429,1,0,0:0:0:0:
320,192,38429,1,0,0:0:0:0:
64,192,38571,128,0,39429:0:0:0:0:
192,192,38571,1,0,0:0:0:0:
448,192,38571,1,0,0:0:0:0:
320,192,38857,1,0,0:0:0:0:
320,192,39143,1,0,0:0:0:0:
448,192,39143,1,0,0:0:0:0:
192,192,39429,128,0,40000:0:0:0:0:
320,192,39714,1,0,0:0:0:0:
448,192,39714,1,0,0:0:0:0:
64,192,40000,1,0,0:0:0:0:
448,192,40000,1,0,0:0:0:0:
320,192,40071,1,0,0:0:0:0:
64,192,40143,1,0,0:0:0:0:
192,192,40143,1,0,0:0:0:0:
192,192,40286,1,0,0:0:0:0:
320,192,40286,1,0,0:0:0:0:
320,192,40429,1,0,0:0:0:0:
448,192,40429,1,0,0:0:0:0:
64,192,40571,1,0,0:0:0:0:
320,192,40571,1,0,0:0:0:0:
192,192,40714,1,0,0:0:0:0:
320,192,40714,1,0,0:0:0:0:
64,192,40857,1,0,0:0:0:0:
192,192,40857,128,0,41857:0:0:0:0:
448,192,40857,1,0,0:0:0:0:
320,192,41143,1,0,0:0:0:0:
64,192,41429,1,0,0:0:0:0:
448,192,41429,1,0,0:0:0:0:
320,192,41714,1,0,0:0:0:0:
64,192,42000,1,0,0:0:0:0:
320,192,42000,1,0,0:0:0:0:
448,192,42000,1,0,0:0:0:0:
64,192,42286,1,0,0:0:0:0:
192,192,42286,1,0,0:0:0:0:
448,192,42357,1,0,0:0:0:0:
64,192,42429,1,0,0:0:0:0:
192,192,42429,1,0,0:0:0:0:
64,192,42571,1,0,0:0:0:0:
448,192,42571,1,0,0:0:0:0:
64,192,42714,1,0,0:0:0:0:
320,192,42714,1,0,0:0:0:0:
320,192,42857,1,0,0:0:0:0:
448,192,42857,1,0,0:0:0:0:
192,192,43000,1,0,0:0:0:0:
320,192,43000,1,0,0:0:0:0:
64,192,43143,1,0,0:0:0:0:
192,192,43143,1,0,0:0:0:0:
320,192,43143,128,0,44000:0:0:0:0:
448,192,43429,1,0,0:0:0:0:
64,192,43714,1,0,0:0:0:0:
192,192,43714,1,0,0:0:0:0:
64,192,44000,1,0,0:0:0:0:
448,192,44000,1,0,0:0:0:0:
192,192,44071,1,0,0:0:0:0:
64,192,44143,1,0,0:0:0:0:
320,192,44143,1,0,0:0:0:0:
64,192,44286,1,0,0:0:0:0:
448,192,44286,1,0,0:0:0:0:
64,192,44429,1,0,0:0:0:0:
320,192,44429,1,0,0:0:0:0:
64,192,44571,1,0,0:0:0:0:
192,192,44571,1,0,0:0:0:0:
320,192,44571,1,0,0:0:0:0:
448,192,44643,1,0,0:0:0:0:
192,192,44714,1,0,0:0:0:0:
320,192,44714,1,0,0:0:0:0:
192,192,44857,1,0,0:0:0:0:
320,192,44857,1,0,0:0:0:0:
448,192,44857,1,0,0:0:0:0:
64,192,45000,1,0,0:0:0:0:
320,192,45000,1,0,0:0:0:0:
320,192,45143,1,0,0:0:0:0:
448,192,45143,1,0,0:0:0:0:
192,192,45286,1,0,0:0:0:0:
320,192,45286,1,0,0:0:0:0:
64,192,45429,128,0,45714:0:0:0:0:
320,192,45714,1,0,0:0:0:0:
448,192,45714,1,0,0:0:0:0:
192,192,45786,1,0,0:0:0:0:
320,192,45857,1,0,0:0:0:0:
64,192,45929,1,0,0:0:0:0:
192,192,45929,1,0,0:0:0:0:
320,192,46000,1,0,0:0:0:0:
448,192,46000,1,0,0:0:0:0:
64,192,46071,1,0,0:0:0:0:
448,192,46143,1,0,0:0:0:0:
64,192,46214,1,0,0:0:0:0:
192,192,46214,1,0,0:0:0:0:
320,192,46286,1,0,0:0:0:0:
448,192,46286,1,0,0:0:0:0:
64,192,46429,1,0,0:0:0:0:
320,192,46429,1,0,0:0:0:0:
448,192,46429,128,0,46857:0:0:0:0:
64,192,46857,1,0,0:0:0:0:
192,192,46857,1,0,0:0:0:0:
192,192,47000,1,0,0:0:0:0:
320,192,47000,1,0,0:0:0:0:
320,192,47143,1,0,0:0:0:0:
448,192,47143,1,0,0:0:0:0:
192,192,47286,1,0,0:0:0:0:
320,192,47286,1,0,0:0:0:0:
192,192,47429,1,0,0:0:0:0:
320,192,47571,1,0,0:0:0:0:
448,192,47571,1,0,0:0:0:0:
64,192,47714,1,0,0:0:0:0:
448,192,47714,1,0,0:0:0:0:
192,192,47786,1,0,0:0:0:0:
320,192,47786,1,0,0:0:0:0:
64,192,47857,1,0,0:0:0:0:
448,192,47857,1,0,0:0:0:0:
64,192,48000,1,0,0:0:0:0:
320,192,48000,1,0,0:0:0:0:
192,192,48143,1,0,0:0:0:0:
320,192,48143,1,0,0:0:0:0:
192,192,48286,1,0,0:0:0:0:
448,192,48286,1,0,0:0:0:0:
64,192,48429,1,0,0:0:0:0:
192,192,48429,1,0,0:0:0:0:
320,192,48571,1,0,0:0:0:0:
448,192,48571,1,0,0:0:0:0:
192,192,48714,1,0,0:0:0:0:
320,192,48714,1,0,0:0:0:0:
64,192,48857,1,0,0:0:0:0:
192,192,48857,1,0,0:0:0:0:
320,192,48929,1,0,0:0:0:0:
448,192,48929,1,0,0:0:0:0:
64,192,49000,1,0,0:0:0:0:
192,192,49000,1,0,0:0:0:0:
192,192,49143,1,0,0:0:0:0:
448,192,49143,1,0,0:0:0:0:
320,192,49286,1,0,0:0:0:0:
448,192,49286,1,0,0:0:0:0:
192,192,49429,1,0,0:0:0:0:
320,192,49429,1,0,0:0:0:0:
64,192,49571,1,0,0:0:0:0:
192,192,49571,1,0,0:0:0:0:
192,192,49714,1,0,0:0:0:0:
320,192,49714,1,0,0:0:0:0:
320,192,49857,1,0,0:0:0:0:
448,192,49857,1,0,0:0:0:0:
320,192,50000,1,0,0:0:0:0:
448,192,50000,1,0,0:0:0:0:
64,192,50071,1,0,0:0:0:0:
192,192,50071,1,0,0:0:0:0:
320,192,50143,1,0,0:0:0:0:
448,192,50143,1,0,0:0:0:0:
64,192,50286,1,0,0:0:0:0:
192,192,50286,1,0,0:0:0:0:
320,192,50357,1,0,0:0:0:0:
192,192,50429,1,0,0:0:0:0:
448,192,50429,1,0,0:0:0:0:
192,192,50571,1,0,0:0:0:0:
448,192,50571,1,0,0:0:0:0:
320,192,50643,1,0,0:0:0:0:
64,192,50714,1,0,0:0:0:0:
192,192,50714,1,0,0:0:0:0:
64,192,50857,1,0,0:0:0:0:
192,192,50857,1,0,0:0:0:0:
448,192,50929,1,0,0:0:0:0:
192,192,51000,1,0,0:0:0:0:
320,192,51000,1,0,0:0:0:0:
192,192,51143,1,0,0:0:0:0:
320,192,51143,1,0,0:0:0:0:
448,192,51214,1,0,0:0:0:0:
64,192,51286,1,0,0:0:0:0:
192,192,51286,1,0,0:0:0:0:
192,192,51429,1,0,0:0:0:0:
320,192,51429,1,0,0:0:0:0:
448,192,51429,1,0,0:0:0:0:
64,192,51571,1,0,0:0:0:0:
448,192,51571,1,0,0:0:0:0:
64,192,51714,1,0,0:0:0:0:
192,192,51750,1,0,0:0:0:0:
320,192,51786,1,0,0:0:0:0:
448,192,51821,1,0,0:0:0:0:
64,192,51857,1,0,0:0:0:0:
192,192,51893,1,0,0:0:0:0:
320,192,51929,1,0,0:0:0:0:
448,192,51964,1,0,0:0:0:0:
64,192,52000,1,0,0:0:0:0:
192,192,52036,1,0,0:0:0:0:
320,192,52071,1,0,0:0:0:0:
448,192,52107,1,0,0:0:0:0:
64,192,52143,1,0,0:0:0:0:
192,192,52143,1,0,0:0:0:0:
64,192,52286,1,0,0:0:0:0:
192,192,52286,1,0,0:0:0:0:
320,192,52357,1,0,0:0:0:0:
64,192,52429,1,0,0:0:0:0:
448,192,52429,1,0,0:0:0:0:
448,192,52571,1,0,0:0:0:0:
320,192,52607,1,0,0:0:0:0:
192,192,52643,1,0,0:0:0:0:
64,192,52679,1,0,0:0:0:0:
448,192,52714,1,0,0:0:0:0:
320,192,52750,1,0,0:0:0:0:
192,192,52786,1,0,0:0:0:0:
64,192,52821,1,0,0:0:0:0:
320,192,52857,1,0,0:0:0:0:
448,192,52857,1,0,0:0:0:0:
320,192,53000,1,0,0:0:0:0:
448,192,53000,1,0,0:0:0:0:
192,192,53036,1,0,0:0:0:0:
64,192,53071,1,0,0:0:0:0:
448,192,53107,1,0,0:0:0:0:
320,192,53143,1,0,0:0:0:0:
192,192,53179,1,0,0:0:0:0:
64,192,53214,1,0,0:0:0:0:
448,192,53250,1,0,0:0:0:0:
320,192,53286,1,0,0:0:0:0:
192,192,53321,1,0,0:0:0:0:
64,192,53357,1,0,0:0:0:0:
320,192,53429,1,0,0:0:0:0:
448,192,53429,1,0,0:0:0:0:
192,192,53500,1,0,0:0:0:0:
320,192,53571,1,0,0:0:0:0:
448,192,53571,1,0,0:0:0:0:
64,192,53714,1,0,0:0:0:0:
192,192,53714,1,0,0:0:0:0:
448,192,53714,1,0,0:0:0:0:
64,192,53857,1,0,0:0:0:0:
320,192,53857,1,0,0:0:0:0:
448,192,53857,1,0,0:0:0:0:
64,192,54143,1,0,0:0:0:0:
192,192,54143,1,0,0:0:0:0:
320,192,54143,1,0,0:0:0:0:
192,192,54429,1,0,0:0:0:0:
320,192,54429,1,0,0:0:0:0:
448,192,54429,1,0,0:0:0:0:
64,192,54571,1,0,0:0:0:0:
192,192,54571,1,0,0:0:0:0:
320,192,54643,1,0,0:0:0:0:
448,192,54643,1,0,0:0:0:0:
64,192,54714,1,0,0:0:0:0:
192,192,54714,1,0,0:0:0:0:
64,192,54857,1,0,0:0:0:0:
192,192,54893,1,0,0:0:0:0:
320,192,54929,1,0,0:0:0:0:
448,192,54964,1,0,0:0:0:0:
64,192,55000,1,0,0:0:0:0:
192,192,55036,1,0,0:0:0:0:
320,192,55071,1,0,0:0:0:0:
448,192,55107,1,0,0:0:0:0:
64,192,55143,1,0,0:0:0:0:
192,192,55143,1,0,0:0:0:0:
64,192,55286,1,0,0:0:0:0:
192,192,55321,1,0,0:0:0:0:
320,192,55357,1,0,0:0:0:0:
448,192,55393,1,0,0:0:0:0:
64,192,55429,1,0,0:0:0:0:
192,192,55464,1,0,0:0:0:0:
320,192,55500,1,0,0:0:0:0:
448,192,55536,1,0,0:0:0:0:
64,192,55571,1,0,0:0:0:0:
192,192,55607,1,0,0:0:0:0:
320,192,55643,1,0,0:0:0:0:
448,192,55679,1,0,0:0:0:0:
64,192,55714,1,0,0:0:0:0:
192,192,55714,1,0,0:0:0:0:
320,192,55786,1,0,0:0:0:0:
192,192,55857,1,0,0:0:0:0:
64,192,55929,1,0,0:0:0:0:
448,192,55929,1,0,0:0:0:0:
192,192,56000,1,0,0:0:0:0:
320,192,56000,1,0,0:0:0:0:
64,192,56143,1,0,0:0:0:0:
448,192,56286,1,0,0:0:0:0:
64,192,56429,1,0,0:0:0:0:
448,192,56571,1,0,0:0:0:0:
64,192,56714,1,0,0:0:0:0:
320,192,56857,1,0,0:0:0:0:
448,192,56857,1,0,0:0:0:0:
64,192,57000,1,0,0:0:0:0:
192,192,57000,1,0,0:0:0:0:
320,192,57000,1,0,0:0:0:0:
448,192,57000,1,0,0:0:0:0:
64,192,57143,1,0,0:0:0:0:
192,192,57143,1,0,0:0:0:0:
448,192,57143,1,0,0:0:0:0:
320,192,57214,1,0,0:0:0:0:
64,192,57286,1,0,0:0:0:0:
192,192,57286,1,0,0:0:0:0:
320,192,57357,1,0,0:0:0:0:
64,192,57429,1,0,0:0:0:0:
448,192,57429,1,0,0:0:0:0:
192,192,57500,1,0,0:0:0:0:
320,192,57571,1,0,0:0:0:0:
448,192,57571,1,0,0:0:0:0:
192,192,57643,1,0,0:0:0:0:
64,192,57714,1,0,0:0:0:0:
320,192,57714,1,0,0:0:0:0:
448,192,57786,1,0,0:0:0:0:
192,192,57857,1,0,0:0:0:0:
320,192,57857,1,0,0:0:0:0:
64,192,57929,1,0,0:0:0:0:
192,192,58000,1,0,0:0:0:0:
448,192,58000,1,0,0:0:0:0:
320,192,58071,1,0,0:0:0:0:
64,192,58143,1,0,0:0:0:0:
448,192,58143,1,0,0:0:0:0:
192,192,58214,1,0,0:0:0:0:
64,192,58286,1,0,0:0:0:0:
320,192,58286,1,0,0:0:0:0:
448,192,58357,1,0,0:0:0:0:
192,192,58429,1,0,0:0:0:0:
320,192,58429,1,0,0:0:0:0:
64,192,58500,1,0,0:0:0:0:
320,192,58571,1,0,0:0:0:0:
448,192,58571,1,0,0:0:0:0:
192,192,58643,1,0,0:0:0:0:
64,192,58714,1,0,0:0:0:0:
320,192,58714,1,0,0:0:0:0:
448,192,58786,1,0,0:0:0:0:
64,192,58857,1,0,0:0:0:0:
320,192,58857,1,0,0:0:0:0:
192,192,58929,1,0,0:0:0:0:
64,192,59000,1,0,0:0:0:0:
448,192,59000,1,0,0:0:0:0:
192,192,59071,1,0,0:0:0:0:
64,192,59143,1,0,0:0:0:0:
320,192,59143,1,0,0:0:0:0:
448,192,59214,1,0,0:0:0:0:
64,192,59286,1,0,0:0:0:0:
192,192,59286,1,0,0:0:0:0:
320,192,59286,1,0,0:0:0:0:
448,192,59357,1,0,0:0:0:0:
192,192,59429,1,0,0:0:0:0:
320,192,59429,1,0,0:0:0:0:
64,192,59500,1,0,0:0:0:0:
192,192,59571,1,0,0:0:0:0:
448,192,59571,1,0,0:0:0:0:
64,192,59643,1,0,0:0:0:0:
320,192,59714,1,0,0:0:0:0:
448,192,59714,1,0,0:0:0:0:
192,192,59786,1,0,0:0:0:0:
64,192,59857,1,0,0:0:0:0:
320,192,59857,1,0,0:0:0:0:
448,192,59929,1,0,0:0:0:0:
64,192,60000,1,0,0:0:0:0:
192,192,60000,1,0,0:0:0:0:
320,192,60071,1,0,0:0:0:0:
192,192,60143,1,0,0:0:0:0:
448,192,60143,1,0,0:0:0:0:
64,192,60214,1,0,0:0:0:0:
192,192,60286,1,0,0:0:0:0:
320,192,60286,1,0,0:0:0:0:
448,192,60357,1,0,0:0:0:0:
64,192,60429,1,0,0:0:0:0:
192,192,60429,1,0,0:0:0:0:
320,192,60500,1,0,0:0:0:0:
192,192,60571,1,0,0:0:0:0:
448,192,60571,1,0,0:0:0:0:
64,192,60643,1,0,0:0:0:0:
320,192,60714,1,0,0:0:0:0:
448,192,60714,1,0,0:0:0:0:
192,192,60786,1,0,0:0:0:0:
64,192,60857,1,0,0:0:0:0:
320,192,60857,1,0,0:0:0:0:
192,192,60929,1,0,0:0:0:0:
320,192,61000,1,0,0:0:0:0:
448,192,61000,1,0,0:0:0:0:
64,192,61071,1,0,0:0:0:0:
192,192,61143,1,0,0:0:0:0:
320,192,61143,1,0,0:0:0:0:
64,192,61214,1,0,0:0:0:0:
320,192,61286,1,0,0:0:0:0:
448,192,61286,1,0,0:0:0:0:
192,192,61357,1,0,0:0:0:0:
64,192,61429,1,0,0:0:0:0:
320,192,61429,1,0,0:0:0:0:
448,192,61500,1,0,0:0:0:0:
64,192,61571,1,0,0:0:0:0:
192,192,61571,1,0,0:0:0:0:
320,192,61571,1,0,0:0:0:0:
448,192,61643,1,0,0:0:0:0:
64,192,61714,1,0,0:0:0:0:
192,192,61714,1,0,0:0:0:0:
320,192,61786,1,0,0:0:0:0:
192,192,61857,1,0,0:0:0:0:
448,192,61857,1,0,0:0:0:0:
64,192,61929,1,0,0:0:0:0:
320,192,62000,1,0,0:0:0:0:
448,192,62000,1,0,0:0:0:0:
192,192,62071,1,0,0:0:0:0:
64,192,62143,1,0,0:0:0:0:
320,192,62143,1,0,0:0:0:0:
448,192,62214,1,0,0:0:0:0:
64,192,62286,1,0,0:0:0:0:
192,192,62286,1,0,0:0:0:0:
320,192,62357,1,0,0:0:0:0:
192,192,62429,1,0,0:0:0:0:
448,192,62429,1,0,0:0:0:0:
320,192,62500,1,0,0:0:0:0:
64,192,62571,1,0,0:0:0:0:
192,192,62571,1,0,0:0:0:0:
448,192,62643,1,0,0:0:0:0:
192,192,62714,1,0,0:0:0:0:
320,192,62714,1,0,0:0:0:0:
448,192,62786,1,0,0:0:0:0:
64,192,62857,1,0,0:0:0:0:
320,192,62857,1,0,0:0:0:0:
192,192,62929,1,0,0:0:0:0:
320,192,63000,1,0,0:0:0:0:
448,192,63000,1,0,0:0:0:0:
64,192,63071,1,0,0:0:0:0:
320,192,63143,1,0,0:0:0:0:
448,192,63143,1,0,0:0:0:0:
64,192,63214,1,0,0:0:0:0:
192,192,63286,1,0,0:0:0:0:
320,192,63286,1,0,0:0:0:0:
64,192,63357,1,0,0:0:0:0:
448,192,63357,1,0,0:0:0:0:
192,192,63429,1,0,0:0:0:0:
320,192,63429,1,0,0:0:0:0:
448,192,63500,1,0,0:0:0:0:
64,192,63571,1,0,0:0:0:0:
192,192,63571,1,0,0:0:0:0:
320,192,63643,1,0,0:0:0:0:
192,192,63714,1,0,0:0:0:0:
448,192,63714,1,0,0:0:0:0:
64,192,63786,1,0,0:0:0:0:
192,192,63857,1,0,0:0:0:0:
320,192,63857,1,0,0:0:0:0:
64,192,63929,1,0,0:0:0:0:
192,192,64000,1,0,0:0:0:0:
320,192,64000,1,0,0:0:0:0:
448,192,64000,1,0,0:0:0:0:
64,192,64286,1,0,0:0:0:0:
192,192,64286,1,0,0:0:0:0:
448,192,64286,1,0,0:0:0:0:
192,192,64429,1,0,0:0:0:0:
320,192,64429,1,0,0:0:0:0:
64,192,64571,1,0,0:0:0:0:
192,192,64571,1,0,0:0:0:0:
320,192,64571,1,0,0:0:0:0:
320,192,64714,1,0,0:0:0:0:
448,192,64714,1,0,0:0:0:0:
192,192,64857,1,0,0:0:0:0:
320,192,64857,1,0,0:0:0:0:
64,192,65000,1,0,0:0:0:0:
192,192,65000,128,0,65429:0:0:0:0:
448,192,65000,1,0,0:0:0:0:
64,192,65286,1,0,0:0:0:0:
320,192,65429,1,0,0:0:0:0:
448,192,65429,1,0,0:0:0:0:
192,192,65500,1,0,0:0:0:0:
320,192,65571,1,0,0:0:0:0:
64,192,65643,1,0,0:0:0:0:
192,192,65643,1,0,0:0:0:0:
320,192,65714,1,0,0:0:0:0:
448,192,65714,1,0,0:0:0:0:
192,192,65786,1,0,0:0:0:0:
320,192,65857,1,0,0:0:0:0:
64,192,65929,1,0,0:0:0:0:
192,192,65929,1,0,0:0:0:0:
320,192,66000,1,0,0:0:0:0:
448,192,66000,1,0,0:0:0:0:
64,192,66143,1,0,0:0:0:0:
192,192,66143,1,0,0:0:0:0:
320,192,66143,1,0,0:0:0:0:
448,192,66143,1,0,0:0:0:0:
192,192,66429,1,0,0:0:0:0:
320,192,66429,1,0,0:0:0:0:
64,192,66571,1,0,0:0:0:0:
192,192,66571,1,0,0:0:0:0:
448,192,66571,1,0,0:0:0:0:
320,192,66643,1,0,0:0:0:0:
64,192,66714,1,0,0:0:0:0:
192,192,66714,1,0,0:0:0:0:
448,192,66786,1,0,0:0:0:0:
192,192,66857,1,0,0:0:0:0:
320,192,66857,1,0,0:0:0:0:
64,192,66929,1,0,0:0:0:0:
192,192,67000,1,0,0:0:0:0:
448,192,67000,1,0,0:0:0:0:
64,192,67071,1,0,0:0:0:0:
320,192,67143,1,0,0:0:0:0:
448,192,67143,1,0,0:0:0:0:
192,192,67214,1,0,0:0:0:0:
64,192,67286,1,0,0:0:0:0:
320,192,67286,1,0,0:0:0:0:
192,192,67357,1,0,0:0:0:0:
320,192,67429,1,0,0:0:0:0:
448,192,67429,1,0,0:0:0:0:
64,192,67500,1,0,0:0:0:0:
192,192,67571,1,0,0:0:0:0:
320,192,67571,1,0,0:0:0:0:
448,192,67643,1,0,0:0:0:0:
64,192,67714,1,0,0:0:0:0:
320,192,67714,1,0,0:0:0:0:
448,192,67786,1,0,0:0:0:0:
64,192,67857,1,0,0:0:0:0:
192,192,67857,1,0,0:0:0:0:
320,192,67929,1,0,0:0:0:0:
192,192,68000,1,0,0:0:0:0:
448,192,68000,1,0,0:0:0:0:
64,192,68071,1,0,0:0:0:0:
320,192,68143,1,0,0:0:0:0:
448,192,68143,1,0,0:0:0:0:
192,192,68214,1,0,0:0:0:0:
64,192,68286,1,0,0:0:0:0:
448,192,68286,1,0,0:0:0:0:
192,192,68357,1,0,0:0:0:0:
64,192,68429,1,0,0:0:0:0:
320,192,68429,1,0,0:0:0:0:
448,192,68429,1,0,0:0:0:0:
192,192,68500,1,0,0:0:0:0:
320,192,68571,1,0,0:0:0:0:
448,192,68571,1,0,0:0:0:0:
64,192,68643,1,0,0:0:0:0:
192,192,68714,1,0,0:0:0:0:
320,192,68714,1,0,0:0:0:0:
448,192,68786,1,0,0:0:0:0:
64,192,68857,1,0,0:0:0:0:
320,192,68857,1,0,0:0:0:0:
448,192,68929,1,0,0:0:0:0:
192,192,69000,1,0,0:0:0:0:
320,192,69000,1,0,0:0:0:0:
64,192,69071,1,0,0:0:0:0:
192,192,69143,1,0,0:0:0:0:
448,192,69143,1,0,0:0:0:0:
320,192,69214,1,0,0:0:0:0:
64,192,69286,1,0,0:0:0:0:
448,192,69286,1,0,0:0:0:0:
192,192,69357,1,0,0:0:0:0:
64,192,69429,1,0,0:0:0:0:
320,192,69429,1,0,0:0:0:0:
448,192,69500,1,0,0:0:0:0:
192,192,69571,1,0,0:0:0:0:
320,192,69571,1,0,0:0:0:0:
64,192,69643,1,0,0:0:0:0:
192,192,69714,1,0,0:0:0:0:
448,192,69714,1,0,0:0:0:0:
320,192,69786,1,0,0:0:0:0:
64,192,69857,1,0,0:0:0:0:
192,192,69857,1,0,0:0:0:0:
448,192,69929,1,0,0:0:0:0:
192,192,70000,1,0,0:0:0:0:
320,192,70000,1,0,0:0:0:0:
64,192,70071,1,0,0:0:0:0:
320,192,70143,1,0,0:0:0:0:
448,192,70143,1,0,0:0:0:0:
192,192,70214,1,0,0:0:0:0:
64,192,70286,1,0,0:0:0:0:
320,192,70286,1,0,0:0:0:0:
448,192,70357,1,0,0:0:0:0:
64,192,70429,1,0,0:0:0:0:
320,192,70429,1,0,0:0:0:0:
192,192,70500,1,0,0:0:0:0:
320,192,70571,1,0,0:0:0:0:
448,192,70571,1,0,0:0:0:0:
192,192,70643,1,0,0:0:0:0:
64,192,70714,1,0,0:0:0:0:
320,192,70714,1,0,0:0:0:0:
448,192,70714,1,0,0:0:0:0:
192,192,70786,1,0,0:0:0:0:
64,192,70857,1,0,0:0:0:0:
448,192,70857,1,0,0:0:0:0:
320,192,70929,1,0,0:0:0:0:
192,192,71000,1,0,0:0:0:0:
448,192,71000,1,0,0:0:0:0:
64,192,71071,1,0,0:0:0:0:
192,192,71143,1,0,0:0:0:0:
320,192,71143,1,0,0:0:0:0:
448,192,71214,1,0,0:0:0:0:
64,192,71286,1,0,0:0:0:0:
192,192,71286,1,0,0:0:0:0:
320,192,71357,1,0,0:0:0:0:
192,192,71429,1,0,0:0:0:0:
448,192,71429,1,0,0:0:0:0:
320,192,71500,1,0,0:0:0:0:
64,192,71571,1,0,0:0:0:0:
192,192,71571,1,0,0:0:0:0:
320,192,71643,1,0,0:0:0:0:
64,192,71714,1,0,0:0:0:0:
448,192,71714,1,0,0:0:0:0:
192,192,71786,1,0,0:0:0:0:
320,192,71857,1,0,0:0:0:0:
448,192,71857,1,0,0:0:0:0:
192,192,71929,1,0,0:0:0:0:
64,192,72000,1,0,0:0:0:0:
320,192,72000,1,0,0:0:0:0:
448,192,72071,1,0,0:0:0:0:
192,192,72143,1,0,0:0:0:0:
320,192,72143,1,0,0:0:0:0:
64,192,72214,1,0,0:0:0:0:
192,192,72286,1,0,0:0:0:0:
448,192,72286,1,0,0:0:0:0:
64,192,72357,1,0,0:0:0:0:
320,192,72429,1,0,0:0:0:0:
448,192,72429,1,0,0:0:0:0:
192,192,72500,1,0,0:0:0:0:
64,192,72571,1,0,0:0:0:0:
320,192,72571,1,0,0:0:0:0:
192,192,72643,1,0,0:0:0:0:
320,192,72714,1,0,0:0:0:0:
448,192,72714,1,0,0:0:0:0:
64,192,72786,1,0,0:0:0:0:
192,192,72857,1,0,0:0:0:0:
320,192,72857,1,0,0:0:0:0:
448,192,72857,1,0,0:0:0:0:
64,192,73000,1,0,0:0:0:0:
192,192,73000,1,0,0:0:0:0:
320,192,73000,1,0,0:0:0:0:
192,192,73286,1,0,0:0:0:0:
320,192,73286,1,0,0:0:0:0:
64,192,73429,1,0,0:0:0:0:
192,192,73429,1,0,0:0:0:0:
448,192,73429,1,0,0:0:0:0:
320,192,73500,1,0,0:0:0:0:
192,192,73571,1,0,0:0:0:0:
320,192,73643,1,0,0:0:0:0:
448,192,73643,1,0,0:0:0:0:
64,192,73714,1,0,0:0:0:0:
192,192,73714,1,0,0:0:0:0:
448,192,73786,1,0,0:0:0:0:
64,192,73857,1,0,0:0:0:0:
320,192,73929,1,0,0:0:0:0:
448,192,73929,1,0,0:0:0:0:
64,192,74000,1,0,0:0:0:0:
192,192,74000,1,0,0:0:0:0:
320,192,74071,1,0,0:0:0:0:
192,192,74143,1,0,0:0:0:0:
320,192,74214,1,0,0:0:0:0:
448,192,74214,1,0,0:0:0:0:
64,192,74286,1,0,0:0:0:0:
192,192,74286,1,0,0:0:0:0:
320,192,74357,1,0,0:0:0:0:
448,192,74357,1,0,0:0:0:0:
64,192,74429,1,0,0:0:0:0:
192,192,74429,1,0,0:0:0:0:
320,192,74500,1,0,0:0:0:0:
448,192,74500,1,0,0:0:0:0:
64,192,74571,1,0,0:0:0:0:
192,192,74571,1,0,0:0:0:0:
320,192,74643,1,0,0:0:0:0:
448,192,74643,1,0,0:0:0:0:
64,192,74714,1,0,0:0:0:0:
192,192,74714,1,0,0:0:0:0:
320,192,74786,1,0,0:0:0:0:
448,192,74786,1,0,0:0:0:0:
64,192,74857,1,0,0:0:0:0:
192,192,74857,1,0,0:0:0:0:
192,192,75000,1,0,0:0:0:0:
320,192,75000,1,0,0:0:0:0:
320,192,75143,1,0,0:0:0:0:
448,192,75143,1,0,0:0:0:0:
64,192,75286,1,0,0:0:0:0:
192,192,75286,128,0,75714:0:0:0:0:
320,192,75286,128,0,75714:0:0:0:0:
448,192,75286,1,0,0:0:0:0:
64,192,75714,1,0,0:0:0:0:
64,192,75857,1,0,0:0:0:0:
64,192,76000,1,0,0:0:0:0:
192,192,76000,128,0,76006:0:0:0:0:
448,192,76000,1,0,0:0:0:0:
448,192,76143,1,0,0:0:0:0:
448,192,76286,1,0,0:0:0:0:
448,192,76429,1,0,0:0:0:0:
64,192,76571,1,0,0:0:0:0:
320,192,76571,1,0,0:0:0:0:
448,192,76571,1,0,0:0:0:0:
320,192,76714,1,0,0:0:0:0:
320,192,76857,1,0,0:0:0:0:
192,192,77000,1,0,0:0:0:0:
320,192,77000,1,0,0:0:0:0:
64,192,77143,1,0,0:0:0:0:
192,192,77143,1,0,0:0:0:0:
448,192,77143,1,0,0:0:0:0:
192,192,77286,1,0,0:0:0:0:
320,192,77286,1,0,0:0:0:0:
320,192,77429,1,0,0:0:0:0:
448,192,77429,1,0,0:0:0:0:
64,192,77571,1,0,0:0:0:0:
320,192,77571,1,0,0:0:0:0:
64,192,77857,1,0,0:0:0:0:
448,192,77857,1,0,0:0:0:0:
320,192,78000,1,0,0:0:0:0:
448,192,78000,1,0,0:0:0:0:
192,192,78071,1,0,0:0:0:0:
64,192,78143,1,0,0:0:0:0:
320,192,78143,1,0,0:0:0:0:
64,192,78286,1,0,0:0:0:0:
192,192,78286,1,0,0:0:0:0:
320,192,78286,1,0,0:0:0:0:
448,192,78357,1,0,0:0:0:0:
192,192,78429,1,0,0:0:0:0:
320,192,78429,1,0,0:0:0:0:
64,192,78571,1,0,0:0:0:0:
320,192,78571,1,0,0:0:0:0:
192,192,78643,1,0,0:0:0:0:
320,192,78714,1,0,0:0:0:0:
448,192,78714,1,0,0:0:0:0:
192,192,78857,1,0,0:0:0:0:
320,192,78857,1,0,0:0:0:0:
448,192,78857,1,0,0:0:0:0:
64,192,78929,1,0,0:0:0:0:
320,192,79000,1,0,0:0:0:0:
448,192,79000,1,0,0:0:0:0:
64,192,79143,1,0,0:0:0:0:
320,192,79143,1,0,0:0:0:0:
192,192,79214,1,0,0:0:0:0:
448,192,79214,1,0,0:0:0:0:
64,192,79286,1,0,0:0:0:0:
320,192,79286,1,0,0:0:0:0:
192,192,79429,128,0,79714:0:0:0:0:
320,192,79429,1,0,0:0:0:0:
448,192,79429,1,0,0:0:0:0:
320,192,79714,1,0,0:0:0:0:
448,192,79714,128,0,80000:0:0:0:0:
64,192,80000,128,0,80286:0:0:0:0:
192,192,80000,1,0,0:0:0:0:
320,192,80000,1,0,0:0:0:0:
320,192,80286,1,0,0:0:0:0:
448,192,80286,1,0,0:0:0:0:
320,192,80429,1,0,0:0:0:0:
192,192,80571,1,0,0:0:0:0:
320,192,80571,1,0,0:0:0:0:
192,192,80714,1,0,0:0:0:0:
192,192,80857,1,0,0:0:0:0:
192,192,81000,1,0,0:0:0:0:
64,192,81143,1,0,0:0:0:0:
192,192,81143,1,0,0:0:0:0:
64,192,81286,1,0,0:0:0:0:
64,192,81429,1,0,0:0:0:0:
64,192,81571,1,0,0:0:0:0:
320,192,81571,1,0,0:0:0:0:
320,192,81714,1,0,0:0:0:0:
448,192,81714,1,0,0:0:0:0:
192,192,81857,1,0,0:0:0:0:
320,192,81857,1,0,0:0:0:0:
64,192,82000,1,0,0:0:0:0:
192,192,82000,1,0,0:0:0:0:
192,192,82143,128,0,82429:0:0:0:0:
320,192,82143,128,0,82429:0:0:0:0:
64,192,82429,1,0,0:0:0:0:
64,192,82571,1,0,0:0:0:0:
192,192,82571,1,0,0:0:0:0:
320,192,82643,1,0,0:0:0:0:
448,192,82643,1,0,0:0:0:0:
64,192,82714,1,0,0:0:0:0:
192,192,82714,1,0,0:0:0:0:
64,192,82857,1,0,0:0:0:0:
192,192,82857,1,0,0:0:0:0:
448,192,82857,1,0,0:0:0:0:
320,192,82929,1,0,0:0:0:0:
64,192,83000,1,0,0:0:0:0:
192,192,83000,1,0,0:0:0:0:
64,192,83143,1,0,0:0:0:0:
320,192,83143,1,0,0:0:0:0:
192,192,83214,1,0,0:0:0:0:
448,192,83214,1,0,0:0:0:0:
64,192,83286,1,0,0:0:0:0:
320,192,83286,1,0,0:0:0:0:
64,192,83429,1,0,0:0:0:0:
320,192,83429,1,0,0:0:0:0:
448,192,83429,1,0,0:0:0:0:
192,192,83500,1,0,0:0:0:0:
320,192,83571,1,0,0:0:0:0:
448,192,83571,1,0,0:0:0:0:
64,192,83714,1,0,0:0:0:0:
192,192,83714,1,0,0:0:0:0:
448,192,83714,1,0,0:0:0:0:
320,192,83786,1,0,0:0:0:0:
192,192,83857,1,0,0:0:0:0:
320,192,83929,1,0,0:0:0:0:
448,192,83929,1,0,0:0:0:0:
64,192,84000,1,0,0:0:0:0:
192,192,84000,1,0,0:0:0:0:
320,192,84071,1,0,0:0:0:0:
192,192,84143,1,0,0:0:0:0:
320,192,84214,1,0,0:0:0:0:
448,192,84214,1,0,0:0:0:0:
64,192,84286,1,0,0:0:0:0:
192,192,84286,1,0,0:0:0:0:
64,192,84571,1,0,0:0:0:0:
192,192,84571,1,0,0:0:0:0:
320,192,84643,1,0,0:0:0:0:
192,192,84714,1,0,0:0:0:0:
448,192,84714,1,0,0:0:0:0:
192,192,84857,1,0,0:0:0:0:
320,192,84857,1,0,0:0:0:0:
448,192,84857,1,0,0:0:0:0:
64,192,85000,1,0,0:0:0:0:
448,192,85000,1,0,0:0:0:0:
64,192,85143,1,0,0:0:0:0:
192,192,85143,1,0,0:0:0:0:
192,192,85286,1,0,0:0:0:0:
320,192,85286,1,0,0:0:0:0:
320,192,85429,128,0,86286:0:0:0:0:
448,192,85429,128,0,86286:0:0:0:0:
64,192,85714,1,0,0:0:0:0:
64,192,86286,128,0,86857:0:0:0:0:
192,192,86286,1,0,0:0:0:0:
192,192,86857,1,0,0:0:0:0:
320,192,86857,1,0,0:0:0:0:
448,192,86929,1,0,0:0:0:0:
64,192,87000,1,0,0:0:0:0:
192,192,87000,1,0,0:0:0:0:
192,192,87143,1,0,0:0:0:0:
320,192,87143,1,0,0:0:0:0:
320,192,87286,1,0,0:0:0:0:
448,192,87286,1,0,0:0:0:0:
64,192,87429,1,0,0:0:0:0:
192,192,87429,1,0,0:0:0:0:
320,192,87429,1,0,0:0:0:0:
192,192,87571,1,0,0:0:0:0:
320,192,87571,1,0,0:0:0:0:
448,192,87571,1,0,0:0:0:0:
64,192,87714,128,0,88571:0:0:0:0:
448,192,88000,1,0,0:0:0:0:
448,192,88571,1,0,0:0:0:0:
320,192,89143,1,0,0:0:0:0:
448,192,89143,1,0,0:0:0:0:
64,192,89214,1,0,0:0:0:0:
192,192,89286,1,0,0:0:0:0:
448,192,89286,1,0,0:0:0:0:
192,192,89429,1,0,0:0:0:0:
320,192,89429,1,0,0:0:0:0:
320,192,89571,1,0,0:0:0:0:
448,192,89571,1,0,0:0:0:0:
192,192,89714,1,0,0:0:0:0:
448,192,89714,1,0,0:0:0:0:
64,192,89857,1,0,0:0:0:0:
192,192,89857,1,0,0:0:0:0:
192,192,90000,128,0,90786:0:0:0:0:
64,192,90286,1,0,0:0:0:0:
320,192,90857,1,0,0:0:0:0:
448,192,90857,1,0,0:0:0:0:
64,192,90929,1,0,0:0:0:0:
192,192,90929,1,0,0:0:0:0:
320,192,91000,1,0,0:0:0:0:
448,192,91000,1,0,0:0:0:0:
64,192,91143,1,0,0:0:0:0:
192,192,91143,1,0,0:0:0:0:
192,192,91286,1,0,0:0:0:0:
320,192,91286,1,0,0:0:0:0:
64,192,91429,1,0,0:0:0:0:
192,192,91429,1,0,0:0:0:0:
448,192,91429,1,0,0:0:0:0:
64,192,91571,1,0,0:0:0:0:
192,192,91571,1,0,0:0:0:0:
64,192,91714,1,0,0:0:0:0:
448,192,91714,1,0,0:0:0:0:
320,192,91786,1,0,0:0:0:0:
64,192,91857,1,0,0:0:0:0:
448,192,91857,1,0,0:0:0:0:
192,192,91929,1,0,0:0:0:0:
64,192,92143,1,0,0:0:0:0:
448,192,92214,1,0,0:0:0:0:
192,192,92286,1,0,0:0:0:0:
320,192,92286,1,0,0:0:0:0:
64,192,92429,1,0,0:0:0:0:
192,192,92429,1,0,0:0:0:0:
320,192,92500,1,0,0:0:0:0:
448,192,92500,1,0,0:0:0:0:
64,192,92571,1,0,0:0:0:0:
192,192,92571,1,0,0:0:0:0:
320,192,92643,1,0,0:0:0:0:
448,192,92643,1,0,0:0:0:0:
64,192,92714,1,0,0:0:0:0:
192,192,92714,1,0,0:0:0:0:
320,192,92786,1,0,0:0:0:0:
448,192,92786,1,0,0:0:0:0:
64,192,92857,1,0,0:0:0:0:
192,192,92929,1,0,0:0:0:0:
320,192,92929,1,0,0:0:0:0:
64,192,93000,1,0,0:0:0:0:
448,192,93000,1,0,0:0:0:0:
192,192,93071,1,0,0:0:0:0:
320,192,93071,1,0,0:0:0:0:
64,192,93143,1,0,0:0:0:0:
448,192,93143,1,0,0:0:0:0:
192,192,93286,1,0,0:0:0:0:
320,192,93286,1,0,0:0:0:0:
448,192,93286,1,0,0:0:0:0:
64,192,93429,1,0,0:0:0:0:
192,192,93429,1,0,0:0:0:0:
320,192,93429,1,0,0:0:0:0:
64,192,93571,1,0,0:0:0:0:
192,192,93571,1,0,0:0:0:0:
448,192,93571,1,0,0:0:0:0:
64,192,93714,1,0,0:0:0:0:
320,192,93714,1,0,0:0:0:0:
448,192,93714,1,0,0:0:0:0:
192,192,93786,1,0,0:0:0:0:
64,192,93857,1,0,0:0:0:0:
320,192,93857,1,0,0:0:0:0:
192,192,94000,1,0,0:0:0:0:
448,192,94000,1,0,0:0:0:0:
192,192,94143,1,0,0:0:0:0:
320,192,94143,1,0,0:0:0:0:
320,192,94286,1,0,0:0:0:0:
448,192,94286,1,0,0:0:0:0:
192,192,94429,1,0,0:0:0:0:
320,192,94429,1,0,0:0:0:0:
64,192,94571,1,0,0:0:0:0:
192,192,94571,128,0,95429:0:0:0:0:
320,192,94857,1,0,0:0:0:0:
64,192,95143,1,0,0:0:0:0:
448,192,95143,1,0,0:0:0:0:
320,192,95429,128,0,96000:0:0:0:0:
448,192,95714,1,0,0:0:0:0:
64,192,96000,1,0,0:0:0:0:
192,192,96000,1,0,0:0:0:0:
320,192,96071,1,0,0:0:0:0:
448,192,96071,1,0,0:0:0:0:
64,192,96143,1,0,0:0:0:0:
192,192,96143,1,0,0:0:0:0:
192,192,96286,1,0,0:0:0:0:
320,192,96286,1,0,0:0:0:0:
64,192,96429,1,0,0:0:0:0:
320,192,96429,1,0,0:0:0:0:
320,192,96571,1,0,0:0:0:0:
448,192,96571,1,0,0:0:0:0:
192,192,96714,1,0,0:0:0:0:
320,192,96714,1,0,0:0:0:0:
320,192,96857,1,0,0:0:0:0:
448,192,96857,128,0,98000:0:0:0:0:
64,192,97143,1,0,0:0:0:0:
192,192,97429,1,0,0:0:0:0:
320,192,97429,1,0,0:0:0:0:
64,192,97714,1,0,0:0:0:0:
192,192,98000,1,0,0:0:0:0:
320,192,98000,1,0,0:0:0:0:
64,192,98286,1,0,0:0:0:0:
320,192,98286,1,0,0:0:0:0:
192,192,98357,1,0,0:0:0:0:
320,192,98429,1,0,0:0:0:0:
448,192,98429,1,0,0:0:0:0:
192,192,98571,1,0,0:0:0:0:
320,192,98571,1,0,0:0:0:0:
64,192,98714,1,0,0:0:0:0:
192,192,98714,1,0,0:0:0:0:
192,192,98857,1,0,0:0:0:0:
448,192,98857,1,0,0:0:0:0:
192,192,99000,1,0,0:0:0:0:
320,192,99000,1,0,0:0:0:0:
192,192,99143,1,0,0:0:0:0:
320,192,99143,1,0,0:0:0:0:
448,192,99143,128,0,100000:0:0:0:0:
64,192,99429,1,0,0:0:0:0:
64,192,99714,1,0,0:0:0:0:
320,192,99714,1,0,0:0:0:0:
64,192,100000,1,0,0:0:0:0:
192,192,100000,1,0,0:0:0:0:
320,192,100071,1,0,0:0:0:0:
192,192,100143,1,0,0:0:0:0:
448,192,100143,1,0,0:0:0:0:
192,192,100286,1,0,0:0:0:0:
320,192,100286,1,0,0:0:0:0:
64,192,100429,1,0,0:0:0:0:
320,192,100429,1,0,0:0:0:0:
64,192,100571,1,0,0:0:0:0:
320,192,100571,1,0,0:0:0:0:
448,192,100571,1,0,0:0:0:0:
64,192,100714,1,0,0:0:0:0:
448,192,100714,1,0,0:0:0:0:
192,192,100786,1,0,0:0:0:0:
320,192,100786,1,0,0:0:0:0:
320,192,101000,1,0,0:0:0:0:
448,192,101000,1,0,0:0:0:0:
64,192,101143,1,0,0:0:0:0:
320,192,101143,1,0,0:0:0:0:
192,192,101214,1,0,0:0:0:0:
448,192,101214,1,0,0:0:0:0:
320,192,101429,1,0,0:0:0:0:
448,192,101429,1,0,0:0:0:0:
192,192,101571,1,0,0:0:0:0:
448,192,101571,1,0,0:0:0:0:
64,192,101643,1,0,0:0:0:0:
320,192,101643,1,0,0:0:0:0:
192,192,101714,1,0,0:0:0:0:
448,192,101714,1,0,0:0:0:0:
64,192,101857,1,0,0:0:0:0:
192,192,101857,1,0,0:0:0:0:
448,192,101857,1,0,0:0:0:0:
192,192,102000,1,0,0:0:0:0:
320,192,102000,1,0,0:0:0:0:
64,192,102143,1,0,0:0:0:0:
192,192,102143,1,0,0:0:0:0:
320,192,102214,1,0,0:0:0:0:
448,192,102214,1,0,0:0:0:0:
64,192,102286,1,0,0:0:0:0:
192,192,102286,1,0,0:0:0:0:
320,192,102571,1,0,0:0:0:0:
448,192,102571,1,0,0:0:0:0:
64,192,102643,1,0,0:0:0:0:
192,192,102643,1,0,0:0:0:0:
320,192,102714,1,0,0:0:0:0:
448,192,102714,1,0,0:0:0:0:
64,192,102857,1,0,0:0:0:0:
192,192,102893,1,0,0:0:0:0:
320,192,102929,1,0,0:0:0:0:
448,192,102964,1,0,0:0:0:0:
64,192,103000,1,0,0:0:0:0:
192,192,103036,1,0,0:0:0:0:
320,192,103071,1,0,0:0:0:0:
448,192,103107,1,0,0:0:0:0:
64,192,103143,1,0,0:0:0:0:
192,192,103179,1,0,0:0:0:0:
320,192,103214,1,0,0:0:0:0:
448,192,103250,1,0,0:0:0:0:
64,192,103286,1,0,0:0:0:0:
192,192,103321,1,0,0:0:0:0:
320,192,103357,1,0,0:0:0:0:
448,192,103393,1,0,0:0:0:0:
192,192,103571,1,0,0:0:0:0:
320,192,103571,1,0,0:0:0:0:
64,192,103714,1,0,0:0:0:0:
192,192,103714,1,0,0:0:0:0:
448,192,103786,1,0,0:0:0:0:
64,192,103857,1,0,0:0:0:0:
192,192,103857,1,0,0:0:0:0:
64,192,104000,1,0,0:0:0:0:
320,192,104000,1,0,0:0:0:0:
448,192,104000,1,0,0:0:0:0:
64,192,104143,1,0,0:0:0:0:
192,192,104143,1,0,0:0:0:0:
192,192,104286,1,0,0:0:0:0:
320,192,104286,1,0,0:0:0:0:
320,192,104429,1,0,0:0:0:0:
448,192,104429,1,0,0:0:0:0:
320,192,104571,1,0,0:0:0:0:
192,192,104714,1,0,0:0:0:0:
320,192,104714,1,0,0:0:0:0:
320,192,104857,1,0,0:0:0:0:
448,192,104857,1,0,0:0:0:0:
64,192,104929,1,0,0:0:0:0:
320,192,105000,1,0,0:0:0:0:
448,192,105000,1,0,0:0:0:0:
64,192,105143,1,0,0:0:0:0:
192,192,105143,1,0,0:0:0:0:
320,192,105143,1,0,0:0:0:0:
320,192,105286,1,0,0:0:0:0:
448,192,105286,1,0,0:0:0:0:
64,192,105429,1,0,0:0:0:0:
320,192,105429,1,0,0:0:0:0:
192,192,105571,128,0,105857:0:0:0:0:
320,192,105571,1,0,0:0:0:0:
320,192,105857,1,0,0:0:0:0:
448,192,105857,1,0,0:0:0:0:
64,192,106000,1,0,0:0:0:0:
448,192,106000,1,0,0:0:0:0:
192,192,106071,1,0,0:0:0:0:
320,192,106143,1,0,0:0:0:0:
448,192,106143,1,0,0:0:0:0:
64,192,106286,1,0,0:0:0:0:
192,192,106286,1,0,0:0:0:0:
320,192,106357,1,0,0:0:0:0:
64,192,106429,1,0,0:0:0:0:
448,192,106429,1,0,0:0:0:0:
320,192,106571,1,0,0:0:0:0:
448,192,106571,1,0,0:0:0:0:
192,192,106643,1,0,0:0:0:0:
64,192,106714,1,0,0:0:0:0:
448,192,106714,1,0,0:0:0:0:
64,192,106857,1,0,0:0:0:0:
192,192,106857,1,0,0:0:0:0:
448,192,106929,1,0,0:0:0:0:
64,192,107000,1,0,0:0:0:0:
192,192,107000,1,0,0:0:0:0:
64,192,107143,1,0,0:0:0:0:
192,192,107143,1,0,0:0:0:0:
320,192,107214,1,0,0:0:0:0:
192,192,107286,1,0,0:0:0:0:
448,192,107286,1,0,0:0:0:0:
64,192,107429,1,0,0:0:0:0:
192,192,107429,1,0,0:0:0:0:
448,192,107429,1,0,0:0:0:0:
192,192,107571,1,0,0:0:0:0:
320,192,107571,1,0,0:0:0:0:
64,192,107714,1,0,0:0:0:0:
192,192,107750,1,0,0:0:0:0:
320,192,107786,1,0,0:0:0:0:
448,192,107821,1,0,0:0:0:0:
64,192,107857,1,0,0:0:0:0:
192,192,107893,1,0,0:0:0:0:
320,192,107929,1,0,0:0:0:0:
448,192,107964,1,0,0:0:0:0:
64,192,108000,1,0,0:0:0:0:
192,192,108036,1,0,0:0:0:0:
320,192,108071,1,0,0:0:0:0:
448,192,108107,1,0,0:0:0:0:
64,192,108143,1,0,0:0:0:0:
192,192,108143,1,0,0:0:0:0:
64,192,108286,1,0,0:0:0:0:
320,192,108286,1,0,0:0:0:0:
192,192,108357,1,0,0:0:0:0:
320,192,108429,1,0,0:0:0:0:
448,192,108429,1,0,0:0:0:0:
448,192,108571,1,0,0:0:0:0:
320,192,108607,1,0,0:0:0:0:
192,192,108643,1,0,0:0:0:0:
64,192,108679,1,0,0:0:0:0:
448,192,108714,1,0,0:0:0:0:
320,192,108750,1,0,0:0:0:0:
192,192,108786,1,0,0:0:0:0:
64,192,108821,1,0,0:0:0:0:
320,192,108857,1,0,0:0:0:0:
448,192,108857,1,0,0:0:0:0:
448,192,109000,1,0,0:0:0:0:
320,192,109036,1,0,0:0:0:0:
192,192,109071,1,0,0:0:0:0:
64,192,109107,1,0,0:0:0:0:
448,192,109143,1,0,0:0:0:0:
320,192,109179,1,0,0:0:0:0:
192,192,109214,1,0,0:0:0:0:
64,192,109250,1,0,0:0:0:0:
320,192,109286,1,0,0:0:0:0:
448,192,109286,1,0,0:0:0:0:
64,192,109429,1,0,0:0:0:0:
192,192,109429,1,0,0:0:0:0:
320,192,109500,1,0,0:0:0:0:
64,192,109571,1,0,0:0:0:0:
448,192,109571,1,0,0:0:0:0:
64,192,109714,1,0,0:0:0:0:
192,192,109714,1,0,0:0:0:0:
320,192,109714,1,0,0:0:0:0:
64,192,109857,1,0,0:0:0:0:
192,192,109857,1,0,0:0:0:0:
448,192,109857,1,0,0:0:0:0:
64,192,110143,1,0,0:0:0:0:
320,192,110143,1,0,0:0:0:0:
448,192,110143,1,0,0:0:0:0:
192,192,110429,1,0,0:0:0:0:
320,192,110429,1,0,0:0:0:0:
64,192,110571,1,0,0:0:0:0:
192,192,110571,1,0,0:0:0:0:
448,192,110643,1,0,0:0:0:0:
192,192,110714,1,0,0:0:0:0:
320,192,110714,1,0,0:0:0:0:
192,192,110857,1,0,0:0:0:0:
320,192,110857,1,0,0:0:0:0:
448,192,110857,1,0,0:0:0:0:
64,192,111000,1,0,0:0:0:0:
192,192,111000,1,0,0:0:0:0:
64,192,111143,1,0,0:0:0:0:
320,192,111143,1,0,0:0:0:0:
448,192,111143,1,0,0:0:0:0:
320,192,111286,1,0,0:0:0:0:
448,192,111286,1,0,0:0:0:0:
64,192,111357,1,0,0:0:0:0:
192,192,111429,1,0,0:0:0:0:
320,192,111429,1,0,0:0:0:0:
64,192,111571,1,0,0:0:0:0:
448,192,111643,1,0,0:0:0:0:
64,192,111714,1,0,0:0:0:0:
192,192,111714,1,0,0:0:0:0:
320,192,111786,1,0,0:0:0:0:
448,192,111786,1,0,0:0:0:0:
192,192,111857,1,0,0:0:0:0:
320,192,111929,1,0,0:0:0:0:
64,192,112000,1,0,0:0:0:0:
192,192,112000,1,0,0:0:0:0:
320,192,112071,1,0,0:0:0:0:
448,192,112071,1,0,0:0:0:0:
64,192,112143,1,0,0:0:0:0:
320,192,112190,1,0,0:0:0:0:
64,192,112238,1,0,0:0:0:0:
448,192,112286,1,0,0:0:0:0:
192,192,112357,1,0,0:0:0:0:
320,192,112357,1,0,0:0:0:0:
64,192,112429,1,0,0:0:0:0:
192,192,112476,1,0,0:0:0:0:
64,192,112524,1,0,0:0:0:0:
320,192,112571,1,0,0:0:0:0:
64,192,112643,1,0,0:0:0:0:
192,192,112643,1,0,0:0:0:0:
320,192,112714,1,0,0:0:0:0:
448,192,112762,1,0,0:0:0:0:
320,192,112810,1,0,0:0:0:0:
64,192,112857,1,0,0:0:0:0:
192,192,112857,1,0,0:0:0:0:
448,192,112857,1,0,0:0:0:0:
64,192,113000,1,0,0:0:0:0:
320,192,113000,1,0,0:0:0:0:
448,192,113000,1,0,0:0:0:0:
192,192,113071,1,0,0:0:0:0:
64,192,113143,1,0,0:0:0:0:
448,192,113143,1,0,0:0:0:0:
192,192,113214,1,0,0:0:0:0:
320,192,113286,1,0,0:0:0:0:
448,192,113286,1,0,0:0:0:0:
192,192,113357,1,0,0:0:0:0:
64,192,113429,1,0,0:0:0:0:
448,192,113429,1,0,0:0:0:0:
320,192,113500,1,0,0:0:0:0:
64,192,113571,1,0,0:0:0:0:
192,192,113571,1,0,0:0:0:0:
320,192,113643,1,0,0:0:0:0:
192,192,113714,1,0,0:0:0:0:
448,192,113714,1,0,0:0:0:0:
64,192,113786,1,0,0:0:0:0:
192,192,113857,1,0,0:0:0:0:
320,192,113857,1,0,0:0:0:0:
448,192,113929,1,0,0:0:0:0:
64,192,114000,1,0,0:0:0:0:
320,192,114000,1,0,0:0:0:0:
448,192,114071,1,0,0:0:0:0:
192,192,114143,1,0,0:0:0:0:
320,192,114143,1,0,0:0:0:0:
64,192,114214,1,0,0:0:0:0:
320,192,114286,1,0,0:0:0:0:
448,192,114286,1,0,0:0:0:0:
192,192,114357,1,0,0:0:0:0:
64,192,114429,1,0,0:0:0:0:
320,192,114429,1,0,0:0:0:0:
448,192,114500,1,0,0:0:0:0:
192,192,114571,1,0,0:0:0:0:
320,192,114571,1,0,0:0:0:0:
64,192,114643,1,0,0:0:0:0:
192,192,114714,1,0,0:0:0:0:
448,192,114714,1,0,0:0:0:0:
320,192,114786,1,0,0:0:0:0:
64,192,114857,1,0,0:0:0:0:
192,192,114857,1,0,0:0:0:0:
448,192,114929,1,0,0:0:0:0:
64,192,115000,1,0,0:0:0:0:
192,192,115000,1,0,0:0:0:0:
320,192,115071,1,0,0:0:0:0:
64,192,115143,1,0,0:0:0:0:
192,192,115143,1,0,0:0:0:0:
448,192,115214,1,0,0:0:0:0:
64,192,115286,1,0,0:0:0:0:
192,192,115286,1,0,0:0:0:0:
320,192,115286,1,0,0:0:0:0:
448,192,115357,1,0,0:0:0:0:
192,192,115429,1,0,0:0:0:0:
320,192,115429,1,0,0:0:0:0:
64,192,115500,1,0,0:0:0:0:
320,192,115571,1,0,0:0:0:0:
448,192,115571,1,0,0:0:0:0:
192,192,115643,1,0,0:0:0:0:
64,192,115714,1,0,0:0:0:0:
320,192,115714,1,0,0:0:0:0:
448,192,115786,1,0,0:0:0:0:
192,192,115857,1,0,0:0:0:0:
320,192,115857,1,0,0:0:0:0:
64,192,115929,1,0,0:0:0:0:
320,192,116000,1,0,0:0:0:0:
448,192,116000,1,0,0:0:0:0:
192,192,116071,1,0,0:0:0:0:
320,192,116143,1,0,0:0:0:0:
448,192,116143,1,0,0:0:0:0:
64,192,116214,1,0,0:0:0:0:
192,192,116286,1,0,0:0:0:0:
320,192,116286,1,0,0:0:0:0:
448,192,116357,1,0,0:0:0:0:
64,192,116429,1,0,0:0:0:0:
320,192,116429,1,0,0:0:0:0:
192,192,116500,1,0,0:0:0:0:
320,192,116571,1,0,0:0:0:0:
448,192,116571,1,0,0:0:0:0:
64,192,116643,1,0,0:0:0:0:
192,192,116714,1,0,0:0:0:0:
320,192,116714,1,0,0:0:0:0:
448,192,116786,1,0,0:0:0:0:
64,192,116857,1,0,0:0:0:0:
320,192,116857,1,0,0:0:0:0:
448,192,116929,1,0,0:0:0:0:
64,192,117000,1,0,0:0:0:0:
192,192,117000,1,0,0:0:0:0:
448,192,117071,1,0,0:0:0:0:
192,192,117143,1,0,0:0:0:0:
320,192,117143,1,0,0:0:0:0:
64,192,117214,1,0,0:0:0:0:
320,192,117286,1,0,0:0:0:0:
448,192,117286,1,0,0:0:0:0:
192,192,117357,1,0,0:0:0:0:
64,192,117429,1,0,0:0:0:0:
448,192,117429,1,0,0:0:0:0:
320,192,117500,1,0,0:0:0:0:
64,192,117571,1,0,0:0:0:0:
192,192,117571,1,0,0:0:0:0:
448,192,117571,1,0,0:0:0:0:
320,192,117643,1,0,0:0:0:0:
64,192,117714,1,0,0:0:0:0:
192,192,117714,1,0,0:0:0:0:
448,192,117786,1,0,0:0:0:0:
192,192,117857,1,0,0:0:0:0:
320,192,117857,1,0,0:0:0:0:
64,192,117929,1,0,0:0:0:0:
192,192,118000,1,0,0:0:0:0:
448,192,118000,1,0,0:0:0:0:
64,192,118071,1,0,0:0:0:0:
320,192,118143,1,0,0:0:0:0:
448,192,118143,1,0,0:0:0:0:
192,192,118214,1,0,0:0:0:0:
320,192,118286,1,0,0:0:0:0:
448,192,118286,1,0,0:0:0:0:
192,192,118357,1,0,0:0:0:0:
64,192,118429,1,0,0:0:0:0:
448,192,118429,1,0,0:0:0:0:
320,192,118500,1,0,0:0:0:0:
64,192,118571,1,0,0:0:0:0:
192,192,118571,1,0,0:0:0:0:
448,192,118643,1,0,0:0:0:0:
192,192,118714,1,0,0:0:0:0:
320,192,118714,1,0,0:0:0:0:
64,192,118786,1,0,0:0:0:0:
192,192,118857,1,0,0:0:0:0:
448,192,118857,1,0,0:0:0:0:
320,192,118929,1,0,0:0:0:0:
64,192,119000,1,0,0:0:0:0:
192,192,119000,1,0,0:0:0:0:
320,192,119071,1,0,0:0:0:0:
64,192,119143,1,0,0:0:0:0:
448,192,119143,1,0,0:0:0:0:
192,192,119214,1,0,0:0:0:0:
320,192,119214,1,0,0:0:0:0:
64,192,119286,1,0,0:0:0:0:
448,192,119286,1,0,0:0:0:0:
192,192,119357,1,0,0:0:0:0:
320,192,119429,1,0,0:0:0:0:
448,192,119429,1,0,0:0:0:0:
192,192,119500,1,0,0:0:0:0:
64,192,119571,1,0,0:0:0:0:
320,192,119571,1,0,0:0:0:0:
448,192,119643,1,0,0:0:0:0:
192,192,119714,1,0,0:0:0:0:
320,192,119714,1,0,0:0:0:0:
64,192,119786,1,0,0:0:0:0:
192,192,119857,1,0,0:0:0:0:
320,192,119857,1,0,0:0:0:0:
448,192,119857,1,0,0:0:0:0:
64,192,120000,128,0,120286:0:0:0:0:
320,192,120286,1,0,0:0:0:0:
448,192,120286,1,0,0:0:0:0:
192,192,120429,1,0,0:0:0:0:
320,192,120429,1,0,0:0:0:0:
64,192,120571,1,0,0:0:0:0:
192,192,120571,1,0,0:0:0:0:
320,192,120571,1,0,0:0:0:0:
192,192,120714,1,0,0:0:0:0:
320,192,120714,1,0,0:0:0:0:
64,192,120857,1,0,0:0:0:0:
320,192,120857,1,0,0:0:0:0:
64,192,121000,1,0,0:0:0:0:
192,192,121000,1,0,0:0:0:0:
448,192,121000,128,0,121286:0:0:0:0:
64,192,121286,1,0,0:0:0:0:
192,192,121286,1,0,0:0:0:0:
320,192,121357,1,0,0:0:0:0:
192,192,121429,1,0,0:0:0:0:
320,192,121500,1,0,0:0:0:0:
448,192,121500,1,0,0:0:0:0:
64,192,121571,1,0,0:0:0:0:
192,192,121571,1,0,0:0:0:0:
448,192,121643,1,0,0:0:0:0:
64,192,121714,1,0,0:0:0:0:
320,192,121786,1,0,0:0:0:0:
448,192,121786,1,0,0:0:0:0:
64,192,121857,1,0,0:0:0:0:
192,192,121857,1,0,0:0:0:0:
320,192,121929,1,0,0:0:0:0:
448,192,121929,1,0,0:0:0:0:
64,192,122000,1,0,0:0:0:0:
192,192,122000,1,0,0:0:0:0:
64,192,122143,1,0,0:0:0:0:
192,192,122143,1,0,0:0:0:0:
320,192,122143,1,0,0:0:0:0:
448,192,122143,1,0,0:0:0:0:
64,192,122429,1,0,0:0:0:0:
448,192,122429,1,0,0:0:0:0:
64,192,122571,1,0,0:0:0:0:
320,192,122571,1,0,0:0:0:0:
448,192,122571,1,0,0:0:0:0:
192,192,122643,1,0,0:0:0:0:
320,192,122714,1,0,0:0:0:0:
448,192,122714,1,0,0:0:0:0:
64,192,122786,1,0,0:0:0:0:
192,192,122857,1,0,0:0:0:0:
320,192,122857,1,0,0:0:0:0:
448,192,122929,1,0,0:0:0:0:
64,192,123000,1,0,0:0:0:0:
320,192,123000,1,0,0:0:0:0:
448,192,123071,1,0,0:0:0:0:
64,192,123143,1,0,0:0:0:0:
192,192,123143,1,0,0:0:0:0:
320,192,123214,1,0,0:0:0:0:
64,192,123286,1,0,0:0:0:0:
192,192,123286,1,0,0:0:0:0:
320,192,123357,1,0,0:0:0:0:
64,192,123429,1,0,0:0:0:0:
448,192,123429,1,0,0:0:0:0:
320,192,123500,1,0,0:0:0:0:
64,192,123571,1,0,0:0:0:0:
192,192,123571,1,0,0:0:0:0:
448,192,123643,1,0,0:0:0:0:
192,192,123714,1,0,0:0:0:0:
320,192,123714,1,0,0:0:0:0:
64,192,123786,1,0,0:0:0:0:
192,192,123857,1,0,0:0:0:0:
448,192,123857,1,0,0:0:0:0:
64,192,123929,1,0,0:0:0:0:
192,192,124000,1,0,0:0:0:0:
320,192,124000,1,0,0:0:0:0:
448,192,124071,1,0,0:0:0:0:
64,192,124143,1,0,0:0:0:0:
192,192,124143,1,0,0:0:0:0:
320,192,124214,1,0,0:0:0:0:
192,192,124286,1,0,0:0:0:0:
448,192,124286,1,0,0:0:0:0:
64,192,124357,1,0,0:0:0:0:
192,192,124429,1,0,0:0:0:0:
320,192,124429,1,0,0:0:0:0:
448,192,124429,1,0,0:0:0:0:
64,192,124500,1,0,0:0:0:0:
192,192,124571,1,0,0:0:0:0:
320,192,124571,1,0,0:0:0:0:
448,192,124643,1,0,0:0:0:0:
64,192,124714,1,0,0:0:0:0:
192,192,124714,1,0,0:0:0:0:
448,192,124786,1,0,0:0:0:0:
192,192,124857,1,0,0:0:0:0:
320,192,124857,1,0,0:0:0:0:
64,192,124929,1,0,0:0:0:0:
320,192,125000,1,0,0:0:0:0:
448,192,125000,1,0,0:0:0:0:
64,192,125071,1,0,0:0:0:0:
192,192,125143,1,0,0:0:0:0:
320,192,125143,1,0,0:0:0:0:
448,192,125214,1,0,0:0:0:0:
192,192,125286,1,0,0:0:0:0:
320,192,125286,1,0,0:0:0:0:
64,192,125357,1,0,0:0:0:0:
192,192,125429,1,0,0:0:0:0:
448,192,125429,1,0,0:0:0:0:
320,192,125500,1,0,0:0:0:0:
64,192,125571,1,0,0:0:0:0:
192,192,125571,1,0,0:0:0:0:
448,192,125643,1,0,0:0:0:0:
64,192,125714,1,0,0:0:0:0:
320,192,125714,1,0,0:0:0:0:
448,192,125786,1,0,0:0:0:0:
64,192,125857,1,0,0:0:0:0:
192,192,125857,1,0,0:0:0:0:
320,192,125929,1,0,0:0:0:0:
64,192,126000,1,0,0:0:0:0:
192,192,126000,1,0,0:0:0:0:
320,192,126071,1,0,0:0:0:0:
64,192,126143,1,0,0:0:0:0:
448,192,126143,1,0,0:0:0:0:
192,192,126214,1,0,0:0:0:0:
64,192,126286,1,0,0:0:0:0:
320,192,126286,1,0,0:0:0:0:
448,192,126357,1,0,0:0:0:0:
64,192,126429,1,0,0:0:0:0:
192,192,126429,1,0,0:0:0:0:
448,192,126500,1,0,0:0:0:0:
64,192,126571,1,0,0:0:0:0:
192,192,126571,1,0,0:0:0:0:
320,192,126643,1,0,0:0:0:0:
64,192,126714,1,0,0:0:0:0:
192,192,126714,1,0,0:0:0:0:
448,192,126714,1,0,0:0:0:0:
320,192,126786,1,0,0:0:0:0:
192,192,126857,1,0,0:0:0:0:
448,192,126857,1,0,0:0:0:0:
64,192,126929,1,0,0:0:0:0:
192,192,127000,1,0,0:0:0:0:
448,192,127000,1,0,0:0:0:0:
320,192,127071,1,0,0:0:0:0:
64,192,127143,1,0,0:0:0:0:
448,192,127143,1,0,0:0:0:0:
192,192,127214,1,0,0:0:0:0:
320,192,127286,1,0,0:0:0:0:
448,192,127286,1,0,0:0:0:0:
64,192,127357,1,0,0:0:0:0:
192,192,127429,1,0,0:0:0:0:
320,192,127429,1,0,0:0:0:0:
448,192,127500,1,0,0:0:0:0:
64,192,127571,1,0,0:0:0:0:
192,192,127571,1,0,0:0:0:0:
320,192,127643,1,0,0:0:0:0:
192,192,127714,1,0,0:0:0:0:
448,192,127714,1,0,0:0:0:0:
64,192,127786,1,0,0:0:0:0:
320,192,127857,1,0,0:0:0:0:
448,192,127857,1,0,0:0:0:0:
192,192,127929,1,0,0:0:0:0:
64,192,128000,1,0,0:0:0:0:
320,192,128000,1,0,0:0:0:0:
448,192,128071,1,0,0:0:0:0:
64,192,128143,1,0,0:0:0:0:
192,192,128143,1,0,0:0:0:0:
448,192,128214,1,0,0:0:0:0:
192,192,128286,1,0,0:0:0:0:
320,192,128286,1,0,0:0:0:0:
64,192,128357,1,0,0:0:0:0:
192,192,128429,1,0,0:0:0:0:
448,192,128429,1,0,0:0:0:0:
64,192,128500,1,0,0:0:0:0:
320,192,128571,1,0,0:0:0:0:
448,192,128571,1,0,0:0:0:0:
192,192,128643,1,0,0:0:0:0:
64,192,128714,1,0,0:0:0:0:
320,192,128714,1,0,0:0:0:0:
448,192,128714,1,0,0:0:0:0:
64,192,129000,1,0,0:0:0:0:
320,192,129000,1,0,0:0:0:0:
448,192,129000,1,0,0:0:0:0:
64,192,129429,1,0,0:0:0:0:
192,192,129429,1,0,0:0:0:0:
320,192,129429,1,0,0:0:0:0:
448,192,129500,1,0,0:0:0:0:
64,192,129571,1,0,0:0:0:0:
320,192,129643,1,0,0:0:0:0:
448,192,129643,1,0,0:0:0:0:
64,192,129714,1,0,0:0:0:0:
192,192,129714,1,0,0:0:0:0:
320,192,129786,1,0,0:0:0:0:
192,192,129857,1,0,0:0:0:0:
320,192,129929,1,0,0:0:0:0:
448,192,129929,1,0,0:0:0:0:
64,192,130000,1,0,0:0:0:0:
192,192,130000,1,0,0:0:0:0:
448,192,130071,1,0,0:0:0:0:
64,192,130143,1,0,0:0:0:0:
192,192,130143,1,0,0:0:0:0:
320,192,130143,1,0,0:0:0:0:
192,192,130571,1,0,0:0:0:0:
320,192,130571,1,0,0:0:0:0:
448,192,130571,1,0,0:0:0:0:
64,192,130714,1,0,0:0:0:0:
192,192,130714,1,0,0:0:0:0:
448,192,130714,1,0,0:0:0:0:
320,192,130786,1,0,0:0:0:0:
192,192,130857,1,0,0:0:0:0:
320,192,130929,1,0,0:0:0:0:
448,192,130929,1,0,0:0:0:0:
64,192,131000,1,0,0:0:0:0:
192,192,131000,1,0,0:0:0:0:
320,192,131071,1,0,0:0:0:0:
448,192,131071,1,0,0:0:0:0:
64,192,131143,1,0,0:0:0:0:
192,192,131143,1,0,0:0:0:0:
64,192,131286,1,0,0:0:0:0:
192,192,131286,128,0,131714:0:0:0:0:
320,192,131286,128,0,131714:0:0:0:0:
448,192,131286,1,0,0:0:0:0:
64,192,131714,1,0,0:0:0:0:
64,192,132000,1,0,0:0:0:0:
64,192,132286,1,0,0:0:0:0:
64,192,132571,1,0,0:0:0:0:
192,192,132571,1,0,0:0:0:0:
448,192,132571,1,0,0:0:0:0:
192,192,132714,1,0,0:0:0:0:
320,192,132714,1,0,0:0:0:0:
64,192,132857,1,0,0:0:0:0:
448,192,132857,1,0,0:0:0:0:
192,192,133000,1,0,0:0:0:0:
320,192,133000,1,0,0:0:0:0:
64,192,133143,1,0,0:0:0:0:
192,192,133143,1,0,0:0:0:0:
448,192,133143,1,0,0:0:0:0:
320,192,133214,1,0,0:0:0:0:
192,192,133286,1,0,0:0:0:0:
64,192,133357,1,0,0:0:0:0:
448,192,133357,1,0,0:0:0:0:
192,192,133429,1,0,0:0:0:0:
320,192,133429,1,0,0:0:0:0:
64,192,133500,1,0,0:0:0:0:
448,192,133500,1,0,0:0:0:0:
192,192,133571,1,0,0:0:0:0:
320,192,133571,1,0,0:0:0:0:
64,192,133643,1,0,0:0:0:0:
448,192,133643,1,0,0:0:0:0:
192,192,133714,1,0,0:0:0:0:
320,192,133714,1,0,0:0:0:0:
64,192,133857,1,0,0:0:0:0:
192,192,134000,1,0,0:0:0:0:
320,192,134143,1,0,0:0:0:0:
320,192,134286,1,0,0:0:0:0:
448,192,134286,1,0,0:0:0:0:
192,192,134429,1,0,0:0:0:0:
64,192,134571,1,0,0:0:0:0:
192,192,134571,1,0,0:0:0:0:
320,192,134571,1,0,0:0:0:0:
448,192,134714,1,0,0:0:0:0:
192,192,134857,1,0,0:0:0:0:
320,192,134857,1,0,0:0:0:0:
448,192,134857,1,0,0:0:0:0:
64,192,135000,1,0,0:0:0:0:
192,192,135143,1,0,0:0:0:0:
64,192,135286,1,0,0:0:0:0:
192,192,135429,1,0,0:0:0:0:
320,192,135429,1,0,0:0:0:0:
192,192,135571,1,0,0:0:0:0:
320,192,135571,1,0,0:0:0:0:
448,192,135571,1,0,0:0:0:0:
64,192,135714,1,0,0:0:0:0:
320,192,135714,1,0,0:0:0:0:
448,192,135714,1,0,0:0:0:0:
64,192,135857,1,0,0:0:0:0:
192,192,135857,128,0,136286:0:0:0:0:
320,192,135857,1,0,0:0:0:0:
64,192,136286,1,0,0:0:0:0:
448,192,136429,1,0,0:0:0:0:
192,192,136571,1,0,0:0:0:0:
320,192,136571,1,0,0:0:0:0:
64,192,136714,1,0,0:0:0:0:
64,192,136857,1,0,0:0:0:0:
192,192,136857,1,0,0:0:0:0:
448,192,136857,1,0,0:0:0:0:
320,192,137000,1,0,0:0:0:0:
192,192,137143,1,0,0:0:0:0:
320,192,137143,1,0,0:0:0:0:
448,192,137143,1,0,0:0:0:0:
64,192,137286,1,0,0:0:0:0:
192,192,137429,1,0,0:0:0:0:
320,192,137571,1,0,0:0:0:0:
64,192,137714,1,0,0:0:0:0:
192,192,137714,1,0,0:0:0:0:
320,192,137810,1,0,0:0:0:0:
448,192,137810,1,0,0:0:0:0:
64,192,137905,1,0,0:0:0:0:
192,192,137905,1,0,0:0:0:0:
320,192,138000,1,0,0:0:0:0:
448,192,138000,1,0,0:0:0:0:
64,192,138095,1,0,0:0:0:0:
192,192,138095,1,0,0:0:0:0:
64,192,138286,1,0,0:0:0:0:
192,192,138286,1,0,0:0:0:0:
320,192,138286,1,0,0:0:0:0:
448,192,138286,1,0,0:0:0:0:
64,192,138429,1,0,0:0:0:0:
448,192,138571,1,0,0:0:0:0:
64,192,138714,1,0,0:0:0:0:
192,192,138857,1,0,0:0:0:0:
320,192,138857,1,0,0:0:0:0:
64,192,139000,1,0,0:0:0:0:
320,192,139000,1,0,0:0:0:0:
64,192,139143,1,0,0:0:0:0:
192,192,139143,1,0,0:0:0:0:
448,192,139143,1,0,0:0:0:0:
192,192,139286,1,0,0:0:0:0:
320,192,139286,1,0,0:0:0:0:
64,192,139429,1,0,0:0:0:0:
320,192,139429,1,0,0:0:0:0:
448,192,139429,1,0,0:0:0:0:
192,192,139571,1,0,0:0:0:0:
320,192,139714,1,0,0:0:0:0:
192,192,139857,1,0,0:0:0:0:
64,192,140000,1,0,0:0:0:0:
448,192,140000,1,0,0:0:0:0:
64,192,140143,1,0,0:0:0:0:
192,192,140143,1,0,0:0:0:0:
320,192,140143,1,0,0:0:0:0:
192,192,140286,1,0,0:0:0:0:
320,192,140286,1,0,0:0:0:0:
448,192,140286,1,0,0:0:0:0:
64,192,140429,1,0,0:0:0:0:
192,192,140429,1,0,0:0:0:0:
448,192,140429,128,0,140714:0:0:0:0:
64,192,140714,1,0,0:0:0:0:
192,192,140714,1,0,0:0:0:0:
320,192,140714,1,0,0:0:0:0:
192,192,140857,1,0,0:0:0:0:
320,192,140857,1,0,0:0:0:0:
448,192,140857,1,0,0:0:0:0:
64,192,141000,1,0,0:0:0:0:
192,192,141000,1,0,0:0:0:0:
448,192,141000,1,0,0:0:0:0:
64,192,141143,1,0,0:0:0:0:
192,192,141143,1,0,0:0:0:0:
320,192,141143,1,0,0:0:0:0:
448,192,141143,1,0,0:0:0:0:
192,192,141286,1,0,0:0:0:0:
320,192,141286,1,0,0:0:0:0:
448,192,141286,1,0,0:0:0:0:
64,192,141429,1,0,0:0:0:0:
192,192,141429,1,0,0:0:0:0:
320,192,141429,1,0,0:0:0:0:
64,192,141571,1,0,0:0:0:0:
192,192,141571,1,0,0:0:0:0:
448,192,141571,1,0,0:0:0:0:
64,192,141714,1,0,0:0:0:0:
192,192,141714,1,0,0:0:0:0:
320,192,141714,1,0,0:0:0:0:
448,192,141714,1,0,0:0:0:0:
64,192,141857,1,0,0:0:0:0:
320,192,141857,1,0,0:0:0:0:
448,192,141857,1,0,0:0:0:0:
64,192,142000,1,0,0:0:0:0:
192,192,142000,1,0,0:0:0:0:
448,192,142000,1,0,0:0:0:0:
64,192,142143,1,0,0:0:0:0:
192,192,142143,1,0,0:0:0:0:
320,192,142143,1,0,0:0:0:0:
192,192,142286,1,0,0:0:0:0:
320,192,142286,1,0,0:0:0:0:
448,192,142286,1,0,0:0:0:0:
64,192,142381,1,0,0:0:0:0:
192,192,142476,1,0,0:0:0:0:
64,192,142571,1,0,0:0:0:0:
192,192,142667,1,0,0:0:0:0:
64,192,142762,1,0,0:0:0:0:
64,192,142857,1,0,0:0:0:0:
192,192,142857,1,0,0:0:0:0:
320,192,142857,1,0,0:0:0:0:
448,192,142857,1,0,0:0:0:0:
192,192,143143,1,0,0:0:0:0:
192,192,143286,1,0,0:0:0:0:
192,192,143429,1,0,0:0:0:0:
320,192,143429,1,0,0:0:0:0:
448,192,143429,1,0,0:0:0:0:
448,192,143571,1,0,0:0:0:0:
448,192,143714,1,0,0:0:0:0:
448,192,143857,1,0,0:0:0:0:
64,192,144000,1,0,0:0:0:0:
320,192,144000,1,0,0:0:0:0:
448,192,144000,1,0,0:0:0:0:
64,192,144143,1,0,0:0:0:0:
64,192,144286,1,0,0:0:0:0:
64,192,144429,1,0,0:0:0:0:
192,192,144429,1,0,0:0:0:0:
64,192,144571,1,0,0:0:0:0:
320,192,144571,1,0,0:0:0:0:
448,192,144571,1,0,0:0:0:0:
192,192,144714,1,0,0:0:0:0:
320,192,144714,1,0,0:0:0:0:
64,192,144857,1,0,0:0:0:0:
192,192,144857,1,0,0:0:0:0:
192,192,145000,1,0,0:0:0:0:
320,192,145000,1,0,0:0:0:0:
448,192,145000,1,0,0:0:0:0:
64,192,145286,1,0,0:0:0:0:
448,192,145286,1,0,0:0:0:0:
64,192,145429,1,0,0:0:0:0:
192,192,145429,1,0,0:0:0:0:
320,192,145500,1,0,0:0:0:0:
448,192,145500,1,0,0:0:0:0:
64,192,145571,1,0,0:0:0:0:
192,192,145571,1,0,0:0:0:0:
64,192,145714,1,0,0:0:0:0:
192,192,145714,1,0,0:0:0:0:
320,192,145714,1,0,0:0:0:0:
448,192,145786,1,0,0:0:0:0:
64,192,145857,1,0,0:0:0:0:
192,192,145857,1,0,0:0:0:0:
320,192,146000,1,0,0:0:0:0:
448,192,146000,1,0,0:0:0:0:
64,192,146071,1,0,0:0:0:0:
192,192,146071,1,0,0:0:0:0:
320,192,146143,1,0,0:0:0:0:
448,192,146143,1,0,0:0:0:0:
192,192,146286,1,0,0:0:0:0:
320,192,146286,1,0,0:0:0:0:
448,192,146286,1,0,0:0:0:0:
64,192,146357,1,0,0:0:0:0:
320,192,146429,1,0,0:0:0:0:
448,192,146429,1,0,0:0:0:0:
64,192,146571,1,0,0:0:0:0:
192,192,146571,1,0,0:0:0:0:
320,192,146643,1,0,0:0:0:0:
192,192,146714,1,0,0:0:0:0:
448,192,146714,1,0,0:0:0:0:
64,192,146857,1,0,0:0:0:0:
192,192,146857,1,0,0:0:0:0:
448,192,146857,1,0,0:0:0:0:
64,192,147143,1,0,0:0:0:0:
320,192,147143,1,0,0:0:0:0:
448,192,147143,1,0,0:0:0:0:
64,192,147429,1,0,0:0:0:0:
192,192,147429,128,0,147714:0:0:0:0:
320,192,147429,1,0,0:0:0:0:
448,192,147429,1,0,0:0:0:0:
320,192,147714,1,0,0:0:0:0:
320,192,147857,1,0,0:0:0:0:
192,192,148000,1,0,0:0:0:0:
320,192,148000,1,0,0:0:0:0:
448,192,148000,1,0,0:0:0:0:
192,192,148143,1,0,0:0:0:0:
192,192,148286,1,0,0:0:0:0:
192,192,148429,1,0,0:0:0:0:
64,192,148571,1,0,0:0:0:0:
192,192,148571,1,0,0:0:0:0:
64,192,148714,1,0,0:0:0:0:
64,192,148857,1,0,0:0:0:0:
64,192,149000,1,0,0:0:0:0:
64,192,149143,1,0,0:0:0:0:
192,192,149143,1,0,0:0:0:0:
192,192,149286,1,0,0:0:0:0:
320,192,149286,1,0,0:0:0:0:
320,192,149429,1,0,0:0:0:0:
448,192,149429,1,0,0:0:0:0:
64,192,149571,1,0,0:0:0:0:
192,192,149571,1,0,0:0:0:0:
320,192,149571,1,0,0:0:0:0:
64,192,149857,1,0,0:0:0:0:
320,192,149857,1,0,0:0:0:0:
448,192,150000,1,0,0:0:0:0:
64,192,150071,1,0,0:0:0:0:
192,192,150071,1,0,0:0:0:0:
64,192,150286,1,0,0:0:0:0:
192,192,150286,1,0,0:0:0:0:
320,192,150286,1,0,0:0:0:0:
448,192,150357,1,0,0:0:0:0:
64,192,150429,1,0,0:0:0:0:
192,192,150429,1,0,0:0:0:0:
192,192,150571,1,0,0:0:0:0:
320,192,150571,1,0,0:0:0:0:
448,192,150643,1,0,0:0:0:0:
64,192,150714,1,0,0:0:0:0:
192,192,150714,1,0,0:0:0:0:
64,192,150857,1,0,0:0:0:0:
192,192,150857,1,0,0:0:0:0:
448,192,150857,1,0,0:0:0:0:
320,192,150929,1,0,0:0:0:0:
64,192,151000,1,0,0:0:0:0:
192,192,151000,1,0,0:0:0:0:
448,192,151000,1,0,0:0:0:0:
64,192,151143,1,0,0:0:0:0:
320,192,151143,1,0,0:0:0:0:
448,192,151143,1,0,0:0:0:0:
192,192,151214,1,0,0:0:0:0:
64,192,151286,1,0,0:0:0:0:
320,192,151286,1,0,0:0:0:0:
448,192,151286,1,0,0:0:0:0:
64,192,151429,1,0,0:0:0:0:
192,192,151429,1,0,0:0:0:0:
320,192,151429,1,0,0:0:0:0:
448,192,151500,1,0,0:0:0:0:
64,192,151571,1,0,0:0:0:0:
192,192,151571,1,0,0:0:0:0:
320,192,151571,1,0,0:0:0:0:
192,192,151714,1,0,0:0:0:0:
320,192,151714,1,0,0:0:0:0:
448,192,151714,1,0,0:0:0:0:
64,192,151786,1,0,0:0:0:0:
192,192,151857,1,0,0:0:0:0:
320,192,151857,1,0,0:0:0:0:
448,192,151857,1,0,0:0:0:0:
64,192,152000,1,0,0:0:0:0:
448,192,152000,1,0,0:0:0:0:
64,192,152286,1,0,0:0:0:0:
192,192,152286,1,0,0:0:0:0:
64,192,152429,1,0,0:0:0:0:
192,192,152429,1,0,0:0:0:0:
64,192,152571,1,0,0:0:0:0:
192,192,152571,1,0,0:0:0:0:
320,192,152571,1,0,0:0:0:0:
320,192,152714,1,0,0:0:0:0:
448,192,152714,1,0,0:0:0:0:
320,192,152857,1,0,0:0:0:0:
448,192,152857,1,0,0:0:0:0:
320,192,153000,1,0,0:0:0:0:
448,192,153000,1,0,0:0:0:0:
64,192,153143,1,0,0:0:0:0:
192,192,153143,1,0,0:0:0:0:
320,192,153143,1,0,0:0:0:0:
192,192,153286,1,0,0:0:0:0:
320,192,153286,1,0,0:0:0:0:
192,192,153429,1,0,0:0:0:0:
320,192,153429,1,0,0:0:0:0:
192,192,153571,1,0,0:0:0:0:
320,192,153571,1,0,0:0:0:0:
64,192,153714,1,0,0:0:0:0:
192,192,153714,1,0,0:0:0:0:
192,192,153857,1,0,0:0:0:0:
320,192,153857,1,0,0:0:0:0:
320,192,154000,1,0,0:0:0:0:
448,192,154000,1,0,0:0:0:0:
192,192,154143,1,0,0:0:0:0:
320,192,154143,1,0,0:0:0:0:
64,192,154429,1,0,0:0:0:0:
448,192,154429,1,0,0:0:0:0:
64,192,154571,1,0,0:0:0:0:
192,192,154571,1,0,0:0:0:0:
448,192,154643,1,0,0:0:0:0:
192,192,154714,1,0,0:0:0:0:
320,192,154714,1,0,0:0:0:0:
320,192,154857,1,0,0:0:0:0:
448,192,154857,1,0,0:0:0:0:
192,192,154929,1,0,0:0:0:0:
64,192,155000,1,0,0:0:0:0:
320,192,155000,1,0,0:0:0:0:
192,192,155143,1,0,0:0:0:0:
448,192,155143,1,0,0:0:0:0:
320,192,155214,1,0,0:0:0:0:
64,192,155286,1,0,0:0:0:0:
192,192,155286,1,0,0:0:0:0:
192,192,155429,1,0,0:0:0:0:
320,192,155429,1,0,0:0:0:0:
448,192,155429,1,0,0:0:0:0:
64,192,155500,1,0,0:0:0:0:
192,192,155571,1,0,0:0:0:0:
320,192,155571,1,0,0:0:0:0:
64,192,155714,1,0,0:0:0:0:
192,192,155714,1,0,0:0:0:0:
448,192,155786,1,0,0:0:0:0:
64,192,155857,1,0,0:0:0:0:
192,192,155857,1,0,0:0:0:0:
64,192,156000,1,0,0:0:0:0:
320,192,156000,1,0,0:0:0:0:
448,192,156000,1,0,0:0:0:0:
64,192,156286,1,0,0:0:0:0:
192,192,156286,1,0,0:0:0:0:
448,192,156286,1,0,0:0:0:0:
64,192,156571,1,0,0:0:0:0:
192,192,156571,1,0,0:0:0:0:
320,192,156571,1,0,0:0:0:0:
448,192,156571,1,0,0:0:0:0:
64,192,156857,1,0,0:0:0:0:
192,192,156857,1,0,0:0:0:0:
64,192,157000,1,0,0:0:0:0:
192,192,157000,1,0,0:0:0:0:
64,192,157143,1,0,0:0:0:0:
320,192,157143,1,0,0:0:0:0:
448,192,157143,1,0,0:0:0:0:
192,192,157286,1,0,0:0:0:0:
448,192,157286,1,0,0:0:0:0:
192,192,157429,1,0,0:0:0:0:
448,192,157429,1,0,0:0:0:0:
192,192,157571,1,0,0:0:0:0:
448,192,157571,1,0,0:0:0:0:
64,192,157714,1,0,0:0:0:0:
192,192,157714,1,0,0:0:0:0:
320,192,157714,1,0,0:0:0:0:
64,192,157857,1,0,0:0:0:0:
320,192,157857,1,0,0:0:0:0:
64,192,158000,1,0,0:0:0:0:
320,192,158000,1,0,0:0:0:0:
64,192,158143,1,0,0:0:0:0:
320,192,158143,1,0,0:0:0:0:
192,192,158286,1,0,0:0:0:0:
320,192,158286,1,0,0:0:0:0:
192,192,158429,1,0,0:0:0:0:
448,192,158429,1,0,0:0:0:0:
192,192,158571,1,0,0:0:0:0:
320,192,158571,1,0,0:0:0:0:
64,192,158714,1,0,0:0:0:0:
192,192,158714,1,0,0:0:0:0:
320,192,158714,1,0,0:0:0:0:
192,192,159000,1,0,0:0:0:0:
320,192,159000,1,0,0:0:0:0:
64,192,159143,1,0,0:0:0:0:
448,192,159214,1,0,0:0:0:0:
64,192,159286,1,0,0:0:0:0:
192,192,159286,1,0,0:0:0:0:
320,192,159357,1,0,0:0:0:0:
448,192,159357,1,0,0:0:0:0:
192,192,159429,1,0,0:0:0:0:
320,192,159500,1,0,0:0:0:0:
64,192,159571,1,0,0:0:0:0:
192,192,159571,1,0,0:0:0:0:
320,192,159643,1,0,0:0:0:0:
448,192,159643,1,0,0:0:0:0:
64,192,159714,1,0,0:0:0:0:
448,192,159786,1,0,0:0:0:0:
64,192,159857,1,0,0:0:0:0:
192,192,159857,1,0,0:0:0:0:
448,192,159929,1,0,0:0:0:0:
64,192,160000,1,0,0:0:0:0:
192,192,160000,1,0,0:0:0:0:
320,192,160000,1,0,0:0:0:0:
448,192,160071,1,0,0:0:0:0:
192,192,160143,1,0,0:0:0:0:
320,192,160143,1,0,0:0:0:0:
192,192,160286,1,0,0:0:0:0:
320,192,160286,1,0,0:0:0:0:
448,192,160286,1,0,0:0:0:0:
64,192,160357,1,0,0:0:0:0:
192,192,160429,1,0,0:0:0:0:
320,192,160429,1,0,0:0:0:0:
64,192,160571,1,0,0:0:0:0:
192,192,160571,1,0,0:0:0:0:
448,192,160571,1,0,0:0:0:0:
320,192,160643,1,0,0:0:0:0:
64,192,160714,1,0,0:0:0:0:
192,192,160714,1,0,0:0:0:0:
64,192,160857,1,0,0:0:0:0:
192,192,160893,1,0,0:0:0:0:
320,192,160929,1,0,0:0:0:0:
448,192,160964,1,0,0:0:0:0:
64,192,161000,1,0,0:0:0:0:
192,192,161036,1,0,0:0:0:0:
320,192,161071,1,0,0:0:0:0:
448,192,161107,1,0,0:0:0:0:
64,192,161143,1,0,0:0:0:0:
192,192,161179,1,0,0:0:0:0:
320,192,161214,1,0,0:0:0:0:
448,192,161250,1,0,0:0:0:0:
64,192,161286,1,0,0:0:0:0:
192,192,161321,1,0,0:0:0:0:
320,192,161357,1,0,0:0:0:0:
448,192,161393,1,0,0:0:0:0:
64,192,161429,1,0,0:0:0:0:
192,192,161464,1,0,0:0:0:0:
320,192,161500,1,0,0:0:0:0:
448,192,161536,1,0,0:0:0:0:
64,192,161571,1,0,0:0:0:0:
192,192,161607,1,0,0:0:0:0:
320,192,161643,1,0,0:0:0:0:
448,192,161679,1,0,0:0:0:0:
64,192,161857,1,0,0:0:0:0:
192,192,161857,1,0,0:0:0:0:
320,192,161929,1,0,0:0:0:0:
192,192,162000,1,0,0:0:0:0:
448,192,162000,1,0,0:0:0:0:
64,192,162071,1,0,0:0:0:0:
192,192,162143,1,0,0:0:0:0:
320,192,162143,1,0,0:0:0:0:
448,192,162214,1,0,0:0:0:0:
64,192,162286,1,0,0:0:0:0:
192,192,162286,1,0,0:0:0:0:
448,192,162357,1,0,0:0:0:0:
192,192,162429,1,0,0:0:0:0:
320,192,162429,1,0,0:0:0:0:
64,192,162500,1,0,0:0:0:0:
320,192,162571,1,0,0:0:0:0:
448,192,162571,1,0,0:0:0:0:
192,192,162643,1,0,0:0:0:0:
64,192,162714,1,0,0:0:0:0:
448,192,162714,1,0,0:0:0:0:
320,192,162786,1,0,0:0:0:0:
192,192,162857,1,0,0:0:0:0:
448,192,162857,1,0,0:0:0:0:
64,192,162929,1,0,0:0:0:0:
320,192,163000,1,0,0:0:0:0:
448,192,163000,1,0,0:0:0:0:
192,192,163071,1,0,0:0:0:0:
64,192,163143,1,0,0:0:0:0:
320,192,163143,1,0,0:0:0:0:
448,192,163214,1,0,0:0:0:0:
64,192,163286,1,0,0:0:0:0:
192,192,163286,1,0,0:0:0:0:
320,192,163286,1,0,0:0:0:0:
448,192,163357,1,0,0:0:0:0:
64,192,163429,1,0,0:0:0:0:
320,192,163429,1,0,0:0:0:0:
192,192,163500,1,0,0:0:0:0:
320,192,163571,1,0,0:0:0:0:
448,192,163571,1,0,0:0:0:0:
64,192,163643,1,0,0:0:0:0:
192,192,163714,1,0,0:0:0:0:
320,192,163714,1,0,0:0:0:0:
448,192,163786,1,0,0:0:0:0:
64,192,163857,1,0,0:0:0:0:
192,192,163857,1,0,0:0:0:0:
320,192,163929,1,0,0:0:0:0:
64,192,164000,1,0,0:0:0:0:
448,192,164000,1,0,0:0:0:0:
192,192,164071,1,0,0:0:0:0:
64,192,164143,1,0,0:0:0:0:
320,192,164143,1,0,0:0:0:0:
448,192,164214,1,0,0:0:0:0:
64,192,164286,1,0,0:0:0:0:
192,192,164286,1,0,0:0:0:0:
320,192,164357,1,0,0:0:0:0:
192,192,164429,1,0,0:0:0:0:
448,192,164429,1,0,0:0:0:0:
64,192,164500,1,0,0:0:0:0:
320,192,164571,1,0,0:0:0:0:
448,192,164571,1,0,0:0:0:0:
192,192,164643,1,0,0:0:0:0:
64,192,164714,1,0,0:0:0:0:
448,192,164714,1,0,0:0:0:0:
320,192,164786,1,0,0:0:0:0:
64,192,164857,1,0,0:0:0:0:
192,192,164857,1,0,0:0:0:0:
448,192,164929,1,0,0:0:0:0:
192,192,165000,1,0,0:0:0:0:
320,192,165000,1,0,0:0:0:0:
64,192,165071,1,0,0:0:0:0:
320,192,165143,1,0,0:0:0:0:
448,192,165143,1,0,0:0:0:0:
192,192,165214,1,0,0:0:0:0:
64,192,165286,1,0,0:0:0:0:
320,192,165286,1,0,0:0:0:0:
448,192,165357,1,0,0:0:0:0:
64,192,165429,1,0,0:0:0:0:
192,192,165429,1,0,0:0:0:0:
320,192,165500,1,0,0:0:0:0:
64,192,165571,1,0,0:0:0:0:
192,192,165571,1,0,0:0:0:0:
448,192,165571,1,0,0:0:0:0:
320,192,165643,1,0,0:0:0:0:
192,192,165714,1,0,0:0:0:0:
448,192,165714,1,0,0:0:0:0:
64,192,165786,1,0,0:0:0:0:
192,192,165857,1,0,0:0:0:0:
320,192,165857,1,0,0:0:0:0:
448,192,165929,1,0,0:0:0:0:
64,192,166000,1,0,0:0:0:0:
192,192,166000,1,0,0:0:0:0:
448,192,166071,1,0,0:0:0:0:
192,192,166143,1,0,0:0:0:0:
320,192,166143,1,0,0:0:0:0:
64,192,166214,1,0,0:0:0:0:
320,192,166286,1,0,0:0:0:0:
448,192,166286,1,0,0:0:0:0:
64,192,166357,1,0,0:0:0:0:
192,192,166429,1,0,0:0:0:0:
320,192,166429,1,0,0:0:0:0:
448,192,166500,1,0,0:0:0:0:
64,192,166571,1,0,0:0:0:0:
192,192,166571,1,0,0:0:0:0:
320,192,166643,1,0,0:0:0:0:
192,192,166714,1,0,0:0:0:0:
448,192,166714,1,0,0:0:0:0:
320,192,166786,1,0,0:0:0:0:
64,192,166857,1,0,0:0:0:0:
192,192,166857,1,0,0:0:0:0:
448,192,166929,1,0,0:0:0:0:
192,192,167000,1,0,0:0:0:0:
320,192,167000,1,0,0:0:0:0:
64,192,167071,1,0,0:0:0:0:
192,192,167143,1,0,0:0:0:0:
448,192,167143,1,0,0:0:0:0:
64,192,167214,1,0,0:0:0:0:
192,192,167286,1,0,0:0:0:0:
320,192,167286,1,0,0:0:0:0:
448,192,167357,1,0,0:0:0:0:
64,192,167429,1,0,0:0:0:0:
192,192,167429,1,0,0:0:0:0:
320,192,167500,1,0,0:0:0:0:
192,192,167571,1,0,0:0:0:0:
448,192,167571,1,0,0:0:0:0:
64,192,167643,1,0,0:0:0:0:
320,192,167714,1,0,0:0:0:0:
448,192,167714,1,0,0:0:0:0:
192,192,167786,1,0,0:0:0:0:
64,192,167857,1,0,0:0:0:0:
320,192,167857,1,0,0:0:0:0:
448,192,167857,1,0,0:0:0:0:
192,192,167929,1,0,0:0:0:0:
320,192,168000,1,0,0:0:0:0:
448,192,168000,1,0,0:0:0:0:
64,192,168071,1,0,0:0:0:0:
192,192,168143,1,0,0:0:0:0:
320,192,168143,1,0,0:0:0:0:
448,192,168214,1,0,0:0:0:0:
64,192,168286,1,0,0:0:0:0:
192,192,168286,1,0,0:0:0:0:
448,192,168357,1,0,0:0:0:0:
192,192,168429,1,0,0:0:0:0:
320,192,168429,1,0,0:0:0:0:
64,192,168500,1,0,0:0:0:0:
320,192,168571,1,0,0:0:0:0:
448,192,168571,1,0,0:0:0:0:
192,192,168643,1,0,0:0:0:0:
64,192,168714,1,0,0:0:0:0:
320,192,168714,1,0,0:0:0:0:
448,192,168786,1,0,0:0:0:0:
64,192,168857,1,0,0:0:0:0:
192,192,168857,1,0,0:0:0:0:
448,192,168929,1,0,0:0:0:0:
192,192,169000,1,0,0:0:0:0:
320,192,169000,1,0,0:0:0:0:
64,192,169071,1,0,0:0:0:0:
320,192,169143,1,0,0:0:0:0:
448,192,169143,1,0,0:0:0:0:
192,192,169214,1,0,0:0:0:0:
64,192,169286,1,0,0:0:0:0:
320,192,169286,1,0,0:0:0:0:
448,192,169357,1,0,0:0:0:0:
64,192,169429,1,0,0:0:0:0:
192,192,169429,1,0,0:0:0:0:
448,192,169500,1,0,0:0:0:0:
192,192,169571,1,0,0:0:0:0:
320,192,169571,1,0,0:0:0:0:
64,192,169643,1,0,0:0:0:0:
320,192,169714,1,0,0:0:0:0:
448,192,169714,1,0,0:0:0:0:
192,192,169786,1,0,0:0:0:0:
320,192,169857,1,0,0:0:0:0:
448,192,169857,1,0,0:0:0:0:
64,192,169929,1,0,0:0:0:0:
192,192,170000,1,0,0:0:0:0:
448,192,170000,1,0,0:0:0:0:
320,192,170071,1,0,0:0:0:0:
64,192,170143,1,0,0:0:0:0:
448,192,170143,1,0,0:0:0:0:
192,192,170214,1,0,0:0:0:0:
64,192,170286,1,0,0:0:0:0:
320,192,170286,1,0,0:0:0:0:
448,192,170286,1,0,0:0:0:0:
192,192,170357,1,0,0:0:0:0:
320,192,170429,1,0,0:0:0:0:
448,192,170429,1,0,0:0:0:0:
64,192,170500,1,0,0:0:0:0:
192,192,170571,1,0,0:0:0:0:
320,192,170571,1,0,0:0:0:0:
448,192,170643,1,0,0:0:0:0:
64,192,170714,1,0,0:0:0:0:
192,192,170714,1,0,0:0:0:0:
320,192,170786,1,0,0:0:0:0:
192,192,170857,1,0,0:0:0:0:
448,192,170857,1,0,0:0:0:0:
64,192,170929,1,0,0:0:0:0:
320,192,171000,1,0,0:0:0:0:
448,192,171000,1,0,0:0:0:0:
192,192,171071,1,0,0:0:0:0:
64,192,171143,1,0,0:0:0:0:
320,192,171143,1,0,0:0:0:0:
448,192,171214,1,0,0:0:0:0:
64,192,171286,1,0,0:0:0:0:
192,192,171286,1,0,0:0:0:0:
448,192,171357,1,0,0:0:0:0:
192,192,171429,1,0,0:0:0:0:
320,192,171429,1,0,0:0:0:0:
448,192,171500,1,0,0:0:0:0:
64,192,171571,1,0,0:0:0:0:
192,192,171571,1,0,0:0:0:0:
448,192,171643,1,0,0:0:0:0:
192,192,171714,1,0,0:0:0:0:
320,192,171714,1,0,0:0:0:0:
64,192,171786,1,0,0:0:0:0:
192,192,171857,1,0,0:0:0:0:
448,192,171857,1,0,0:0:0:0:
64,192,171929,1,0,0:0:0:0:
320,192,172000,1,0,0:0:0:0:
448,192,172000,1,0,0:0:0:0:
192,192,172071,1,0,0:0:0:0:
64,192,172143,1,0,0:0:0:0:
320,192,172143,1,0,0:0:0:0:
448,192,172214,1,0,0:0:0:0:
64,192,172286,1,0,0:0:0:0:
192,192,172286,1,0,0:0:0:0:
320,192,172357,1,0,0:0:0:0:
192,192,172429,1,0,0:0:0:0:
448,192,172429,1,0,0:0:0:0:
64,192,172500,1,0,0:0:0:0:
192,192,172571,1,0,0:0:0:0:
320,192,172571,1,0,0:0:0:0:
448,192,172571,1,0,0:0:0:0:
192,192,172714,1,0,0:0:0:0:
320,192,172714,1,0,0:0:0:0:
64,192,172857,1,0,0:0:0:0:
192,192,172857,1,0,0:0:0:0:
320,192,172929,1,0,0:0:0:0:
448,192,172929,1,0,0:0:0:0:
64,192,173000,1,0,0:0:0:0:
192,192,173000,1,0,0:0:0:0:
192,192,173143,1,0,0:0:0:0:
448,192,173143,1,0,0:0:0:0:
64,192,173214,1,0,0:0:0:0:
320,192,173214,1,0,0:0:0:0:
192,192,173286,1,0,0:0:0:0:
448,192,173286,1,0,0:0:0:0:
320,192,173429,1,0,0:0:0:0:
448,192,173429,1,0,0:0:0:0:
64,192,173500,1,0,0:0:0:0:
192,192,173500,1,0,0:0:0:0:
320,192,173571,1,0,0:0:0:0:
448,192,173571,1,0,0:0:0:0:
64,192,173714,1,0,0:0:0:0:
192,192,173750,1,0,0:0:0:0:
320,192,173786,1,0,0:0:0:0:
448,192,173821,1,0,0:0:0:0:
64,192,173857,1,0,0:0:0:0:
192,192,173893,1,0,0:0:0:0:
320,192,173929,1,0,0:0:0:0:
448,192,173964,1,0,0:0:0:0:
64,192,174000,1,0,0:0:0:0:
192,192,174036,1,0,0:0:0:0:
448,192,174071,1,0,0:0:0:0:
320,192,174107,1,0,0:0:0:0:
192,192,174143,1,0,0:0:0:0:
64,192,174179,1,0,0:0:0:0:
448,192,174214,1,0,0:0:0:0:
320,192,174250,1,0,0:0:0:0:
192,192,174286,1,0,0:0:0:0:
64,192,174321,1,0,0:0:0:0:
448,192,174357,1,0,0:0:0:0:
320,192,174393,1,0,0:0:0:0:
192,192,174429,1,0,0:0:0:0:
64,192,174464,1,0,0:0:0:0:
192,192,174571,1,0,0:0:0:0:
320,192,174571,1,0,0:0:0:0:
448,192,174571,1,0,0:0:0:0:
64,192,174714,1,0,0:0:0:0:
192,192,174714,1,0,0:0:0:0:
320,192,174714,1,0,0:0:0:0:
448,192,174714,1,0,0:0:0:0:
64,192,175143,1,0,0:0:0:0:
192,192,175429,1,0,0:0:0:0:
320,192,175714,1,0,0:0:0:0:
320,192,175857,128,0,176286:0:0:0:0:
192,192,176143,1,0,0:0:0:0:
64,192,176286,1,0,0:0:0:0:
64,192,176571,1,0,0:0:0:0:
192,192,176571,1,0,0:0:0:0:
320,192,176643,1,0,0:0:0:0:
192,192,176714,1,0,0:0:0:0:
320,192,176786,1,0,0:0:0:0:
448,192,176786,1,0,0:0:0:0:
64,192,176857,1,0,0:0:0:0:
192,192,176857,1,0,0:0:0:0:
320,192,176929,1,0,0:0:0:0:
64,192,177000,1,0,0:0:0:0:
192,192,177000,1,0,0:0:0:0:
448,192,177000,1,0,0:0:0:0:
64,192,177429,1,0,0:0:0:0:
320,192,177429,1,0,0:0:0:0:
448,192,177429,1,0,0:0:0:0:
192,192,177708,1,0,0:0:0:0:
64,192,177714,1,0,0:0:0:0:
320,192,177994,1,0,0:0:0:0:
448,192,178000,1,0,0:0:0:0:
64,192,178280,1,0,0:0:0:0:
192,192,178286,1,0,0:0:0:0:
448,192,178565,1,0,0:0:0:0:
320,192,178571,1,0,0:0:0:0:
192,192,178851,1,0,0:0:0:0:
64,192,178857,1,0,0:0:0:0:
320,192,178857,1,0,0:0:0:0:
320,192,179000,1,0,0:0:0:0:
192,192,179006,1,0,0:0:0:0:
448,192,179006,1,0,0:0:0:0:
320,192,179143,1,0,0:0:0:0:
448,192,179143,1,0,0:0:0:0:
64,192,179149,1,0,0:0:0:0:
64,192,179292,128,0,179714:0:0:0:0:
448,192,179292,1,0,0:0:0:0:
192,192,179714,128,0,180000:0:0:0:0:
448,192,180000,1,0,0:0:0:0:
192,192,180286,1,0,0:0:0:0:
64,192,180571,1,0,0:0:0:0:
320,192,180571,128,0,181018:0:0:0:0:
448,192,180571,128,0,181018:0:0:0:0:
192,192,180857,1,0,0:0:0:0:
64,192,181143,128,0,181429:0:0:0:0:
192,192,181143,128,0,181429:0:0:0:0:
320,192,181429,1,0,0:0:0:0:
448,192,181429,1,0,0:0:0:0:
64,192,181500,1,0,0:0:0:0:
192,192,181500,1,0,0:0:0:0:
320,192,181571,128,0,182000:0:0:0:0:
448,192,181571,128,0,182000:0:0:0:0:
64,192,182000,1,0,0:0:0:0:
192,192,182000,1,0,0:0:0:0:
320,192,182286,1,0,0:0:0:0:
192,192,182571,1,0,0:0:0:0:
448,192,182571,1,0,0:0:0:0:
64,192,182857,1,0,0:0:0:0:
192,192,182857,1,0,0:0:0:0:
320,192,182857,1,0,0:0:0:0:
448,192,182929,1,0,0:0:0:0:
192,192,183000,1,0,0:0:0:0:
320,192,183000,1,0,0:0:0:0:
192,192,183143,1,0,0:0:0:0:
320,192,183143,1,0,0:0:0:0:
448,192,183143,1,0,0:0:0:0:
64,192,183214,1,0,0:0:0:0:
192,192,183286,1,0,0:0:0:0:
320,192,183286,1,0,0:0:0:0:
64,192,183429,1,0,0:0:0:0:
192,192,183429,1,0,0:0:0:0:
448,192,183429,1,0,0:0:0:0:
64,192,183571,1,0,0:0:0:0:
192,192,183571,1,0,0:0:0:0:
448,192,183571,1,0,0:0:0:0:
192,192,183857,1,0,0:0:0:0:
320,192,183857,1,0,0:0:0:0:
64,192,184179,1,0,0:0:0:0:
192,192,184214,1,0,0:0:0:0:
320,192,184250,1,0,0:0:0:0:
448,192,184286,1,0,0:0:0:0:
64,192,184321,1,0,0:0:0:0:
192,192,184357,1,0,0:0:0:0:
320,192,184393,1,0,0:0:0:0:
448,192,184429,1,0,0:0:0:0:
64,192,184464,1,0,0:0:0:0:
192,192,184500,1,0,0:0:0:0:
320,192,184536,1,0,0:0:0:0:
448,192,184571,1,0,0:0:0:0:
64,192,184607,1,0,0:0:0:0:
192,192,184643,1,0,0:0:0:0:
448,192,184679,1,0,0:0:0:0:
320,192,184714,1,0,0:0:0:0:
192,192,184750,1,0,0:0:0:0:
64,192,184786,1,0,0:0:0:0:
448,192,184821,1,0,0:0:0:0:
320,192,184857,1,0,0:0:0:0:
192,192,184893,1,0,0:0:0:0:
64,192,184929,1,0,0:0:0:0:
448,192,184964,1,0,0:0:0:0:
320,192,185000,1,0,0:0:0:0:
64,192,185036,1,0,0:0:0:0:
192,192,185071,1,0,0:0:0:0:
320,192,185107,1,0,0:0:0:0:
448,192,185143,1,0,0:0:0:0:
64,192,185179,1,0,0:0:0:0:
192,192,185214,1,0,0:0:0:0:
320,192,185250,1,0,0:0:0:0:
448,192,185286,1,0,0:0:0:0:
64,192,185321,1,0,0:0:0:0:
192,192,185357,1,0,0:0:0:0:
320,192,185393,1,0,0:0:0:0:
448,192,185429,1,0,0:0:0:0:
64,192,185571,1,0,0:0:0:0:
192,192,185619,1,0,0:0:0:0:
320,192,185667,1,0,0:0:0:0:
64,192,185714,1,0,0:0:0:0:
448,192,185714,1,0,0:0:0:0:
192,192,185786,1,0,0:0:0:0:
320,192,185786,1,0,0:0:0:0:
448,192,185857,1,0,0:0:0:0:
320,192,185905,1,0,0:0:0:0:
448,192,185952,1,0,0:0:0:0:
64,192,186000,1,0,0:0:0:0:
192,192,186000,1,0,0:0:0:0:
320,192,186000,1,0,0:0:0:0:
64,192,186571,1,0,0:0:0:0:
320,192,186571,1,0,0:0:0:0:
448,192,186571,1,0,0:0:0:0:
192,192,186643,1,0,0:0:0:0:
320,192,186714,1,0,0:0:0:0:
448,192,186714,1,0,0:0:0:0:
64,192,186786,1,0,0:0:0:0:
192,192,186857,1,0,0:0:0:0:
320,192,186857,1,0,0:0:0:0:
448,192,186929,1,0,0:0:0:0:
64,192,187000,1,0,0:0:0:0:
192,192,187000,1,0,0:0:0:0:
320,192,187071,1,0,0:0:0:0:
192,192,187143,1,0,0:0:0:0:
448,192,187143,1,0,0:0:0:0:
64,192,187214,1,0,0:0:0:0:
320,192,187286,1,0,0:0:0:0:
448,192,187286,1,0,0:0:0:0:
192,192,187357,1,0,0:0:0:0:
64,192,187429,1,0,0:0:0:0:
320,192,187429,1,0,0:0:0:0:
448,192,187500,1,0,0:0:0:0:
192,192,187571,1,0,0:0:0:0:
320,192,187571,1,0,0:0:0:0:
64,192,187643,1,0,0:0:0:0:
320,192,187714,1,0,0:0:0:0:
448,192,187714,1,0,0:0:0:0:
64,192,187786,1,0,0:0:0:0:
192,192,187857,1,0,0:0:0:0:
320,192,187857,1,0,0:0:0:0:
64,192,187929,1,0,0:0:0:0:
320,192,188000,1,0,0:0:0:0:
448,192,188000,1,0,0:0:0:0:
192,192,188071,1,0,0:0:0:0:
64,192,188143,1,0,0:0:0:0:
320,192,188143,1,0,0:0:0:0:
192,192,188214,1,0,0:0:0:0:
320,192,188286,1,0,0:0:0:0:
448,192,188286,1,0,0:0:0:0:
64,192,188357,1,0,0:0:0:0:
192,192,188429,1,0,0:0:0:0:
320,192,188429,1,0,0:0:0:0:
448,192,188429,1,0,0:0:0:0:
64,192,188500,1,0,0:0:0:0:
320,192,188571,1,0,0:0:0:0:
448,192,188571,1,0,0:0:0:0:
192,192,188643,1,0,0:0:0:0:
320,192,188714,1,0,0:0:0:0:
448,192,188714,1,0,0:0:0:0:
64,192,188786,1,0,0:0:0:0:
192,192,188857,1,0,0:0:0:0:
320,192,188857,1,0,0:0:0:0:
448,192,188929,1,0,0:0:0:0:
64,192,189000,1,0,0:0:0:0:
192,192,189000,1,0,0:0:0:0:
320,192,189071,1,0,0:0:0:0:
192,192,189143,1,0,0:0:0:0:
448,192,189143,1,0,0:0:0:0:
64,192,189214,1,0,0:0:0:0:
320,192,189286,1,0,0:0:0:0:
448,192,189286,1,0,0:0:0:0:
192,192,189357,1,0,0:0:0:0:
64,192,189429,1,0,0:0:0:0:
320,192,189429,1,0,0:0:0:0:
448,192,189500,1,0,0:0:0:0:
64,192,189571,1,0,0:0:0:0:
192,192,189571,1,0,0:0:0:0:
320,192,189643,1,0,0:0:0:0:
64,192,189714,1,0,0:0:0:0:
448,192,189714,1,0,0:0:0:0:
192,192,189786,1,0,0:0:0:0:
320,192,189857,1,0,0:0:0:0:
448,192,189857,1,0,0:0:0:0:
192,192,189929,1,0,0:0:0:0:
64,192,190000,1,0,0:0:0:0:
320,192,190000,1,0,0:0:0:0:
448,192,190071,1,0,0:0:0:0:
64,192,190143,1,0,0:0:0:0:
192,192,190143,1,0,0:0:0:0:
448,192,190214,1,0,0:0:0:0:
192,192,190286,1,0,0:0:0:0:
320,192,190286,1,0,0:0:0:0:
64,192,190357,1,0,0:0:0:0:
192,192,190429,1,0,0:0:0:0:
320,192,190429,1,0,0:0:0:0:
448,192,190500,1,0,0:0:0:0:
64,192,190571,1,0,0:0:0:0:
192,192,190571,1,0,0:0:0:0:
320,192,190643,1,0,0:0:0:0:
64,192,190714,1,0,0:0:0:0:
192,192,190714,1,0,0:0:0:0:
448,192,190714,1,0,0:0:0:0:
320,192,190786,1,0,0:0:0:0:
192,192,190857,1,0,0:0:0:0:
448,192,190857,1,0,0:0:0:0:
64,192,190929,1,0,0:0:0:0:
320,192,191000,1,0,0:0:0:0:
448,192,191000,1,0,0:0:0:0:
192,192,191071,1,0,0:0:0:0:
64,192,191143,1,0,0:0:0:0:
320,192,191143,1,0,0:0:0:0:
448,192,191214,1,0,0:0:0:0:
64,192,191286,1,0,0:0:0:0:
192,192,191286,1,0,0:0:0:0:
448,192,191357,1,0,0:0:0:0:
192,192,191429,1,0,0:0:0:0:
320,192,191429,1,0,0:0:0:0:
64,192,191500,1,0,0:0:0:0:
320,192,191571,1,0,0:0:0:0:
448,192,191571,1,0,0:0:0:0:
192,192,191643,1,0,0:0:0:0:
64,192,191714,1,0,0:0:0:0:
320,192,191714,1,0,0:0:0:0:
448,192,191786,1,0,0:0:0:0:
192,192,191857,1,0,0:0:0:0:
320,192,191857,1,0,0:0:0:0:
448,192,191929,1,0,0:0:0:0:
64,192,192000,1,0,0:0:0:0:
192,192,192000,1,0,0:0:0:0:
320,192,192071,1,0,0:0:0:0:
192,192,192143,1,0,0:0:0:0:
448,192,192143,1,0,0:0:0:0:
64,192,192214,1,0,0:0:0:0:
320,192,192286,1,0,0:0:0:0:
448,192,192286,1,0,0:0:0:0:
192,192,192357,1,0,0:0:0:0:
64,192,192429,1,0,0:0:0:0:
320,192,192429,1,0,0:0:0:0:
448,192,192500,1,0,0:0:0:0:
192,192,192571,1,0,0:0:0:0:
320,192,192571,1,0,0:0:0:0:
64,192,192643,1,0,0:0:0:0:
320,192,192714,1,0,0:0:0:0:
448,192,192714,1,0,0:0:0:0:
192,192,192786,1,0,0:0:0:0:
320,192,192857,1,0,0:0:0:0:
448,192,192857,1,0,0:0:0:0:
64,192,192929,1,0,0:0:0:0:
192,192,193000,1,0,0:0:0:0:
320,192,193000,1,0,0:0:0:0:
448,192,193000,1,0,0:0:0:0:
64,192,193429,1,0,0:0:0:0:
192,192,193429,1,0,0:0:0:0:
448,192,193429,1,0,0:0:0:0:
320,192,193500,1,0,0:0:0:0:
64,192,193571,1,0,0:0:0:0:
192,192,193571,1,0,0:0:0:0:
448,192,193571,1,0,0:0:0:0:
320,192,193643,1,0,0:0:0:0:
64,192,193714,1,0,0:0:0:0:
192,192,193714,1,0,0:0:0:0:
448,192,193714,1,0,0:0:0:0:
320,192,193786,1,0,0:0:0:0:
64,192,193857,1,0,0:0:0:0:
192,192,193857,1,0,0:0:0:0:
448,192,193857,1,0,0:0:0:0:
320,192,193929,1,0,0:0:0:0:
64,192,194000,1,0,0:0:0:0:
192,192,194000,1,0,0:0:0:0:
448,192,194000,1,0,0:0:0:0:
320,192,194071,1,0,0:0:0:0:
64,192,194143,1,0,0:0:0:0:
192,192,194143,1,0,0:0:0:0:
448,192,194143,1,0,0:0:0:0:
64,192,194571,1,0,0:0:0:0:
320,192,194571,1,0,0:0:0:0:
448,192,194571,1,0,0:0:0:0:
192,192,194643,1,0,0:0:0:0:
64,192,194714,1,0,0:0:0:0:
320,192,194714,1,0,0:0:0:0:
448,192,194714,1,0,0:0:0:0:
192,192,194786,1,0,0:0:0:0:
64,192,194857,1,0,0:0:0:0:
320,192,194857,1,0,0:0:0:0:
448,192,194857,1,0,0:0:0:0:
192,192,194929,1,0,0:0:0:0:
64,192,195000,1,0,0:0:0:0:
320,192,195000,1,0,0:0:0:0:
448,192,195000,1,0,0:0:0:0:
192,192,195071,1,0,0:0:0:0:
64,192,195143,1,0,0:0:0:0:
320,192,195143,1,0,0:0:0:0:
448,192,195143,1,0,0:0:0:0:
64,192,195286,1,0,0:0:0:0:
448,192,195286,1,0,0:0:0:0:
320,192,195357,1,0,0:0:0:0:
64,192,195429,1,0,0:0:0:0:
192,192,195429,1,0,0:0:0:0:
448,192,195500,1,0,0:0:0:0:
192,192,195571,1,0,0:0:0:0:
320,192,195571,1,0,0:0:0:0:
64,192,195643,1,0,0:0:0:0:
320,192,195714,1,0,0:0:0:0:
448,192,195714,1,0,0:0:0:0:
192,192,195786,1,0,0:0:0:0:
64,192,195857,1,0,0:0:0:0:
320,192,195857,1,0,0:0:0:0:
448,192,195929,1,0,0:0:0:0:
64,192,196000,1,0,0:0:0:0:
320,192,196000,1,0,0:0:0:0:
192,192,196071,1,0,0:0:0:0:
320,192,196143,1,0,0:0:0:0:
448,192,196143,1,0,0:0:0:0:
64,192,196214,1,0,0:0:0:0:
192,192,196286,1,0,0:0:0:0:
320,192,196286,1,0,0:0:0:0:
448,192,196357,1,0,0:0:0:0:
64,192,196429,1,0,0:0:0:0:
192,192,196429,1,0,0:0:0:0:
320,192,196500,1,0,0:0:0:0:
64,192,196571,1,0,0:0:0:0:
448,192,196571,1,0,0:0:0:0:
320,192,196643,1,0,0:0:0:0:
64,192,196714,1,0,0:0:0:0:
192,192,196714,1,0,0:0:0:0:
448,192,196786,1,0,0:0:0:0:
192,192,196857,1,0,0:0:0:0:
320,192,196857,1,0,0:0:0:0:
64,192,196929,1,0,0:0:0:0:
320,192,197000,1,0,0:0:0:0:
448,192,197000,1,0,0:0:0:0:
192,192,197071,1,0,0:0:0:0:
64,192,197143,1,0,0:0:0:0:
320,192,197143,1,0,0:0:0:0:
448,192,197214,1,0,0:0:0:0:
64,192,197286,1,0,0:0:0:0:
192,192,197286,1,0,0:0:0:0:
320,192,197357,1,0,0:0:0:0:
192,192,197429,1,0,0:0:0:0:
448,192,197429,1,0,0:0:0:0:
64,192,197500,1,0,0:0:0:0:
192,192,197571,1,0,0:0:0:0:
320,192,197571,1,0,0:0:0:0:
448,192,197571,1,0,0:0:0:0:
64,192,197643,1,0,0:0:0:0:
320,192,197714,1,0,0:0:0:0:
448,192,197714,1,0,0:0:0:0:
192,192,197786,1,0,0:0:0:0:
64,192,197857,1,0,0:0:0:0:
320,192,197857,1,0,0:0:0:0:
448,192,197929,1,0,0:0:0:0:
64,192,198000,1,0,0:0:0:0:
192,192,198000,1,0,0:0:0:0:
320,192,198071,1,0,0:0:0:0:
64,192,198143,1,0,0:0:0:0:
448,192,198143,1,0,0:0:0:0:
192,192,198214,1,0,0:0:0:0:
320,192,198286,1,0,0:0:0:0:
448,192,198286,1,0,0:0:0:0:
192,192,198357,1,0,0:0:0:0:
64,192,198429,1,0,0:0:0:0:
448,192,198429,1,0,0:0:0:0:
320,192,198500,1,0,0:0:0:0:
192,192,198571,1,0,0:0:0:0:
448,192,198571,1,0,0:0:0:0:
64,192,198643,1,0,0:0:0:0:
320,192,198714,1,0,0:0:0:0:
448,192,198714,1,0,0:0:0:0:
192,192,198786,1,0,0:0:0:0:
64,192,198857,1,0,0:0:0:0:
320,192,198857,1,0,0:0:0:0:
448,192,198929,1,0,0:0:0:0:
192,192,199000,1,0,0:0:0:0:
320,192,199000,1,0,0:0:0:0:
64,192,199071,1,0,0:0:0:0:
320,192,199143,1,0,0:0:0:0:
448,192,199143,1,0,0:0:0:0:
192,192,199214,1,0,0:0:0:0:
64,192,199286,1,0,0:0:0:0:
320,192,199286,1,0,0:0:0:0:
448,192,199357,1,0,0:0:0:0:
64,192,199429,1,0,0:0:0:0:
192,192,199429,1,0,0:0:0:0:
448,192,199500,1,0,0:0:0:0:
192,192,199571,1,0,0:0:0:0:
320,192,199571,1,0,0:0:0:0:
64,192,199643,1,0,0:0:0:0:
192,192,199714,1,0,0:0:0:0:
448,192,199714,1,0,0:0:0:0:
320,192,199786,1,0,0:0:0:0:
64,192,199857,1,0,0:0:0:0:
192,192,199857,1,0,0:0:0:0:
448,192,199857,1,0,0:0:0:0:
320,192,199929,1,0,0:0:0:0:
64,192,200000,1,0,0:0:0:0:
192,192,200000,1,0,0:0:0:0:
448,192,200071,1,0,0:0:0:0:
192,192,200143,1,0,0:0:0:0:
320,192,200143,1,0,0:0:0:0:
64,192,200214,1,0,0:0:0:0:
320,192,200286,1,0,0:0:0:0:
448,192,200286,1,0,0:0:0:0:
192,192,200357,1,0,0:0:0:0:
64,192,200429,1,0,0:0:0:0:
448,192,200429,1,0,0:0:0:0:
192,192,200500,1,0,0:0:0:0:
320,192,200571,1,0,0:0:0:0:
448,192,200571,1,0,0:0:0:0:
64,192,200643,1,0,0:0:0:0:
192,192,200714,1,0,0:0:0:0:
320,192,200714,1,0,0:0:0:0:
448,192,200786,1,0,0:0:0:0:
64,192,200857,1,0,0:0:0:0:
192,192,200857,1,0,0:0:0:0:
320,192,200929,1,0,0:0:0:0:
64,192,201000,1,0,0:0:0:0:
448,192,201000,1,0,0:0:0:0:
320,192,201071,1,0,0:0:0:0:
64,192,201143,1,0,0:0:0:0:
192,192,201143,1,0,0:0:0:0:
448,192,201214,1,0,0:0:0:0:
192,192,201286,1,0,0:0:0:0:
320,192,201286,1,0,0:0:0:0:
448,192,201357,1,0,0:0:0:0:
64,192,201429,1,0,0:0:0:0:
192,192,201429,1,0,0:0:0:0:
448,192,201500,1,0,0:0:0:0:
64,192,201571,1,0,0:0:0:0:
192,192,201571,1,0,0:0:0:0:
320,192,201643,1,0,0:0:0:0:
448,192,201643,1,0,0:0:0:0:
64,192,201714,1,0,0:0:0:0:
192,192,201714,1,0,0:0:0:0:
448,192,201786,1,0,0:0:0:0:
64,192,201857,1,0,0:0:0:0:
192,192,201857,1,0,0:0:0:0:
320,192,201857,1,0,0:0:0:0:
448,192,202000,1,0,0:0:0:0:
192,192,202143,1,0,0:0:0:0:
320,192,202143,1,0,0:0:0:0:
320,192,202286,1,0,0:0:0:0:
64,192,202429,1,0,0:0:0:0:
192,192,202429,1,0,0:0:0:0:
320,192,202500,1,0,0:0:0:0:
192,192,202571,1,0,0:0:0:0:
320,192,202643,1,0,0:0:0:0:
448,192,202643,1,0,0:0:0:0:
64,192,202714,1,0,0:0:0:0:
192,192,202714,1,0,0:0:0:0:
448,192,202786,1,0,0:0:0:0:
64,192,202857,1,0,0:0:0:0:
320,192,202929,1,0,0:0:0:0:
448,192,202929,1,0,0:0:0:0:
64,192,203000,1,0,0:0:0:0:
192,192,203000,1,0,0:0:0:0:
320,192,203071,1,0,0:0:0:0:
448,192,203071,1,0,0:0:0:0:
192,192,203143,1,0,0:0:0:0:
320,192,203214,1,0,0:0:0:0:
64,192,203286,1,0,0:0:0:0:
192,192,203286,1,0,0:0:0:0:
320,192,203357,1,0,0:0:0:0:
448,192,203357,1,0,0:0:0:0:
64,192,203429,1,0,0:0:0:0:
192,192,203429,1,0,0:0:0:0:
448,192,203500,1,0,0:0:0:0:
64,192,203571,1,0,0:0:0:0:
320,192,203643,1,0,0:0:0:0:
448,192,203643,1,0,0:0:0:0:
64,192,203714,1,0,0:0:0:0:
192,192,203714,1,0,0:0:0:0:
192,192,203857,1,0,0:0:0:0:
448,192,203857,1,0,0:0:0:0:
64,192,203929,1,0,0:0:0:0:
320,192,203929,1,0,0:0:0:0:
192,192,204000,1,0,0:0:0:0:
448,192,204000,1,0,0:0:0:0:
192,192,204143,1,0,0:0:0:0:
320,192,204143,1,0,0:0:0:0:
64,192,204214,1,0,0:0:0:0:
448,192,204214,1,0,0:0:0:0:
192,192,204286,1,0,0:0:0:0:
320,192,204286,1,0,0:0:0:0:
64,192,204429,1,0,0:0:0:0:
192,192,204429,1,0,0:0:0:0:
448,192,204429,1,0,0:0:0:0:
64,192,204571,1,0,0:0:0:0:
320,192,204571,1,0,0:0:0:0:
448,192,204571,1,0,0:0:0:0:
64,192,204714,1,0,0:0:0:0:
448,192,204714,1,0,0:0:0:0:
64,192,204857,1,0,0:0:0:0:
320,192,204857,1,0,0:0:0:0:
192,192,205000,1,0,0:0:0:0:
320,192,205000,1,0,0:0:0:0:
320,192,205143,1,0,0:0:0:0:
448,192,205143,1,0,0:0:0:0:
192,192,205286,1,0,0:0:0:0:
320,192,205286,1,0,0:0:0:0:
64,192,205429,1,0,0:0:0:0:
192,192,205429,1,0,0:0:0:0:
320,192,205429,1,0,0:0:0:0:
448,192,205500,1,0,0:0:0:0:
64,192,205571,1,0,0:0:0:0:
192,192,205571,1,0,0:0:0:0:
320,192,205571,1,0,0:0:0:0:
64,192,205714,1,0,0:0:0:0:
192,192,205714,1,0,0:0:0:0:
448,192,205714,1,0,0:0:0:0:
192,192,205857,1,0,0:0:0:0:
448,192,205857,1,0,0:0:0:0:
64,192,206000,1,0,0:0:0:0:
192,192,206000,1,0,0:0:0:0:
192,192,206143,1,0,0:0:0:0:
320,192,206143,1,0,0:0:0:0:
64,192,206286,1,0,0:0:0:0:
320,192,206286,1,0,0:0:0:0:
320,192,206429,1,0,0:0:0:0:
448,192,206429,1,0,0:0:0:0:
192,192,206571,1,0,0:0:0:0:
320,192,206571,1,0,0:0:0:0:
448,192,206571,1,0,0:0:0:0:
64,192,206643,1,0,0:0:0:0:
192,192,206714,1,0,0:0:0:0:
320,192,206714,1,0,0:0:0:0:
448,192,206714,1,0,0:0:0:0:
64,192,206857,1,0,0:0:0:0:
192,192,206857,1,0,0:0:0:0:
320,192,206857,1,0,0:0:0:0:
64,192,207000,1,0,0:0:0:0:
320,192,207000,1,0,0:0:0:0:
64,192,207143,1,0,0:0:0:0:
448,192,207143,1,0,0:0:0:0:
64,192,207286,1,0,0:0:0:0:
192,192,207286,1,0,0:0:0:0:
192,192,207429,1,0,0:0:0:0:
320,192,207429,1,0,0:0:0:0:
320,192,207571,1,0,0:0:0:0:
448,192,207571,1,0,0:0:0:0:
64,192,207714,1,0,0:0:0:0:
192,192,207714,1,0,0:0:0:0:
448,192,207714,1,0,0:0:0:0:
320,192,207786,1,0,0:0:0:0:
64,192,207857,1,0,0:0:0:0:
192,192,207857,1,0,0:0:0:0:
448,192,207857,1,0,0:0:0:0:
64,192,208000,1,0,0:0:0:0:
192,192,208000,1,0,0:0:0:0:
320,192,208000,1,0,0:0:0:0:
448,192,208071,1,0,0:0:0:0:
64,192,208143,1,0,0:0:0:0:
192,192,208143,1,0,0:0:0:0:
320,192,208143,1,0,0:0:0:0:
192,192,208286,1,0,0:0:0:0:
320,192,208286,1,0,0:0:0:0:
448,192,208286,1,0,0:0:0:0:
64,192,208357,1,0,0:0:0:0:
192,192,208429,1,0,0:0:0:0:
320,192,208429,1,0,0:0:0:0:
448,192,208429,1,0,0:0:0:0:
64,192,208571,1,0,0:0:0:0:
320,192,208571,1,0,0:0:0:0:
448,192,208571,1,0,0:0:0:0:
192,192,208643,1,0,0:0:0:0:
64,192,208714,1,0,0:0:0:0:
320,192,208714,1,0,0:0:0:0:
448,192,208714,1,0,0:0:0:0:
64,192,208857,1,0,0:0:0:0:
192,192,208857,1,0,0:0:0:0:
448,192,208857,1,0,0:0:0:0:
320,192,208929,1,0,0:0:0:0:
64,192,209000,1,0,0:0:0:0:
192,192,209000,1,0,0:0:0:0:
448,192,209000,1,0,0:0:0:0:
192,192,209143,1,0,0:0:0:0:
320,192,209143,1,0,0:0:0:0:
448,192,209143,1,0,0:0:0:0:
64,192,209286,1,0,0:0:0:0:
320,192,209286,1,0,0:0:0:0:
64,192,209429,1,0,0:0:0:0:
192,192,209429,1,0,0:0:0:0:
448,192,209429,1,0,0:0:0:0:
192,192,209571,1,0,0:0:0:0:
320,192,209571,1,0,0:0:0:0:
320,192,209714,1,0,0:0:0:0:
448,192,209714,1,0,0:0:0:0:
192,192,209857,1,0,0:0:0:0:
320,192,209857,1,0,0:0:0:0:
64,192,210000,1,0,0:0:0:0:
448,192,210000,1,0,0:0:0:0:
192,192,210071,1,0,0:0:0:0:
320,192,210071,1,0,0:0:0:0:
64,192,210143,1,0,0:0:0:0:
448,192,210143,1,0,0:0:0:0:
64,192,210286,1,0,0:0:0:0:
192,192,210286,1,0,0:0:0:0:
448,192,210286,1,0,0:0:0:0:
64,192,210429,1,0,0:0:0:0:
192,192,210429,1,0,0:0:0:0:
192,192,210571,1,0,0:0:0:0:
320,192,210571,1,0,0:0:0:0:
320,192,210714,1,0,0:0:0:0:
448,192,210714,1,0,0:0:0:0:
64,192,210857,1,0,0:0:0:0:
320,192,210857,1,0,0:0:0:0:
320,192,211000,1,0,0:0:0:0:
448,192,211000,1,0,0:0:0:0:
192,192,211143,1,0,0:0:0:0:
320,192,211143,1,0,0:0:0:0:
64,192,211214,1,0,0:0:0:0:
448,192,211214,1,0,0:0:0:0:
192,192,211286,1,0,0:0:0:0:
320,192,211286,1,0,0:0:0:0:
64,192,211429,1,0,0:0:0:0:
192,192,211429,1,0,0:0:0:0:
320,192,211429,1,0,0:0:0:0:
448,192,211500,1,0,0:0:0:0:
64,192,211571,1,0,0:0:0:0:
192,192,211571,1,0,0:0:0:0:
320,192,211571,1,0,0:0:0:0:
192,192,211714,1,0,0:0:0:0:
320,192,211714,1,0,0:0:0:0:
448,192,211714,1,0,0:0:0:0:
64,192,211786,1,0,0:0:0:0:
192,192,211857,1,0,0:0:0:0:
320,192,211857,1,0,0:0:0:0:
448,192,211857,1,0,0:0:0:0:
64,192,212000,1,0,0:0:0:0:
192,192,212000,1,0,0:0:0:0:
448,192,212000,1,0,0:0:0:0:
320,192,212071,1,0,0:0:0:0:
64,192,212143,1,0,0:0:0:0:
192,192,212143,1,0,0:0:0:0:
448,192,212143,1,0,0:0:0:0:
64,192,212286,1,0,0:0:0:0:
320,192,212286,1,0,0:0:0:0:
448,192,212286,1,0,0:0:0:0:
192,192,212357,1,0,0:0:0:0:
64,192,212429,1,0,0:0:0:0:
320,192,212429,1,0,0:0:0:0:
448,192,212429,1,0,0:0:0:0:
64,192,212571,1,0,0:0:0:0:
192,192,212571,1,0,0:0:0:0:
448,192,212643,1,0,0:0:0:0:
64,192,212714,1,0,0:0:0:0:
320,192,212786,1,0,0:0:0:0:
448,192,212786,1,0,0:0:0:0:
64,192,212857,1,0,0:0:0:0:
192,192,212857,1,0,0:0:0:0:
320,192,212929,1,0,0:0:0:0:
192,192,213000,1,0,0:0:0:0:
320,192,213071,1,0,0:0:0:0:
448,192,213071,1,0,0:0:0:0:
64,192,213143,1,0,0:0:0:0:
192,192,213143,1,0,0:0:0:0:
448,192,213214,1,0,0:0:0:0:
64,192,213286,1,0,0:0:0:0:
320,192,213357,1,0,0:0:0:0:
448,192,213357,1,0,0:0:0:0:
64,192,213429,1,0,0:0:0:0:
192,192,213429,1,0,0:0:0:0:
64,192,213571,1,0,0:0:0:0:
192,192,213571,1,0,0:0:0:0:
320,192,213571,1,0,0:0:0:0:
448,192,213571,1,0,0:0:0:0:
192,192,214000,1,0,0:0:0:0:
320,192,214000,1,0,0:0:0:0:
64,192,214286,1,0,0:0:0:0:
320,192,214571,1,0,0:0:0:0:
320,192,214714,128,0,215071:0:0:0:0:
64,192,215143,1,0,0:0:0:0:
320,192,215143,1,0,0:0:0:0:
448,192,215143,1,0,0:0:0:0:
192,192,215214,1,0,0:0:0:0:
64,192,215286,1,0,0:0:0:0:
320,192,215286,1,0,0:0:0:0:
448,192,215286,1,0,0:0:0:0:
192,192,215357,1,0,0:0:0:0:
64,192,215429,1,0,0:0:0:0:
320,192,215429,1,0,0:0:0:0:
448,192,215429,1,0,0:0:0:0:
64,192,215571,1,0,0:0:0:0:
192,192,215571,1,0,0:0:0:0:
320,192,215571,1,0,0:0:0:0:
448,192,215571,1,0,0:0:0:0:
64,192,215714,1,0,0:0:0:0:
192,192,215714,1,0,0:0:0:0:
320,192,215714,1,0,0:0:0:0:
448,192,215714,1,0,0:0:0:0:
64,192,215857,1,0,0:0:0:0:
192,192,215857,128,0,216643:0:0:0:0:
320,192,215857,128,0,216643:0:0:0:0:
448,192,215857,1,0,0:0:0:0:
