osu file format v14

[General]
AudioFilename: audio.mp3
AudioLeadIn: 0
PreviewTime: -1
Countdown: 0
SampleSet: Normal
StackLeniency: 0.2
Mode: 0
LetterboxInBreaks: 0
WidescreenStoryboard: 1

[Editor]
DistanceSpacing: 2
BeatDivisor: 4
GridSize: 8
TimelineZoom: 2

[Metadata]
Title:Adore Your Pain
TitleUnicode:Adore Your Pain
Artist:UNDEAD CORPORATION
ArtistUnicode:UNDEAD CORPORATION
Creator:rybergy
Version:OUCH
Source:東方Project
Tags:touhou subterranean animism i'm already dead metalcore heavy metal
BeatmapID:1007676
BeatmapSetID:471426

[Difficulty]
HPDrainRate:6
CircleSize:4
OverallDifficulty:8
ApproachRate:9.6
SliderMultiplier:1.4
SliderTickRate:1

[Events]
//Background and Video events
0,0,"touhou.jpg",0,0
//Break Periods
//Storyboard Layer 0 (Background)
//Storyboard Layer 1 (Fail)
//Storyboard Layer 2 (Pass)
//Storyboard Layer 3 (Foreground)
//Storyboard Sound Samples

[TimingPoints]
1042,285.714285714286,4,1,0,100,1,0
20756,-90.9090909090909,4,1,0,100,0,0
54899,-66.6666666666667,4,1,0,100,0,0
58042,-80,4,1,0,100,0,1
76327,-90.9090909090909,4,1,0,100,0,0

[HitObjects]
264,112,1042,5,0,1:1:0:0:
298,118,1113,1,0,1:1:0:0:
328,133,1184,2,0,P|364:156|378:171,1,35,0|0,1:1|1:1,1:1:0:0:
162,179,1327,5,0,1:1:0:0:
150,147,1398,1,0,1:1:0:0:
148,113,1469,2,0,P|149:70|155:50,1,35,0|0,1:1|1:1,1:1:0:0:
271,235,1613,5,0,1:1:0:0:
249,261,1684,1,0,1:1:0:0:
221,280,1755,2,0,P|183:299|163:304,1,35,0|0,1:1|1:1,1:1:0:0:
36,367,1899,5,0,1:1:0:0:
55,192,2042,2,0,P|140:185|203:136,1,140,0|0,1:1|1:1,1:1:0:0:
241,115,2470,1,0,1:1:0:0:
221,121,3042,5,0,1:1:0:0:
416,45,3327,2,0,B|354:87|354:87|344:176,1,140,0|0,1:1|1:1,1:1:0:0:
346,151,3899,2,0,P|325:209|262:253,1,140,0|0,1:1|1:1,1:1:0:0:
262,252,4327,2,0,L|151:157,1,140,0|0,1:1|1:1,1:1:0:0:
125,138,4756,1,0,1:1:0:0:
125,138,5327,5,0,1:1:0:0:
66,383,5613,2,0,B|105:365|105:365|160:361|160:361|204:339,1,140,0|0,1:1|1:1,1:1:0:0:
352,130,6184,2,0,P|310:179|219:168,1,140,0|0,1:1|1:1,1:1:0:0:
209,160,6542,1,0,1:1:0:0:
179,139,6613,6,0,B|122:120|122:120|40:125,1,140,0|0,1:1|1:1,1:1:0:0:
0,123,7042,1,0,1:1:0:0:
168,50,7327,1,0,1:1:0:0:
133,257,7613,1,0,1:1:0:0:
286,113,7899,6,0,L|307:153,2,35,0|0|0,1:1|1:1|1:1,1:1:0:0:
478,198,8184,2,0,L|432:196,2,35,0|0|0,1:1|1:1|1:1,1:1:0:0:
298,310,8470,1,0,1:1:0:0:
195,236,8613,2,0,P|126:228|95:235,1,70,0|0,1:1|1:1,1:1:0:0:
9,179,8899,6,0,P|4:92|84:142,1,210,0|0,1:1|1:1,1:1:0:0:
201,153,9613,2,0,B|243:157|264:186|264:186|274:150|312:125,1,140,0|0,1:1|1:1,1:1:0:0:
173,350,10184,2,0,L|122:349,3,35,0|0|0|0,1:1|1:1|1:1|1:1,1:1:0:0:
103,341,10470,2,0,L|57:315,3,35,0|0|0|0,1:1|1:1|1:1|1:1,1:1:0:0:
45,300,10756,1,0,1:1:0:0:
29,268,10827,1,0,1:1:0:0:
30,233,10898,1,0,1:1:0:0:
45,202,10970,1,0,1:1:0:0:
73,181,11041,1,0,1:1:0:0:
316,42,11327,5,0,1:1:0:0:
206,221,11470,2,0,P|283:215|297:211,1,70,0|0,1:1|1:1,1:1:0:0:
459,111,11756,2,0,P|462:198|426:246,1,140,0|0,1:1|1:1,1:1:0:0:
210,341,12184,1,0,1:1:0:0:
210,341,12256,1,0,1:1:0:0:
210,341,12327,1,0,1:1:0:0:
68,185,12470,5,0,1:1:0:0:
261,102,12613,1,0,1:1:0:0:
141,274,12756,1,0,1:1:0:0:
189,69,12899,2,0,P|245:25|329:60,1,140,0|0,1:1|1:1,1:1:0:0:
292,252,13327,1,0,1:1:0:0:
292,252,13399,1,0,1:1:0:0:
292,252,13470,1,0,1:1:0:0:
63,184,13613,5,0,1:1:0:0:
63,184,13756,1,0,1:1:0:0:
77,323,13899,1,0,1:1:0:0:
184,250,14042,2,0,P|219:178|240:104,1,140,0|0,1:1|1:1,1:1:0:0:
365,190,14470,1,0,1:1:0:0:
365,190,14542,1,0,1:1:0:0:
365,190,14613,1,0,1:1:0:0:
164,126,14756,6,0,L|123:107,2,35,0|0|0,1:1|1:1|1:1,1:1:0:0:
338,113,15041,1,0,1:1:0:0:
378,100,15113,1,0,1:1:0:0:
417,87,15184,1,0,1:1:0:0:
369,292,15327,6,0,L|404:321,2,35,0|0|0,1:1|1:1|1:1,1:1:0:0:
199,243,15613,1,0,1:1:0:0:
157,245,15685,1,0,1:1:0:0:
116,247,15756,1,0,1:1:0:0:
2,148,15899,5,0,1:1:0:0:
152,116,16042,1,0,1:1:0:0:
30,23,16184,1,0,1:1:0:0:
49,197,16327,2,0,B|61:267|61:267|106:322,1,140,0|0,1:1|1:1,1:1:0:0:
233,337,16756,1,0,1:1:0:0:
233,337,16827,1,0,1:1:0:0:
233,337,16899,1,0,1:1:0:0:
378,239,17042,5,0,1:1:0:0:
216,174,17184,1,0,1:1:0:0:
369,89,17327,1,0,1:1:0:0:
455,241,17470,2,0,P|431:299|343:306,1,140,0|0,1:1|1:1,1:1:0:0:
302,147,17899,1,0,1:1:0:0:
302,147,17970,1,0,1:1:0:0:
302,147,18042,1,0,1:1:0:0:
109,227,18184,5,0,1:1:0:0:
177,88,18327,1,0,1:1:0:0:
252,222,18470,1,0,1:1:0:0:
118,145,18613,2,0,B|103:72|103:72|156:2,1,140,0|0,1:1|1:1,1:1:0:0:
350,27,19042,2,0,L|412:18,2,35,0|0|0,1:1|1:1|1:1,1:1:0:0:
382,234,19327,5,0,1:1:0:0:
382,234,19399,1,0,1:1:0:0:
382,234,19470,1,0,1:1:0:0:
178,286,19613,5,0,1:1:0:0:
178,286,19684,1,0,1:1:0:0:
178,286,19756,1,0,1:1:0:0:
165,90,19899,5,0,1:1:0:0:
125,76,19970,1,0,1:1:0:0:
83,70,20042,1,0,1:1:0:0:
156,196,20184,5,0,1:1:0:0:
196,210,20255,1,0,1:1:0:0:
238,216,20327,1,0,1:1:0:0:
252,15,20470,6,0,L|361:7,1,105,0|0,1:1|1:1,1:1:0:0:
391,7,20756,5,0,1:1:0:0:
356,214,20899,1,0,1:1:0:0:
463,94,21042,5,0,1:1:0:0:
376,285,21185,1,0,1:1:0:0:
510,198,21327,5,0,1:1:0:0:
377,360,21470,1,0,1:1:0:0:
223,311,21613,5,0,1:1:0:0:
136,120,21756,1,0,1:1:0:0:
141,281,21899,5,0,1:1:0:0:
215,84,22042,1,0,1:1:0:0:
369,126,22184,5,0,1:1:0:0:
172,200,22327,1,0,1:1:0:0:
329,232,22470,5,0,1:1:0:0:
403,35,22613,2,0,P|355:25|237:33,1,154.000004699707,0|0,1:1|1:1,1:1:0:0:
118,125,23042,5,0,1:1:0:0:
118,125,23113,1,0,1:1:0:0:
118,125,23184,1,0,1:1:0:0:
172,313,23327,5,0,1:1:0:0:
172,313,23399,1,0,1:1:0:0:
172,313,23470,1,0,1:1:0:0:
17,192,23613,5,0,1:1:0:0:
17,192,23684,1,0,1:1:0:0:
17,192,23756,1,0,1:1:0:0:
201,124,23899,5,0,1:1:0:0:
201,124,23970,1,0,1:1:0:0:
201,124,24042,1,0,1:1:0:0:
292,295,24184,5,0,1:1:0:0:
292,295,24256,1,0,1:1:0:0:
292,295,24327,1,0,1:1:0:0:
159,318,24470,6,0,B|109:252|109:252|117:189,1,115.50000352478,0|0,1:1|1:1,1:1:0:0:
56,185,24756,2,0,L|75:65,1,115.50000352478,0|0,1:1|1:1,1:1:0:0:
134,45,25042,2,0,B|186:83|290:57,1,154.000004699707,0|0,1:1|1:1,1:1:0:0:
472,161,25470,1,0,1:1:0:0:
281,262,25613,1,0,1:1:0:0:
384,72,25756,1,0,1:1:0:0:
171,113,25899,1,0,1:1:0:0:
368,233,26042,1,0,1:1:0:0:
266,26,26184,5,0,1:1:0:0:
161,232,26327,1,0,1:1:0:0:
334,150,26470,1,0,1:1:0:0:
103,163,26613,1,0,1:1:0:0:
96,301,26756,2,0,P|157:330|197:335,2,77.0000023498536,0|0|0,1:1|1:1|1:1,1:1:0:0:
5,182,27184,2,0,B|23:136|29:100|29:100|77:81|108:56,1,154.000004699707,0|0,1:1|1:1,1:1:0:0:
144,221,27613,5,0,1:1:0:0:
144,221,27684,1,0,1:1:0:0:
144,221,27756,1,0,1:1:0:0:
5,355,27899,5,0,1:1:0:0:
5,355,27970,1,0,1:1:0:0:
5,355,28042,1,0,1:1:0:0:
32,165,28184,5,0,1:1:0:0:
32,165,28256,1,0,1:1:0:0:
32,165,28327,1,0,1:1:0:0:
186,49,28470,6,0,L|230:8,2,38.5000011749268,0|0|0,1:1|1:1|1:1,1:1:0:0:
339,25,28756,1,0,1:1:0:0:
374,38,28827,1,0,1:1:0:0:
399,66,28899,1,0,1:1:0:0:
417,99,28970,1,0,1:1:0:0:
425,136,29042,1,0,1:1:0:0:
425,174,29113,1,0,1:1:0:0:
410,209,29184,1,0,1:1:0:0:
385,239,29256,1,0,1:1:0:0:
354,261,29327,1,0,1:1:0:0:
138,315,29613,5,8,1:1:0:0:
138,315,29684,1,8,1:1:0:0:
138,315,29756,1,8,1:1:0:0:
216,140,29899,1,8,1:1:0:0:
102,161,30042,1,8,1:1:0:0:
287,206,30184,1,8,1:1:0:0:
271,320,30327,1,8,1:1:0:0:
161,80,30470,2,8,B|308:8|272:212|435:129,1,308.000009399414,8|8,1:1|1:1,1:1:0:0:
434,129,31327,2,8,P|450:178|376:255,1,154.000004699707,8|8,1:1|1:1,1:1:0:0:
61,302,31899,5,0,1:1:0:0:
61,302,31970,1,0,1:1:0:0:
61,302,32042,1,0,1:1:0:0:
122,94,32184,1,0,1:1:0:0:
225,218,32327,1,0,1:1:0:0:
74,186,32470,1,0,1:1:0:0:
153,299,32613,1,0,1:1:0:0:
208,103,32756,2,0,B|295:77|295:77|379:96,1,154.000004699707,0|0,1:1|1:1,1:1:0:0:
356,90,33327,2,0,P|344:175|350:252,1,154.000004699707,0|0,1:1|1:1,1:1:0:0:
349,242,33899,1,0,1:1:0:0:
107,308,34184,5,0,1:1:0:0:
107,308,34256,1,0,1:1:0:0:
107,308,34327,1,0,1:1:0:0:
137,158,34470,1,0,1:1:0:0:
204,312,34613,1,0,1:1:0:0:
218,128,34756,1,0,1:1:0:0:
50,238,34899,1,0,1:1:0:0:
86,29,35042,2,0,P|186:42|391:9,1,308.000009399414,0|0,1:1|1:1,1:1:0:0:
389,9,35899,5,0,1:1:0:0:
389,9,35970,1,0,1:1:0:0:
389,9,36042,1,0,1:1:0:0:
495,139,36184,1,0,1:1:0:0:
288,203,36327,1,0,1:1:0:0:
219,31,36470,5,0,1:1:0:0:
219,31,36542,1,0,1:1:0:0:
219,31,36613,1,0,1:1:0:0:
376,127,36756,2,0,P|400:196|399:232,1,77.0000023498536,0|0,1:1|1:1,1:1:0:0:
213,271,37042,2,0,P|189:202|190:166,1,77.0000023498536,0|0,1:1|1:1,1:1:0:0:
291,83,37327,2,0,P|352:38|446:59,1,154.000004699707,0|0,1:1|1:1,1:1:0:0:
492,186,37756,5,0,1:1:0:0:
492,186,37827,1,0,1:1:0:0:
492,186,37899,2,0,L|417:246,1,77.0000023498536,0|0,1:1|1:1,1:1:0:0:
289,292,38184,1,0,1:1:0:0:
289,292,38256,1,0,1:1:0:0:
289,292,38327,2,0,B|205:280|235:220|144:215,1,154.000004699707,0|0,1:1|1:1,1:1:0:0:
110,69,38756,2,0,L|65:55,2,38.5000011749268,0|0|0,1:1|1:1|1:1,1:1:0:0:
313,117,39042,5,0,1:1:0:0:
203,40,39184,1,0,1:1:0:0:
364,205,39327,5,0,1:1:0:0:
140,146,39470,1,0,1:1:0:0:
409,279,39613,6,0,P|359:289|283:222,1,154.000004699707,0|0,1:1|1:1,1:1:0:0:
407,73,40184,2,0,B|330:57|330:57|248:55,1,154.000004699707,0|0,1:1|1:1,1:1:0:0:
99,55,40756,1,0,1:1:0:0:
91,252,41042,5,8,1:1:0:0:
91,252,41113,1,8,1:1:0:0:
91,252,41184,1,8,1:1:0:0:
203,148,41327,1,8,1:1:0:0:
302,294,41470,1,8,1:1:0:0:
112,174,41613,1,8,1:1:0:0:
335,160,41756,1,8,1:1:0:0:
178,319,41899,2,8,L|-6:339,1,154.000004699707,8|8,1:1|1:1,1:1:0:0:
157,45,42470,2,0,L|333:65,1,154.000004699707,0|0,1:1|1:1,1:1:0:0:
463,83,43042,1,0,1:1:0:0:
177,197,43327,5,0,1:1:0:0:
177,197,43399,1,0,1:1:0:0:
177,197,43470,1,0,1:1:0:0:
315,129,43613,1,0,1:1:0:0:
248,301,43756,1,0,1:1:0:0:
205,89,43899,1,0,1:1:0:0:
407,229,44042,1,0,1:1:0:0:
163,309,44184,2,0,B|107:294|107:294|53:291|53:291|2:276,1,154.000004699707,0|0,1:1|1:1,1:1:0:0:
12,279,44756,1,0,1:1:0:0:
286,139,45042,5,0,1:1:0:0:
286,139,45113,1,0,1:1:0:0:
286,139,45184,1,0,1:1:0:0:
133,92,45327,1,0,1:1:0:0:
125,276,45470,1,0,1:1:0:0:
304,233,45613,6,0,L|351:226,2,38.5000011749268,0|0|0,1:1|1:1|1:1,1:1:0:0:
110,174,45899,1,0,1:1:0:0:
268,27,46042,1,0,1:1:0:0:
428,190,46184,1,0,1:1:0:0:
194,112,46327,1,0,1:1:0:0:
393,29,46470,2,0,P|441:53|488:125,1,115.50000352478,0|0,1:1|1:1,1:1:0:0:
490,137,46756,5,0,1:1:0:0:
496,174,46827,1,0,1:1:0:0:
479,209,46899,1,0,1:1:0:0:
449,232,46970,1,0,1:1:0:0:
412,245,47042,1,0,1:1:0:0:
380,266,47113,1,0,1:1:0:0:
362,299,47184,1,0,1:1:0:0:
352,336,47256,1,0,1:1:0:0:
363,372,47327,1,0,1:1:0:0:
224,354,47470,5,0,1:1:0:0:
117,148,47899,6,0,P|176:151|212:162,1,77.0000023498536,0|0,1:1|1:1,1:1:0:0:
269,321,48184,1,0,1:1:0:0:
389,132,48327,2,0,P|312:93|239:66,1,154.000004699707,0|0,1:1|1:1,1:1:0:0:
24,53,48756,1,0,1:1:0:0:
24,53,48827,1,0,1:1:0:0:
24,53,48899,1,0,1:1:0:0:
44,221,49042,6,0,L|54:312,1,77.0000023498536,0|0,1:1|1:1,1:1:0:0:
136,168,49327,1,0,1:1:0:0:
216,36,49470,2,0,P|296:42|374:26,1,154.000004699707,0|0,1:1|1:1,1:1:0:0:
298,193,49899,1,0,1:1:0:0:
298,193,49970,1,0,1:1:0:0:
298,193,50042,1,0,1:1:0:0:
201,311,50184,5,0,1:1:0:0:
3,225,50327,1,0,1:1:0:0:
85,307,50470,1,0,1:1:0:0:
50,94,50613,2,0,P|58:34|165:3,1,154.000004699707,0|0,1:1|1:1,1:1:0:0:
305,10,51042,5,0,1:1:0:0:
305,10,51113,1,0,1:1:0:0:
305,10,51184,1,0,1:1:0:0:
199,142,51327,5,0,1:1:0:0:
199,142,51399,1,0,1:1:0:0:
199,142,51470,1,0,1:1:0:0:
387,100,51613,2,0,L|437:88,2,38.5000011749268,0|0|0,1:1|1:1|1:1,1:1:0:0:
373,355,51899,5,0,1:1:0:0:
373,355,51970,1,0,1:1:0:0:
373,355,52042,1,0,1:1:0:0:
315,213,52184,2,0,L|292:159,2,38.5000011749268,0|0|0,1:1|1:1|1:1,1:1:0:0:
124,299,52470,5,0,1:1:0:0:
68,155,52613,1,0,1:1:0:0:
218,187,52756,1,0,1:1:0:0:
159,40,52899,2,0,P|252:22|321:20,1,154.000004699707,0|0,1:1|1:1,1:1:0:0:
464,29,53327,1,0,1:1:0:0:
464,29,53399,1,0,1:1:0:0:
464,29,53470,1,0,1:1:0:0:
291,158,53613,5,0,1:1:0:0:
125,122,53756,1,0,1:1:0:0:
214,266,53899,1,0,1:1:0:0:
368,196,54042,2,0,P|367:124|281:77,1,154.000004699707,0|0,1:1|1:1,1:1:0:0:
157,36,54470,1,0,1:1:0:0:
157,36,54542,1,0,1:1:0:0:
157,36,54613,1,0,1:1:0:0:
426,47,54756,5,0,1:1:0:0:
426,47,54899,2,0,L|441:189,1,105.000004005432,0|0,1:1|1:1,1:1:0:0:
260,265,55184,2,0,P|281:235|199:261,1,210.000008010865,0|0,1:1|1:1,1:1:0:0:
157,315,55613,1,0,1:1:0:0:
157,315,55684,1,0,1:1:0:0:
157,315,55756,1,0,1:1:0:0:
117,76,55899,6,0,L|242:84,1,105.000004005432,0|0,1:1|1:1,1:1:0:0:
293,223,56184,2,0,L|157:232,1,105.000004005432,0|0,1:1|1:1,1:1:0:0:
151,222,56399,1,0,1:1:0:0:
117,207,56470,2,0,P|102:269|104:349,1,105.000004005432,0|0,1:1|1:1,1:1:0:0:
125,315,56684,5,0,1:1:0:0:
150,320,56756,1,0,1:1:0:0:
175,325,56827,1,0,1:1:0:0:
200,330,56899,1,0,1:1:0:0:
225,335,56970,1,0,1:1:0:0:
250,341,57042,1,0,1:1:0:0:
250,341,57899,5,0,1:1:0:0:
365,154,58042,2,0,P|266:155|177:93,1,175,0|0,1:1|1:1,1:1:0:0:
80,301,58470,2,0,L|177:326,1,87.5,0|0,1:1|1:1,1:1:0:0:
144,165,58756,2,0,L|17:181,1,87.5,0|0,1:1|1:1,1:1:0:0:
197,250,59042,1,0,1:1:0:0:
311,143,59184,6,0,P|289:85|163:41,1,175,0|0,1:1|1:1,1:1:0:0:
101,237,59613,1,0,1:1:0:0:
292,216,59756,1,0,1:1:0:0:
187,377,59899,1,0,1:1:0:0:
189,184,60042,1,0,1:1:0:0:
342,298,60184,1,0,1:1:0:0:
411,156,60327,6,0,L|389:-23,1,175,0|0,1:1|1:1,1:1:0:0:
217,71,60756,1,0,1:1:0:0:
113,119,60899,1,0,1:1:0:0:
14,176,61042,1,0,1:1:0:0:
79,18,61184,1,0,1:1:0:0:
140,255,61327,1,0,1:1:0:0:
244,209,61470,6,0,B|330:173|330:173|396:118,1,175,0|0,1:1|1:1,1:1:0:0:
244,64,61899,1,0,1:1:0:0:
89,95,62042,2,0,P|52:161|51:273,1,175,0|0,1:1|1:1,1:1:0:0:
185,334,62470,1,0,1:1:0:0:
147,180,62613,6,0,L|185:9,1,175,0|0,1:1|1:1,1:1:0:0:
394,76,63042,1,0,1:1:0:0:
196,109,63184,1,0,1:1:0:0:
396,88,63327,1,0,1:1:0:0:
333,284,63470,1,0,1:1:0:0:
263,67,63613,1,0,1:1:0:0:
123,44,63756,6,0,P|52:113|23:189,1,175,0|0,1:1|1:1,1:1:0:0:
31,339,64184,1,0,1:1:0:0:
258,329,64327,1,0,1:1:0:0:
146,171,64470,1,0,1:1:0:0:
153,363,64613,1,0,1:1:0:0:
31,213,64756,1,0,1:1:0:0:
240,195,64899,6,0,P|309:198|413:261,1,175,0|0,1:1|1:1,1:1:0:0:
417,355,65327,1,0,1:1:0:0:
331,335,65470,1,0,1:1:0:0:
245,315,65613,1,0,1:1:0:0:
159,295,65756,2,0,L|123:184,1,87.5,0|0,1:1|1:1,1:1:0:0:
94,68,66042,6,0,P|183:78|270:62,1,175,0|0,1:1|1:1,1:1:0:0:
349,24,66470,1,0,1:1:0:0:
388,6,66541,1,0,1:1:0:0:
431,11,66612,1,0,1:1:0:0:
466,36,66684,1,0,1:1:0:0:
485,75,66755,1,0,1:1:0:0:
481,118,66827,1,0,1:1:0:0:
457,154,66898,1,0,1:1:0:0:
418,173,66969,1,0,1:1:0:0:
375,171,67041,1,0,1:1:0:0:
262,104,67184,2,0,L|81:118,1,175,0|0,1:1|1:1,1:1:0:0:
91,249,67613,6,0,L|213:219,1,87.5,0|0,1:1|1:1,1:1:0:0:
346,183,67899,1,0,1:1:0:0:
309,354,68042,1,0,1:1:0:0:
246,210,68184,1,0,1:1:0:0:
281,56,68327,6,0,P|343:31|449:57,1,175,0|0,1:1|1:1,1:1:0:0:
488,179,68756,1,0,1:1:0:0:
331,160,68899,1,0,1:1:0:0:
426,285,69042,1,0,1:1:0:0:
418,111,69184,1,0,1:1:0:0:
292,233,69327,1,0,1:1:0:0:
156,343,69470,6,0,P|78:322|40:227,1,175,0|0,1:1|1:1,1:1:0:0:
33,109,69899,2,0,L|146:102,1,87.5,0|0,1:1|1:1,1:1:0:0:
167,226,70184,1,0,1:1:0:0:
173,33,70327,1,0,1:1:0:0:
91,186,70470,1,0,1:1:0:0:
248,75,70613,6,0,B|318:56|318:56|346:51|376:59|395:97|401:126,1,175,0|0,1:1|1:1,1:1:0:0:
452,227,71042,1,0,1:1:0:0:
278,214,71184,1,0,1:1:0:0:
432,98,71327,1,0,1:1:0:0:
393,286,71470,1,0,1:1:0:0:
200,283,71613,1,0,1:1:0:0:
374,201,71756,6,0,P|465:239|472:326,1,175,0|0,1:1|1:1,1:1:0:0:
286,329,72184,1,0,1:1:0:0:
214,132,72327,1,0,1:1:0:0:
98,286,72470,1,0,1:1:0:0:
285,241,72613,1,0,1:1:0:0:
116,147,72756,1,0,1:1:0:0:
308,153,72899,6,0,L|501:166,1,175,0|0,1:1|1:1,1:1:0:0:
246,82,73327,1,0,1:1:0:0:
389,16,73470,1,0,1:1:0:0:
324,230,73613,1,0,1:1:0:0:
421,84,73756,1,0,1:1:0:0:
240,151,73899,1,0,1:1:0:0:
144,22,74042,6,0,P|73:34|24:138,1,175,0|0,1:1|1:1,1:1:0:0:
29,222,74470,2,0,L|121:202,1,87.5,0|0,1:1|1:1,1:1:0:0:
140,209,74684,5,0,1:1:0:0:
163,221,74756,2,0,L|255:201,1,87.5,0|0,1:1|1:1,1:1:0:0:
271,215,74970,5,0,1:1:0:0:
294,227,75042,2,0,L|386:207,1,87.5,0|0,1:1|1:1,1:1:0:0:
403,219,75256,5,0,1:1:0:0:
444,232,75327,1,0,1:1:0:0:
486,221,75399,1,0,1:1:0:0:
511,191,75470,1,0,1:1:0:0:
509,146,75542,1,0,1:1:0:0:
478,114,75613,1,0,1:1:0:0:
435,106,75684,1,0,1:1:0:0:
394,122,75756,1,0,1:1:0:0:
351,132,75827,1,0,1:1:0:0:
306,131,75899,2,0,P|192:99|188:97,2,87.5,0|0|0,1:1|1:1|1:1,1:1:0:0:
314,13,76327,6,0,P|247:5|132:38,1,154.000004699707,0|0,1:1|1:1,1:1:0:0:
136,214,76756,2,0,L|244:200,1,77.0000023498536,0|0,1:1|1:1,1:1:0:0:
250,102,77042,2,0,L|145:113,1,77.0000023498536,0|0,1:1|1:1,1:1:0:0:
132,298,77327,1,0,1:1:0:0:
323,277,77470,1,0,1:1:0:0:
141,212,77613,1,0,1:1:0:0:
286,360,77756,1,0,1:1:0:0:
299,136,77899,2,0,L|199:98,1,77.0000023498536,0|0,1:1|1:1,1:1:0:0:
72,106,78184,2,0,P|12:135|-12:168,2,77.0000023498536,0|0|0,1:1|1:1|1:1,1:1:0:0:
210,35,78613,2,0,P|295:44|382:31,1,154.000004699707,0|0,1:1|1:1,1:1:0:0:
475,11,79042,5,0,0:0:0:0:
475,11,79113,1,0,0:0:0:0:
475,11,79184,1,0,0:0:0:0:
444,201,79327,5,0,0:0:0:0:
444,201,79399,1,0,0:0:0:0:
444,201,79470,1,0,0:0:0:0:
397,53,79613,5,0,0:0:0:0:
397,53,79684,1,0,0:0:0:0:
397,53,79755,1,0,0:0:0:0:
318,229,79898,5,0,0:0:0:0:
318,229,79970,1,0,0:0:0:0:
318,229,80041,1,0,0:0:0:0:
311,75,80184,6,0,L|287:22,2,38.5000011749268
189,224,80470,2,0,B|179:233|179:233|121:221|68:229,1,115.50000352478
36,201,80756,2,0,P|95:132|105:80,1,115.50000352478
95,52,81042,2,0,L|243:28,1,115.50000352478
265,22,81327,5,0,0:0:0:0:
247,190,81470,1,0,0:0:0:0:
388,7,81613,1,0,0:0:0:0:
435,169,81756,1,0,0:0:0:0:
274,113,81899,1,0,0:0:0:0:
353,266,82042,1,0,0:0:0:0:
174,147,82184,5,0,0:0:0:0:
348,136,82327,1,0,0:0:0:0:
237,293,82470,2,0,L|150:308,1,77.0000023498536
30,196,82756,2,0,P|12:164|9:121,2,77.0000023498536
199,196,83184,2,0,B|279:189|279:189|364:155,1,154.000004699707
451,108,83613,5,0,0:0:0:0:
451,108,83684,1,0,0:0:0:0:
451,108,83756,1,0,0:0:0:0:
293,45,83899,6,0,L|266:8,2,38.5000011749268
311,213,84184,5,0,0:0:0:0:
311,213,84256,1,0,0:0:0:0:
311,213,84327,1,0,0:0:0:0:
378,57,84470,6,0,L|403:15,2,38.5000011749268
238,155,84756,5,0,0:0:0:0:
207,177,84827,1,0,0:0:0:0:
169,182,84898,1,0,0:0:0:0:
134,167,84970,1,0,0:0:0:0:
111,137,85041,1,0,0:0:0:0:
106,99,85113,1,0,0:0:0:0:
120,64,85184,1,0,0:0:0:0:
150,40,85255,1,0,0:0:0:0:
188,35,85327,1,0,0:0:0:0:
434,220,85613,6,0,L|494:217,2,38.5000011749268
291,157,85899,1,0,0:0:0:0:
385,297,86042,1,0,0:0:0:0:
368,114,86184,1,0,0:0:0:0:
226,255,86327,1,0,0:0:0:0:
226,255,86756,5,0,0:0:0:0:
226,255,87327,5,0,0:0:0:0:
56,114,87899,5,0,0:0:0:0:
56,114,87970,1,0,0:0:0:0:
56,114,88042,1,0,0:0:0:0:
159,1,88184,1,0,0:0:0:0:
159,155,88327,1,0,0:0:0:0:
269,47,88470,1,0,0:0:0:0:
270,201,88613,1,0,0:0:0:0:
270,201,89042,5,0,0:0:0:0:
270,201,89613,5,0,0:0:0:0:
347,42,90184,5,0,0:0:0:0:
347,42,90256,1,0,0:0:0:0:
347,42,90327,1,0,0:0:0:0:
434,205,90470,1,0,0:0:0:0:
274,83,90613,1,0,0:0:0:0:
485,38,90756,1,0,0:0:0:0:
321,201,90899,1,0,0:0:0:0:
321,201,91327,5,0,0:0:0:0:
117,91,91899,2,0,L|92:40,2,38.5000011749268
284,63,92184,1,0,0:0:0:0:
229,223,92327,1,0,0:0:0:0:
204,55,92470,5,0,0:0:0:0:
204,55,92542,1,0,0:0:0:0:
204,55,92613,1,0,0:0:0:0:
316,182,92756,1,0,0:0:0:0:
360,50,92899,5,0,0:0:0:0:
360,50,92970,1,0,0:0:0:0:
360,50,93042,1,0,0:0:0:0:
401,228,93184,1,0,0:0:0:0:
284,329,93327,6,0,L|231:342,3,38.5000011749268
208,347,93613,5,0,0:0:0:0:
169,349,93684,1,0,0:0:0:0:
134,335,93755,1,0,0:0:0:0:
108,307,93827,1,0,0:0:0:0:
97,271,93898,1,0,0:0:0:0:
104,233,93970,1,0,0:0:0:0:
126,202,94041,1,0,0:0:0:0:
159,184,94112,1,0,0:0:0:0:
198,182,94184,5,0,0:0:0:0:
324,69,94327,1,0,0:0:0:0:
142,103,94470,1,0,0:0:0:0:
301,223,94613,1,0,0:0:0:0:
225,37,94756,5,0,0:0:0:0:
225,37,94827,1,0,0:0:0:0:
225,37,94899,1,0,0:0:0:0:
71,26,95042,2,0,L|55:134,1,77.0000023498536
156,221,95327,2,0,L|141:112,1,77.0000023498536
287,102,95613,2,0,P|306:38|390:26,1,154.000004699707
384,23,96184,2,0,L|361:193,1,154.000004699707
363,175,96756,1,0,0:0:0:0:
86,312,97042,5,0,0:0:0:0:
86,312,97113,1,0,0:0:0:0:
86,312,97184,1,0,0:0:0:0:
215,202,97327,1,0,0:0:0:0:
31,226,97470,1,0,0:0:0:0:
214,305,97613,2,0,L|315:263,1,77.0000023498536
414,188,97899,2,0,B|332:157|332:157|245:143,1,154.000004699707
38,107,98470,2,0,B|120:76|120:76|207:62,1,154.000004699707
416,42,99042,1,0,0:0:0:0:
299,326,99327,6,0,L|345:344,2,38.5000011749268
149,286,99613,2,0,P|129:218|127:192,1,77.0000023498536
277,168,99899,1,0,0:0:0:0:
217,326,100042,1,0,0:0:0:0:
191,175,100184,2,0,P|190:93|238:25,1,154.000004699707
227,34,100756,1,0,0:0:0:0:
406,284,101042,5,0,0:0:0:0:
406,284,101113,1,0,0:0:0:0:
406,284,101184,1,0,0:0:0:0:
399,129,101327,1,0,0:0:0:0:
266,208,101470,1,0,0:0:0:0:
130,282,101613,6,0,L|104:194,1,77.0000023498536
74,188,101827,2,0,L|95:98,1,77.0000023498536
64,85,102042,2,0,L|127:18,1,77.0000023498536,0|0,1:0|1:0,1:0:0:0:
208,17,102327,1,0,0:0:0:0:
300,17,102470,1,0,0:0:0:0:
404,108,102613,5,0,0:0:0:0:
404,108,102684,1,0,0:0:0:0:
404,108,102756,1,0,0:0:0:0:
413,261,102899,1,0,0:0:0:0:
258,263,103042,5,0,0:0:0:0:
219,263,103113,1,0,0:0:0:0:
183,250,103184,1,0,0:0:0:0:
147,232,103256,1,0,0:0:0:0:
121,204,103327,5,0,0:0:0:0:
159,198,103399,1,0,0:0:0:0:
195,186,103470,1,0,0:0:0:0:
228,168,103542,1,0,0:0:0:0:
255,141,103613,1,0,0:0:0:0:
278,110,103684,1,0,0:0:0:0:
293,75,103756,1,0,0:0:0:0:
307,39,103827,1,0,0:0:0:0:
310,0,103899,5,0,0:0:0:0:
368,126,104042,2,0,L|392:211,1,77.0000023498536
256,157,104327,2,0,P|132:124|101:128,1,154.000004699707
165,254,104756,1,0,0:0:0:0:
165,254,104827,1,0,0:0:0:0:
165,254,104899,1,0,0:0:0:0:
355,226,105042,5,0,0:0:0:0:
418,86,105184,1,0,0:0:0:0:
264,96,105327,1,0,0:0:0:0:
426,183,105470,2,0,P|414:286|363:308,1,154.000004699707
241,333,105899,1,0,0:0:0:0:
241,333,105970,1,0,0:0:0:0:
241,333,106042,1,0,0:0:0:0:
79,192,106184,5,0,0:0:0:0:
79,192,106327,2,0,P|127:160|154:118,1,77.0000023498536
203,21,106613,2,0,L|368:5,1,154.000004699707
496,3,107042,1,0,0:0:0:0:
496,3,107113,1,0,0:0:0:0:
496,3,107184,1,0,0:0:0:0:
310,112,107327,6,0,L|238:100,2,38.5000011749268
463,132,107613,1,0,0:0:0:0:
471,161,107684,1,0,0:0:0:0:
480,190,107756,1,0,0:0:0:0:
347,360,107899,6,0,L|411:378,2,38.5000011749268
208,292,108184,1,0,0:0:0:0:
200,263,108255,1,0,0:0:0:0:
191,234,108327,1,0,0:0:0:0:
15,108,108470,5,0,0:0:0:0:
169,103,108613,1,0,0:0:0:0:
16,207,108756,1,0,0:0:0:0:
110,30,108899,2,0,P|183:11|254:59,1,154.000004699707
343,169,109327,1,0,0:0:0:0:
343,169,109399,1,0,0:0:0:0:
343,169,109470,1,0,0:0:0:0:
188,270,109613,6,0,P|158:256|98:210,2,77.0000023498536
334,320,110042,2,0,B|366:233|410:269|438:195,1,154.000004699707,0|0,0:0|0:3,0:0:0:0:
473,58,110470,1,0,0:0:0:0:
473,58,110542,1,0,0:0:0:0:
473,58,110613,1,0,0:0:0:0:
377,107,110756,5,0,0:0:0:0:
285,164,110899,2,0,L|245:260,1,77.0000023498536
280,47,111184,2,0,P|197:66|101:72,1,154.000004699707
55,221,111613,1,0,0:0:0:0:
55,221,111684,1,0,0:0:0:0:
55,221,111756,1,0,0:0:0:0:
187,361,111899,6,0,P|274:336|293:337,1,77.0000023498536
389,194,112184,2,0,P|302:219|283:218,1,77.0000023498536
277,219,112399,1,0,0:0:0:0:
238,218,112470,2,0,L|188:217,3,38.5000011749268
161,208,112756,2,0,L|97:196,3,38.5000011749268
87,186,113042,5,0,0:0:0:0:
60,158,113113,1,0,0:0:0:0:
50,120,113184,1,0,0:0:0:0:
59,82,113256,1,0,0:0:0:0:
85,54,113327,1,0,0:0:0:0:
120,38,113399,1,0,0:0:0:0:
158,39,113470,1,0,0:0:0:0:
191,58,113542,1,0,0:0:0:0:
211,90,113613,1,0,0:0:0:0:
223,126,113684,1,0,0:0:0:0:
247,155,113756,1,0,0:0:0:0:
282,169,113827,1,0,0:0:0:0:
320,171,113899,1,0,0:0:0:0:
379,71,114042,6,0,P|295:39|208:30,1,154.000004699707
90,160,114470,1,0,0:0:0:0:
212,252,114613,1,0,0:0:0:0:
204,67,114756,1,0,0:0:0:0:
142,208,114899,1,0,0:0:0:0:
295,195,115042,1,0,0:0:0:0:
305,42,115184,6,0,P|379:29|453:78,1,154.000004699707
257,116,115613,1,0,0:0:0:0:
162,256,115756,1,0,0:0:0:0:
331,263,115899,1,0,0:0:0:0:
179,144,116042,1,0,0:0:0:0:
338,90,116184,1,0,0:0:0:0:
155,57,116327,6,0,P|77:43|-5:25,1,154.000004699707
52,190,116756,1,0,0:0:0:0:
100,352,116899,1,0,0:0:0:0:
211,224,117042,1,0,0:0:0:0:
99,98,117184,1,0,0:0:0:0:
119,258,117327,1,0,0:0:0:0:
227,137,117470,6,0,B|277:67|298:93|341:30,1,154.000004699707
327,188,117899,1,0,0:0:0:0:
460,111,118042,2,0,P|361:108|281:123,1,154.000004699707
262,263,118470,1,0,0:0:0:0:
197,122,118613,6,0,L|126:-29,1,154.000004699707
96,133,119042,1,0,0:0:0:0:
262,55,119184,1,0,0:0:0:0:
170,224,119327,1,0,0:0:0:0:
296,167,119470,1,0,0:0:0:0:
174,71,119613,1,0,0:0:0:0:
249,231,119756,6,0,P|330:241|376:177,1,154.000004699707
400,39,120184,5,0,0:0:0:0:
207,36,120327,1,0,0:0:0:0:
327,121,120470,5,0,0:0:0:0:
141,68,120613,1,0,0:0:0:0:
138,214,120756,5,0,0:0:0:0:
51,41,120899,2,0,L|10:212,1,154.000004699707
106,315,121327,2,0,L|210:326,2,77.0000023498536
174,92,121756,6,0,L|146:189,1,77.0000023498536
337,22,122042,2,0,L|296:193,1,154.000004699707
258,319,122471,5,0,0:0:0:0:
219,323,122542,1,0,0:0:0:0:
181,322,122613,1,0,0:0:0:0:
143,313,122685,1,0,0:0:0:0:
109,296,122756,1,0,0:0:0:0:
82,269,122828,1,0,0:0:0:0:
64,235,122899,1,0,0:0:0:0:
53,198,122970,1,0,0:0:0:0:
47,160,123042,1,0,0:0:0:0:
176,78,123184,6,0,P|265:75|340:60,1,154.000004699707
