osu file format v14

[General]
AudioFilename: audio.mp3
AudioLeadIn: 0
PreviewTime: 187244
Countdown: 0
SampleSet: Normal
StackLeniency: 0.7
Mode: 1
LetterboxInBreaks: 0
WidescreenStoryboard: 0

[Editor]
Bookmarks: 137,10422,19565,28708,37851,46994,57137,75422,84708,93851,102994,113137,120422,131422,133851,142994,152137,161279,174994,186708,204708,215994
DistanceSpacing: 1.2
BeatDivisor: 4
GridSize: 8
TimelineZoom: 2.5

[Metadata]
Title:Adore Your Pain
TitleUnicode:Adore Your Pain
Artist:UNDEAD CORPORATION
ArtistUnicode:UNDEAD CORPORATION
Creator:roxorotto
Version:Inner Oni
Source:東方地霊殿 ~ Subterranean Animism.
Tags:antti iceOC osu! TOHO Complete Box - RED metal rock english fa featured artist satori komeiji touhou 東方Project video game chireiden Earth Spirit Palace th11 sa 朱美 akemi 私はもう死んでいる watashi wa mou shindeiru? comiket c80 ハートフェルトファンシー heartfelt fancy パインツリー pinetree ウェストヴィレッジ west village mappers' guild mg mpg
BeatmapID:4073695
BeatmapSetID:1964631

[Difficulty]
HPDrainRate:6
CircleSize:5
OverallDifficulty:7
ApproachRate:5
SliderMultiplier:1.4
SliderTickRate:1

[Events]
//Background and Video events
0,0,"Komeiji.Satori.full.1921492.jpg",0,65
//Break Periods
//Storyboard Layer 0 (Background)
//Storyboard Layer 1 (Fail)
//Storyboard Layer 2 (Pass)
//Storyboard Layer 3 (Foreground)
//Storyboard Layer 4 (Overlay)
//Storyboard Sound Samples

[TimingPoints]
137,285.714285714286,4,1,0,70,1,0
137,-125,4,1,0,70,0,0
1133,-111.111115,4,1,0,70,0,0
1561,-110.4659,4,1,0,70,0,0
1705,-109.89010989011,4,1,0,45,0,0
3418,-107.75115,4,1,0,45,0,0
5419,-107.52688172043,4,1,0,60,0,0
5561,-104.77956,4,1,0,60,0,0
5633,-104.682556,4,1,0,60,0,0
5704,-104.58708,4,1,0,60,0,0
6133,-104.0139,4,1,0,60,0,0
6704,-103.26066,4,1,0,60,0,0
6848,-100,4,1,0,60,0,0
6990,-102.88747,4,1,0,60,0,0
7061,-102.79524,4,1,0,60,0,0
7133,-102.70189,4,1,0,60,0,0
7275,-102.51826,4,1,0,60,0,0
7347,-102.4254,4,1,0,60,0,0
7418,-102.334,4,1,0,60,0,0
7561,-90.9090909090909,4,1,0,60,0,0
7704,-90.9090909090909,4,1,0,60,0,0
7990,-101.603546,4,1,0,60,0,0
8418,-101.06376,4,1,0,60,0,0
8704,-100.70625,4,1,0,60,0,0
9275,-100,4,1,0,60,0,0
10276,-100,4,1,0,75,0,0
19419,-100,4,1,0,70,0,0
19491,-95.2380952380952,4,1,0,70,0,0
19634,-100,4,1,0,70,0,0
19705,-100,4,1,0,70,0,0
19847,-111.111115,4,1,0,70,0,0
19990,-110.16849,4,1,0,70,0,0
20133,-109.241714,4,1,0,70,0,0
20275,-108.33674,4,1,0,70,0,0
20418,-107.44041,4,1,0,70,0,0
20561,-106.55879,4,1,0,70,0,0
20704,-105.69152,4,1,0,70,0,0
20846,-104.84417,4,1,0,70,0,0
20990,-103.99866,4,1,0,70,0,0
21133,-103.17239,4,1,0,70,0,0
21275,-102.364815,4,1,0,70,0,0
21418,-101.56421,4,1,0,70,0,0
21561,-100.77604,4,1,0,70,0,0
21704,-100,4,1,0,70,0,0
21848,-111.111111111111,4,1,0,70,0,0
21990,-111.111115,4,1,0,70,0,0
22133,-109.998604,4,1,0,70,0,0
22204,-109.45447,4,1,0,70,0,0
22275,-108.915695,4,1,0,70,0,0
22419,-107.8391,4,1,0,70,0,0
22490,-107.31608,4,1,0,70,0,0
22561,-106.798096,4,1,0,70,0,0
22704,-105.76988,4,1,0,70,0,0
22775,-105.266685,4,1,0,70,0,0
22846,-104.76825,4,1,0,70,0,0
22990,-103.77172,4,1,0,70,0,0
23061,-103.28731,4,1,0,70,0,0
23132,-102.8074,4,1,0,70,0,0
23275,-101.854256,4,1,0,70,0,0
23346,-101.38754,4,1,0,70,0,0
23417,-100.925095,4,1,0,70,0,0
23491,-95.2380952380952,4,1,0,70,0,0
23634,-100,4,1,0,70,0,0
23776,-86.9565217391304,4,1,0,70,0,0
23919,-100,4,1,0,70,0,0
24062,-80,4,1,0,70,0,0
24205,-100,4,1,0,70,0,0
24419,-111.111115,4,1,0,70,0,0
24562,-110.16849,4,1,0,70,0,0
24705,-109.241714,4,1,0,70,0,0
24847,-108.33674,4,1,0,70,0,0
24990,-107.44041,4,1,0,70,0,0
25133,-106.55879,4,1,0,70,0,0
25276,-105.69152,4,1,0,70,0,0
25418,-104.84417,4,1,0,70,0,0
25562,-103.99866,4,1,0,70,0,0
25705,-103.17239,4,1,0,70,0,0
25847,-102.364815,4,1,0,70,0,0
25990,-101.56421,4,1,0,70,0,0
26133,-100.77604,4,1,0,70,0,0
26276,-100,4,1,0,70,0,0
26419,-111.111111111111,4,1,0,70,0,0
26561,-111.111115,4,1,0,70,0,0
26704,-110.29336,4,1,0,70,0,0
26775,-109.8918,4,1,0,70,0,0
26847,-109.487564,4,1,0,70,0,0
26990,-108.69344,4,1,0,70,0,0
27061,-108.30343,4,1,0,70,0,0
27133,-107.910774,4,1,0,70,0,0
27275,-107.144646,4,1,0,70,0,0
27346,-106.76564,4,1,0,70,0,0
27418,-106.38403,4,1,0,70,0,0
27561,-105.63415,4,1,0,70,0,0
27633,-105.26057,4,1,0,70,0,0
27704,-104.89477,4,1,0,70,0,0
27847,-104.16566,4,1,0,70,0,0
27918,-103.8074,4,1,0,70,0,0
27990,-103.44662,4,1,0,70,0,0
28061,-103.093285,4,1,0,70,0,0
28133,-102.73743,4,1,0,70,0,0
28204,-102.388916,4,1,0,70,0,0
28275,-102.042755,4,1,0,70,0,0
28347,-101.694115,4,1,0,70,0,0
28418,-101.35263,4,1,0,70,0,0
28561,-100.67177,4,1,0,70,0,0
28704,-100,4,1,0,70,0,0
34990,-100,4,1,0,70,0,0
35061,-99.382126,4,1,0,70,0,0
35133,-98.7633,4,1,0,70,0,0
35275,-97.56514,4,1,0,70,0,0
35418,-96.38758,4,1,0,70,0,0
35561,-95.2381,4,1,0,70,0,0
45847,-100,4,1,0,70,0,0
45918,-98.613686,4,1,0,70,0,0
45990,-97.24656,4,1,0,70,0,0
46061,-95.93504,4,1,0,70,0,0
46133,-94.640686,4,1,0,70,0,0
46204,-93.39806,4,1,0,70,0,0
46275,-92.18765,4,1,0,70,0,0
46347,-90.99181,4,1,0,70,0,0
46384,-86.9565217391304,4,1,0,70,0,0
46419,-86.9565217391304,4,1,0,70,0,0
46526,-86.9565217391304,4,1,0,70,0,0
46669,-100,4,1,0,70,0,0
46848,-100,4,1,0,70,0,0
53776,-90.9090909090909,4,1,0,70,0,0
54562,-100,4,1,0,70,0,0
56991,-95.2380952380952,4,1,0,70,0,0
57137,-90.9090909090909,4,1,0,75,0,1
63919,-86.9565217391304,4,1,0,75,0,1
64062,-90.9090909090909,4,1,0,75,0,1
64418,-90.0900900900901,4,1,0,75,0,1
64561,-89.28571,4,1,0,75,0,1
64704,-88.4955752212389,4,1,0,75,0,1
64847,-87.719298245614,4,1,0,75,0,1
64990,-86.9565217391304,4,1,0,75,0,1
65133,-83.3333333333333,4,1,0,75,0,1
65276,-86.9565217391304,4,1,0,75,0,1
65418,-86.9565217391304,4,1,0,75,0,1
65561,-86.186455,4,1,0,75,0,1
65633,-85.81946,4,1,0,75,0,1
65704,-85.45908,4,1,0,75,0,1
65775,-85.10022,4,1,0,75,0,1
65847,-84.73785,4,1,0,75,0,1
65918,-84.38201,4,1,0,75,0,1
65990,-84.02269,4,1,0,75,0,1
66061,-83.66987,4,1,0,75,0,1
66130,-83.3333333333333,4,1,0,75,0,1
66275,-80,4,1,0,75,0,1
66419,-90.9090909090909,4,1,0,75,0,1
66562,-90.9090909090909,4,1,0,75,0,1
73418,-90.90909,4,1,0,75,0,1
73561,-89.74244,4,1,0,75,0,1
73704,-88.605354,4,1,0,75,0,1
73775,-88.05142,4,1,0,75,0,1
73847,-87.49672,4,1,0,75,0,1
73990,-86.41549,4,1,0,75,0,1
74061,-85.88852,4,1,0,75,0,1
74133,-85.36065,4,1,0,75,0,1
74275,-83.3333333333333,4,1,0,75,0,1
74347,-83.82933,4,1,0,75,0,1
74418,-84.7457627118644,4,1,0,75,0,1
74490,-85.4700854700855,4,1,0,75,0,1
74561,-86.9565217391304,4,1,0,75,0,1
74633,-87.719298245614,4,1,0,75,0,1
74704,-88.4955752212389,4,1,0,75,0,1
74775,-89.2857142857143,4,1,0,75,0,1
74847,-89.750496,4,1,0,75,0,1
74918,-90.90909,4,1,0,75,0,1
74990,-92.11496,4,1,0,75,0,1
75133,-94.607376,4,1,0,75,0,1
75275,-97.21952,4,1,0,75,0,1
75422,-100,4,1,0,70,0,0
75562,-111.111111111111,4,1,0,65,0,0
75848,-111.111115,4,1,0,65,0,0
75991,-110.16849,4,1,0,65,0,0
76134,-109.241714,4,1,0,65,0,0
76276,-108.33674,4,1,0,65,0,0
76419,-107.44041,4,1,0,65,0,0
76562,-106.55879,4,1,0,65,0,0
76705,-105.69152,4,1,0,65,0,0
76847,-104.84417,4,1,0,65,0,0
76991,-103.99866,4,1,0,65,0,0
77134,-103.17239,4,1,0,65,0,0
77276,-102.364815,4,1,0,65,0,0
77419,-101.56421,4,1,0,65,0,0
77562,-100.77604,4,1,0,65,0,0
77705,-100,4,1,0,65,0,0
77848,-111.111111111111,4,1,0,65,0,0
77991,-111.111115,4,1,0,65,0,0
78134,-109.998604,4,1,0,65,0,0
78205,-109.45447,4,1,0,65,0,0
78276,-108.915695,4,1,0,65,0,0
78420,-107.8391,4,1,0,65,0,0
78491,-107.31608,4,1,0,65,0,0
78562,-106.798096,4,1,0,65,0,0
78705,-105.76988,4,1,0,65,0,0
78776,-105.266685,4,1,0,65,0,0
78847,-104.76825,4,1,0,65,0,0
78991,-103.77172,4,1,0,65,0,0
79062,-103.28731,4,1,0,65,0,0
79133,-102.8074,4,1,0,65,0,0
79276,-101.854256,4,1,0,65,0,0
79347,-101.38754,4,1,0,65,0,0
79418,-100.925095,4,1,0,65,0,0
79492,-95.2380952380952,4,1,0,65,0,0
79635,-100,4,1,0,65,0,0
79777,-86.9565217391304,4,1,0,65,0,0
79920,-100,4,1,0,65,0,0
80063,-80,4,1,0,65,0,0
80206,-100,4,1,0,65,0,0
80416,-111.111115,4,1,0,65,0,0
80559,-110.16849,4,1,0,65,0,0
80702,-109.241714,4,1,0,65,0,0
80844,-108.33674,4,1,0,65,0,0
80987,-107.44041,4,1,0,65,0,0
81130,-106.55879,4,1,0,65,0,0
81273,-105.69152,4,1,0,65,0,0
81415,-104.84417,4,1,0,65,0,0
81559,-103.99866,4,1,0,65,0,0
81702,-103.17239,4,1,0,65,0,0
81848,-102.364815,4,1,0,65,0,0
81991,-101.56421,4,1,0,65,0,0
82134,-100.77604,4,1,0,65,0,0
82277,-100,4,1,0,65,0,0
82419,-111.111111111111,4,1,0,65,0,0
82561,-111.111115,4,1,0,65,0,0
82704,-110.29336,4,1,0,65,0,0
82775,-109.8918,4,1,0,65,0,0
82847,-109.487564,4,1,0,65,0,0
82990,-108.69344,4,1,0,65,0,0
83061,-108.30343,4,1,0,65,0,0
83133,-107.910774,4,1,0,65,0,0
83275,-107.144646,4,1,0,65,0,0
83346,-106.76564,4,1,0,65,0,0
83418,-106.38403,4,1,0,65,0,0
83561,-105.63415,4,1,0,65,0,0
83633,-105.26057,4,1,0,65,0,0
83704,-104.89477,4,1,0,65,0,0
83847,-104.16566,4,1,0,65,0,0
83918,-103.8074,4,1,0,65,0,0
83990,-103.44662,4,1,0,65,0,0
84061,-103.093285,4,1,0,65,0,0
84133,-102.73743,4,1,0,65,0,0
84204,-102.388916,4,1,0,65,0,0
84275,-102.042755,4,1,0,65,0,0
84347,-101.694115,4,1,0,65,0,0
84418,-101.35263,4,1,0,65,0,0
84561,-100.67177,4,1,0,65,0,0
84704,-100,4,1,0,65,0,0
85562,-100,4,1,0,55,0,0
86848,-100,4,1,0,65,0,0
87848,-100,4,1,0,55,0,0
89134,-100,4,1,0,65,0,0
90134,-100,4,1,0,55,0,0
90848,-100,4,1,0,65,0,0
90990,-100,4,1,0,65,0,0
91061,-98.16663,4,1,0,65,0,0
91133,-96.37484,4,1,0,65,0,0
91275,-93.026085,4,1,0,65,0,0
91418,-89.88098,4,1,0,65,0,0
91561,-86.94159,4,1,0,65,0,0
91633,-87.32023,4,1,0,65,0,0
91704,-87.6769,4,1,0,65,0,0
91775,-88.03651,4,1,0,65,0,0
91847,-88.4042,4,1,0,65,0,0
91919,-88.77498,4,1,0,65,0,0
91990,-89.143654,4,1,0,65,0,0
92061,-89.51542,4,1,0,65,0,0
92133,-89.8956,4,1,0,65,0,0
92205,-90.279015,4,1,0,65,0,0
92276,-90.66032,4,1,0,65,0,0
92347,-91.04487,4,1,0,65,0,0
92418,-91.432686,4,1,0,65,0,0
92490,-91.82935,4,1,0,65,0,0
92561,-92.22391,4,1,0,65,0,0
92632,-92.62186,4,1,0,65,0,0
92704,-93.02894,4,1,0,65,0,0
92776,-93.439606,4,1,0,65,0,0
92847,-93.848145,4,1,0,65,0,0
92918,-94.26027,4,1,0,65,0,0
92990,-94.68191,4,1,0,65,0,0
93061,-95.10141,4,1,0,65,0,0
93132,-95.52464,4,1,0,65,0,0
93204,-95.957695,4,1,0,65,0,0
93276,-96.39469,4,1,0,65,0,0
93418,-97.26831,4,1,0,65,0,0
93561,-98.164246,4,1,0,65,0,0
93704,-99.076836,4,1,0,65,0,0
93847,-100.00656,4,1,0,65,0,0
109848,-90.9090909090909,4,1,0,65,0,0
110562,-100,4,1,0,65,0,0
112275,-99.986015,4,1,0,65,0,0
112323,-99.31935,4,1,0,65,0,0
112371,-98.66151,4,1,0,65,0,0
112418,-98.02578,4,1,0,65,0,0
112490,-97.06761,4,1,0,65,0,0
112561,-96.14092,4,1,0,65,0,0
112609,-95.524376,4,1,0,65,0,0
112656,-94.928314,4,1,0,65,0,0
112704,-94.32719,4,1,0,65,0,0
112775,-93.451836,4,1,0,65,0,0
112847,-92.580605,4,1,0,65,0,0
112894,-92.02059,4,1,0,65,0,0
112942,-91.45561,4,1,0,65,0,0
112990,-90.89754,4,1,0,65,0,0
113137,-86.9565217391304,4,1,0,75,0,1
119919,-83.3333333333333,4,1,0,75,0,1
120062,-86.9565217391304,4,1,0,75,0,1
120418,-86.95652,4,1,0,75,0,1
120561,-86.02151,4,1,0,75,0,1
120704,-85.106384,4,1,0,75,0,1
120847,-84.21053,4,1,0,75,0,1
120990,-83.333336,4,1,0,75,0,1
121134,-80,4,1,0,75,0,1
121276,-83.3333333333333,4,1,0,75,0,1
121418,-83.333336,4,1,0,75,0,1
121490,-82.98515,4,1,0,75,0,1
121561,-82.64463,4,1,0,75,0,1
121633,-82.30216,4,1,0,75,0,1
121704,-81.96722,4,1,0,75,0,1
121775,-81.63499,4,1,0,75,0,1
121847,-81.30082,4,1,0,75,0,1
121918,-80.97395,4,1,0,75,0,1
121990,-80.64516,4,1,0,75,0,1
122061,-80.32354,4,1,0,75,0,1
122133,-80,4,1,0,75,0,1
122276,-76.9230769230769,4,1,0,75,0,1
122419,-86.9565217391304,4,1,0,75,0,1
122562,-86.9565217391304,4,1,0,75,0,1
129561,-86.95652,4,1,0,75,0,1
129633,-86.2017,4,1,0,75,0,1
129704,-85.470085,4,1,0,75,0,1
129775,-84.750786,4,1,0,75,0,1
129847,-84.033615,4,1,0,75,0,1
129919,-83.328476,4,1,0,75,0,1
129990,-82.64462,4,1,0,75,0,1
130061,-81.97192,4,1,0,75,0,1
130133,-81.30082,4,1,0,75,0,1
130205,-80.64062,4,1,0,75,0,1
130276,-80,4,1,0,75,0,1
130348,-86.9565217391304,4,1,0,75,0,1
130704,-86.95652,4,1,0,75,0,1
130776,-88.11551,4,1,0,75,0,1
130847,-89.28906,4,1,0,75,0,1
130918,-90.4943,4,1,0,75,0,1
130990,-91.75019,4,1,0,75,0,1
131062,-93.04144,4,1,0,75,0,1
131133,-94.350845,4,1,0,75,0,1
131204,-95.697624,4,1,0,75,0,1
131275,-97.08341,4,1,0,75,0,1
131422,-100,4,1,0,65,0,0
132704,-100,4,1,0,65,0,0
132847,-98.76436,4,1,0,65,0,0
132990,-97.55889,4,1,0,65,0,0
133133,-96.38249,4,1,0,65,0,0
133275,-95.242065,4,1,0,65,0,0
133348,-94.7867298578199,4,1,0,65,0,0
133418,-94.12056,4,1,0,65,0,0
133490,-93.56581,4,1,0,65,0,0
133561,-93.02515,4,1,0,65,0,0
133633,-92.48321,4,1,0,65,0,0
133704,-91.95494,4,1,0,65,0,0
133775,-91.432686,4,1,0,65,0,0
133847,-90.90909,4,1,0,65,0,0
134705,-125,4,1,0,65,0,0
140847,-125,4,1,0,65,0,0
140990,-123.59374,4,1,0,65,0,0
141133,-122.21876,4,1,0,65,0,0
141275,-120.883354,4,1,0,65,0,0
141418,-119.5677,4,1,0,65,0,0
141561,-118.28038,4,1,0,65,0,0
141704,-117.020485,4,1,0,65,0,0
141847,-115.78715,4,1,0,65,0,0
141990,-114.57953,4,1,0,65,0,0
142133,-113.39685,4,1,0,65,0,0
142275,-112.24636,4,1,0,65,0,0
142418,-111.111115,4,1,0,65,0,0
142991,-100,4,1,0,65,0,0
143259,-111.111115,4,1,0,65,0,0
143402,-110.16849,4,1,0,65,0,0
143545,-109.241714,4,1,0,65,0,0
143687,-108.33674,4,1,0,65,0,0
143830,-107.44041,4,1,0,65,0,0
143973,-106.55879,4,1,0,65,0,0
144116,-105.69152,4,1,0,65,0,0
144258,-104.84417,4,1,0,65,0,0
144402,-103.99866,4,1,0,65,0,0
144545,-103.17239,4,1,0,65,0,0
144687,-102.364815,4,1,0,65,0,0
144830,-101.56421,4,1,0,65,0,0
144973,-100.77604,4,1,0,65,0,0
145116,-100,4,1,0,65,0,0
145276,-111.111111111111,4,1,0,65,0,0
145402,-111.111115,4,1,0,65,0,0
145545,-109.998604,4,1,0,65,0,0
145616,-109.45447,4,1,0,65,0,0
145687,-108.915695,4,1,0,65,0,0
145831,-107.8391,4,1,0,65,0,0
145902,-107.31608,4,1,0,65,0,0
145973,-106.798096,4,1,0,65,0,0
146116,-105.76988,4,1,0,65,0,0
146187,-105.266685,4,1,0,65,0,0
146258,-104.76825,4,1,0,65,0,0
146402,-103.77172,4,1,0,65,0,0
146473,-103.28731,4,1,0,65,0,0
146544,-102.8074,4,1,0,65,0,0
146687,-101.854256,4,1,0,65,0,0
146758,-101.38754,4,1,0,65,0,0
146829,-100.925095,4,1,0,65,0,0
146903,-95.2380952380952,4,1,0,65,0,0
147046,-100,4,1,0,65,0,0
147188,-86.9565217391304,4,1,0,65,0,0
147331,-100,4,1,0,65,0,0
147474,-80,4,1,0,65,0,0
147617,-100,4,1,0,65,0,0
147831,-111.111115,4,1,0,65,0,0
147974,-110.16849,4,1,0,65,0,0
148117,-109.241714,4,1,0,65,0,0
148259,-108.33674,4,1,0,65,0,0
148402,-107.44041,4,1,0,65,0,0
148545,-106.55879,4,1,0,65,0,0
148688,-105.69152,4,1,0,65,0,0
148830,-104.84417,4,1,0,65,0,0
148974,-103.99866,4,1,0,65,0,0
149117,-103.17239,4,1,0,65,0,0
149259,-102.364815,4,1,0,65,0,0
149402,-101.56421,4,1,0,65,0,0
149545,-100.77604,4,1,0,65,0,0
149688,-100,4,1,0,65,0,0
149848,-111.111111111111,4,1,0,65,0,0
149990,-111.111115,4,1,0,65,0,0
150132,-110.299034,4,1,0,65,0,0
150203,-109.89744,4,1,0,65,0,0
150275,-109.49315,4,1,0,65,0,0
150418,-108.69896,4,1,0,65,0,0
150489,-108.30891,4,1,0,65,0,0
150561,-107.9162,4,1,0,65,0,0
150703,-107.15,4,1,0,65,0,0
150774,-106.770966,4,1,0,65,0,0
150846,-106.38931,4,1,0,65,0,0
150990,-105.63415,4,1,0,65,0,0
151061,-105.26574,4,1,0,65,0,0
151133,-104.89477,4,1,0,65,0,0
151275,-104.170715,4,1,0,65,0,0
151347,-103.8074,4,1,0,65,0,0
151418,-103.4516,4,1,0,65,0,0
151561,-102.742355,4,1,0,65,0,0
151704,-102.042755,4,1,0,65,0,0
151847,-101.35263,4,1,0,65,0,0
151918,-101.013435,4,1,0,65,0,0
151990,-100.67177,4,1,0,65,0,0
152133,-100,4,1,0,65,0,0
152418,-124.99159,4,1,0,65,0,0
152561,-123.799995,4,1,0,65,0,0
152704,-122.63092,4,1,0,65,0,0
152847,-121.48371,4,1,0,65,0,0
152990,-120.357765,4,1,0,65,0,0
153133,-119.25251,4,1,0,65,0,0
153275,-118.17487,4,1,0,65,0,0
153418,-117.10917,4,1,0,65,0,0
153561,-116.0625,4,1,0,65,0,0
153704,-115.03438,4,1,0,65,0,0
153847,-114.024315,4,1,0,65,0,0
153990,-113.03184,4,1,0,65,0,0
154133,-112.05649,4,1,0,65,0,0
154275,-111.10446,4,1,0,65,0,0
154419,-124.991582250486,4,1,0,65,0,0
154561,-124.989586,4,1,0,65,0,0
154704,-123.5178,4,1,0,65,0,0
154775,-122.79985,4,1,0,65,0,0
154847,-122.08025,4,1,0,65,0,0
154990,-120.67579,4,1,0,65,0,0
155061,-119.99042,4,1,0,65,0,0
155133,-119.30328,4,1,0,65,0,0
155275,-117.97092,4,1,0,65,0,0
155347,-117.306656,4,1,0,65,0,0
155418,-116.658905,4,1,0,65,0,0
155561,-115.37575,4,1,0,65,0,0
155633,-114.74031,4,1,0,65,0,0
155704,-114.12053,4,1,0,65,0,0
155847,-112.89232,4,1,0,65,0,0
155918,-112.292274,4,1,0,65,0,0
155990,-111.690254,4,1,0,65,0,0
156062,-105.263157894737,4,1,0,65,0,0
156348,-95.2380952380952,4,1,0,65,0,0
156634,-86.9565217391304,4,1,0,65,0,0
156990,-124.991264,4,1,0,65,0,0
157133,-123.75208,4,1,0,65,0,0
157275,-122.545654,4,1,0,65,0,0
157419,-121.34603,4,1,0,65,0,0
157562,-120.17775,4,1,0,65,0,0
157705,-119.031746,4,1,0,65,0,0
157847,-117.915184,4,1,0,65,0,0
157990,-116.81172,4,1,0,65,0,0
158133,-115.72873,4,1,0,65,0,0
158276,-114.66564,4,1,0,65,0,0
158419,-113.621895,4,1,0,65,0,0
158562,-112.596985,4,1,0,65,0,0
158704,-111.59737,4,1,0,65,0,0
158991,-125.615758251414,4,1,0,65,0,0
159134,-125.615758251414,4,1,0,65,0,0
159275,-125,4,1,0,65,0,0
159347,-123.80064,4,1,0,65,0,0
159418,-122.64026,4,1,0,65,0,0
159490,-121.48556,4,1,0,65,0,0
159561,-120.36797,4,1,0,65,0,0
159633,-119.255455,4,1,0,65,0,0
159704,-118.178345,4,1,0,65,0,0
159776,-117.10577,4,1,0,65,0,0
159847,-116.06696,4,1,0,65,0,0
159919,-115.032196,4,1,0,65,0,0
159990,-114.02971,4,1,0,65,0,0
160062,-113.03078,4,1,0,65,0,0
160133,-112.06272,4,1,0,65,0,0
160205,-111.09782,4,1,0,65,0,0
160276,-110.16245,4,1,0,65,0,0
160348,-109.229866,4,1,0,65,0,0
160418,-108.33819,4,1,0,65,0,0
160490,-107.436104,4,1,0,65,0,0
160561,-106.56114,4,1,0,65,0,0
160633,-105.688286,4,1,0,65,0,0
160704,-104.84144,4,1,0,65,0,0
160776,-103.99642,4,1,0,65,0,0
160847,-103.17637,4,1,0,65,0,0
160919,-102.357864,4,1,0,65,0,0
160990,-101.563354,4,1,0,65,0,0
161133,-100,4,1,0,75,0,0
172990,-100,4,1,0,75,0,0
173133,-99.17259,4,1,0,75,0,0
173204,-98.76686,4,1,0,75,0,0
173275,-98.36442,4,1,0,75,0,0
173418,-97.56374,4,1,0,75,0,0
173490,-97.16553,4,1,0,75,0,0
173561,-96.77602,4,1,0,75,0,0
173704,-96.00089,4,1,0,75,0,0
173775,-95.620636,4,1,0,75,0,0
173847,-95.2381,4,1,0,75,0,0
173918,-94.863846,4,1,0,75,0,0
173990,-94.48732,4,1,0,75,0,0
174061,-94.11894,4,1,0,75,0,0
174133,-93.74829,4,1,0,75,0,0
174204,-93.38564,4,1,0,75,0,0
174275,-93.02578,4,1,0,75,0,0
174347,-92.66367,4,1,0,75,0,0
174418,-92.30936,4,1,0,75,0,0
174490,-91.95278,4,1,0,75,0,0
174561,-91.603874,4,1,0,75,0,0
174633,-91.25273,4,1,0,75,0,0
174704,-90.90909,4,1,0,75,0,0
174776,-86.9565217391304,4,1,0,75,0,0
174848,-86.9565217391304,4,1,0,70,0,0
174919,-86.9565217391304,4,1,0,65,0,0
174990,-100,4,1,0,45,0,0
176134,-100,4,1,0,45,0,0
176562,-100,4,1,0,65,0,0
177705,-100,4,1,0,45,0,0
180705,-100,4,1,0,45,0,0
181419,-100,4,1,0,55,0,0
182848,-100,4,1,0,60,0,0
183491,-90.9090909090909,4,1,0,60,0,0
183991,-100,4,1,0,60,0,0
184134,-100,4,1,0,50,0,0
185275,-100,4,1,0,50,0,0
185418,-96.77419,4,1,0,50,0,0
185561,-93.74999,4,1,0,50,0,0
185704,-90.90909,4,1,0,50,0,0
185752,-89.99371,4,1,0,50,0,0
185799,-89.11509,4,1,0,50,0,0
185847,-88.235306,4,1,0,50,0,0
185918,-86.96534,4,1,0,50,0,0
185990,-85.71429,4,1,0,50,0,0
186037,-84.91687,4,1,0,50,0,0
186085,-84.11765,4,1,0,50,0,0
186133,-83.333336,4,1,0,50,0,0
186419,-100,4,1,0,70,0,0
186708,-83.3333333333333,4,1,0,75,0,1
193062,-78.7401574803149,4,1,0,75,0,1
193205,-83.3333333333333,4,1,0,75,0,1
193561,-83.32726,4,1,0,75,0,1
193633,-82.891785,4,1,0,75,0,1
193703,-82.47274,4,1,0,75,0,1
193775,-82.04613,4,1,0,75,0,1
193846,-81.62974,4,1,0,75,0,1
193918,-81.21178,4,1,0,75,0,1
193989,-80.803795,4,1,0,75,0,1
194061,-80.394226,4,1,0,75,0,1
194132,-79.99439,4,1,0,75,0,1
194275,-75.7575757575758,4,1,0,75,0,1
194419,-83.3333333333333,4,1,0,75,0,1
194560,-83.32849,4,1,0,75,0,1
194703,-82.639854,4,1,0,75,0,1
194775,-82.297424,4,1,0,75,0,1
194846,-81.962524,4,1,0,75,0,1
194917,-81.63033,4,1,0,75,0,1
194990,-81.29157,4,1,0,75,0,1
195060,-80.96937,4,1,0,75,0,1
195132,-80.64062,4,1,0,75,0,1
195204,-80.31452,4,1,0,75,0,1
195275,-79.99553,4,1,0,75,0,1
195417,-75.7575757575758,4,1,0,75,0,1
195562,-83.3333333333333,4,1,0,75,0,1
195704,-83.3333369444446,4,1,0,75,0,1
202561,-83.333336,4,1,0,75,0,1
202633,-83.87534,4,1,0,75,0,1
202704,-84.41677,4,1,0,75,0,1
202775,-84.96523,4,1,0,75,0,1
202847,-85.52875,4,1,0,75,0,1
202918,-86.0918,4,1,0,75,0,1
202990,-86.6704,4,1,0,75,0,1
203061,-87.24864,4,1,0,75,0,1
203133,-87.84296,4,1,0,75,0,1
203204,-88.437,4,1,0,75,0,1
203275,-89.03913,4,1,0,75,0,1
203346,-89.64951,4,1,0,75,0,1
203418,-90.2771,4,1,0,75,0,1
203489,-90.90465,4,1,0,75,0,1
203561,-91.549995,4,1,0,75,0,1
203632,-92.19541,4,1,0,75,0,1
203704,-92.85928,4,1,0,75,0,1
203775,-93.52338,4,1,0,75,0,1
203847,-94.20658,4,1,0,75,0,1
203918,-94.89014,4,1,0,75,0,1
203990,-95.59354,4,1,0,75,0,1
204061,-96.297455,4,1,0,75,0,1
204133,-97.02195,4,1,0,75,0,1
204204,-97.74713,4,1,0,75,0,1
204276,-98.49369,4,1,0,75,0,1
204347,-99.24112,4,1,0,75,0,1
204384,-100,4,1,0,75,0,1
204562,-100,4,1,0,75,0,1
204708,-100,4,1,0,75,0,0
211561,-100,4,1,0,75,0,0
211704,-99.28972,4,1,0,75,0,0
211775,-98.9408,4,1,0,75,0,0
211847,-98.58947,4,1,0,75,0,0
211990,-97.89901,4,1,0,75,0,0
212061,-97.559784,4,1,0,75,0,0
212133,-97.21817,4,1,0,75,0,0
212275,-96.55139,4,1,0,75,0,0
212347,-96.21679,4,1,0,75,0,0
212418,-95.88909,4,1,0,75,0,0
212561,-95.23583,4,1,0,75,0,0
212633,-94.91027,4,1,0,75,0,0
212704,-94.59139,4,1,0,75,0,0
212775,-94.274666,4,1,0,75,0,0
212847,-93.955635,4,1,0,75,0,0
212918,-93.643135,4,1,0,75,0,0
212990,-93.328354,4,1,0,75,0,0
213061,-93.02001,4,1,0,75,0,0
213133,-92.709404,4,1,0,75,0,0
213204,-92.40512,4,1,0,75,0,0
213275,-92.102844,4,1,0,75,0,0
213347,-91.79832,4,1,0,75,0,0
213418,-91.49998,4,1,0,75,0,0
213490,-91.19942,4,1,0,75,0,0
213561,-90.90496,4,1,0,75,0,0
213634,-90.9090909090909,4,1,0,75,0,0
213705,-90.9090909090909,4,1,0,70,0,0
214147,-100,4,1,0,60,0,0
215276,-100,4,1,0,60,0,0
215526,-80,4,1,0,60,0,0

[HitObjects]
120,131,137,5,8,0:0:0:0:
120,131,208,1,8,0:0:0:0:
120,131,279,1,8,0:0:0:0:
120,131,351,1,8,0:0:0:0:
120,131,422,1,0,0:0:0:0:
120,131,493,1,0,0:0:0:0:
120,131,564,1,0,0:0:0:0:
120,131,636,1,0,0:0:0:0:
120,131,708,1,8,0:0:0:0:
120,131,779,1,8,0:0:0:0:
120,131,850,1,0,0:0:0:0:
120,131,922,1,0,0:0:0:0:
173,83,994,1,8,0:0:0:0:
218,57,1137,1,4,0:0:0:0:
218,57,1565,1,4,0:0:0:0:
267,88,3422,1,8,0:0:0:0:
267,88,5565,1,8,0:0:0:0:
267,88,5637,1,8,0:0:0:0:
267,88,5708,1,4,0:0:0:0:
267,88,6137,1,4,0:0:0:0:
267,88,6708,1,8,0:0:0:0:
266,132,6994,1,8,0:0:0:0:
266,132,7065,1,8,0:0:0:0:
266,132,7137,1,0,0:0:0:0:
266,132,7279,1,8,0:0:0:0:
266,132,7351,1,8,0:0:0:0:
266,132,7422,1,0,0:0:0:0:
266,132,7565,1,12,0:0:0:0:
266,132,7708,1,12,0:0:0:0:
266,132,7994,1,0,0:0:0:0:
266,132,8422,1,0,0:0:0:0:
291,119,8708,1,8,0:0:0:0:
120,131,9279,1,8,0:0:0:0:
120,131,9350,1,8,0:0:0:0:
120,131,9421,1,8,0:0:0:0:
120,131,9493,1,8,0:0:0:0:
120,131,9565,1,0,0:0:0:0:
120,131,9636,1,0,0:0:0:0:
120,131,9707,1,0,0:0:0:0:
120,131,9779,1,0,0:0:0:0:
120,131,9851,1,8,0:0:0:0:
120,131,9922,1,8,0:0:0:0:
120,131,9993,1,0,0:0:0:0:
120,131,10065,1,0,0:0:0:0:
243,78,10137,1,8,0:0:0:0:
218,237,10422,1,12,0:0:0:0:
111,181,10565,1,0,0:0:0:0:
111,181,10708,1,0,0:0:0:0:
111,181,10851,1,8,0:0:0:0:
149,140,11137,1,0,0:0:0:0:
149,140,11279,1,8,0:0:0:0:
149,140,11351,1,8,0:0:0:0:
149,140,11422,1,0,0:0:0:0:
238,162,11565,1,8,0:0:0:0:
238,162,11708,1,8,0:0:0:0:
238,162,11851,1,0,0:0:0:0:
238,162,11994,1,8,0:0:0:0:
256,196,12279,1,0,0:0:0:0:
256,196,12422,1,8,0:0:0:0:
256,196,12494,1,0,0:0:0:0:
256,196,12565,1,0,0:0:0:0:
246,174,12708,1,8,0:0:0:0:
246,174,12851,1,0,0:0:0:0:
246,174,12994,1,0,0:0:0:0:
246,174,13137,1,8,0:0:0:0:
53,128,13422,1,0,0:0:0:0:
53,128,13565,1,8,0:0:0:0:
53,128,13637,1,8,0:0:0:0:
53,128,13708,1,0,0:0:0:0:
53,128,13851,1,8,0:0:0:0:
53,128,13922,1,8,0:0:0:0:
53,128,13994,1,8,0:0:0:0:
53,128,14137,1,8,0:0:0:0:
53,128,14208,1,8,0:0:0:0:
53,128,14279,1,8,0:0:0:0:
53,128,14422,1,0,0:0:0:0:
53,128,14494,1,0,0:0:0:0:
53,128,14565,1,0,0:0:0:0:
53,128,14708,1,0,0:0:0:0:
53,128,14779,1,0,0:0:0:0:
53,128,14851,1,0,0:0:0:0:
53,128,14994,1,12,0:0:0:0:
53,128,15137,1,0,0:0:0:0:
53,128,15279,1,0,0:0:0:0:
53,128,15422,1,8,0:0:0:0:
202,120,15708,1,0,0:0:0:0:
202,120,15851,1,8,0:0:0:0:
202,120,15922,1,8,0:0:0:0:
202,120,15994,1,0,0:0:0:0:
248,172,16137,1,8,0:0:0:0:
248,172,16279,1,8,0:0:0:0:
248,172,16422,1,0,0:0:0:0:
248,172,16565,1,8,0:0:0:0:
293,189,16851,1,0,0:0:0:0:
293,189,16994,1,8,0:0:0:0:
293,189,17065,1,0,0:0:0:0:
293,189,17137,1,0,0:0:0:0:
293,189,17279,1,8,0:0:0:0:
293,189,17422,1,0,0:0:0:0:
293,189,17565,1,0,0:0:0:0:
293,189,17708,1,8,0:0:0:0:
324,212,17994,1,0,0:0:0:0:
324,212,18137,1,8,0:0:0:0:
324,212,18208,1,8,0:0:0:0:
324,212,18279,1,0,0:0:0:0:
324,212,18422,1,8,0:0:0:0:
324,212,18494,1,8,0:0:0:0:
324,212,18565,1,8,0:0:0:0:
324,212,18708,1,8,0:0:0:0:
324,212,18779,1,8,0:0:0:0:
324,212,18851,1,8,0:0:0:0:
324,212,18994,1,0,0:0:0:0:
324,212,19065,1,8,0:0:0:0:
324,212,19137,1,0,0:0:0:0:
229,199,19279,1,8,0:0:0:0:
229,199,19351,1,8,0:0:0:0:
229,199,19422,1,0,0:0:0:0:
229,199,19565,1,12,0:0:0:0:
309,217,19851,1,0,0:0:0:0:
309,217,19994,1,0,0:0:0:0:
309,217,20137,1,8,0:0:0:0:
197,107,20279,1,0,0:0:0:0:
309,217,20422,1,0,0:0:0:0:
309,217,20565,1,0,0:0:0:0:
309,217,20708,1,8,0:0:0:0:
197,107,20850,1,0,0:0:0:0:
309,217,20994,1,0,0:0:0:0:
309,217,21137,1,0,0:0:0:0:
309,217,21279,1,8,0:0:0:0:
197,107,21422,1,8,0:0:0:0:
309,217,21565,1,0,0:0:0:0:
309,217,21708,1,8,0:0:0:0:
131,128,21994,1,0,0:0:0:0:
131,128,22137,1,0,0:0:0:0:
131,128,22208,1,0,0:0:0:0:
131,128,22279,1,0,0:0:0:0:
131,128,22423,1,8,0:0:0:0:
131,128,22494,1,0,0:0:0:0:
131,128,22565,1,0,0:0:0:0:
131,128,22708,1,0,0:0:0:0:
131,128,22779,1,0,0:0:0:0:
131,128,22850,1,0,0:0:0:0:
131,128,22994,1,8,0:0:0:0:
131,128,23065,1,8,0:0:0:0:
131,128,23136,1,0,0:0:0:0:
131,128,23279,1,0,0:0:0:0:
131,128,23350,1,0,0:0:0:0:
131,128,23421,1,0,0:0:0:0:
361,88,23565,1,12,0:0:0:0:
334,107,23851,1,12,0:0:0:0:
334,107,24137,1,12,0:0:0:0:
217,104,24422,1,0,0:0:0:0:
217,104,24565,1,0,0:0:0:0:
217,104,24708,1,8,0:0:0:0:
217,104,24851,1,0,0:0:0:0:
217,104,24994,1,0,0:0:0:0:
217,104,25137,1,0,0:0:0:0:
217,104,25280,1,8,0:0:0:0:
217,104,25423,1,0,0:0:0:0:
217,104,25565,1,0,0:0:0:0:
217,104,25708,1,0,0:0:0:0:
217,104,25851,1,8,0:0:0:0:
217,104,25994,1,0,0:0:0:0:
217,104,26137,1,0,0:0:0:0:
217,104,26280,1,8,0:0:0:0:
301,120,26565,1,0,0:0:0:0:
301,120,26708,1,0,0:0:0:0:
301,120,26779,1,0,0:0:0:0:
301,120,26851,1,0,0:0:0:0:
301,120,26994,1,8,0:0:0:0:
301,120,27065,1,0,0:0:0:0:
301,120,27137,1,0,0:0:0:0:
301,120,27279,1,0,0:0:0:0:
301,120,27350,1,0,0:0:0:0:
301,120,27422,1,0,0:0:0:0:
301,120,27565,1,0,0:0:0:0:
301,120,27637,1,8,0:0:0:0:
301,120,27708,1,0,0:0:0:0:
301,120,27851,1,8,0:0:0:0:
301,120,27922,1,8,0:0:0:0:
301,120,27994,1,0,0:0:0:0:
401,128,28065,1,0,0:0:0:0:
310,124,28137,1,0,0:0:0:0:
310,124,28208,1,0,0:0:0:0:
310,124,28279,1,0,0:0:0:0:
310,124,28351,1,0,0:0:0:0:
310,124,28422,1,8,0:0:0:0:
310,124,28565,1,0,0:0:0:0:
310,125,28708,1,8,0:0:0:0:
312,126,28779,1,8,0:0:0:0:
311,126,28851,1,0,0:0:0:0:
313,127,28994,1,0,0:0:0:0:
313,127,29137,1,0,0:0:0:0:
313,127,29279,1,8,0:0:0:0:
313,127,29422,1,0,0:0:0:0:
313,127,29565,1,12,0:0:0:0:
224,135,30422,1,8,0:0:0:0:
221,119,30994,1,8,0:0:0:0:
221,119,31065,1,0,0:0:0:0:
221,119,31137,1,0,0:0:0:0:
221,119,31279,1,0,0:0:0:0:
221,119,31422,1,0,0:0:0:0:
221,119,31565,1,0,0:0:0:0:
221,119,31708,1,0,0:0:0:0:
221,119,31851,1,12,0:0:0:0:
221,119,32422,1,12,0:0:0:0:
221,119,32994,1,12,0:0:0:0:
221,119,33279,1,8,0:0:0:0:
221,119,33351,1,8,0:0:0:0:
221,119,33422,1,0,0:0:0:0:
221,119,33565,1,0,0:0:0:0:
221,119,33708,1,0,0:0:0:0:
221,119,33851,1,8,0:0:0:0:
221,119,33994,1,0,0:0:0:0:
221,119,34137,1,12,0:0:0:0:
288,149,34994,1,8,0:0:0:0:
288,149,35065,1,8,0:0:0:0:
288,149,35137,1,8,0:0:0:0:
288,149,35279,1,0,0:0:0:0:
288,149,35422,1,0,0:0:0:0:
283,145,35565,1,8,0:0:0:0:
283,145,35637,1,8,0:0:0:0:
283,145,35708,1,0,0:0:0:0:
283,145,35851,1,8,0:0:0:0:
283,145,35994,1,8,0:0:0:0:
283,145,36137,1,0,0:0:0:0:
283,145,36279,1,0,0:0:0:0:
283,145,36422,1,12,0:0:0:0:
287,97,36851,1,8,0:0:0:0:
287,97,36922,1,8,0:0:0:0:
287,97,36994,1,4,0:0:0:0:
283,157,37279,1,0,0:0:0:0:
84,165,37351,1,0,0:0:0:0:
84,165,37422,1,12,0:0:0:0:
290,276,37851,1,8,0:0:0:0:
290,276,37922,1,8,0:0:0:0:
290,276,37994,1,0,0:0:0:0:
290,276,38137,1,8,0:0:0:0:
290,276,38279,1,0,0:0:0:0:
290,276,38422,1,0,0:0:0:0:
290,276,38565,1,0,0:0:0:0:
290,276,38708,1,8,0:0:0:0:
334,303,38994,1,0,0:0:0:0:
334,303,39279,1,8,0:0:0:0:
334,303,39565,1,0,0:0:0:0:
334,303,39851,1,8,0:0:0:0:
236,161,40137,1,0,0:0:0:0:
236,161,40208,1,0,0:0:0:0:
236,161,40279,1,0,0:0:0:0:
336,308,40422,1,8,0:0:0:0:
336,308,40565,1,8,0:0:0:0:
336,308,40708,1,0,0:0:0:0:
336,308,40851,1,0,0:0:0:0:
336,308,40994,1,8,0:0:0:0:
343,205,41279,1,0,0:0:0:0:
332,201,41565,1,8,0:0:0:0:
343,205,41851,1,0,0:0:0:0:
343,205,42137,1,8,0:0:0:0:
373,251,42422,1,8,0:0:0:0:
373,251,42494,1,0,0:0:0:0:
373,251,42565,1,0,0:0:0:0:
373,251,42708,1,8,0:0:0:0:
373,251,42851,1,0,0:0:0:0:
373,251,42994,1,0,0:0:0:0:
373,251,43137,1,0,0:0:0:0:
373,251,43279,1,8,0:0:0:0:
373,251,43565,1,0,0:0:0:0:
368,248,43851,1,8,0:0:0:0:
373,251,44137,1,8,0:0:0:0:
373,251,44208,1,0,0:0:0:0:
373,251,44279,1,8,0:0:0:0:
373,251,44422,1,0,0:0:0:0:
373,251,44565,1,0,0:0:0:0:
368,248,44708,1,8,0:0:0:0:
368,248,44779,1,8,0:0:0:0:
368,248,44851,1,0,0:0:0:0:
373,251,44994,1,0,0:0:0:0:
373,251,45137,1,8,0:0:0:0:
373,251,45279,1,0,0:0:0:0:
373,251,45422,1,0,0:0:0:0:
373,251,45565,1,8,0:0:0:0:
292,145,45851,1,8,0:0:0:0:
292,145,45922,1,8,0:0:0:0:
292,145,45994,1,0,0:0:0:0:
292,145,46065,1,0,0:0:0:0:
287,142,46137,1,8,0:0:0:0:
287,142,46208,1,8,0:0:0:0:
287,142,46279,1,0,0:0:0:0:
287,142,46351,1,0,0:0:0:0:
287,142,46422,1,12,0:0:0:0:
287,142,46565,1,12,0:0:0:0:
163,162,46994,1,12,0:0:0:0:
163,162,47137,1,0,0:0:0:0:
163,162,47279,1,8,0:0:0:0:
163,162,47422,1,0,0:0:0:0:
251,202,47708,1,0,0:0:0:0:
251,202,47851,1,8,0:0:0:0:
251,202,47922,1,8,0:0:0:0:
251,202,47994,1,0,0:0:0:0:
251,202,48137,1,8,0:0:0:0:
251,202,48279,1,0,0:0:0:0:
251,202,48422,1,8,0:0:0:0:
251,202,48565,1,0,0:0:0:0:
271,221,48851,1,0,0:0:0:0:
271,221,48994,1,8,0:0:0:0:
271,221,49065,1,0,0:0:0:0:
271,221,49137,1,8,0:0:0:0:
275,241,49279,1,0,0:0:0:0:
275,241,49422,1,0,0:0:0:0:
275,241,49565,1,8,0:0:0:0:
275,241,49708,1,0,0:0:0:0:
210,198,49994,1,0,0:0:0:0:
210,198,50137,1,8,0:0:0:0:
210,198,50208,1,8,0:0:0:0:
210,198,50279,1,0,0:0:0:0:
250,206,50422,1,8,0:0:0:0:
250,206,50494,1,0,0:0:0:0:
250,206,50565,1,0,0:0:0:0:
250,206,50708,1,8,0:0:0:0:
250,206,50779,1,0,0:0:0:0:
250,206,50851,1,0,0:0:0:0:
307,204,50994,1,0,0:0:0:0:
307,204,51065,1,0,0:0:0:0:
307,204,51137,1,0,0:0:0:0:
315,216,51279,1,0,0:0:0:0:
315,216,51351,1,0,0:0:0:0:
315,216,51422,1,0,0:0:0:0:
315,216,51565,1,12,0:0:0:0:
315,216,51708,1,0,0:0:0:0:
315,216,51851,1,8,0:0:0:0:
315,216,51994,1,0,0:0:0:0:
336,243,52279,1,0,0:0:0:0:
336,243,52422,1,8,0:0:0:0:
336,243,52494,1,8,0:0:0:0:
336,243,52565,1,0,0:0:0:0:
341,273,52708,1,0,0:0:0:0:
341,273,52851,1,0,0:0:0:0:
341,273,52994,1,8,0:0:0:0:
341,273,53137,1,0,0:0:0:0:
351,292,53422,1,0,0:0:0:0:
351,292,53565,1,8,0:0:0:0:
351,292,53637,1,8,0:0:0:0:
351,292,53708,1,0,0:0:0:0:
260,202,53851,1,12,0:0:0:0:
260,202,53994,1,12,0:0:0:0:
282,214,54279,1,12,0:0:0:0:
326,236,54565,1,0,0:0:0:0:
326,236,54708,1,0,0:0:0:0:
326,236,54779,1,0,0:0:0:0:
326,236,54851,1,0,0:0:0:0:
326,236,54994,1,12,0:0:0:0:
326,236,55137,1,0,0:0:0:0:
238,136,55208,1,0,0:0:0:0:
326,236,55279,1,8,0:0:0:0:
326,236,55422,1,0,0:0:0:0:
250,120,55494,1,0,0:0:0:0:
250,120,55565,1,8,0:0:0:0:
250,120,55637,1,8,0:0:0:0:
326,236,55708,1,0,0:0:0:0:
326,236,55779,1,0,0:0:0:0:
326,236,55851,1,0,0:0:0:0:
326,236,55922,1,0,0:0:0:0:
326,236,55994,1,0,0:0:0:0:
326,236,56065,1,0,0:0:0:0:
326,236,56137,1,8,0:0:0:0:
326,236,56994,1,0,0:0:0:0:
326,236,57137,1,12,0:0:0:0:
259,129,57422,1,0,0:0:0:0:
259,129,57565,1,8,0:0:0:0:
259,129,57708,1,0,0:0:0:0:
259,129,57779,1,0,0:0:0:0:
259,129,57851,1,0,0:0:0:0:
259,129,57994,1,0,0:0:0:0:
259,129,58137,1,8,0:0:0:0:
259,129,58208,1,8,0:0:0:0:
259,129,58279,1,0,0:0:0:0:
259,129,58422,1,8,0:0:0:0:
259,129,58494,1,8,0:0:0:0:
259,129,58565,1,0,0:0:0:0:
259,129,58637,1,0,0:0:0:0:
259,129,58708,1,8,0:0:0:0:
259,129,58851,1,0,0:0:0:0:
201,108,58922,1,0,0:0:0:0:
218,116,58994,1,8,0:0:0:0:
259,129,59065,1,0,0:0:0:0:
259,129,59137,1,0,0:0:0:0:
259,129,59208,1,0,0:0:0:0:
259,129,59279,1,8,0:0:0:0:
259,129,59422,1,4,0:0:0:0:
259,129,59708,1,0,0:0:0:0:
277,179,59851,1,8,0:0:0:0:
277,179,59922,1,8,0:0:0:0:
277,179,59994,1,8,0:0:0:0:
277,179,60065,1,8,0:0:0:0:
277,179,60137,1,0,0:0:0:0:
277,179,60279,1,0,0:0:0:0:
277,179,60422,1,8,0:0:0:0:
277,179,60494,1,0,0:0:0:0:
277,179,60565,1,0,0:0:0:0:
277,179,60708,1,8,0:0:0:0:
277,179,60779,1,8,0:0:0:0:
277,179,60851,1,0,0:0:0:0:
277,179,60922,1,0,0:0:0:0:
277,179,60994,1,8,0:0:0:0:
277,179,61065,1,8,0:0:0:0:
277,179,61137,1,0,0:0:0:0:
277,179,61279,1,8,0:0:0:0:
277,179,61351,1,0,0:0:0:0:
277,179,61422,1,8,0:0:0:0:
277,179,61494,1,0,0:0:0:0:
277,179,61565,1,8,0:0:0:0:
277,179,61708,1,4,0:0:0:0:
277,179,61994,1,0,0:0:0:0:
215,151,62137,1,8,0:0:0:0:
215,151,62208,1,8,0:0:0:0:
215,151,62279,1,0,0:0:0:0:
215,151,62351,1,0,0:0:0:0:
215,151,62422,1,0,0:0:0:0:
215,151,62565,1,0,0:0:0:0:
215,151,62708,1,8,0:0:0:0:
215,151,62779,1,8,0:0:0:0:
215,151,62851,1,0,0:0:0:0:
215,151,62994,1,8,0:0:0:0:
215,151,63065,1,8,0:0:0:0:
215,151,63137,1,0,0:0:0:0:
215,151,63208,1,0,0:0:0:0:
215,151,63279,1,8,0:0:0:0:
224,159,63422,1,0,0:0:0:0:
224,159,63494,1,8,0:0:0:0:
224,159,63565,1,8,0:0:0:0:
224,159,63637,1,8,0:0:0:0:
224,159,63708,1,0,0:0:0:0:
224,159,63851,1,0,0:0:0:0:
224,159,63994,1,12,0:0:0:0:
215,162,64422,1,8,0:0:0:0:
215,162,64565,1,0,0:0:0:0:
215,162,64708,1,8,0:0:0:0:
215,162,64851,1,0,0:0:0:0:
215,162,64994,1,8,0:0:0:0:
215,162,65137,1,12,0:0:0:0:
125,214,65422,1,0,0:0:0:0:
178,208,65565,1,8,0:0:0:0:
178,208,65637,1,8,0:0:0:0:
178,208,65708,1,8,0:0:0:0:
178,208,65779,1,8,0:0:0:0:
178,208,65851,1,0,0:0:0:0:
178,208,65922,1,0,0:0:0:0:
178,208,65994,1,0,0:0:0:0:
178,208,66065,1,0,0:0:0:0:
178,208,66137,1,8,0:0:0:0:
178,208,66279,1,4,0:0:0:0:
168,127,66565,1,0,0:0:0:0:
168,127,66708,1,8,0:0:0:0:
168,127,66779,1,8,0:0:0:0:
168,127,66851,1,0,0:0:0:0:
168,127,66994,1,0,0:0:0:0:
168,127,67137,1,0,0:0:0:0:
168,127,67279,1,8,0:0:0:0:
168,127,67351,1,8,0:0:0:0:
168,127,67422,1,0,0:0:0:0:
168,127,67565,1,0,0:0:0:0:
168,127,67637,1,8,0:0:0:0:
168,127,67708,1,0,0:0:0:0:
168,127,67779,1,0,0:0:0:0:
168,127,67851,1,8,0:0:0:0:
168,127,67922,1,8,0:0:0:0:
168,127,67994,1,0,0:0:0:0:
194,146,68137,1,8,0:0:0:0:
194,146,68208,1,0,0:0:0:0:
194,146,68279,1,8,0:0:0:0:
194,146,68351,1,8,0:0:0:0:
194,146,68422,1,0,0:0:0:0:
194,146,68565,1,12,0:0:0:0:
194,146,68851,1,0,0:0:0:0:
194,146,68994,1,8,0:0:0:0:
194,146,69065,1,8,0:0:0:0:
194,146,69137,1,8,0:0:0:0:
194,146,69208,1,8,0:0:0:0:
194,146,69279,1,8,0:0:0:0:
194,146,69351,1,8,0:0:0:0:
194,146,69422,1,0,0:0:0:0:
194,146,69565,1,8,0:0:0:0:
194,146,69708,1,0,0:0:0:0:
194,146,69851,1,0,0:0:0:0:
194,146,69922,1,8,0:0:0:0:
194,146,69994,1,0,0:0:0:0:
194,146,70137,1,8,0:0:0:0:
194,146,70208,1,8,0:0:0:0:
194,146,70279,1,0,0:0:0:0:
194,146,70422,1,0,0:0:0:0:
194,146,70494,1,0,0:0:0:0:
194,146,70565,1,8,0:0:0:0:
194,146,70637,1,8,0:0:0:0:
194,146,70708,1,8,0:0:0:0:
194,146,70851,1,4,0:0:0:0:
194,146,71137,1,0,0:0:0:0:
194,146,71279,1,8,0:0:0:0:
194,146,71351,1,8,0:0:0:0:
194,146,71422,1,0,0:0:0:0:
194,146,71494,1,0,0:0:0:0:
194,146,71565,1,8,0:0:0:0:
194,146,71708,1,0,0:0:0:0:
194,146,71851,1,8,0:0:0:0:
194,146,71922,1,8,0:0:0:0:
194,146,71994,1,8,0:0:0:0:
194,146,72065,1,8,0:0:0:0:
194,146,72137,1,0,0:0:0:0:
194,146,72208,1,0,0:0:0:0:
194,146,72279,1,0,0:0:0:0:
194,146,72351,1,0,0:0:0:0:
194,146,72422,1,8,0:0:0:0:
176,172,72565,1,0,0:0:0:0:
233,191,72851,1,0,0:0:0:0:
233,191,72994,1,8,0:0:0:0:
233,191,73137,1,4,0:0:0:0:
247,183,73422,1,0,0:0:0:0:
250,198,73565,1,8,0:0:0:0:
250,198,73708,1,0,0:0:0:0:
250,198,73779,1,0,0:0:0:0:
250,198,73851,1,8,0:0:0:0:
350,229,73994,1,0,0:0:0:0:
350,229,74065,1,0,0:0:0:0:
350,229,74137,1,8,0:0:0:0:
366,235,74279,1,0,0:0:0:0:
366,235,74351,1,0,0:0:0:0:
366,235,74422,1,8,0:0:0:0:
366,235,74494,1,8,0:0:0:0:
366,235,74565,1,8,0:0:0:0:
366,235,74637,1,8,0:0:0:0:
366,235,74708,1,0,0:0:0:0:
366,235,74779,1,0,0:0:0:0:
366,235,74851,1,0,0:0:0:0:
366,235,74922,1,0,0:0:0:0:
366,235,74994,1,8,0:0:0:0:
261,309,75137,1,8,0:0:0:0:
261,309,75279,1,8,0:0:0:0:
141,105,75422,1,4,0:0:0:0:
309,217,75851,1,0,0:0:0:0:
309,217,75994,1,0,0:0:0:0:
309,217,76137,1,8,0:0:0:0:
197,107,76279,1,0,0:0:0:0:
309,217,76422,1,0,0:0:0:0:
309,217,76565,1,0,0:0:0:0:
309,217,76708,1,8,0:0:0:0:
197,107,76850,1,0,0:0:0:0:
309,217,76994,1,0,0:0:0:0:
309,217,77137,1,0,0:0:0:0:
309,217,77279,1,8,0:0:0:0:
197,107,77422,1,8,0:0:0:0:
309,217,77565,1,0,0:0:0:0:
309,217,77708,1,8,0:0:0:0:
131,128,77994,1,0,0:0:0:0:
131,128,78137,1,0,0:0:0:0:
131,128,78208,1,0,0:0:0:0:
131,128,78279,1,0,0:0:0:0:
131,128,78423,1,8,0:0:0:0:
131,128,78494,1,0,0:0:0:0:
131,128,78565,1,0,0:0:0:0:
131,128,78708,1,0,0:0:0:0:
131,128,78779,1,0,0:0:0:0:
131,128,78850,1,0,0:0:0:0:
131,128,78994,1,8,0:0:0:0:
131,128,79065,1,8,0:0:0:0:
131,128,79136,1,0,0:0:0:0:
131,128,79279,1,0,0:0:0:0:
131,128,79350,1,0,0:0:0:0:
131,128,79421,1,0,0:0:0:0:
361,88,79565,1,12,0:0:0:0:
334,107,79851,1,12,0:0:0:0:
334,107,80137,1,12,0:0:0:0:
217,104,80422,1,0,0:0:0:0:
217,104,80565,1,0,0:0:0:0:
217,104,80708,1,8,0:0:0:0:
217,104,80851,1,0,0:0:0:0:
217,104,80994,1,0,0:0:0:0:
217,104,81137,1,0,0:0:0:0:
217,104,81280,1,8,0:0:0:0:
217,104,81423,1,0,0:0:0:0:
217,104,81565,1,0,0:0:0:0:
217,104,81708,1,0,0:0:0:0:
217,104,81851,1,8,0:0:0:0:
217,104,81994,1,0,0:0:0:0:
217,104,82137,1,0,0:0:0:0:
217,104,82280,1,8,0:0:0:0:
301,120,82565,1,0,0:0:0:0:
301,120,82708,1,0,0:0:0:0:
301,120,82779,1,0,0:0:0:0:
301,120,82851,1,0,0:0:0:0:
301,120,82994,1,8,0:0:0:0:
301,120,83065,1,0,0:0:0:0:
301,120,83137,1,0,0:0:0:0:
301,120,83279,1,0,0:0:0:0:
301,120,83350,1,0,0:0:0:0:
301,120,83422,1,0,0:0:0:0:
301,120,83565,1,0,0:0:0:0:
301,120,83637,1,8,0:0:0:0:
301,120,83708,1,0,0:0:0:0:
301,120,83851,1,8,0:0:0:0:
301,120,83922,1,8,0:0:0:0:
301,120,83994,1,0,0:0:0:0:
401,128,84065,1,0,0:0:0:0:
310,124,84137,1,8,0:0:0:0:
310,124,84208,1,0,0:0:0:0:
310,124,84279,1,8,0:0:0:0:
310,124,84351,1,0,0:0:0:0:
310,124,84422,1,8,0:0:0:0:
310,124,84565,1,0,0:0:0:0:
151,167,84708,1,8,0:0:0:0:
151,167,84779,1,0,0:0:0:0:
151,167,84851,1,0,0:0:0:0:
244,196,84994,1,0,0:0:0:0:
244,196,85137,1,0,0:0:0:0:
244,196,85279,1,8,0:0:0:0:
244,196,85422,1,0,0:0:0:0:
301,119,86422,1,8,0:0:0:0:
322,197,86994,1,8,0:0:0:0:
322,197,87065,1,8,0:0:0:0:
322,197,87137,1,0,0:0:0:0:
322,197,87279,1,0,0:0:0:0:
322,197,87422,1,0,0:0:0:0:
322,197,87565,1,8,0:0:0:0:
322,197,87708,1,0,0:0:0:0:
199,143,88708,1,8,0:0:0:0:
338,168,89279,1,8,0:0:0:0:
338,168,89351,1,0,0:0:0:0:
338,168,89422,1,0,0:0:0:0:
338,168,89565,1,0,0:0:0:0:
338,168,89708,1,0,0:0:0:0:
338,168,89851,1,8,0:0:0:0:
338,168,89994,1,0,0:0:0:0:
306,117,90994,1,8,0:0:0:0:
306,117,91065,1,8,0:0:0:0:
306,117,91137,1,8,0:0:0:0:
281,154,91279,1,8,0:0:0:0:
281,154,91422,1,8,0:0:0:0:
303,241,91565,1,0,0:0:0:0:
303,241,91637,1,0,0:0:0:0:
303,241,91708,1,8,0:0:0:0:
303,241,91779,1,8,0:0:0:0:
303,241,91851,1,8,0:0:0:0:
303,241,91923,1,8,0:0:0:0:
303,241,91994,1,0,0:0:0:0:
303,241,92065,1,0,0:0:0:0:
303,241,92137,1,8,0:0:0:0:
303,241,92209,1,8,0:0:0:0:
303,241,92280,1,8,0:0:0:0:
303,241,92351,1,8,0:0:0:0:
303,241,92422,1,0,0:0:0:0:
303,241,92494,1,8,0:0:0:0:
303,241,92565,1,0,0:0:0:0:
303,241,92636,1,0,0:0:0:0:
303,241,92708,1,8,0:0:0:0:
303,241,92780,1,0,0:0:0:0:
303,241,92851,1,0,0:0:0:0:
303,241,92922,1,0,0:0:0:0:
303,241,92994,1,8,0:0:0:0:
303,241,93065,1,8,0:0:0:0:
303,241,93136,1,0,0:0:0:0:
303,241,93208,1,0,0:0:0:0:
303,241,93280,1,8,0:0:0:0:
76,109,93422,1,8,0:0:0:0:
190,113,93565,1,8,0:0:0:0:
190,113,93708,1,8,0:0:0:0:
290,276,93851,1,8,0:0:0:0:
290,276,93922,1,8,0:0:0:0:
290,276,93994,1,0,0:0:0:0:
290,276,94137,1,8,0:0:0:0:
290,276,94279,1,0,0:0:0:0:
290,276,94422,1,0,0:0:0:0:
290,276,94565,1,0,0:0:0:0:
290,276,94708,1,8,0:0:0:0:
334,303,95279,1,8,0:0:0:0:
334,303,95851,1,8,0:0:0:0:
236,161,96137,1,0,0:0:0:0:
236,161,96208,1,0,0:0:0:0:
236,161,96279,1,0,0:0:0:0:
336,308,96422,1,8,0:0:0:0:
214,122,96565,1,8,0:0:0:0:
336,308,96708,1,0,0:0:0:0:
336,308,96851,1,0,0:0:0:0:
336,308,96994,1,8,0:0:0:0:
332,201,97565,1,8,0:0:0:0:
343,205,98137,1,8,0:0:0:0:
373,251,98422,1,8,0:0:0:0:
373,251,98494,1,0,0:0:0:0:
373,251,98565,1,0,0:0:0:0:
373,251,98708,1,8,0:0:0:0:
373,251,98851,1,0,0:0:0:0:
373,251,98994,1,0,0:0:0:0:
373,251,99137,1,0,0:0:0:0:
373,251,99279,1,8,0:0:0:0:
236,132,99851,1,8,0:0:0:0:
220,172,100137,1,8,0:0:0:0:
220,172,100208,1,8,0:0:0:0:
220,172,100279,1,0,0:0:0:0:
220,172,100422,1,8,0:0:0:0:
220,172,100565,1,0,0:0:0:0:
204,265,100708,1,0,0:0:0:0:
263,281,100779,1,0,0:0:0:0:
111,111,100851,1,0,0:0:0:0:
204,265,100922,1,8,0:0:0:0:
198,116,101065,1,8,0:0:0:0:
218,271,101137,1,0,0:0:0:0:
219,272,101279,1,0,0:0:0:0:
218,272,101351,1,0,0:0:0:0:
218,271,101422,1,8,0:0:0:0:
219,272,101565,1,0,0:0:0:0:
218,272,101636,1,0,0:0:0:0:
218,271,101708,1,8,0:0:0:0:
218,272,101779,1,8,0:0:0:0:
219,272,101851,1,0,0:0:0:0:
218,272,101922,1,0,0:0:0:0:
218,271,101994,1,8,0:0:0:0:
218,272,102065,1,0,0:0:0:0:
219,272,102137,1,8,0:0:0:0:
218,272,102208,1,8,0:0:0:0:
218,271,102280,1,0,0:0:0:0:
218,272,102351,1,8,0:0:0:0:
219,272,102422,1,8,0:0:0:0:
218,272,102493,1,8,0:0:0:0:
218,271,102565,1,0,0:0:0:0:
218,272,102636,1,0,0:0:0:0:
219,272,102708,1,8,0:0:0:0:
218,272,102779,1,0,0:0:0:0:
218,271,102851,1,8,0:0:0:0:
133,178,102994,1,12,0:0:0:0:
100,122,103137,1,0,0:0:0:0:
100,122,103279,1,8,0:0:0:0:
100,122,103422,1,0,0:0:0:0:
251,202,103708,1,0,0:0:0:0:
251,202,103851,1,8,0:0:0:0:
251,202,103922,1,8,0:0:0:0:
251,202,103994,1,0,0:0:0:0:
251,202,104137,1,8,0:0:0:0:
251,202,104279,1,0,0:0:0:0:
251,202,104422,1,8,0:0:0:0:
251,202,104565,1,0,0:0:0:0:
271,221,104851,1,0,0:0:0:0:
271,221,104994,1,8,0:0:0:0:
271,221,105065,1,0,0:0:0:0:
271,221,105137,1,8,0:0:0:0:
275,241,105279,1,0,0:0:0:0:
275,241,105422,1,0,0:0:0:0:
275,241,105565,1,8,0:0:0:0:
275,241,105708,1,0,0:0:0:0:
210,198,105994,1,0,0:0:0:0:
210,198,106137,1,8,0:0:0:0:
210,198,106208,1,8,0:0:0:0:
210,198,106279,1,0,0:0:0:0:
250,206,106422,1,8,0:0:0:0:
250,206,106494,1,0,0:0:0:0:
250,206,106565,1,0,0:0:0:0:
250,206,106708,1,8,0:0:0:0:
250,206,106779,1,8,0:0:0:0:
250,206,106851,1,0,0:0:0:0:
307,204,106994,1,0,0:0:0:0:
307,204,107065,1,0,0:0:0:0:
307,204,107137,1,0,0:0:0:0:
315,216,107279,1,8,0:0:0:0:
315,216,107351,1,0,0:0:0:0:
315,216,107422,1,0,0:0:0:0:
315,216,107565,1,12,0:0:0:0:
315,216,107708,1,0,0:0:0:0:
315,216,107851,1,0,0:0:0:0:
315,216,107994,1,8,0:0:0:0:
336,243,108279,1,0,0:0:0:0:
336,243,108422,1,8,0:0:0:0:
336,243,108494,1,8,0:0:0:0:
336,243,108565,1,0,0:0:0:0:
341,273,108708,1,0,0:0:0:0:
341,273,108851,1,0,0:0:0:0:
341,273,108994,1,8,0:0:0:0:
341,273,109137,1,0,0:0:0:0:
351,292,109422,1,0,0:0:0:0:
351,292,109565,1,8,0:0:0:0:
351,292,109637,1,8,0:0:0:0:
351,292,109708,1,0,0:0:0:0:
260,202,109851,1,12,0:0:0:0:
260,202,109994,1,12,0:0:0:0:
265,117,110279,1,12,0:0:0:0:
267,121,110565,1,0,0:0:0:0:
268,123,110708,1,8,0:0:0:0:
268,123,110779,1,0,0:0:0:0:
268,123,110851,1,0,0:0:0:0:
265,117,110994,1,12,0:0:0:0:
265,117,111137,1,0,0:0:0:0:
209,108,111208,1,0,0:0:0:0:
265,117,111279,1,12,0:0:0:0:
267,121,111422,1,0,0:0:0:0:
267,121,111494,1,0,0:0:0:0:
267,121,111565,1,8,0:0:0:0:
209,108,111637,1,0,0:0:0:0:
262,120,111708,1,0,0:0:0:0:
262,120,111779,1,0,0:0:0:0:
209,108,111851,1,8,0:0:0:0:
209,108,111922,1,8,0:0:0:0:
265,117,111994,1,0,0:0:0:0:
266,132,112065,1,0,0:0:0:0:
265,131,112137,1,8,0:0:0:0:
246,199,112279,1,0,0:0:0:0:
246,199,112327,1,0,0:0:0:0:
246,199,112375,1,0,0:0:0:0:
246,199,112422,1,8,0:0:0:0:
398,64,112494,1,0,0:0:0:0:
326,147,112565,1,8,0:0:0:0:
326,147,112613,1,8,0:0:0:0:
326,147,112660,1,8,0:0:0:0:
326,147,112708,1,0,0:0:0:0:
375,128,112779,1,0,0:0:0:0:
331,255,112851,1,8,0:0:0:0:
331,255,112898,1,0,0:0:0:0:
331,255,112946,1,0,0:0:0:0:
331,255,112994,1,8,0:0:0:0:
326,236,113137,1,12,0:0:0:0:
259,129,113422,1,0,0:0:0:0:
259,129,113565,1,8,0:0:0:0:
259,129,113708,1,0,0:0:0:0:
259,129,113779,1,0,0:0:0:0:
259,129,113851,1,0,0:0:0:0:
259,129,113994,1,0,0:0:0:0:
259,129,114137,1,8,0:0:0:0:
259,129,114208,1,8,0:0:0:0:
259,129,114279,1,0,0:0:0:0:
259,129,114422,1,0,0:0:0:0:
259,129,114494,1,8,0:0:0:0:
259,129,114565,1,0,0:0:0:0:
259,129,114637,1,0,0:0:0:0:
259,129,114708,1,8,0:0:0:0:
259,129,114779,1,8,0:0:0:0:
259,129,114851,1,0,0:0:0:0:
187,59,114922,1,0,0:0:0:0:
187,59,114994,1,8,0:0:0:0:
259,129,115065,1,8,0:0:0:0:
259,129,115137,1,8,0:0:0:0:
259,129,115208,1,8,0:0:0:0:
259,129,115279,1,0,0:0:0:0:
259,129,115422,1,12,0:0:0:0:
259,129,115708,1,0,0:0:0:0:
277,179,115851,1,8,0:0:0:0:
277,179,115922,1,8,0:0:0:0:
277,179,115994,1,8,0:0:0:0:
277,179,116065,1,8,0:0:0:0:
277,179,116137,1,0,0:0:0:0:
277,179,116279,1,0,0:0:0:0:
277,179,116422,1,8,0:0:0:0:
277,179,116494,1,0,0:0:0:0:
277,179,116565,1,0,0:0:0:0:
277,179,116708,1,8,0:0:0:0:
277,179,116779,1,8,0:0:0:0:
277,179,116851,1,0,0:0:0:0:
277,179,116922,1,0,0:0:0:0:
277,179,116994,1,8,0:0:0:0:
277,179,117065,1,8,0:0:0:0:
277,179,117137,1,0,0:0:0:0:
156,113,117208,1,0,0:0:0:0:
277,179,117279,1,8,0:0:0:0:
277,179,117351,1,0,0:0:0:0:
277,179,117422,1,8,0:0:0:0:
277,179,117494,1,0,0:0:0:0:
277,179,117565,1,8,0:0:0:0:
277,179,117708,1,4,0:0:0:0:
277,179,117994,1,0,0:0:0:0:
215,151,118137,1,8,0:0:0:0:
215,151,118208,1,8,0:0:0:0:
215,151,118279,1,0,0:0:0:0:
215,151,118351,1,0,0:0:0:0:
215,151,118422,1,0,0:0:0:0:
215,151,118565,1,0,0:0:0:0:
215,151,118708,1,8,0:0:0:0:
215,151,118779,1,8,0:0:0:0:
215,151,118851,1,0,0:0:0:0:
215,151,118994,1,8,0:0:0:0:
215,151,119065,1,8,0:0:0:0:
215,151,119137,1,0,0:0:0:0:
215,151,119208,1,0,0:0:0:0:
215,151,119279,1,8,0:0:0:0:
224,159,119422,1,0,0:0:0:0:
224,159,119494,1,8,0:0:0:0:
224,159,119565,1,8,0:0:0:0:
224,159,119637,1,8,0:0:0:0:
224,159,119708,1,0,0:0:0:0:
224,159,119851,1,0,0:0:0:0:
224,159,119994,1,12,0:0:0:0:
215,162,120422,1,8,0:0:0:0:
215,162,120565,1,0,0:0:0:0:
215,162,120708,1,8,0:0:0:0:
215,162,120851,1,0,0:0:0:0:
215,162,120994,1,8,0:0:0:0:
215,162,121137,1,12,0:0:0:0:
125,214,121422,1,0,0:0:0:0:
32,140,121494,1,0,0:0:0:0:
178,208,121565,1,8,0:0:0:0:
178,208,121637,1,8,0:0:0:0:
178,208,121708,1,8,0:0:0:0:
178,208,121779,1,8,0:0:0:0:
178,208,121851,1,0,0:0:0:0:
178,208,121922,1,0,0:0:0:0:
178,208,121994,1,0,0:0:0:0:
178,208,122065,1,0,0:0:0:0:
178,208,122137,1,8,0:0:0:0:
178,208,122279,1,4,0:0:0:0:
168,127,122565,1,0,0:0:0:0:
168,127,122708,1,8,0:0:0:0:
168,127,122779,1,8,0:0:0:0:
168,127,122851,1,0,0:0:0:0:
168,127,122994,1,0,0:0:0:0:
168,127,123137,1,0,0:0:0:0:
168,127,123279,1,8,0:0:0:0:
168,127,123351,1,8,0:0:0:0:
168,127,123422,1,0,0:0:0:0:
168,127,123565,1,0,0:0:0:0:
168,127,123637,1,8,0:0:0:0:
168,127,123708,1,0,0:0:0:0:
168,127,123779,1,0,0:0:0:0:
168,127,123851,1,8,0:0:0:0:
168,127,123922,1,8,0:0:0:0:
168,127,123994,1,0,0:0:0:0:
252,170,124065,1,0,0:0:0:0:
194,146,124137,1,8,0:0:0:0:
194,146,124208,1,0,0:0:0:0:
194,146,124279,1,8,0:0:0:0:
194,146,124351,1,8,0:0:0:0:
194,146,124422,1,0,0:0:0:0:
194,146,124565,1,12,0:0:0:0:
194,146,124851,1,0,0:0:0:0:
194,146,124994,1,8,0:0:0:0:
194,146,125065,1,8,0:0:0:0:
194,146,125137,1,8,0:0:0:0:
194,146,125208,1,8,0:0:0:0:
194,146,125279,1,8,0:0:0:0:
194,146,125351,1,8,0:0:0:0:
194,146,125422,1,0,0:0:0:0:
194,146,125565,1,8,0:0:0:0:
194,146,125708,1,0,0:0:0:0:
194,146,125851,1,0,0:0:0:0:
194,146,125922,1,8,0:0:0:0:
194,146,125994,1,0,0:0:0:0:
211,127,126065,1,0,0:0:0:0:
194,146,126137,1,8,0:0:0:0:
194,146,126208,1,8,0:0:0:0:
194,146,126279,1,0,0:0:0:0:
194,146,126422,1,0,0:0:0:0:
194,146,126494,1,0,0:0:0:0:
194,146,126565,1,8,0:0:0:0:
194,146,126637,1,8,0:0:0:0:
194,146,126708,1,8,0:0:0:0:
194,146,126851,1,4,0:0:0:0:
194,146,127137,1,0,0:0:0:0:
194,146,127279,1,8,0:0:0:0:
194,146,127351,1,8,0:0:0:0:
194,146,127422,1,0,0:0:0:0:
194,146,127494,1,0,0:0:0:0:
194,146,127565,1,8,0:0:0:0:
194,146,127708,1,0,0:0:0:0:
194,146,127851,1,8,0:0:0:0:
194,146,127922,1,8,0:0:0:0:
194,146,127994,1,8,0:0:0:0:
194,146,128065,1,8,0:0:0:0:
194,146,128137,1,0,0:0:0:0:
194,146,128208,1,0,0:0:0:0:
194,146,128279,1,0,0:0:0:0:
194,146,128351,1,0,0:0:0:0:
194,146,128422,1,8,0:0:0:0:
176,172,128565,1,0,0:0:0:0:
233,191,128851,1,12,0:0:0:0:
233,191,128994,1,0,0:0:0:0:
233,191,129137,1,4,0:0:0:0:
247,183,129422,1,0,0:0:0:0:
92,119,129565,1,8,0:0:0:0:
92,119,129637,1,8,0:0:0:0:
92,119,129708,1,0,0:0:0:0:
92,119,129779,1,0,0:0:0:0:
92,119,129851,1,8,0:0:0:0:
92,119,129923,1,0,0:0:0:0:
92,119,129994,1,8,0:0:0:0:
92,119,130065,1,8,0:0:0:0:
92,119,130137,1,0,0:0:0:0:
92,119,130209,1,8,0:0:0:0:
92,119,130280,1,0,0:0:0:0:
92,119,130708,1,0,0:0:0:0:
92,119,130780,1,0,0:0:0:0:
92,119,130851,1,0,0:0:0:0:
92,119,130922,1,0,0:0:0:0:
92,119,130994,1,8,0:0:0:0:
92,119,131066,1,8,0:0:0:0:
92,119,131137,1,0,0:0:0:0:
92,119,131208,1,0,0:0:0:0:
175,113,131279,1,8,0:0:0:0:
311,127,131422,1,4,0:0:0:0:
299,188,131851,1,0,0:0:0:0:
299,188,132137,1,0,0:0:0:0:
299,188,132422,1,0,0:0:0:0:
299,188,132708,1,0,0:0:0:0:
299,188,132851,1,0,0:0:0:0:
299,188,132994,1,8,0:0:0:0:
299,188,133137,1,8,0:0:0:0:
299,188,133279,1,8,0:0:0:0:
130,107,133351,1,8,0:0:0:0:
299,188,133422,1,0,0:0:0:0:
299,188,133494,1,0,0:0:0:0:
299,188,133565,1,8,0:0:0:0:
299,188,133637,1,8,0:0:0:0:
299,188,133708,1,8,0:0:0:0:
299,188,133779,1,8,0:0:0:0:
299,188,133851,1,0,0:0:0:0:
334,191,134708,1,0,0:0:0:0:
334,191,134994,1,8,0:0:0:0:
263,233,135708,1,0,0:0:0:0:
263,233,135851,1,0,0:0:0:0:
263,233,135994,1,12,0:0:0:0:
177,137,136994,1,0,0:0:0:0:
221,157,137279,1,8,0:0:0:0:
244,163,138422,1,0,0:0:0:0:
255,167,139279,1,0,0:0:0:0:
255,167,139565,1,8,0:0:0:0:
270,169,140279,1,0,0:0:0:0:
270,169,140422,1,0,0:0:0:0:
270,169,140565,1,12,0:0:0:0:
291,197,140851,1,0,0:0:0:0:
291,197,140994,1,8,0:0:0:0:
291,197,141137,1,0,0:0:0:0:
288,187,141279,1,8,0:0:0:0:
288,187,141422,1,8,0:0:0:0:
288,187,141565,1,0,0:0:0:0:
288,187,141708,1,0,0:0:0:0:
291,197,141851,1,8,0:0:0:0:
291,197,141994,1,0,0:0:0:0:
291,197,142137,1,0,0:0:0:0:
287,197,142279,1,0,0:0:0:0:
289,195,142422,1,8,0:0:0:0:
291,197,142994,1,12,0:0:0:0:
309,217,143279,1,0,0:0:0:0:
309,217,143422,1,0,0:0:0:0:
309,217,143565,1,8,0:0:0:0:
197,107,143707,1,0,0:0:0:0:
309,217,143850,1,0,0:0:0:0:
309,217,143993,1,0,0:0:0:0:
309,217,144136,1,8,0:0:0:0:
197,107,144278,1,0,0:0:0:0:
309,217,144422,1,0,0:0:0:0:
309,217,144565,1,0,0:0:0:0:
309,217,144707,1,8,0:0:0:0:
197,107,144850,1,8,0:0:0:0:
309,217,144993,1,0,0:0:0:0:
309,217,145136,1,8,0:0:0:0:
131,128,145422,1,0,0:0:0:0:
131,128,145565,1,0,0:0:0:0:
131,128,145636,1,0,0:0:0:0:
131,128,145707,1,0,0:0:0:0:
131,128,145851,1,8,0:0:0:0:
131,128,145922,1,0,0:0:0:0:
131,128,145993,1,0,0:0:0:0:
131,128,146136,1,0,0:0:0:0:
131,128,146207,1,0,0:0:0:0:
131,128,146278,1,0,0:0:0:0:
131,128,146422,1,8,0:0:0:0:
131,128,146493,1,8,0:0:0:0:
131,128,146564,1,0,0:0:0:0:
131,128,146707,1,0,0:0:0:0:
131,128,146778,1,0,0:0:0:0:
131,128,146851,1,0,0:0:0:0:
361,88,146993,1,12,0:0:0:0:
334,107,147279,1,12,0:0:0:0:
334,107,147565,1,12,0:0:0:0:
217,104,147850,1,0,0:0:0:0:
217,104,147993,1,0,0:0:0:0:
217,104,148136,1,8,0:0:0:0:
217,104,148279,1,0,0:0:0:0:
217,104,148422,1,0,0:0:0:0:
217,104,148565,1,0,0:0:0:0:
217,104,148708,1,8,0:0:0:0:
217,104,148851,1,0,0:0:0:0:
217,104,148993,1,0,0:0:0:0:
217,104,149136,1,0,0:0:0:0:
217,104,149279,1,8,0:0:0:0:
217,104,149422,1,0,0:0:0:0:
217,104,149565,1,0,0:0:0:0:
217,104,149708,1,8,0:0:0:0:
301,120,149994,1,0,0:0:0:0:
301,120,150136,1,0,0:0:0:0:
301,120,150207,1,0,0:0:0:0:
301,120,150279,1,0,0:0:0:0:
301,120,150422,1,8,0:0:0:0:
301,120,150493,1,0,0:0:0:0:
301,120,150565,1,0,0:0:0:0:
301,120,150707,1,0,0:0:0:0:
301,120,150778,1,0,0:0:0:0:
301,120,150850,1,0,0:0:0:0:
174,142,150994,1,8,0:0:0:0:
174,142,151065,1,0,0:0:0:0:
174,142,151137,1,8,0:0:0:0:
174,142,151279,1,8,0:0:0:0:
174,142,151351,1,8,0:0:0:0:
174,142,151422,1,0,0:0:0:0:
226,166,151565,1,8,0:0:0:0:
117,142,151708,1,0,0:0:0:0:
117,142,151851,1,8,0:0:0:0:
219,62,151922,1,8,0:0:0:0:
117,142,151994,1,0,0:0:0:0:
117,142,152137,1,12,0:0:0:0:
326,252,152422,1,0,0:0:0:0:
326,252,152565,1,0,0:0:0:0:
290,214,152708,1,8,0:0:0:0:
290,214,152851,1,0,0:0:0:0:
290,214,152994,1,0,0:0:0:0:
290,214,153137,1,0,0:0:0:0:
326,252,153279,1,8,0:0:0:0:
326,252,153422,1,0,0:0:0:0:
290,214,153565,1,0,0:0:0:0:
290,214,153708,1,0,0:0:0:0:
290,214,153851,1,8,0:0:0:0:
290,214,153994,1,8,0:0:0:0:
232,146,154137,1,0,0:0:0:0:
232,146,154279,1,8,0:0:0:0:
318,182,154565,1,0,0:0:0:0:
277,209,154708,1,0,0:0:0:0:
277,209,154779,1,0,0:0:0:0:
277,209,154851,1,0,0:0:0:0:
276,209,154994,1,8,0:0:0:0:
277,209,155065,1,0,0:0:0:0:
277,209,155137,1,0,0:0:0:0:
277,209,155279,1,0,0:0:0:0:
277,209,155351,1,0,0:0:0:0:
277,209,155422,1,0,0:0:0:0:
277,209,155565,1,8,0:0:0:0:
277,209,155637,1,8,0:0:0:0:
277,209,155708,1,0,0:0:0:0:
303,203,155851,1,0,0:0:0:0:
303,203,155922,1,0,0:0:0:0:
303,203,155994,1,0,0:0:0:0:
299,198,156137,1,12,0:0:0:0:
298,197,156422,1,12,0:0:0:0:
298,197,156708,1,12,0:0:0:0:
326,252,156994,1,0,0:0:0:0:
326,252,157137,1,0,0:0:0:0:
290,214,157279,1,8,0:0:0:0:
290,214,157423,1,0,0:0:0:0:
290,214,157566,1,0,0:0:0:0:
290,214,157709,1,0,0:0:0:0:
326,252,157851,1,8,0:0:0:0:
326,252,157994,1,0,0:0:0:0:
290,214,158137,1,0,0:0:0:0:
290,214,158280,1,0,0:0:0:0:
290,214,158423,1,8,0:0:0:0:
290,214,158566,1,0,0:0:0:0:
102,119,158708,1,0,0:0:0:0:
102,119,158851,1,12,0:0:0:0:
278,241,159137,1,0,0:0:0:0:
278,241,159279,1,0,0:0:0:0:
278,241,159351,1,0,0:0:0:0:
278,241,159422,1,0,0:0:0:0:
278,241,159494,1,0,0:0:0:0:
278,241,159565,1,8,0:0:0:0:
278,241,159637,1,0,0:0:0:0:
278,241,159708,1,8,0:0:0:0:
278,241,159780,1,8,0:0:0:0:
278,241,159851,1,0,0:0:0:0:
278,241,159923,1,0,0:0:0:0:
278,241,159994,1,0,0:0:0:0:
278,241,160066,1,0,0:0:0:0:
278,241,160137,1,8,0:0:0:0:
278,241,160209,1,8,0:0:0:0:
278,241,160280,1,0,0:0:0:0:
278,241,160352,1,0,0:0:0:0:
278,241,160422,1,8,0:0:0:0:
278,241,160494,1,8,0:0:0:0:
278,241,160565,1,0,0:0:0:0:
278,241,160637,1,0,0:0:0:0:
278,241,160708,1,8,0:0:0:0:
278,241,160780,1,8,0:0:0:0:
278,241,160851,1,8,0:0:0:0:
278,241,160923,1,8,0:0:0:0:
266,133,160994,1,0,0:0:0:0:
270,126,161137,1,12,0:0:0:0:
257,165,161422,1,0,0:0:0:0:
257,165,161565,1,8,0:0:0:0:
257,165,161708,1,0,0:0:0:0:
257,165,161994,1,0,0:0:0:0:
257,165,162137,1,8,0:0:0:0:
257,165,162208,1,8,0:0:0:0:
257,165,162279,1,0,0:0:0:0:
257,165,162422,1,0,0:0:0:0:
257,165,162494,1,8,0:0:0:0:
257,165,162565,1,0,0:0:0:0:
257,165,162637,1,0,0:0:0:0:
257,165,162708,1,8,0:0:0:0:
257,165,162851,1,0,0:0:0:0:
210,126,162922,1,0,0:0:0:0:
210,126,162994,1,0,0:0:0:0:
257,165,163137,1,0,0:0:0:0:
257,165,163279,1,8,0:0:0:0:
257,165,163422,1,12,0:0:0:0:
257,165,163708,1,0,0:0:0:0:
257,165,163851,1,8,0:0:0:0:
257,165,163994,1,0,0:0:0:0:
257,165,164065,1,0,0:0:0:0:
257,165,164137,1,0,0:0:0:0:
257,165,164279,1,0,0:0:0:0:
250,162,164422,1,8,0:0:0:0:
247,162,164494,1,8,0:0:0:0:
247,162,164565,1,8,0:0:0:0:
247,162,164637,1,8,0:0:0:0:
247,162,164708,1,0,0:0:0:0:
245,161,164851,1,0,0:0:0:0:
242,161,164994,1,8,0:0:0:0:
242,161,165065,1,8,0:0:0:0:
242,161,165137,1,0,0:0:0:0:
239,158,165279,1,8,0:0:0:0:
241,159,165422,1,8,0:0:0:0:
241,159,165565,1,0,0:0:0:0:
241,159,165708,1,12,0:0:0:0:
163,108,165994,1,0,0:0:0:0:
298,195,166137,1,8,0:0:0:0:
298,195,166279,1,0,0:0:0:0:
298,195,166422,1,8,0:0:0:0:
298,195,166494,1,8,0:0:0:0:
298,195,166565,1,0,0:0:0:0:
298,195,166708,1,8,0:0:0:0:
298,195,166851,1,0,0:0:0:0:
298,195,166994,1,0,0:0:0:0:
298,195,167065,1,8,0:0:0:0:
298,195,167137,1,0,0:0:0:0:
298,195,167279,1,8,0:0:0:0:
298,195,167422,1,0,0:0:0:0:
298,195,167565,1,8,0:0:0:0:
298,195,167637,1,8,0:0:0:0:
298,195,167708,1,0,0:0:0:0:
298,195,167779,1,0,0:0:0:0:
298,195,167851,1,8,0:0:0:0:
298,195,167994,1,4,0:0:0:0:
298,195,168279,1,0,0:0:0:0:
298,195,168351,1,0,0:0:0:0:
261,179,168422,1,8,0:0:0:0:
261,179,168565,1,0,0:0:0:0:
261,179,168708,1,0,0:0:0:0:
261,179,168851,1,8,0:0:0:0:
261,179,168922,1,0,0:0:0:0:
261,179,168994,1,8,0:0:0:0:
261,179,169137,1,0,0:0:0:0:
255,177,169422,1,0,0:0:0:0:
254,177,169565,1,8,0:0:0:0:
254,177,169708,1,0,0:0:0:0:
256,178,169994,1,0,0:0:0:0:
256,178,170137,1,8,0:0:0:0:
255,177,170279,1,12,0:0:0:0:
284,229,170565,1,0,0:0:0:0:
284,229,170708,1,8,0:0:0:0:
284,229,170851,1,0,0:0:0:0:
278,223,170922,1,0,0:0:0:0:
278,223,170994,1,0,0:0:0:0:
278,222,171137,1,0,0:0:0:0:
278,222,171279,1,8,0:0:0:0:
276,220,171422,1,0,0:0:0:0:
275,218,171565,1,8,0:0:0:0:
275,218,171637,1,8,0:0:0:0:
275,218,171708,1,0,0:0:0:0:
275,218,171851,1,8,0:0:0:0:
275,218,171994,1,0,0:0:0:0:
250,165,172279,1,0,0:0:0:0:
250,165,172422,1,8,0:0:0:0:
250,165,172565,1,4,0:0:0:0:
259,168,172851,1,0,0:0:0:0:
259,168,172994,1,8,0:0:0:0:
258,167,173137,1,0,0:0:0:0:
258,167,173208,1,0,0:0:0:0:
257,167,173279,1,8,0:0:0:0:
257,167,173422,1,0,0:0:0:0:
257,167,173494,1,0,0:0:0:0:
257,167,173565,1,8,0:0:0:0:
259,168,173708,1,0,0:0:0:0:
259,168,173779,1,0,0:0:0:0:
259,168,173851,1,8,0:0:0:0:
251,158,173922,1,8,0:0:0:0:
251,158,173994,1,0,0:0:0:0:
251,158,174065,1,0,0:0:0:0:
251,158,174137,1,8,0:0:0:0:
253,159,174208,1,0,0:0:0:0:
253,159,174279,1,0,0:0:0:0:
253,159,174351,1,0,0:0:0:0:
253,159,174422,1,8,0:0:0:0:
253,159,174494,1,0,0:0:0:0:
253,159,174565,1,0,0:0:0:0:
253,159,174637,1,0,0:0:0:0:
253,159,174708,1,8,0:0:0:0:
254,159,174851,1,4,0:0:0:0:
308,195,176708,1,8,0:0:0:0:
308,195,176779,1,8,0:0:0:0:
308,195,176851,1,8,0:0:0:0:
308,195,176922,1,8,0:0:0:0:
303,185,176994,1,8,0:0:0:0:
305,189,177065,1,8,0:0:0:0:
303,185,177137,1,4,0:0:0:0:
303,185,177565,1,4,0:0:0:0:
316,183,178994,1,0,0:0:0:0:
316,183,179137,1,8,0:0:0:0:
316,183,179422,1,0,0:0:0:0:
316,183,181565,1,8,0:0:0:0:
316,183,181637,1,8,0:0:0:0:
316,183,181708,1,4,0:0:0:0:
311,65,182137,1,4,0:0:0:0:
343,110,182422,1,0,0:0:0:0:
343,110,182708,1,8,0:0:0:0:
234,117,182994,1,0,0:0:0:0:
234,117,183065,1,0,0:0:0:0:
234,117,183137,1,0,0:0:0:0:
234,117,183279,1,0,0:0:0:0:
234,117,183351,1,0,0:0:0:0:
234,117,183422,1,0,0:0:0:0:
234,117,183565,1,12,0:0:0:0:
234,117,183708,1,12,0:0:0:0:
234,117,183994,1,0,0:0:0:0:
234,117,184422,1,0,0:0:0:0:
234,117,184708,1,8,0:0:0:0:
258,138,185279,1,0,0:0:0:0:
258,138,185422,1,0,0:0:0:0:
258,138,185565,1,8,0:0:0:0:
171,188,185708,1,8,0:0:0:0:
171,188,185756,1,8,0:0:0:0:
171,188,185803,1,0,0:0:0:0:
171,188,185851,1,0,0:0:0:0:
197,205,185922,1,8,0:0:0:0:
88,122,185994,1,0,0:0:0:0:
88,122,186041,1,0,0:0:0:0:
88,122,186089,1,0,0:0:0:0:
88,122,186137,1,12,0:0:0:0:
250,133,186708,1,12,0:0:0:0:
250,133,186851,1,0,0:0:0:0:
250,133,186994,1,8,0:0:0:0:
250,133,187137,1,0,0:0:0:0:
259,129,187279,1,8,0:0:0:0:
259,129,187350,1,8,0:0:0:0:
259,129,187421,1,0,0:0:0:0:
259,129,187564,1,8,0:0:0:0:
259,129,187636,1,8,0:0:0:0:
259,129,187707,1,8,0:0:0:0:
259,129,187779,1,8,0:0:0:0:
259,129,187851,1,0,0:0:0:0:
259,129,187921,1,8,0:0:0:0:
259,129,187993,1,0,0:0:0:0:
222,88,188065,1,0,0:0:0:0:
222,88,188137,1,8,0:0:0:0:
259,129,188207,1,8,0:0:0:0:
259,129,188279,1,0,0:0:0:0:
259,129,188350,1,0,0:0:0:0:
259,129,188421,1,8,0:0:0:0:
259,129,188564,1,4,0:0:0:0:
259,129,188850,1,0,0:0:0:0:
277,179,188993,1,8,0:0:0:0:
277,179,189064,1,8,0:0:0:0:
277,179,189136,1,8,0:0:0:0:
277,179,189207,1,8,0:0:0:0:
277,179,189279,1,0,0:0:0:0:
354,94,189351,1,0,0:0:0:0:
277,179,189421,1,0,0:0:0:0:
277,179,189564,1,8,0:0:0:0:
277,179,189636,1,0,0:0:0:0:
277,179,189707,1,0,0:0:0:0:
277,179,189850,1,8,0:0:0:0:
277,179,189921,1,8,0:0:0:0:
277,179,189993,1,0,0:0:0:0:
277,179,190064,1,0,0:0:0:0:
277,179,190136,1,8,0:0:0:0:
277,179,190207,1,8,0:0:0:0:
277,179,190279,1,0,0:0:0:0:
351,116,190351,1,0,0:0:0:0:
277,179,190421,1,8,0:0:0:0:
277,179,190493,1,0,0:0:0:0:
277,179,190564,1,8,0:0:0:0:
277,179,190636,1,0,0:0:0:0:
277,179,190707,1,8,0:0:0:0:
277,179,190850,1,4,0:0:0:0:
277,179,191136,1,0,0:0:0:0:
215,151,191279,1,8,0:0:0:0:
215,151,191350,1,8,0:0:0:0:
215,151,191421,1,0,0:0:0:0:
215,151,191493,1,0,0:0:0:0:
215,151,191564,1,0,0:0:0:0:
215,151,191707,1,0,0:0:0:0:
215,151,191850,1,8,0:0:0:0:
215,151,191921,1,0,0:0:0:0:
215,151,191993,1,0,0:0:0:0:
341,119,192065,1,0,0:0:0:0:
215,151,192136,1,8,0:0:0:0:
215,151,192207,1,8,0:0:0:0:
215,151,192279,1,0,0:0:0:0:
215,151,192350,1,0,0:0:0:0:
215,151,192421,1,8,0:0:0:0:
224,159,192564,1,0,0:0:0:0:
224,159,192636,1,8,0:0:0:0:
224,159,192707,1,8,0:0:0:0:
224,159,192779,1,8,0:0:0:0:
224,159,192850,1,0,0:0:0:0:
224,159,192993,1,0,0:0:0:0:
224,159,193136,1,12,0:0:0:0:
215,162,193565,1,8,0:0:0:0:
317,91,193637,1,8,0:0:0:0:
215,162,193707,1,0,0:0:0:0:
317,91,193779,1,0,0:0:0:0:
215,162,193850,1,8,0:0:0:0:
317,91,193922,1,8,0:0:0:0:
215,162,193993,1,0,0:0:0:0:
317,91,194065,1,0,0:0:0:0:
215,162,194136,1,8,0:0:0:0:
215,162,194279,1,12,0:0:0:0:
125,214,194564,1,0,0:0:0:0:
178,208,194707,1,8,0:0:0:0:
178,208,194779,1,8,0:0:0:0:
178,208,194850,1,0,0:0:0:0:
178,208,194921,1,0,0:0:0:0:
178,208,194994,1,8,0:0:0:0:
178,208,195064,1,8,0:0:0:0:
178,208,195136,1,0,0:0:0:0:
178,208,195208,1,0,0:0:0:0:
178,208,195279,1,8,0:0:0:0:
178,208,195421,1,4,0:0:0:0:
168,127,195707,1,0,0:0:0:0:
168,127,195850,1,8,0:0:0:0:
168,127,195921,1,8,0:0:0:0:
168,127,195993,1,0,0:0:0:0:
168,127,196136,1,0,0:0:0:0:
168,127,196279,1,0,0:0:0:0:
168,127,196421,1,8,0:0:0:0:
168,127,196493,1,8,0:0:0:0:
168,127,196564,1,0,0:0:0:0:
168,127,196708,1,8,0:0:0:0:
168,127,196779,1,0,0:0:0:0:
168,127,196850,1,8,0:0:0:0:
168,127,196921,1,8,0:0:0:0:
168,127,196993,1,0,0:0:0:0:
168,127,197064,1,8,0:0:0:0:
168,127,197136,1,0,0:0:0:0:
90,104,197208,1,0,0:0:0:0:
194,146,197279,1,8,0:0:0:0:
194,146,197350,1,0,0:0:0:0:
194,146,197421,1,8,0:0:0:0:
194,146,197493,1,8,0:0:0:0:
194,146,197564,1,0,0:0:0:0:
194,146,197708,1,12,0:0:0:0:
194,146,197993,1,0,0:0:0:0:
194,146,198136,1,8,0:0:0:0:
194,146,198207,1,8,0:0:0:0:
194,146,198279,1,8,0:0:0:0:
194,146,198350,1,8,0:0:0:0:
194,146,198421,1,8,0:0:0:0:
194,146,198493,1,8,0:0:0:0:
194,146,198564,1,0,0:0:0:0:
194,146,198707,1,8,0:0:0:0:
194,146,198850,1,0,0:0:0:0:
194,146,198993,1,0,0:0:0:0:
194,146,199064,1,8,0:0:0:0:
194,146,199136,1,0,0:0:0:0:
181,127,199208,1,0,0:0:0:0:
194,146,199279,1,8,0:0:0:0:
194,146,199350,1,8,0:0:0:0:
194,146,199421,1,0,0:0:0:0:
219,127,199494,1,0,0:0:0:0:
194,146,199564,1,8,0:0:0:0:
194,146,199636,1,0,0:0:0:0:
194,146,199707,1,8,0:0:0:0:
194,146,199779,1,8,0:0:0:0:
194,146,199850,1,8,0:0:0:0:
194,146,199993,1,4,0:0:0:0:
194,146,200279,1,0,0:0:0:0:
194,146,200421,1,8,0:0:0:0:
194,146,200493,1,8,0:0:0:0:
194,146,200564,1,0,0:0:0:0:
194,146,200636,1,0,0:0:0:0:
194,146,200707,1,8,0:0:0:0:
194,146,200850,1,0,0:0:0:0:
194,146,200993,1,8,0:0:0:0:
194,146,201064,1,0,0:0:0:0:
194,146,201136,1,8,0:0:0:0:
194,146,201207,1,8,0:0:0:0:
194,146,201279,1,0,0:0:0:0:
194,146,201350,1,0,0:0:0:0:
194,146,201421,1,8,0:0:0:0:
194,146,201493,1,0,0:0:0:0:
194,146,201564,1,8,0:0:0:0:
175,137,201637,1,8,0:0:0:0:
176,172,201707,1,0,0:0:0:0:
278,287,201779,1,0,0:0:0:0:
278,287,201851,1,0,0:0:0:0:
278,287,201922,1,0,0:0:0:0:
205,128,201994,1,8,0:0:0:0:
233,191,202136,1,8,0:0:0:0:
233,191,202279,1,4,0:0:0:0:
276,133,202565,1,0,0:0:0:0:
276,133,202637,1,0,0:0:0:0:
276,133,202708,1,8,0:0:0:0:
269,132,202779,1,8,0:0:0:0:
270,133,202851,1,0,0:0:0:0:
270,133,202922,1,0,0:0:0:0:
276,133,202994,1,8,0:0:0:0:
195,142,203065,1,8,0:0:0:0:
270,133,203137,1,0,0:0:0:0:
270,133,203208,1,8,0:0:0:0:
276,133,203279,1,0,0:0:0:0:
269,132,203350,1,0,0:0:0:0:
270,133,203422,1,8,0:0:0:0:
270,133,203493,1,0,0:0:0:0:
276,133,203565,1,8,0:0:0:0:
269,132,203636,1,8,0:0:0:0:
270,133,203708,1,0,0:0:0:0:
270,133,203779,1,0,0:0:0:0:
276,133,203851,1,8,0:0:0:0:
269,132,203922,1,0,0:0:0:0:
270,133,203994,1,0,0:0:0:0:
270,133,204065,1,0,0:0:0:0:
276,133,204137,1,8,0:0:0:0:
269,132,204208,1,8,0:0:0:0:
270,133,204280,1,0,0:0:0:0:
270,133,204351,1,0,0:0:0:0:
276,133,204422,1,12,0:0:0:0:
270,133,204565,1,12,0:0:0:0:
218,237,204708,1,4,0:0:0:0:
111,181,204851,1,8,0:0:0:0:
111,181,204994,1,0,0:0:0:0:
111,181,205137,1,8,0:0:0:0:
149,140,205423,1,0,0:0:0:0:
149,140,205565,1,8,0:0:0:0:
149,140,205637,1,8,0:0:0:0:
149,140,205708,1,0,0:0:0:0:
238,162,205851,1,8,0:0:0:0:
238,162,205994,1,8,0:0:0:0:
238,162,206137,1,0,0:0:0:0:
238,162,206280,1,8,0:0:0:0:
256,196,206565,1,0,0:0:0:0:
256,196,206708,1,8,0:0:0:0:
256,196,206780,1,0,0:0:0:0:
256,196,206851,1,0,0:0:0:0:
246,174,206994,1,8,0:0:0:0:
246,174,207137,1,0,0:0:0:0:
246,174,207280,1,0,0:0:0:0:
246,174,207423,1,8,0:0:0:0:
53,128,207708,1,0,0:0:0:0:
53,128,207851,1,8,0:0:0:0:
53,128,207923,1,8,0:0:0:0:
53,128,207994,1,0,0:0:0:0:
53,128,208137,1,8,0:0:0:0:
53,128,208208,1,8,0:0:0:0:
53,128,208280,1,8,0:0:0:0:
53,128,208423,1,8,0:0:0:0:
53,128,208494,1,8,0:0:0:0:
53,128,208565,1,8,0:0:0:0:
53,128,208708,1,0,0:0:0:0:
53,128,208780,1,0,0:0:0:0:
53,128,208851,1,0,0:0:0:0:
53,128,208994,1,0,0:0:0:0:
53,128,209065,1,0,0:0:0:0:
53,128,209137,1,0,0:0:0:0:
53,128,209280,1,12,0:0:0:0:
53,128,209423,1,0,0:0:0:0:
53,128,209565,1,0,0:0:0:0:
53,128,209708,1,8,0:0:0:0:
202,120,209994,1,0,0:0:0:0:
202,120,210137,1,8,0:0:0:0:
202,120,210208,1,8,0:0:0:0:
202,120,210280,1,0,0:0:0:0:
248,172,210423,1,8,0:0:0:0:
248,172,210565,1,8,0:0:0:0:
248,172,210708,1,0,0:0:0:0:
248,172,210851,1,8,0:0:0:0:
293,189,211137,1,0,0:0:0:0:
293,189,211280,1,8,0:0:0:0:
293,189,211351,1,0,0:0:0:0:
293,189,211423,1,0,0:0:0:0:
293,189,211565,1,12,0:0:0:0:
168,52,211708,1,0,0:0:0:0:
168,52,211779,1,0,0:0:0:0:
176,124,211851,1,12,0:0:0:0:
222,189,211994,1,0,0:0:0:0:
222,189,212065,1,0,0:0:0:0:
207,135,212137,1,12,0:0:0:0:
222,189,212279,1,0,0:0:0:0:
222,189,212351,1,0,0:0:0:0:
229,145,212422,1,12,0:0:0:0:
222,189,212565,1,0,0:0:0:0:
222,189,212637,1,0,0:0:0:0:
226,145,212708,1,8,0:0:0:0:
136,102,212779,1,0,0:0:0:0:
136,102,212851,1,0,0:0:0:0:
136,102,212922,1,0,0:0:0:0:
131,99,212994,1,8,0:0:0:0:
131,99,213065,1,8,0:0:0:0:
131,99,213137,1,0,0:0:0:0:
131,99,213208,1,0,0:0:0:0:
126,97,213279,1,8,0:0:0:0:
121,94,213351,1,0,0:0:0:0:
121,94,213422,1,8,0:0:0:0:
118,94,213565,1,4,0:0:0:0:
116,93,213708,1,12,0:0:0:0:
148,171,214137,1,12,0:0:0:0:
214,193,215279,1,0,0:0:0:0:
214,193,215351,1,0,0:0:0:0:
214,193,215422,1,0,0:0:0:0:
214,193,215494,1,0,0:0:0:0:
210,186,215565,1,12,0:0:0:0:
210,186,215708,1,12,0:0:0:0:
210,186,215851,1,12,0:0:0:0:
210,186,215994,1,4,0:0:0:0:
256,192,216137,12,0,216779,0:0:0:0:
