osu file format v14

[General]
AudioFilename: audio.mp3
AudioLeadIn: 0
PreviewTime: 57137
Countdown: 0
SampleSet: Soft
StackLeniency: 0.5
Mode: 0
LetterboxInBreaks: 0
WidescreenStoryboard: 1

[Editor]
Bookmarks: 14137
DistanceSpacing: 1.1
BeatDivisor: 4
GridSize: 32
TimelineZoom: 5.399997

[Metadata]
Title:Adore Your Pain
TitleUnicode:Adore Your Pain
Artist:UNDEAD CORPORATION
ArtistUnicode:UNDEAD CORPORATION
Creator:Zelq
Version:Trynna's Hard
Source:東方地霊殿 ~ Subterranean Animism.
Tags:osu! TOHO Complete Box - RED metal rock english fa featured artist mappers' guild mpg cheri hailie dj lucky trynna satori komeiji touhou 東方Project video game
BeatmapID:2313042
BeatmapSetID:1019398

[Difficulty]
HPDrainRate:5
CircleSize:4
OverallDifficulty:7
ApproachRate:8
SliderMultiplier:1.5
SliderTickRate:1

[Events]
//Background and Video events
0,0,"mpgbg.jpg",0,0
//Break Periods
//Storyboard Layer 0 (Background)
//Storyboard Layer 1 (Fail)
//Storyboard Layer 2 (Pass)
//Storyboard Layer 3 (Foreground)
//Storyboard Layer 4 (Overlay)
//Storyboard Sound Samples

[TimingPoints]
137,285.714285714286,4,2,0,65,1,0
137,-90.9090909090909,4,2,0,65,0,0
1137,-125,4,2,0,50,0,0
6994,-111.111111111111,4,2,0,60,0,0
8708,-142.857142857143,4,2,0,50,0,0
9279,-111.111111111111,4,2,0,70,0,0
10422,-99.9999999999999,4,2,0,70,0,0
18422,-99.9999999999999,4,2,0,80,0,0
19565,-99.9999999999999,4,2,0,60,0,0
28708,-111.111111111111,4,2,0,50,0,0
29565,-125,4,2,0,50,0,0
30994,-111.111111111111,4,2,0,50,0,0
31851,-125,4,2,0,50,0,0
33279,-111.111111111111,4,2,0,50,0,0
34137,-125,4,2,0,50,0,0
34994,-111.111111111111,4,2,0,50,0,0
36422,-125,4,2,0,50,0,0
37851,-111.111111111111,4,2,0,50,0,0
38708,-125,4,2,0,50,0,0
40137,-111.111111111111,4,2,0,50,0,0
40994,-125,4,2,0,50,0,0
42422,-111.111111111111,4,2,0,50,0,0
43279,-125,4,2,0,50,0,0
44137,-111.111111111111,4,2,0,50,0,0
44708,-100,4,2,0,65,0,0
45565,-125,4,2,0,60,0,0
45851,-100,4,2,0,70,0,0
46994,-100,4,2,0,65,0,0
53851,-100,4,2,0,70,0,0
54994,-100,4,2,0,80,0,0
57137,-90.9090909090909,4,2,0,80,0,1
75422,-100,4,2,0,50,0,0
84708,-111.111111111111,4,2,0,40,0,0
91565,-99.9999999999999,4,2,0,70,0,0
93851,-111.111111111111,4,2,0,50,0,0
94708,-125,4,2,0,50,0,0
96137,-111.111111111111,4,2,0,50,0,0
96994,-125,4,2,0,50,0,0
98422,-111.111111111111,4,2,0,50,0,0
99279,-125,4,2,0,50,0,0
100708,-100,4,2,0,65,0,0
109851,-100,4,2,0,70,0,0
110994,-100,4,2,0,70,0,0
113137,-90.9090909090909,4,2,0,80,0,1
131422,-100,4,2,0,60,0,0
133279,-90.9090909090909,4,2,0,60,0,0
133851,-111.111111111111,4,2,0,50,0,0
142994,-99.9999999999999,4,2,0,60,0,0
160137,-76.9230769230769,4,2,0,70,0,0
161137,-100,4,2,0,80,0,0
177137,-125,4,2,0,50,0,0
182994,-111.111111111111,4,2,0,70,0,0
186708,-90.9090909090908,4,2,0,90,0,1
204708,-100,4,2,0,80,0,0
215994,-142.857142857143,4,2,0,60,0,0

[Colours]
Combo1 : 247,213,111
Combo2 : 244,168,251
Combo3 : 128,193,247
Combo4 : 209,141,250

[HitObjects]
89,70,137,6,0,L|48:79,3,41.2500012588501,4|4|4|4,1:3|0:3|0:3|0:3,0:0:0:0:
119,42,422,2,0,L|130:2,3,41.2500012588501,0|4|4|4,1:0|0:3|0:3|0:3,0:0:0:0:
128,81,708,2,0,L|156:110,3,41.2500012588501,0|4|4|4,1:0|0:3|0:3|0:3,0:0:0:0:
89,70,994,1,0,1:0:0:0:
110,180,1137,6,0,P|157:144|215:146,1,120,6|0,0:0|0:0,0:0:0:0:
305,132,1565,2,0,P|301:164|292:190,1,60,4|0,0:0|0:0,0:0:0:0:
247,269,1851,6,0,P|251:301|259:327,2,60,0|0|2,0:0|0:0|0:2,0:0:0:0:
335,283,2279,1,0,0:0:0:0:
335,283,2422,2,0,B|395:273|385:317|449:307,1,120,2|0,0:2|0:0,0:0:0:0:
413,129,2994,2,0,L|403:188,1,60,2|0,0:2|0:0,0:0:0:0:
360,61,3279,1,0,0:0:0:0:
360,61,3422,6,0,P|302:63|270:128,1,120,2|0,0:0|0:0,0:0:0:0:
240,196,3851,2,0,B|208:188|191:159|191:159|141:125|80:154,1,180,2|0,0:2|0:0,0:0:0:0:
133,241,4422,2,0,P|103:258|85:288,1,60,2|0,0:2|0:0,0:0:0:0:
173,336,4708,2,0,P|222:303|280:289,1,120,2|0,0:2|0:0,0:0:0:0:
477,343,5279,1,2,0:2:0:0:
394,156,5565,6,0,L|383:210,1,30,4|4,0:3|0:3,0:0:0:0:
378,212,5708,2,0,L|354:80,1,120,0|0,1:0|0:0,0:0:0:0:
254,80,6137,2,0,L|265:138,1,60,0|0,1:0|0:0,0:0:0:0:
218,229,6422,5,0,0:0:0:0:
19,183,6708,1,0,0:0:0:0:
234,239,6994,6,0,L|277:220,2,33.7499989700318,0|4|4,1:0|0:3|0:3,0:0:0:0:
152,320,7279,2,0,L|114:292,2,33.7499989700318,8|8|8,1:3|0:3|0:3,0:0:0:0:
264,351,7565,2,0,L|258:397,1,33.7499989700318,4|0,0:0|0:0,0:0:0:0:
282,332,7708,2,0,L|375:294,1,101.249996910095,4|0,0:0|0:0,0:0:0:0:
401,302,7994,6,0,P|420:241|350:172,1,168.749994850159,4|0,0:3|0:0,0:0:0:0:
326,163,8422,1,4,0:3:0:0:
441,46,8708,2,0,L|429:97,1,52.4999983978272,0|0,1:0|0:0,0:0:0:0:
149,70,9279,2,0,L|118:23,3,33.7499989700318,0|4|4|4,1:0|0:3|0:3|0:3,0:0:0:0:
125,98,9565,2,0,L|100:147,3,33.7499989700318,4|4|4|4,0:3|0:3|0:3|0:3,0:0:0:0:
162,106,9851,2,0,L|217:102,3,33.7499989700318,4|4|4|4,0:3|0:3|0:3|0:3,0:0:0:0:
149,70,10137,1,0,1:0:0:0:
154,324,10422,5,4,0:0:0:0:
235,286,10565,2,0,P|274:294|314:329,1,75,0|4,0:0|1:3,0:0:0:0:
403,372,10851,2,0,P|387:298|379:224,1,150,4|4,3:0|3:0,0:0:0:0:
433,146,11279,2,0,P|451:153|465:166,2,37.5,2|0|4,1:2|1:0|0:3,0:0:0:0:
353,90,11565,6,0,P|316:100|279:103,1,75,4|4,3:0|0:3,0:0:0:0:
220,34,11851,1,0,1:0:0:0:
313,15,11994,2,0,P|374:3|435:64,1,150,0|4,3:0|3:0,0:0:0:0:
433,147,12422,2,0,L|462:190,2,37.5,2|0|4,1:2|1:0|3:0,0:0:0:0:
364,205,12708,6,0,L|280:192,1,75,4|4,0:3|0:3,0:0:0:0:
212,240,12994,1,0,1:0:0:0:
271,316,13137,2,0,L|106:343,1,150,4|4,3:0|3:0,0:0:0:0:
39,306,13565,1,2,1:2:0:0:
39,306,13637,1,0,1:0:0:0:
39,306,13708,1,4,0:3:0:0:
68,220,13851,6,0,L|81:175,2,37.5,4|4|4,0:3|0:3|0:3,0:0:0:0:
155,245,14137,2,0,L|191:255,2,37.5,0|0|4,1:0|1:0|0:3,0:0:0:0:
122,340,14422,2,0,L|109:385,2,37.5,4|4|4,0:3|0:3|0:3,0:0:0:0:
39,306,14708,2,0,L|2:295,2,37.5,0|0|4,1:0|1:0|0:3,0:0:0:0:
68,220,14994,5,4,0:3:0:0:
155,245,15137,1,4,0:3:0:0:
225,190,15279,1,0,1:0:0:0:
224,99,15422,2,0,P|189:48|102:37,1,150,4|4,3:0|3:0,0:0:0:0:
47,104,15851,2,0,P|22:114|-5:117,2,37.5,2|0|4,1:2|1:0|0:3,0:0:0:0:
157,123,16137,6,0,P|186:100|223:98,1,75,4|4,3:0|0:3,0:0:0:0:
312,107,16422,1,0,1:0:0:0:
357,184,16565,2,0,P|427:174|443:105,1,150,4|4,3:0|3:0,0:0:0:0:
376,45,16994,2,0,L|366:-3,2,37.5,2|0|4,1:2|1:0|0:3,0:0:0:0:
312,107,17279,5,4,3:0:0:0:
357,184,17422,2,0,L|342:266,1,75,4|0,0:3|1:0,0:0:0:0:
412,320,17708,2,0,P|340:299|265:296,1,150,4|4,3:0|3:0,0:0:0:0:
196,337,18137,1,2,1:2:0:0:
196,337,18208,1,0,1:0:0:0:
196,337,18279,1,4,0:3:0:0:
105,295,18422,6,0,L|87:262,2,37.5,4|4|4,0:3|0:3|0:3,0:0:0:0:
177,240,18708,2,0,L|187:196,2,37.5,0|0|4,1:0|1:0|0:3,0:0:0:0:
106,182,18994,2,0,L|88:149,2,37.5,4|4|4,0:3|0:3|0:3,0:0:0:0:
164,112,19280,2,0,L|174:68,2,37.5,0|0|4,1:0|1:0|0:3,0:0:0:0:
90,44,19565,5,4,0:0:0:0:
249,21,19851,1,0,3:0:0:0:
249,21,19994,1,0,3:0:0:0:
327,65,20137,2,0,L|405:49,1,75,0|0,1:0|3:0,0:0:0:0:
238,128,20422,2,0,L|160:112,1,75,0|0,3:0|3:0,0:0:0:0:
322,193,20708,6,0,P|353:221|330:317,1,150,4|0,3:0|3:0,0:0:0:0:
262,256,21137,1,0,3:0:0:0:
198,319,21279,2,0,L|108:325,1,75,0|2,1:0|0:0,0:0:0:0:
53,265,21565,1,4,3:0:0:0:
105,191,21708,2,0,B|130:171|151:132|151:132|170:173|195:193,1,150,4|0,3:0|0:0,0:0:0:0:
279,222,22137,6,0,L|321:207,2,37.5,8|8|8,3:0|3:0|3:0,0:0:0:0:
343,294,22422,2,0,L|308:307,2,37.5,8|8|8,1:3|3:0|3:0,0:0:0:0:
397,221,22708,2,0,L|439:206,2,37.5,8|8|8,3:0|3:0|3:0,0:0:0:0:
461,294,22994,2,0,L|425:306,2,37.5,8|8|8,3:0|3:0|3:0,0:0:0:0:
509,205,23279,2,0,P|505:182|500:168,2,37.5,8|8|8,3:0|3:0|3:0,0:0:0:0:
427,129,23565,6,0,P|411:83|462:-2,1,150,4|4,0:0|0:0,0:0:0:0:
291,69,24137,2,0,L|179:56,1,112.5,4|0,0:0|0:0,0:0:0:0:
161,32,24422,1,0,3:0:0:0:
161,32,24565,1,0,3:0:0:0:
95,93,24708,2,0,L|108:170,1,75,0|0,1:0|3:0,0:0:0:0:
12,59,24994,2,0,L|-1:136,1,75,0|0,3:0|3:0,0:0:0:0:
28,218,25279,5,4,3:0:0:0:
10,306,25422,1,0,3:0:0:0:
97,285,25565,2,0,L|175:304,1,75,0|0,3:0|3:0,0:0:0:0:
235,365,25851,1,0,1:0:0:0:
249,276,25994,2,0,P|227:230|197:219,1,75,2|4,0:0|3:0,0:0:0:0:
331,326,26279,2,0,P|341:264|303:184,1,150,4|0,3:0|0:0,0:0:0:0:
249,127,26708,6,0,L|196:108,2,37.5,8|8|8,3:0|3:0|3:0,0:0:0:0:
300,52,26994,2,0,L|275:1,2,37.5,8|8|8,1:3|3:0|3:0,0:0:0:0:
389,35,27279,2,0,L|407:-17,2,37.5,8|8|8,3:0|3:0|3:0,0:0:0:0:
463,85,27565,2,0,L|513:60,2,37.5,8|8|8,3:0|3:0|3:0,0:0:0:0:
471,175,27851,5,8,3:0:0:0:
471,175,27922,1,8,3:0:0:0:
471,175,27994,2,0,L|458:241,1,37.5,8|8,3:0|3:0,0:0:0:0:
436,243,28137,2,0,L|446:303,2,37.5,4|4|4,3:0|3:0|3:0,0:0:0:0:
357,199,28422,2,0,L|244:209,1,112.5,0|0,1:0|0:0,0:0:0:0:
235,236,28708,6,0,P|236:252|242:268,2,33.7499989700318,4|4|4,3:0|3:0|3:0,0:0:0:0:
194,333,28994,2,0,L|122:324,1,67.4999979400635,8|8,0:3|0:3,0:0:0:0:
58,367,29279,2,0,P|44:333|60:291,1,67.4999979400635,8|8,0:3|0:3,0:0:0:0:
107,232,29565,6,0,P|45:151|-8:238,1,240,4|0,0:0|0:0,0:0:0:0:
98,141,30422,2,0,P|156:151|216:150,1,120,4|0,0:0|0:0,0:0:0:0:
349,55,30994,6,0,P|365:53|379:62,2,33.7499989700318,4|4|4,3:0|3:0|3:0,0:0:0:0:
293,114,31279,2,0,L|315:194,1,67.4999979400635,8|8,0:3|0:3,0:0:0:0:
362,244,31565,2,0,L|340:324,1,67.4999979400635,8|8,0:3|0:3,0:0:0:0:
438,342,31851,6,0,B|457:261|457:261|483:233|483:233|509:143,1,210,4|0,0:0|0:0,0:0:0:0:
500,122,32422,2,0,P|441:124|381:132,1,120,4|2,1:2|0:0,0:0:0:0:
274,35,32994,1,0,1:0:0:0:
228,190,33279,6,0,L|235:240,2,33.7499989700318,4|4|4,3:0|3:0|3:0,0:0:0:0:
165,137,33565,2,0,L|84:162,1,67.4999979400635,8|8,0:3|0:3,0:0:0:0:
36,215,33851,2,0,L|13:142,1,67.4999979400635,8|8,0:3|0:3,0:0:0:0:
66,76,34137,6,0,B|196:58|141:167|279:153,1,240,4|0,0:0|0:0,0:0:0:0:
404,49,34994,2,0,L|396:10,2,33.7499989700318,4|4|4,3:0|3:0|3:0,0:0:0:0:
469,97,35279,2,0,L|461:187,1,67.4999979400635,4|4,3:0|3:0,0:0:0:0:
406,223,35565,5,4,0:0:0:0:
406,223,35637,1,4,3:0:0:0:
406,223,35708,1,4,3:0:0:0:
449,291,35851,2,0,P|419:304|386:302,1,67.4999979400635,4|4,0:3|0:3,0:0:0:0:
317,348,36137,1,4,0:3:0:0:
298,269,36279,1,4,0:3:0:0:
216,335,36422,6,0,P|130:303|21:298,1,180,4|4,0:3|0:3,0:0:0:0:
21,311,36922,1,4,0:3:0:0:
21,311,36994,1,4,0:2:0:0:
138,228,37279,2,0,L|141:198,1,30,4|4,0:3|0:3,0:0:0:0:
164,179,37422,2,0,P|143:139|62:134,1,120,4|0,0:0|0:0,0:0:0:0:
31,58,37851,6,0,P|15:64|0:68,2,33.7499989700318,4|4|4,0:3|0:3|0:3,0:0:0:0:
102,19,38137,2,0,P|146:26|169:41,1,67.4999979400635,4|4,0:3|0:3,0:0:0:0:
230,85,38422,2,0,P|274:78|297:63,1,67.4999979400635,4|4,0:3|0:3,0:0:0:0:
367,7,38708,6,0,B|383:72|383:72|364:122|364:122|382:196,1,180,2|0,3:2|0:0,0:0:0:0:
458,132,39279,2,0,L|476:206,1,60,0|0,3:0|0:0,0:0:0:0:
413,259,39565,2,0,P|353:260|306:221,1,120,0|0,3:0|1:0,0:0:0:0:
155,167,40137,6,0,L|114:176,2,33.7499989700318,4|4|4,0:3|0:3|0:3,0:0:0:0:
194,238,40422,2,0,L|128:253,1,67.4999979400635,4|4,0:3|0:3,0:0:0:0:
118,334,40708,2,4,P|71:313|59:290,1,67.4999979400635,4|4,0:3|0:3,0:3:0:0:
0,248,40994,6,0,P|17:204|10:109,1,120,2|0,3:2|0:0,0:0:0:0:
74,43,41565,1,0,3:0:0:0:
215,71,41851,2,0,B|269:67|269:67|277:58|277:58|332:54,1,120,0|0,3:0|1:0,0:0:0:0:
482,111,42422,6,0,L|497:77,2,33.7499989700318,4|4|4,0:3|0:3|0:3,0:0:0:0:
400,120,42708,2,0,P|412:152|435:177,1,67.4999979400635,4|4,0:3|0:3,0:0:0:0:
484,245,42994,2,0,L|461:326,1,67.4999979400635,4|4,0:3|0:3,0:0:0:0:
390,344,43279,2,0,P|358:314|263:309,1,120,2|0,3:2|0:0,0:0:0:0:
157,370,43851,1,0,3:0:0:0:
200,236,44137,2,0,L|190:169,1,67.4999979400635,4|4,3:0|3:0,0:0:0:0:
278,190,44422,2,0,L|268:123,1,67.4999979400635,0|4,1:0|3:0,0:0:0:0:
185,86,44708,6,0,L|150:60,2,37.5,4|4|4,0:0|3:0|3:0,0:0:0:0:
264,41,44994,2,0,P|306:51|336:82,1,75,4|0,3:0|3:0,0:0:0:0:
408,115,45279,2,0,P|450:105|480:74,1,75,4|4,0:3|0:3,0:0:0:0:
367,198,45565,2,0,L|386:314,1,90,4|0,0:0|0:0,0:0:0:0:
406,307,45851,2,0,L|415:349,2,37.5,8|8|8,0:3|0:3|0:3,0:0:0:0:
323,344,46137,2,0,L|314:386,2,37.5,8|8|8,0:3|0:3|0:3,0:0:0:0:
266,273,46422,1,4,0:0:0:0:
188,318,46565,1,4,0:3:0:0:
59,96,46994,6,0,P|96:95|127:115,1,75,4|4,0:0|0:3,0:0:0:0:
67,183,47279,1,0,1:0:0:0:
145,226,47422,2,0,B|228:231|188:176|283:184,1,150,4|4,0:3|0:3,0:0:0:0:
353,241,47851,2,0,L|401:257,2,37.5,0|4|0,1:0|3:0|3:0,0:0:0:0:
414,165,48137,5,4,0:3:0:0:
413,75,48279,2,0,P|431:38|475:13,1,75,4|4,0:3|0:3,0:0:0:0:
324,82,48565,2,0,P|251:50|177:48,1,150,4|4,0:3|0:3,0:0:0:0:
102,13,48994,2,0,P|61:27|37:29,2,37.5,0|4|0,1:0|3:0|3:0,0:0:0:0:
118,101,49279,5,4,0:3:0:0:
68,176,49422,2,0,L|90:268,1,75,4|0,0:3|1:0,0:0:0:0:
8,296,49708,2,0,P|81:299|139:345,1,150,4|4,0:3|0:3,0:0:0:0:
227,366,50137,1,0,1:0:0:0:
227,366,50208,1,4,3:0:0:0:
227,366,50279,1,0,3:0:0:0:
236,276,50422,6,0,L|245:222,2,37.5,4|4|4,0:3|0:3|0:3,0:0:0:0:
319,312,50708,2,0,L|314:264,2,37.5,0|0|4,1:0|1:0|0:3,0:0:0:0:
409,313,50994,2,0,L|414:265,2,37.5,4|4|4,0:3|0:3|0:3,0:0:0:0:
491,275,51279,2,0,L|482:221,2,37.5,0|4|4,1:0|0:3|0:3,0:0:0:0:
413,195,51565,5,4,0:0:0:0:
444,110,51708,2,0,L|428:36,1,75,4|0,0:3|1:0,0:0:0:0:
348,129,51994,2,0,B|288:142|288:142|269:165|269:165|206:178,1,150,4|4,0:3|0:3,0:0:0:0:
148,241,52422,2,0,L|96:229,2,37.5,0|0|0,1:0|3:0|3:0,0:0:0:0:
193,319,52708,5,4,0:3:0:0:
106,343,52851,2,0,L|32:327,1,75,4|0,0:3|1:0,0:0:0:0:
10,239,53137,2,0,B|51:161|-9:171|34:94,1,150,4|4,0:3|0:3,0:0:0:0:
105,41,53565,2,0,L|96:1,2,37.5,4|4|4,3:0|3:0|3:0,0:0:0:0:
176,105,53851,5,4,1:2:0:0:
255,62,53994,2,0,L|329:71,1,75,0|0,1:0|0:0,0:0:0:0:
397,11,54279,2,0,P|431:74|395:136,1,150,0|4,1:0|0:3,0:0:0:0:
333,202,54708,1,4,0:3:0:0:
333,202,54779,1,4,0:3:0:0:
333,202,54851,1,4,0:3:0:0:
399,262,54994,6,0,L|416:334,2,37.5,4|4|4,1:2|0:3|0:3,0:0:0:0:
315,295,55279,2,0,L|298:367,2,37.5,0|4|4,1:0|0:3|3:0,0:0:0:0:
246,235,55565,2,0,L|209:262,2,37.5,0|4|4,1:0|3:0|3:0,0:0:0:0:
256,143,55851,2,0,L|214:124,2,37.5,4|4|4,3:0|3:0|3:0,0:0:0:0:
333,202,56137,5,4,1:2:0:0:
163,66,56994,5,0,1:0:0:0:
72,25,57137,2,0,P|27:52|49:160,1,165.000005035401,4|4,0:0|3:0,0:0:0:0:
128,155,57565,2,0,L|135:242,1,82.5000025177003,0|4,1:0|0:3,0:0:0:0:
143,328,57851,2,0,P|182:317|209:287,1,82.5000025177003,0|4,0:0|0:3,0:0:0:0:
289,241,58137,2,0,P|328:251|355:281,1,82.5000025177003,0|4,1:0|0:3,0:0:0:0:
360,372,58422,6,0,P|360:316|450:312,1,165.000005035401,2|0,0:0|1:0,0:0:0:0:
486,228,58851,1,4,0:3:0:0:
486,228,58994,2,0,P|500:154|469:57,1,165.000005035401,2|0,0:0|1:0,0:0:0:0:
385,4,59422,6,0,P|321:32|370:82,1,165.000005035401,4|4,0:0|0:3,0:0:0:0:
325,162,59851,2,0,P|287:175|258:204,1,82.5000025177003,0|4,1:0|0:3,0:0:0:0:
225,119,60137,2,0,P|196:89|157:76,1,82.5000025177003,0|4,0:0|0:3,0:0:0:0:
79,123,60422,1,0,1:1:0:0:
1,75,60565,1,4,0:3:0:0:
0,165,60708,6,0,B|-9:266|41:229|35:322,1,165.000005035401,2|0,0:0|1:0,0:0:0:0:
118,285,61137,1,4,0:3:0:0:
180,356,61279,1,2,0:0:0:0:
180,356,61422,2,0,L|276:339,1,82.5000025177003,4|0,0:3|1:0,0:0:0:0:
362,358,61708,6,0,P|347:279|275:245,1,165.000005035401,4|4,0:0|0:3,0:0:0:0:
209,184,62137,1,0,1:0:0:0:
206,93,62279,2,0,P|239:53|286:53,1,82.5000025177003,4|0,0:3|0:0,0:0:0:0:
355,72,62565,1,4,0:3:0:0:
355,72,62708,2,0,L|475:56,1,82.5000025177003,0|4,1:0|0:3,0:0:0:0:
490,135,62994,6,0,B|437:142|437:142|413:158|413:158|387:150|387:150|326:157,1,165.000005035401,2|0,0:0|1:0,0:0:0:0:
338,247,63422,2,0,B|386:243|386:243|354:355,1,165.000005035401,2|4,0:0|0:3,0:0:0:0:
271,317,63851,1,0,1:0:0:0:
191,361,63994,5,4,0:0:0:0:
191,361,64137,2,0,P|172:283|225:224,1,165.000005035401,2|0,0:2|1:0,0:0:0:0:
255,139,64565,1,0,1:0:0:0:
255,139,64708,2,0,L|168:113,1,82.5000025177003,0|0,1:0|1:0,0:0:0:0:
127,37,64994,1,0,1:0:0:0:
24,42,65137,6,0,B|-6:117|-6:117|46:182,1,165.000005035401,4|4,0:0|0:3,0:0:0:0:
15,266,65565,2,0,L|7:313,2,41.2500012588501,4|4|4,0:3|0:3|0:3,0:0:0:0:
97,306,65851,2,0,L|89:353,2,41.2500012588501,4|4|4,0:3|0:3|0:3,0:0:0:0:
187,292,66137,1,0,1:0:0:0:
272,360,66279,6,0,P|300:315|411:321,1,165.000005035401,4|4,0:0|3:0,0:0:0:0:
442,231,66708,2,0,P|475:254|487:292,1,82.5000025177003,0|4,1:0|0:3,0:0:0:0:
403,146,66994,2,0,L|421:56,1,82.5000025177003,0|4,0:0|0:3,0:0:0:0:
337,206,67279,2,0,P|296:204|263:227,1,82.5000025177003,0|4,1:0|0:3,0:0:0:0:
187,292,67565,6,0,L|106:273,1,82.5000025177003,2|4,0:0|3:0,0:0:0:0:
93,183,67851,2,0,L|173:201,1,82.5000025177003,0|4,1:0|0:3,0:0:0:0:
94,91,68137,2,0,P|20:121|6:199,1,165.000005035401,2|0,0:0|1:0,0:0:0:0:
23,311,68565,6,0,L|186:291,1,165.000005035401,4|4,0:0|0:3,0:0:0:0:
266,336,68994,2,0,L|353:355,1,82.5000025177003,0|4,1:0|0:3,0:0:0:0:
426,310,69279,1,0,0:0:0:0:
355,252,69422,1,4,0:3:0:0:
438,217,69565,2,0,P|484:234|508:276,1,82.5000025177003,0|4,1:1|0:3,0:0:0:0:
362,151,69851,6,0,P|436:119|511:149,1,165.000005035401,2|0,0:0|1:0,0:0:0:0:
366,39,70422,1,2,0:0:0:0:
282,74,70565,2,0,L|192:63,1,82.5000025177003,4|0,0:3|1:0,0:0:0:0:
104,25,70851,6,0,B|158:19|158:19|188:72|143:120,1,165.000005035401,4|4,0:0|0:3,0:0:0:0:
74,179,71279,2,0,P|44:220|59:266,1,82.5000025177003,0|4,1:0|0:3,0:0:0:0:
99,324,71565,1,0,0:0:0:0:
184,294,71708,1,4,0:3:0:0:
260,343,71851,2,0,L|360:324,1,82.5000025177003,0|4,1:0|0:3,0:0:0:0:
440,330,72137,6,0,P|407:257|330:236,1,165.000005035401,2|0,0:0|1:0,0:0:0:0:
276,163,72565,2,0,P|319:140|411:62,1,165.000005035401,2|4,0:0|0:3,0:0:0:0:
498,72,72994,1,0,1:0:0:0:
447,165,73137,2,0,L|440:329,1,165.000005035401,4|4,0:0|0:3,0:0:0:0:
353,298,73565,5,0,1:0:0:0:
271,336,73708,2,0,L|221:362,2,41.2500012588501,4|4|0,1:3|3:0|1:0,0:0:0:0:
271,244,73994,2,0,L|234:224,2,41.2500012588501,4|4|0,3:0|3:0|1:0,0:0:0:0:
353,298,74279,1,4,0:3:0:0:
360,207,74422,6,0,L|373:157,3,41.2500012588501,4|4|4|4,3:0|3:0|3:0|3:0,0:0:0:0:
396,147,74708,1,4,3:3:0:0:
334,80,74851,1,4,0:3:0:0:
252,119,74994,2,0,L|153:133,2,82.5000025177003,0|0|0,1:0|1:0|1:0,0:0:0:0:
171,45,75422,6,0,P|100:75|91:163,1,150,4|0,0:0|0:0,0:0:0:0:
37,211,75851,1,0,3:0:0:0:
37,211,75994,1,0,3:0:0:0:
94,279,76137,2,0,L|84:354,1,75,0|0,1:0|3:0,0:0:0:0:
178,236,76422,2,0,L|188:311,1,75,0|0,3:0|3:0,0:0:0:0:
264,356,76708,5,4,3:2:0:0:
342,311,76851,1,0,3:0:0:0:
418,357,76994,2,0,P|457:340|457:281,1,75,0|0,3:0|3:0,0:0:0:0:
412,240,77279,2,0,L|398:160,2,75,0|2|4,1:0|0:0|3:0,0:0:0:0:
502,238,77708,2,0,L|474:83,1,150,4|0,3:0|0:0,0:0:0:0:
399,40,78137,6,0,L|362:31,2,37.5,8|8|8,3:0|3:0|3:0,0:0:0:0:
342,109,78422,2,0,L|305:117,2,37.5,8|8|8,1:3|3:0|3:0,0:0:0:0:
275,46,78708,2,0,L|238:37,2,37.5,8|8|8,3:0|3:0|3:0,0:0:0:0:
218,115,78994,2,0,L|181:123,2,37.5,8|8|8,3:0|3:0|3:0,0:0:0:0:
151,53,79279,2,0,L|114:44,2,37.5,8|8|8,3:0|3:0|3:0,0:0:0:0:
98,151,79565,6,0,P|36:187|35:259,1,150,4|4,0:0|0:0,0:0:0:0:
179,367,80137,2,0,L|290:351,1,112.5,4|0,0:0|0:0,0:0:0:0:
309,331,80422,1,0,3:0:0:0:
309,331,80565,1,0,3:0:0:0:
391,364,80708,2,0,P|401:328|390:292,1,75,0|0,1:0|3:0,0:0:0:0:
460,235,80994,2,0,P|433:208|397:200,1,75,0|0,3:0|3:0,0:0:0:0:
313,244,81279,6,0,P|295:184|374:110,1,150,4|0,3:2|3:0,0:0:0:0:
433,124,81708,1,0,3:0:0:0:
501,65,81851,2,0,P|477:36|443:22,2,75,0|2|4,1:0|0:0|3:0,0:0:0:0:
433,124,82279,2,0,L|299:44,1,150,4|0,3:0|0:0,0:0:0:0:
213,54,82708,6,0,L|217:-9,2,37.5,8|8|8,3:0|3:0|3:0,0:0:0:0:
213,144,82994,2,0,L|276:148,2,37.5,8|8|8,1:3|3:0|3:0,0:0:0:0:
123,144,83279,2,0,L|119:207,2,37.5,8|8|8,3:0|3:0|3:0,0:0:0:0:
123,54,83565,2,0,L|60:50,2,37.5,8|8|8,3:0|3:0|3:0,0:0:0:0:
221,62,83851,5,0,1:0:0:0:
221,62,83922,1,0,1:0:0:0:
221,62,83994,1,8,3:0:0:0:
304,47,84137,2,0,L|365:29,3,37.5,4|4|4|4,3:0|3:0|3:0|3:0,0:0:0:0:
363,56,84422,2,0,L|357:135,1,75,0|0,1:0|0:0,0:0:0:0:
397,215,84708,6,0,L|445:234,2,33.7499989700318,4|4|4,3:2|3:0|3:0,0:0:0:0:
315,213,84994,2,0,P|279:220|251:235,1,67.4999979400635,8|8,0:3|0:3,0:0:0:0:
209,303,85279,1,8,0:3:0:0:
209,303,85422,1,8,0:3:0:0:
9,143,85851,5,0,0:0:0:0:
307,17,86422,1,0,1:0:0:0:
463,301,86994,6,0,L|457:334,2,33.7499989700318,4|4|4,3:0|3:0|3:0,0:0:0:0:
424,229,87279,2,0,L|434:153,1,67.4999979400635,8|8,0:3|0:3,0:0:0:0:
504,123,87565,1,8,0:3:0:0:
504,123,87708,1,8,0:3:0:0:
280,26,88137,5,0,0:0:0:0:
137,316,88708,1,0,1:0:0:0:
432,184,89279,6,0,L|478:197,2,33.7499989700318,4|4|4,3:0|3:0|3:0,0:0:0:0:
355,212,89565,1,8,0:3:0:0:
355,212,89708,1,8,0:3:0:0:
363,131,89851,2,0,P|395:107|442:103,1,67.4999979400635,8|8,0:3|0:3,0:0:0:0:
506,122,90137,1,0,0:0:0:0:
349,37,90422,5,0,0:0:0:0:
96,227,90994,1,4,3:0:0:0:
96,227,91065,1,4,3:0:0:0:
96,227,91137,1,4,3:0:0:0:
161,274,91279,2,0,P|199:249|234:243,1,67.4999979400635,4|4,3:0|3:0,0:0:0:0:
300,286,91565,5,4,0:0:0:0:
311,196,91708,2,0,L|302:115,1,75,4|4,3:0|3:0,0:0:0:0:
346,41,91994,1,4,3:0:0:0:
429,8,92137,2,0,P|447:9|465:14,2,37.5,4|4|0,3:0|3:0|1:0,0:0:0:0:
412,96,92422,2,0,P|429:101|448:102,2,37.5,4|4|4,3:0|3:0|3:0,0:0:0:0:
346,41,92708,6,0,L|271:34,1,75,4|4,0:3|0:3,0:0:0:0:
186,3,92994,2,0,L|150:13,2,37.5,4|4|4,0:3|0:3|0:3,0:0:0:0:
201,91,93279,1,0,1:0:0:0:
117,123,93422,2,0,L|43:110,2,75,0|0|0,1:0|1:0|1:0,0:0:0:0:
194,181,93851,6,0,L|239:176,2,33.7499989700318,4|4|4,0:3|0:3|0:3,0:0:0:0:
138,243,94137,2,0,L|149:326,1,67.4999979400635,0|4,1:0|0:3,0:0:0:0:
222,345,94422,2,0,P|261:324|312:321,1,67.4999979400635,4|4,0:3|0:3,0:0:0:0:
363,353,94708,6,0,P|407:360|403:246,1,180,0|0,1:0|0:0,0:0:0:0:
358,204,95279,2,0,L|298:214,1,60,0|0,1:0|0:0,0:0:0:0:
440,166,95565,2,0,P|455:110|431:55,1,120,0|0,3:0|1:0,0:0:0:0:
255,125,96137,6,0,L|218:118,2,33.7499989700318,6|4|4,0:3|0:3|0:3,0:0:0:0:
291,37,96422,2,0,L|206:24,1,67.4999979400635,0|4,1:0|0:3,0:0:0:0:
142,75,96708,2,4,L|75:85,1,67.4999979400635,4|4,0:3|0:3,0:3:0:0:
44,175,96994,6,0,P|102:208|72:313,1,180,2|0,3:2|0:0,0:0:0:0:
143,224,97565,2,0,L|211:235,1,60,0|0,1:0|0:0,0:0:0:0:
260,294,97851,2,0,L|381:263,1,120,0|0,3:0|1:0,0:0:0:0:
434,84,98422,6,0,L|472:78,2,33.7499989700318,4|4|4,0:3|0:3|0:3,0:0:0:0:
347,44,98708,2,0,L|269:33,1,67.4999979400635,4|4,0:3|0:3,0:0:0:0:
248,109,98994,2,0,L|181:118,1,67.4999979400635,4|4,0:3|0:3,0:0:0:0:
147,197,99279,6,0,P|95:128|128:49,1,180,2|0,1:2|0:0,0:0:0:0:
181,118,99851,1,0,1:0:0:0:
132,279,100137,2,0,L|120:319,2,30,4|4|4,3:0|3:0|3:0,0:0:0:0:
202,324,100422,1,0,1:0:0:0:
275,282,100565,1,4,3:0:0:0:
347,338,100708,6,0,P|366:305|367:268,1,75,4|4,0:0|3:0,0:0:0:0:
363,241,100922,1,0,1:0:0:0:
283,189,101137,2,0,P|251:169|232:137,1,75,0|4,3:0|3:0,0:0:0:0:
226,113,101351,1,0,1:0:0:0:
295,40,101565,2,0,L|369:49,1,75,4|8,0:0|3:0,0:0:0:0:
394,34,101779,1,8,0:3:0:0:
394,34,101851,5,8,0:3:0:0:
446,113,101994,1,0,1:0:0:0:
392,175,102137,2,0,L|380:216,1,37.5,8|8,0:3|0:3,0:0:0:0:
354,233,102279,1,8,0:3:0:0:
354,233,102351,1,8,0:3:0:0:
354,233,102422,2,0,L|489:268,1,112.5,4|0,0:3|0:0,0:0:0:0:
474,288,102708,2,0,L|517:298,2,37.5,8|8|8,3:0|3:0|3:0,0:0:0:0:
409,340,102994,5,4,0:0:0:0:
320,324,103137,2,0,L|247:343,1,75,0|0,0:0|1:0,0:0:0:0:
161,315,103422,2,0,P|153:254|233:212,1,150,4|4,0:3|0:3,0:0:0:0:
294,157,103851,2,0,L|331:162,2,37.5,0|4|0,1:0|3:0|3:0,0:0:0:0:
220,70,104137,5,4,0:3:0:0:
142,25,104279,2,0,P|105:35|91:85,1,75,4|4,0:3|0:3,0:0:0:0:
7,105,104565,2,0,P|43:168|50:251,1,150,4|4,0:3|0:3,0:0:0:0:
88,326,104994,2,0,L|52:337,2,37.5,0|4|4,1:0|3:0|3:0,0:0:0:0:
179,281,105279,5,4,0:3:0:0:
251,333,105422,2,0,L|344:343,1,75,0|0,0:0|1:0,0:0:0:0:
406,382,105708,2,0,P|424:329|359:246,1,150,4|4,0:3|0:3,0:0:0:0:
317,203,106137,1,0,1:0:0:0:
317,203,106208,1,4,3:0:0:0:
317,203,106279,1,0,3:0:0:0:
405,179,106422,6,0,L|443:171,2,37.5,4|4|4,0:3|0:3|0:3,0:0:0:0:
381,91,106708,2,0,L|373:53,2,37.5,0|0|4,1:0|1:0|0:3,0:0:0:0:
293,115,106994,2,0,L|255:123,2,37.5,4|4|4,0:3|0:3|0:3,0:0:0:0:
317,203,107279,2,0,L|325:241,2,37.5,0|4|4,1:0|0:3|0:3,0:0:0:0:
216,193,107565,5,4,0:0:0:0:
141,242,107708,2,0,L|66:233,1,75,4|0,0:3|1:0,0:0:0:0:
182,328,107994,2,0,P|220:304|290:379,1,150,4|4,0:3|0:3,0:0:0:0:
377,332,108422,2,0,L|383:376,2,37.5,0|4|4,1:0|3:0|3:0,0:0:0:0:
404,241,108708,5,4,0:3:0:0:
487,274,108851,2,0,P|498:238|488:202,1,75,4|0,0:3|1:0,0:0:0:0:
416,148,109137,2,0,B|330:136|352:197|277:189,1,150,4|4,0:3|0:3,0:0:0:0:
274,99,109565,2,0,L|262:63,2,37.5,4|4|4,3:0|3:0|3:0,0:0:0:0:
186,154,109851,6,0,L|172:118,1,37.5,4|0,1:2|0:0,0:0:0:0:
161,91,109994,2,0,P|125:101|98:127,1,75,0|0,1:0|0:0,0:0:0:0:
9,122,110279,2,0,B|19:180|19:180|39:203|39:203|53:268,1,150,0|4,1:0|0:3,0:0:0:0:
118,323,110708,2,0,L|106:358,2,37.5,4|4|4,0:3|0:3|0:3,0:0:0:0:
210,259,110994,6,0,P|245:274|258:322,1,75,4|0,1:2|0:0,0:0:0:0:
344,335,111279,2,0,P|359:301|393:287,1,75,0|4,1:0|3:0,0:0:0:0:
489,315,111565,1,0,1:0:0:0:
489,315,111637,1,4,3:0:0:0:
489,315,111708,1,4,3:0:0:0:
463,228,111851,2,0,L|474:190,3,37.5,4|4|4|4,3:0|3:0|3:0|3:0,0:0:0:0:
454,172,112137,6,0,L|436:96,1,75,4|8,3:2|3:0,0:0:0:0:
358,54,112422,2,0,L|309:36,2,37.5,8|8|8,3:0|3:0|3:0,0:0:0:0:
363,144,112708,2,0,L|327:156,2,37.5,8|8|8,3:0|3:0|3:0,0:0:0:0:
267,100,112994,1,0,1:0:0:0:
177,153,113137,6,0,P|131:118|9:122,1,165.000005035401,4|4,0:0|3:0,0:0:0:0:
15,206,113565,2,0,L|30:289,1,82.5000025177003,0|4,1:0|0:3,0:0:0:0:
118,263,113851,2,0,L|103:346,1,82.5000025177003,0|4,0:0|0:3,0:0:0:0:
191,368,114137,2,0,P|218:337|257:326,1,82.5000025177003,0|4,1:0|0:3,0:0:0:0:
326,268,114422,6,0,P|381:327|461:325,1,165.000005035401,2|0,0:0|1:0,0:0:0:0:
418,245,114851,1,4,0:3:0:0:
457,163,114994,2,0,L|456:72,1,82.5000025177003,2|4,0:0|0:3,0:0:0:0:
400,8,115279,1,0,1:0:0:0:
323,78,115422,6,0,B|237:97|260:33|166:50,1,165.000005035401,4|4,0:0|0:3,0:0:0:0:
190,138,115851,2,0,P|152:156|153:199,1,82.5000025177003,0|4,1:0|0:3,0:0:0:0:
225,242,116137,2,0,P|263:224|262:181,1,82.5000025177003,0|4,0:0|0:3,0:0:0:0:
137,278,116422,2,0,L|48:289,1,82.5000025177003,0|4,1:1|0:3,0:0:0:0:
9,208,116708,6,0,P|16:127|41:46,1,165.000005035401,2|0,0:0|1:0,0:0:0:0:
121,90,117137,1,4,0:3:0:0:
121,90,117279,2,0,P|163:67|212:66,1,82.5000025177003,2|4,0:0|0:3,0:0:0:0:
269,8,117565,1,0,1:0:0:0:
320,94,117708,6,0,P|386:117|459:58,1,165.000005035401,4|4,0:0|0:3,0:0:0:0:
405,139,118137,2,0,L|424:233,1,82.5000025177003,0|4,1:0|0:3,0:0:0:0:
495,271,118422,2,0,L|476:365,1,82.5000025177003,0|4,0:0|0:3,0:0:0:0:
395,314,118708,2,0,P|345:322|327:353,1,82.5000025177003,0|4,1:0|0:3,0:0:0:0:
229,335,118994,6,0,B|220:290|241:255|241:255|237:251|237:251|241:255|241:255|269:229|310:231,1,165.000005035401,2|0,0:0|1:0,0:0:0:0:
253,158,119422,2,0,B|203:159|163:194|163:194|150:258,1,165.000005035401,2|4,0:0|0:3,0:0:0:0:
133,342,119851,1,0,1:0:0:0:
43,357,119994,1,4,0:0:0:0:
53,266,120137,6,0,L|66:177,1,82.5000025177003,2|0,0:2|0:0,0:0:0:0:
3,117,120422,2,0,P|34:91|75:84,1,82.5000025177003,0|0,1:0|1:0,0:0:0:0:
147,28,120708,1,0,1:0:0:0:
147,28,120851,2,0,P|187:35|219:60,1,82.5000025177003,0|0,1:0|1:0,0:0:0:0:
220,161,121137,6,0,B|320:168|275:101|370:113,1,165.000005035401,4|4,0:0|0:3,0:0:0:0:
438,173,121565,2,0,L|428:226,2,41.2500012588501,4|4|4,0:3|0:3|0:3,0:0:0:0:
467,86,121851,2,0,L|457:33,2,41.2500012588501,4|4|4,0:3|0:3|0:3,0:0:0:0:
369,112,122137,1,0,1:0:0:0:
301,34,122279,6,0,P|227:44|125:86,1,165.000005035401,4|4,0:0|3:0,0:0:0:0:
61,34,122708,2,0,P|50:77|61:115,1,82.5000025177003,0|4,1:0|0:3,0:0:0:0:
132,168,122994,2,0,P|143:211|132:249,1,82.5000025177003,0|4,0:0|0:3,0:0:0:0:
75,317,123279,2,0,L|-6:330,1,82.5000025177003,0|4,1:0|0:3,0:0:0:0:
160,355,123565,6,0,B|222:349|222:349|257:359|257:359|322:350,1,165.000005035401,2|0,0:0|1:0,0:0:0:0:
268,276,123994,1,4,0:3:0:0:
268,276,124137,2,0,B|238:197|293:202|253:114,1,165.000005035401,2|0,0:0|1:0,0:0:0:0:
222,15,124565,6,0,P|275:72|353:58,1,165.000005035401,4|4,0:0|0:3,0:0:0:0:
441,32,124994,2,0,P|474:54|484:93,1,82.5000025177003,0|4,1:0|0:3,0:0:0:0:
452,178,125279,2,0,P|462:217|495:239,1,82.5000025177003,0|4,0:0|0:3,0:0:0:0:
476,329,125565,1,0,1:1:0:0:
476,329,125708,1,4,0:3:0:0:
475,329,125851,6,0,P|395:312|312:312,1,165.000005035401,2|0,0:0|1:0,0:0:0:0:
226,330,126279,1,4,0:3:0:0:
226,330,126422,2,0,P|162:329|196:254,1,165.000005035401,2|0,0:0|1:0,0:0:0:0:
247,165,126851,6,0,P|235:110|216:-12,1,165.000005035401,4|4,0:0|0:3,0:0:0:0:
306,21,127279,1,0,1:0:0:0:
306,21,127422,2,0,P|378:12|401:22,1,82.5000025177003,4|0,0:3|0:0,0:0:0:0:
457,70,127708,1,4,0:3:0:0:
403,143,127851,2,0,L|398:232,1,82.5000025177003,0|4,1:0|0:3,0:0:0:0:
309,247,128137,6,0,P|386:257|422:343,1,165.000005035401,2|0,0:0|1:0,0:0:0:0:
332,332,128565,2,0,B|236:315|270:375|173:354,1,165.000005035401,2|0,0:0|1:0,0:0:0:0:
94,190,129137,1,4,0:0:0:0:
332,59,129565,6,0,L|373:61,2,41.2500012588501,0|4|0,1:0|0:3|1:0,0:0:0:0:
265,121,129851,2,0,L|223:123,2,41.2500012588501,0|4|4,1:0|0:3|3:0,0:0:0:0:
339,173,130137,1,0,1:0:0:0:
253,227,130279,6,0,P|327:214|416:249,1,165.000005035401,4|4,1:2|3:0,0:0:0:0:
446,327,130708,2,0,L|438:373,2,41.2500012588501,4|4|4,3:3|0:3|0:3,0:0:0:0:
501,254,130994,2,0,L|508:213,2,41.2500012588501,0|4|4,1:0|0:3|0:3,0:0:0:0:
409,244,131279,1,0,1:0:0:0:
338,313,131422,6,0,B|308:320|268:353|268:353|213:301|136:307,1,225,4|0,0:0|3:0,0:0:0:0:
14,194,132137,1,0,3:0:0:0:
152,104,132422,1,0,3:0:0:0:
108,217,132708,5,8,3:0:0:0:
108,217,132851,1,8,3:0:0:0:
108,217,132994,2,0,L|186:239,1,75,8|8,3:0|3:0,0:0:0:0:
258,191,133279,1,0,1:0:0:0:
276,288,133422,2,0,L|265:330,2,41.2500012588501,4|4|4,0:3|0:3|0:3,0:0:0:0:
375,294,133708,2,0,L|421:306,1,41.2500012588501,4|4,0:3|0:3,0:0:0:0:
447,291,133851,6,0,L|469:196,2,67.4999979400635,4|0|2,3:0|0:0|0:0,0:0:0:0:
427,129,134422,1,0,0:0:0:0:
475,63,134565,2,0,P|442:51|408:51,1,67.4999979400635,2|4,0:0|3:0,0:0:0:0:
341,95,134851,1,0,0:0:0:0:
341,95,134994,6,0,P|271:96|207:74,1,134.999995880127,0|2,1:0|0:0,0:0:0:0:
55,26,135565,1,2,0:0:0:0:
101,92,135708,2,0,L|81:162,1,67.4999979400635,4|4,3:0|3:0,0:0:0:0:
120,229,135994,6,0,P|71:250|54:328,1,134.999995880127,4|0,0:0|0:0,0:0:0:0:
132,307,136422,1,2,0:0:0:0:
284,361,136708,1,0,0:0:0:0:
337,299,136851,2,0,L|323:230,1,67.4999979400635,2|4,0:0|3:0,0:0:0:0:
415,335,137137,1,2,0:0:0:0:
415,335,137279,6,0,L|429:238,1,67.4999979400635,0|0,1:0|0:0,0:0:0:0:
509,288,137565,2,0,L|495:191,1,67.4999979400635
457,151,137851,2,0,L|411:140,2,44.999998626709,2|2|2,0:0|0:0|0:0,0:0:0:0:
475,125,138137,2,0,L|400:111,1,67.4999979400635,2|2,0:0|0:0,0:0:0:0:
355,41,138422,5,4,3:0:0:0:
275,29,138565,1,4,3:0:0:0:
298,103,138708,2,0,L|286:177,1,67.4999979400635,2|0,0:0|0:0,0:0:0:0:
315,251,138994,1,0,0:0:0:0:
315,251,139137,2,0,P|281:255|254:274,1,67.4999979400635,2|4,0:0|3:0,0:0:0:0:
207,340,139422,1,2,0:0:0:0:
207,340,139565,6,0,L|65:320,1,134.999995880127,0|0,1:0|0:0,0:0:0:0:
104,161,140137,1,2,0:0:0:0:
23,172,140279,2,0,P|21:139|37:111,1,67.4999979400635,4|4,0:3|0:3,0:0:0:0:
111,75,140565,6,0,B|182:76|159:127|228:132,1,134.999995880127,4|4,0:0|0:3,0:0:0:0:
282,71,140994,2,0,L|357:56,1,67.4999979400635,4|4,0:3|0:3,0:0:0:0:
416,101,141279,1,4,0:3:0:0:
392,178,141422,2,0,L|416:258,2,67.4999979400635,4|4|4,0:3|0:3|0:3,0:0:0:0:
297,206,141851,6,0,L|324:286,1,67.4999979400635,0|4,1:0|0:3,0:0:0:0:
367,335,142137,2,0,P|338:351|304:351,1,67.4999979400635,4|4,0:3|0:3,0:0:0:0:
241,301,142422,1,4,3:0:0:0:
169,338,142565,2,0,L|92:352,2,67.4999979400635,0|0|0,3:3|3:3|3:3,0:0:0:0:
162,242,142994,6,0,P|154:169|95:125,1,150,4|0,0:0|3:0,0:0:0:0:
57,44,143422,1,0,3:0:0:0:
146,53,143565,2,0,P|194:46|229:31,1,75,0|0,1:0|3:0,0:0:0:0:
267,112,143851,2,0,P|302:124|339:128,1,75,0|0,3:0|3:0,0:0:0:0:
415,77,144137,5,4,3:2:0:0:
415,77,144279,1,0,3:0:0:0:
423,166,144422,2,0,L|431:244,1,75,0|4,3:0|3:0,0:0:0:0:
473,319,144708,1,0,1:0:0:0:
383,314,144851,2,0,P|346:333|335:366,1,75,2|4,0:0|3:0,0:0:0:0:
347,233,145137,2,0,P|282:268|253:335,1,150,4|0,3:0|0:0,0:0:0:0:
174,369,145565,1,8,3:0:0:0:
174,369,145637,1,8,3:0:0:0:
174,369,145708,1,8,3:0:0:0:
111,304,145851,6,0,P|97:316|79:323,2,37.5,8|8|8,1:3|3:0|3:0,0:0:0:0:
38,249,146137,2,0,P|20:241|6:229,2,37.5,8|8|8,3:0|3:0|3:0,0:0:0:0:
49,158,146423,2,0,P|46:139|50:121,2,37.5,8|8|8,3:0|3:0|3:0,0:0:0:0:
133,122,146708,2,0,P|147:110|165:104,2,37.5,8|8|8,3:0|3:0|3:0,0:0:0:0:
213,194,146994,2,0,P|271:151|270:78,1,150,4|4,0:0|0:0,0:0:0:0:
450,63,147565,6,0,P|413:72|382:92,1,75,4|0,0:0|0:0,0:0:0:0:
449,153,147851,1,0,3:0:0:0:
449,153,147994,1,0,3:0:0:0:
428,240,148137,2,0,L|450:315,1,75,0|0,1:0|3:0,0:0:0:0:
360,296,148422,2,0,L|382:371,1,75,0|0,3:0|3:0,0:0:0:0:
279,265,148708,5,4,3:2:0:0:
201,311,148851,1,0,3:0:0:0:
261,244,148994,2,0,L|275:170,1,75,0|0,3:0|3:0,0:0:0:0:
239,88,149279,1,0,1:0:0:0:
159,129,149422,2,0,P|104:137|67:127,1,75,2|4,0:0|3:0,0:0:0:0:
3,74,149708,2,0,P|45:94|22:182,1,150,4|0,3:0|0:0,0:0:0:0:
38,270,150137,6,0,L|8:313,2,37.5,8|8|8,3:0|3:0|3:0,0:0:0:0:
104,331,150422,2,0,L|99:383,2,37.5,8|8|8,1:3|3:0|3:0,0:0:0:0:
193,314,150708,2,0,L|215:361,2,37.5,8|8|8,3:0|3:0|3:0,0:0:0:0:
248,242,150994,2,0,L|291:272,2,37.5,8|8|8,3:0|3:0|3:0,0:0:0:0:
242,152,151279,2,0,L|294:156,2,37.5,8|8|8,3:0|3:0|3:0,0:0:0:0:
177,88,151565,2,0,P|207:66|244:62,1,75,4|4,3:0|3:0,0:0:0:0:
331,88,151851,2,0,P|357:114|367:150,1,75,0|4,1:0|3:0,0:0:0:0:
360,240,152137,6,0,B|418:232|418:232|437:208|437:208|503:195,1,150,4|0,0:0|3:0,0:0:0:0:
489,286,152565,1,0,3:0:0:0:
489,286,152708,2,0,L|507:372,1,75,0|0,1:0|3:0,0:0:0:0:
416,337,152994,2,0,L|336:348,1,75,0|0,3:0|3:0,0:0:0:0:
275,286,153279,6,0,P|263:250|267:213,2,75,4|0|0,3:0|3:0|3:0,0:0:0:0:
206,345,153708,1,0,3:0:0:0:
128,298,153851,2,0,P|82:313|46:304,1,75,0|2,1:0|0:0,0:0:0:0:
75,219,154137,1,4,3:0:0:0:
164,217,154279,2,0,L|141:44,1,150,4|0,3:0|3:0,0:0:0:0:
233,85,154708,6,0,L|303:77,2,37.5,8|8|8,3:0|3:0|3:0,0:0:0:0:
247,174,154994,2,0,L|317:166,2,37.5,8|8|8,1:3|3:0|3:0,0:0:0:0:
341,116,155279,2,0,L|411:108,2,37.5,8|8|8,3:0|3:0|3:0,0:0:0:0:
355,205,155565,2,0,L|425:197,2,37.5,8|8|8,3:0|3:0|3:0,0:0:0:0:
455,147,155851,2,0,L|525:139,2,37.5,8|8|8,3:0|3:0|3:0,0:0:0:0:
488,231,156137,6,0,P|460:269|471:386,1,150,4|4,0:0|0:0,0:0:0:0:
289,310,156708,2,0,B|205:303|226:355|147:344,1,150,4|0,0:0|3:0,0:0:0:0:
158,254,157137,1,0,3:0:0:0:
70,271,157279,2,0,L|60:185,1,75,0|4,1:0|3:0,0:0:0:0:
163,230,157565,2,0,L|173:144,1,75,4|4,3:0|3:0,0:0:0:0:
93,109,157851,6,0,P|56:102|20:111,1,75,4|0,3:0|3:0,0:0:0:0:
150,37,158137,2,0,P|186:45|222:39,1,75,0|0,3:0|3:0,0:0:0:0:
277,110,158422,2,0,L|279:202,2,75,0|6|4,1:0|0:0|3:0,0:0:0:0:
358,70,158851,2,0,P|395:132|374:202,1,150,4|0,3:0|0:0,0:0:0:0:
320,273,159279,6,0,L|305:328,2,37.5,8|8|8,3:0|3:0|3:0,0:0:0:0:
400,313,159565,2,0,L|385:368,2,37.5,8|8|8,1:3|3:0|3:0,0:0:0:0:
490,308,159851,1,8,3:0:0:0:
469,220,159994,1,8,3:0:0:0:
469,220,160065,1,8,0:3:0:0:
469,220,160137,1,8,3:0:0:0:
351,22,160422,6,0,P|305:38|257:46,1,97.4999955368044,8|8,3:0|3:0,0:0:0:0:
179,107,160708,2,0,P|149:105|131:95,2,48.7499977684022,4|4|4,3:0|3:0|3:0,0:0:0:0:
260,162,160994,1,0,1:0:0:0:
281,258,161137,6,0,P|209:247|155:296,1,150,4|4,0:0|3:0,0:0:0:0:
67,277,161565,2,0,L|78:351,1,75,0|4,1:0|0:3,0:0:0:0:
116,204,161851,2,0,L|125:130,1,75,0|4,0:0|0:3,0:0:0:0:
80,50,162137,2,0,P|35:69|31:90,1,75,0|4,1:0|3:0,0:0:0:0:
177,53,162422,6,0,P|216:72|332:80,1,150,2|0,0:0|1:0,0:0:0:0:
393,27,162851,2,0,P|430:4|445:92,1,150,4|4,0:3|0:3,0:0:0:0:
414,152,163279,1,0,1:0:0:0:
470,222,163422,1,4,0:0:0:0:
381,238,163565,6,0,B|325:249|325:249|293:277|293:277|240:289,1,150,2|0,0:2|1:0,0:0:0:0:
361,328,163994,2,0,L|436:339,2,75,4|0|4,0:3|0:0|0:3,0:0:0:0:
284,376,164422,1,0,1:1:0:0:
196,355,164565,6,0,P|151:308|196:222,1,150,4|4,3:0|0:3,0:0:0:0:
214,152,164994,2,0,P|200:117|152:97,1,75,0|4,1:0|0:3,0:0:0:0:
172,11,165279,1,2,0:0:0:0:
172,11,165422,2,0,P|127:18|102:46,1,75,4|0,0:3|1:0,0:0:0:0:
251,57,165708,6,0,L|409:70,1,150,4|4,0:0|0:3,0:0:0:0:
484,34,166137,1,0,1:0:0:0:
474,122,166279,1,4,0:3:0:0:
392,161,166422,2,0,P|440:161|469:258,1,150,2|0,0:2|1:0,0:0:0:0:
386,260,166851,1,4,0:3:0:0:
445,327,166994,6,0,P|402:339|371:351,1,75,2|4,0:0|0:3,0:0:0:0:
301,295,167279,2,0,P|265:281|229:272,1,75,0|4,1:0|3:0,0:0:0:0:
199,186,167565,2,0,B|214:131|214:131|203:101|203:101|220:38,1,150,2|0,0:2|1:0,0:0:0:0:
129,55,167994,1,4,0:0:0:0:
41,32,168137,6,0,P|17:63|35:188,1,150,2|0,0:2|1:0,0:0:0:0:
85,231,168565,2,0,P|111:278|101:308,1,75,4|0,0:3|0:0,0:0:0:0:
46,363,168851,2,0,P|23:334|23:291,1,75,4|0,0:3|1:1,0:0:0:0:
133,314,169137,6,0,P|206:316|288:360,1,150,4|4,0:3|0:3,0:0:0:0:
361,326,169565,1,0,1:0:0:0:
447,350,169708,1,4,0:3:0:0:
428,270,169851,1,2,0:0:0:0:
428,270,169922,1,0,0:0:0:0:
428,270,169994,2,0,L|448:192,1,75,4|0,0:3|1:0,0:0:0:0:
474,111,170279,6,0,P|401:119|359:179,1,150,4|4,0:0|0:3,0:0:0:0:
275,211,170708,1,0,1:0:0:0:
216,142,170851,1,4,0:3:0:0:
283,82,170994,2,0,P|293:44|297:8,1,75,0|4,0:0|0:3,0:0:0:0:
210,30,171279,2,0,L|126:20,1,75,0|4,1:0|0:3,0:0:0:0:
43,17,171565,6,0,P|107:49|112:121,1,150,2|0,0:0|1:0,0:0:0:0:
147,205,171994,2,0,P|106:227|-7:225,1,150,2|4,3:2|0:3,0:0:0:0:
10,139,172422,1,0,1:0:0:0:
112,121,172565,6,0,B|169:118|169:118|194:97|194:97|261:94,1,150,4|0,0:0|1:0,0:0:0:0:
331,46,172994,2,0,L|415:57,1,75,4|0,3:0|1:0,0:0:0:0:
435,46,173208,1,4,3:0:0:0:
435,46,173279,2,0,L|415:131,1,75,0|4,1:0|3:0,0:0:0:0:
486,178,173565,2,0,L|470:253,1,75,4|4,3:0|3:3,0:0:0:0:
414,323,173851,2,0,L|425:371,2,37.5,4|4|4,1:3|3:0|3:0,0:0:0:0:
323,321,174137,2,0,L|334:369,2,37.5,4|4|4,3:0|3:0|3:0,0:0:0:0:
233,313,174422,2,0,L|244:361,2,37.5,4|4|4,3:0|3:0|3:0,0:0:0:0:
286,240,174708,1,0,1:0:0:0:
202,183,174851,6,0,P|146:184|85:325,1,225,4|0,0:0|0:0,0:0:0:0:
115,105,176708,6,0,L|99:52,3,37.5,0|0|0|0,1:0|1:0|1:0|1:0,0:0:0:0:
115,44,176994,1,0,1:0:0:0:
192,75,177137,6,0,P|200:122|94:180,1,180,4|4,1:2|0:0,0:0:0:0:
384,177,181565,6,0,L|376:214,1,30,4|4,3:0|3:0,0:0:0:0:
385,236,181708,2,0,P|327:236|284:276,1,120,4|0,0:0|0:0,0:0:0:0:
357,319,182137,1,0,1:0:0:0:
198,373,182422,1,0,0:0:0:0:
63,272,182708,2,0,L|59:212,1,60
54,116,182994,6,0,P|40:106|23:102,2,33.7499989700318,4|4|4,3:0|3:0|3:0,0:0:0:0:
134,166,183279,2,0,P|150:162|164:152,2,33.7499989700318,0|0|4,1:0|1:0|0:3,0:0:0:0:
173,55,183565,1,4,0:0:0:0:
244,114,183708,2,0,P|255:146|252:180,1,67.4999979400635,4|0,0:0|0:0,0:0:0:0:
200,263,183994,6,0,P|260:235|325:248,1,134.999995880127,4|0,0:2|0:0,0:0:0:0:
270,324,184422,1,4,0:3:0:0:
456,356,184708,2,0,P|463:293|478:222,1,134.999995880127,0|0,1:0|0:0,0:0:0:0:
433,139,185137,1,0,0:0:0:0:
433,139,185279,6,4,P|431:106|424:72,1,67.4999979400635,4|4,3:0|3:0,3:0:0:0:
341,24,185565,1,4,3:0:0:0:
267,59,185708,2,4,L|236:63,3,22.4999993133545,4|4|4|4,3:0|3:0|3:0|3:0,3:0:0:0:
259,142,185994,2,0,L|257:172,3,22.4999993133545,4|4|4|0,3:0|3:0|3:0|1:0,0:0:0:0:
95,358,186708,6,0,P|135:356|174:369,1,82.5000025177003,4|4,1:2|0:3,0:0:0:0:
247,313,186994,2,0,P|287:314|326:301,1,82.5000025177003,0|4,0:0|0:3,0:0:0:0:
403,252,187279,2,0,L|420:335,1,82.5000025177003,0|4,1:0|0:3,0:0:0:0:
490,221,187565,6,0,P|435:163|355:171,1,165.000005035401,2|0,0:0|1:0,0:0:0:0:
268,143,187994,1,4,0:3:0:0:
268,143,188137,2,0,P|222:162|187:165,1,82.5000025177003,2|4,0:0|0:3,0:0:0:0:
105,130,188422,1,0,1:0:0:0:
48,201,188565,6,0,L|70:37,1,165.000005035401,4|4,0:0|0:3,0:0:0:0:
160,18,188994,2,0,P|197:32|212:69,1,82.5000025177003,0|4,1:0|0:3,0:0:0:0:
268,143,189279,2,0,P|328:143|369:135,1,82.5000025177003,0|4,0:0|0:3,0:0:0:0:
423,85,189565,2,0,P|423:25|415:-16,1,82.5000025177003,0|4,1:1|0:3,0:0:0:0:
491,163,189851,6,0,P|425:206|432:284,1,165.000005035401,2|0,0:0|1:0,0:0:0:0:
394,367,190279,1,4,0:3:0:0:
394,367,190422,2,0,P|358:349|309:342,1,82.5000025177003,2|4,0:0|0:3,0:0:0:0:
226,326,190708,1,0,1:0:0:0:
129,376,190851,6,0,B|119:317|119:317|97:285|97:285|87:216,1,165.000005035401,4|4,0:0|0:3,0:0:0:0:
0,205,191279,2,0,L|11:291,1,82.5000025177003,0|4,1:0|0:3,0:0:0:0:
66,135,191565,2,0,P|106:134|141:154,1,82.5000025177003,0|4,0:0|0:3,0:0:0:0:
210,214,191851,2,0,P|236:183|229:144,1,82.5000025177003,0|4,1:0|0:3,0:0:0:0:
196,52,192137,6,0,P|275:72|357:66,1,165.000005035401,2|0,0:0|1:0,0:0:0:0:
437,23,192565,2,0,P|473:46|421:133,1,165.000005035401,2|4,0:0|0:3,0:0:0:0:
341,165,192994,1,0,1:0:0:0:
427,229,193137,6,0,B|417:333|417:333|387:333|362:355,1,165.000005035401,4|0,0:0|0:0,0:0:0:0:
273,334,193565,2,0,L|232:348,2,41.2500012588501,0|4|4,1:0|3:0|3:0,0:0:0:0:
231,252,193851,2,0,L|191:238,2,41.2500012588501,0|4|4,1:0|3:0|3:0,0:0:0:0:
308,203,194137,1,0,1:0:0:0:
257,116,194279,6,0,P|217:47|138:39,1,165.000005035401,4|0,0:0|0:0,0:0:0:0:
47,53,194708,2,0,L|39:12,2,41.2500012588501,4|4|4,0:3|0:3|0:3,0:0:0:0:
59,143,194994,2,0,L|18:150,2,41.2500012588501,0|4|4,1:0|0:3|0:3,0:0:0:0:
148,130,195279,1,0,1:0:0:0:
103,233,195422,6,0,P|183:237|240:295,1,165.000005035401,4|4,0:0|3:0,0:0:0:0:
318,343,195851,2,0,P|355:328|373:292,1,82.5000025177003,0|4,1:0|0:3,0:0:0:0:
463,308,196137,2,0,P|464:267|442:233,1,82.5000025177003,0|4,0:0|0:3,0:0:0:0:
362,190,196422,2,0,L|371:103,1,82.5000025177003,0|4,1:0|0:3,0:0:0:0:
288,53,196708,6,0,L|270:217,1,165.000005035401,2|0,0:0|1:0,0:0:0:0:
191,263,197137,1,4,0:3:0:0:
191,263,197279,2,0,P|151:233|206:145,1,165.000005035401,2|0,0:0|1:0,0:0:0:0:
160,47,197708,6,0,P|117:54|4:-4,1,165.000005035401,4|4,0:0|0:3,0:0:0:0:
65,77,198137,2,0,L|38:157,1,82.5000025177003,0|4,1:0|0:3,0:0:0:0:
79,236,198422,2,0,L|52:314,1,82.5000025177003,0|4,0:0|0:3,0:0:0:0:
128,365,198708,2,0,P|185:356|212:362,1,82.5000025177003,0|4,1:1|0:3,0:0:0:0:
260,285,198994,6,0,P|194:240|188:160,1,165.000005035401,2|0,0:0|1:0,0:0:0:0:
249,93,199422,1,4,0:3:0:0:
249,93,199565,2,0,L|340:102,2,82.5000025177003,2|4|0,0:0|0:3|1:0,0:0:0:0:
294,13,199994,6,0,B|380:23|380:23|415:41|416:87,1,165.000005035401,4|4,0:0|0:3,0:0:0:0:
475,157,200422,2,0,P|448:212|437:258,1,82.5000025177003,0|4,1:0|0:3,0:0:0:0:
428,322,200708,2,0,P|392:305|350:298,1,82.5000025177003,0|4,0:0|0:3,0:0:0:0:
291,220,200994,2,0,P|262:252|256:311,1,82.5000025177003,0|4,1:0|0:3,0:0:0:0:
177,371,201279,6,0,P|168:309|121:202,1,165.000005035401,2|0,0:0|1:0,0:0:0:0:
186,143,201708,2,0,P|171:128|153:119,2,41.2500012588501,4|4|4,3:0|3:0|3:0,0:0:0:0:
269,105,201994,2,0,P|319:113|362:115,1,82.5000025177003,0|0,1:0|1:0,0:0:0:0:
392,34,202279,2,0,P|317:2|238:23,1,165.000005035401,4|8,0:0|3:0,0:0:0:0:
157,66,202708,6,0,P|138:60|118:55,2,41.2500012588501,0|4|4,1:0|3:0|3:0,0:0:0:0:
109,144,202994,2,0,P|89:149|69:155,2,41.2500012588501,0|4|4,1:0|3:0|3:0,0:0:0:0:
176,204,203279,2,0,P|195:197|215:192,2,41.2500012588501,0|4|0,1:0|3:0|1:0,0:0:0:0:
224,281,203565,2,0,P|243:286|263:292,2,41.2500012588501,4|4|4,3:0|3:0|3:0,0:0:0:0:
146,329,203851,6,0,L|52:345,1,82.5000025177003,0|4,1:0|0:3,0:0:0:0:
7,271,204137,1,0,1:0:0:0:
69,206,204279,1,4,0:3:0:0:
25,126,204422,2,0,L|35:38,1,82.5000025177003,4|4,1:2|1:2,0:0:0:0:
112,16,204708,6,0,P|148:16|175:41,1,75,4|4,0:0|0:3,0:0:0:0:
213,123,204994,1,0,1:0:0:0:
289,74,205137,2,0,B|344:67|344:67|378:48|378:48|433:45,1,150,4|4,3:0|3:0,0:0:0:0:
500,105,205565,2,0,L|507:154,2,37.5,2|0|4,1:2|1:0|0:3,0:0:0:0:
411,149,205851,5,4,3:0:0:0:
450,229,205994,2,0,L|442:314,1,75,4|0,0:3|1:0,0:0:0:0:
374,361,206279,2,0,L|208:340,1,150,4|4,3:0|3:0,0:0:0:0:
155,283,206708,2,0,L|118:292,2,37.5,2|0|4,1:2|1:0|0:3,0:0:0:0:
240,254,206994,1,4,0:3:0:0:
220,166,207137,2,0,L|234:79,1,75,4|0,0:3|1:0,0:0:0:0:
176,21,207422,2,0,P|257:5|315:53,1,150,4|4,3:0|3:0,0:0:0:0:
312,132,207851,1,2,1:2:0:0:
312,132,207922,1,0,1:0:0:0:
312,132,207994,1,4,0:3:0:0:
220,166,208137,6,0,L|171:162,2,37.5,4|4|4,0:3|0:3|0:3,0:0:0:0:
217,256,208422,2,0,L|168:252,2,37.5,0|0|4,1:0|1:0|0:3,0:0:0:0:
300,221,208708,2,0,L|349:217,2,37.5,4|4|4,0:3|0:3|0:3,0:0:0:0:
303,311,208994,2,0,L|352:307,2,37.5,0|0|4,1:0|1:0|0:3,0:0:0:0:
214,363,209279,5,4,0:3:0:0:
126,383,209422,2,0,P|85:366|43:362,1,75,4|0,0:3|1:0,0:0:0:0:
15,280,209708,2,0,P|27:243|126:245,1,150,4|4,3:0|3:0,0:0:0:0:
199,192,210137,2,0,L|257:208,2,37.5,2|0|4,1:2|1:0|0:3,0:0:0:0:
117,106,210422,5,4,3:0:0:0:
192,57,210565,2,0,P|237:65|259:100,1,75,4|0,0:3|1:0,0:0:0:0:
330,135,210851,2,0,P|374:112|375:19,1,150,4|4,3:0|3:0,0:0:0:0:
466,21,211279,2,0,L|513:14,2,37.5,2|0|4,1:2|1:0|0:3,0:0:0:0:
463,125,211565,5,4,3:0:0:0:
504,204,211708,2,0,L|508:241,1,37.5,0|0,1:0|1:0,0:0:0:0:
493,267,211851,2,0,P|441:259|403:269,1,75,0|0,1:0|1:0,0:0:0:0:
398,283,212065,1,0,1:0:0:0:
398,283,212137,1,0,1:0:0:0:
320,327,212279,2,0,L|264:313,2,37.5,0|0|0,1:0|1:0|1:0,0:0:0:0:
255,158,212708,6,0,L|245:107,2,37.5,4|4|4,0:3|0:3|0:3,0:0:0:0:
337,120,212994,2,0,L|386:136,2,37.5,0|4|4,1:0|3:0|0:3,0:0:0:0:
328,210,213279,2,0,L|288:244,2,37.5,4|4|4,1:3|1:3|0:3,0:0:0:0:
418,202,213565,1,4,1:2:0:0:
417,202,213708,6,0,P|464:147|438:80,1,150,4|0,0:2|0:0,0:0:0:0:
361,33,214137,1,4,3:2:0:0:
123,157,215279,2,0,L|74:166,3,37.5,4|4|4|4,3:0|3:0|3:0|3:0,0:0:0:0:
63,191,215565,1,4,3:0:0:0:
122,258,215708,2,0,L|207:236,1,75,0|0,1:0|1:0,0:0:0:0:
247,166,215994,6,0,B|360:152|326:243|438:225,1,209.999993591309,4|0,0:0|0:0,0:0:0:0:
