osu file format v14

[General]
AudioFilename: audio.mp3
AudioLeadIn: 0
PreviewTime: 57137
Countdown: 0
SampleSet: Soft
StackLeniency: 0.4
Mode: 0
LetterboxInBreaks: 0
WidescreenStoryboard: 1

[Editor]
DistanceSpacing: 0.8
BeatDivisor: 4
GridSize: 32
TimelineZoom: 3.899999

[Metadata]
Title:Adore Your Pain
TitleUnicode:Adore Your Pain
Artist:UNDEAD CORPORATION
ArtistUnicode:UNDEAD CORPORATION
Creator:Zelq
Version:Lunatic
Source:東方地霊殿 ~ Subterranean Animism.
Tags:osu! TOHO Complete Box - RED metal rock english fa featured artist mappers' guild mpg cheri hailie dj lucky trynna satori komeiji touhou 東方Project video game
BeatmapID:2310865
BeatmapSetID:1019398

[Difficulty]
HPDrainRate:5
CircleSize:3.7
OverallDifficulty:8
ApproachRate:9
SliderMultiplier:1.75
SliderTickRate:1

[Events]
//Background and Video events
0,0,"mpgbg.jpg",0,0
//Break Periods
2,76137,84108
2,143565,151537
//Storyboard Layer 0 (Background)
//Storyboard Layer 1 (Fail)
//Storyboard Layer 2 (Pass)
//Storyboard Layer 3 (Foreground)
//Storyboard Layer 4 (Overlay)
//Storyboard Sound Samples

[TimingPoints]
137,285.714285714286,4,2,0,65,1,0
137,-111.111111111111,4,2,0,65,0,0
1137,-125,4,2,0,50,0,0
6994,-125,4,2,0,60,0,0
8708,-125,4,2,0,50,0,0
9279,-125,4,2,0,70,0,0
10422,-111.111111111111,4,2,0,70,0,0
18422,-111.111111111111,4,2,0,80,0,0
19565,-111.111111111111,4,2,0,60,0,0
28708,-142.857142857143,4,2,0,50,0,0
37851,-125,4,2,0,50,0,0
44708,-125,4,2,0,65,0,0
45565,-125,4,2,0,60,0,0
45851,-125,4,2,0,70,0,0
46994,-111.111111111111,4,2,0,65,0,0
53851,-99.9999999999999,4,2,0,70,0,0
54994,-99.9999999999999,4,2,0,80,0,0
57137,-90.9090909090909,4,2,0,80,0,1
75422,-111.111111111111,4,2,0,50,0,0
84708,-142.857142857143,4,2,0,40,0,0
91565,-125,4,2,0,70,0,0
93851,-125,4,2,0,50,0,0
100708,-125,4,2,0,65,0,0
102994,-111.111111111111,4,2,0,65,0,0
109851,-99.9999999999999,4,2,0,70,0,0
113137,-90.9090909090909,4,2,0,80,0,1
131422,-90.9090909090909,4,2,0,60,0,1
131851,-111.111111111111,4,2,0,60,0,0
133279,-111.111111111111,4,2,0,60,0,0
133851,-111.111111111111,4,2,0,50,0,0
142994,-125,4,2,0,60,0,0
152137,-99.9999999999999,4,2,0,60,0,0
160137,-99.9999999999999,4,2,0,70,0,0
161137,-99.9999999999999,4,2,0,80,0,0
174708,-125,4,2,0,80,0,0
177137,-125,4,2,0,50,0,0
178994,-166.666666666667,4,2,0,50,0,0
181565,-125,4,2,0,50,0,0
182994,-125,4,2,0,70,0,0
185279,-111.111111111111,4,2,0,70,0,0
186708,-90.9090909090908,4,2,0,90,0,1
204708,-111.111111111111,4,2,0,80,0,0
213708,-166.666666666666,4,2,0,80,0,0
215279,-111.111111111111,4,2,0,80,0,0
215994,-166.666666666666,4,2,0,60,0,0

[Colours]
Combo1 : 149,149,255
Combo2 : 255,128,128
Combo3 : 217,152,252
Combo4 : 251,216,111

[HitObjects]
33,64,137,5,4,1:3:0:0:
67,59,208,1,4,0:3:0:0:
101,54,279,1,4,0:3:0:0:
136,49,351,1,4,0:3:0:0:
170,44,422,2,0,L|175:-2,3,39.3749987983704,0|4|4|4,1:0|0:3|0:3|0:3,0:0:0:0:
264,88,708,2,0,L|259:42,3,39.3749987983704,0|4|4|4,1:0|0:3|0:3|0:3,0:0:0:0:
180,147,994,1,0,1:0:0:0:
180,147,1137,6,0,B|147:124|93:135|61:182|61:182|96:221|144:209,1,210,6|4,0:0|0:0,0:0:0:0:
124,211,3422,1,2,0:0:0:0:
19,311,5565,5,4,0:3:0:0:
19,311,5637,1,4,0:3:0:0:
19,311,5708,2,0,B|144:286|100:379|240:351,1,210,0|0,1:0|1:0,0:0:0:0:
216,354,6994,6,0,P|208:337|206:316,2,35,0|4|4,1:0|0:3|0:3,0:0:0:0:
303,306,7279,2,0,P|304:288|310:272,2,35,8|8|8,1:3|0:3|0:3,0:0:0:0:
402,307,7565,2,0,P|411:292|425:281,1,35,4|0,0:0|0:0,0:0:0:0:
486,368,7708,2,0,P|419:375|385:317,1,140,4|4,0:0|0:3,0:0:0:0:
410,144,8422,1,4,0:3:0:0:
423,52,8708,1,0,1:0:0:0:
423,52,9279,6,0,L|383:48,3,35,0|4|4|4,1:0|0:3|0:3|0:3,0:0:0:0:
307,75,9565,2,0,L|267:71,3,35,4|4|4|4,0:3|0:3|0:3|0:3,0:0:0:0:
199,18,9851,1,4,0:3:0:0:
167,14,9922,1,4,0:3:0:0:
135,10,9994,1,4,0:3:0:0:
103,6,10065,1,4,0:3:0:0:
71,1,10137,1,0,1:0:0:0:
71,1,10422,6,0,L|63:90,1,78.7499975967408,4|0,0:0|0:0,0:0:0:0:
16,174,10708,1,4,1:3:0:0:
128,259,10851,2,0,P|125:183|197:129,1,157.499995193482,4|4,3:0|3:0,0:0:0:0:
298,167,11279,2,0,B|339:159|339:159|306:140,1,78.7499975967408,2|4,1:2|0:3,0:0:0:0:
241,47,11565,5,4,3:0:0:0:
349,34,11708,1,4,0:3:0:0:
464,18,11851,1,0,1:0:0:0:
464,18,11994,2,0,B|499:57|499:57|486:177,1,157.499995193482,0|4,3:0|3:0,0:0:0:0:
452,260,12422,2,0,B|459:298|459:298|483:267,1,78.7499975967408,2|4,1:2|3:0,0:0:0:0:
372,158,12708,6,0,P|333:151|297:166,1,78.7499975967408,4|4,0:3|0:3,0:0:0:0:
257,263,12994,1,0,1:0:0:0:
139,228,13137,2,0,L|155:384,1,157.499995193482,4|4,3:0|3:0,0:0:0:0:
26,281,13565,1,2,1:2:0:0:
26,281,13637,1,0,1:0:0:0:
26,281,13708,1,4,0:3:0:0:
146,209,13851,6,0,L|203:217,2,39.3749987983704,4|4|4,0:3|0:3|0:3,0:0:0:0:
61,149,14137,2,0,L|39:95,2,39.3749987983704,0|0|4,1:0|1:0|0:3,0:0:0:0:
50,249,14422,2,0,L|14:294,2,39.3749987983704,4|4|4,0:3|0:3|0:3,0:0:0:0:
153,111,14708,1,0,1:0:0:0:
153,111,14779,1,0,1:0:0:0:
153,111,14851,1,4,0:3:0:0:
267,177,14994,6,0,P|255:128|276:83,1,78.7499975967408,4|4,0:3|0:3,0:0:0:0:
173,16,15279,1,0,1:0:0:0:
41,84,15422,2,0,P|71:156|73:234,1,157.499995193482,4|4,3:0|3:0,0:0:0:0:
57,333,15851,2,0,B|24:360|24:360|18:324,1,78.7499975967408,2|4,1:2|0:3,0:0:0:0:
166,276,16137,5,4,3:0:0:0:
266,293,16279,1,4,0:3:0:0:
367,310,16422,1,0,1:0:0:0:
367,310,16565,2,0,B|409:306|439:346|439:346|429:303|456:265,1,157.499995193482,4|4,3:0|3:0,0:0:0:0:
504,184,16994,2,0,B|502:142|502:142|474:166,1,78.7499975967408,2|4,1:2|0:3,0:0:0:0:
373,207,17279,6,0,L|361:122,1,78.7499975967408,4|4,3:0|0:3,0:0:0:0:
435,30,17565,1,0,1:0:0:0:
273,5,17708,2,0,L|257:161,1,157.499995193482,4|4,3:0|3:0,0:0:0:0:
241,304,18137,1,2,1:2:0:0:
241,304,18208,1,0,1:0:0:0:
241,304,18279,1,4,0:3:0:0:
152,234,18422,6,0,P|158:215|171:201,2,39.3749987983704,4|4|4,0:3|0:3|0:3,0:0:0:0:
77,288,18708,2,0,P|64:273|58:254,2,39.3749987983704,0|0|4,1:0|1:0|0:3,0:0:0:0:
86,379,18994,2,0,P|66:382|47:378,2,39.3749987983704,4|4|4,0:3|0:3|0:3,0:0:0:0:
186,323,19279,1,0,1:0:0:0:
186,323,19351,1,0,1:0:0:0:
186,323,19422,1,4,0:3:0:0:
327,374,19565,6,0,B|315:330|315:330|336:297|336:297|342:207,1,157.499995193482,4|0,0:0|3:0,0:0:0:0:
352,106,19994,1,0,3:0:0:0:
352,106,20137,2,0,P|396:88|445:99,1,78.7499975967408,0|0,1:0|3:0,0:0:0:0:
449,215,20422,2,0,P|413:231|374:230,1,78.7499975967408,0|0,3:0|3:0,0:0:0:0:
252,159,20708,1,4,3:0:0:0:
252,159,20851,1,0,3:0:0:0:
252,159,20994,1,0,3:0:0:0:
252,159,21137,1,0,3:0:0:0:
171,251,21279,2,0,L|163:329,2,78.7499975967408,0|2|4,1:0|0:0|3:0,0:0:0:0:
100,137,21708,6,0,B|76:87|96:33|96:33|124:41|124:71,1,157.499995193482,4|0,3:0|0:0,0:0:0:0:
86,224,22137,2,0,B|65:257|65:257|56:217,1,78.7499975967408,8|8,3:0|3:0,0:0:0:0:
191,171,22422,1,8,1:3:0:0:
222,165,22494,1,8,3:0:0:0:
252,159,22565,1,8,3:0:0:0:
322,238,22708,1,8,3:0:0:0:
353,244,22780,1,8,3:0:0:0:
383,250,22851,1,8,3:0:0:0:
475,187,22994,6,0,L|481:133,2,39.3749987983704,8|8|8,3:0|3:0|3:0,0:0:0:0:
486,268,23279,2,0,L|492:214,2,39.3749987983704,8|8|8,3:0|3:0|3:0,0:0:0:0:
497,351,23565,2,0,B|442:344|442:344|402:366|402:366|339:360,1,157.499995193482,4|4,0:0|0:0,0:0:0:0:
27,329,24137,6,0,B|60:320|90:336|90:336|119:326|119:326|149:349|198:335,1,157.499995193482,4|0,0:0|3:0,0:0:0:0:
258,273,24565,1,0,3:0:0:0:
167,183,24708,2,0,L|152:85,1,78.7499975967408,0|0,1:0|3:0,0:0:0:0:
315,71,24994,2,0,L|303:148,1,78.7499975967408,0|0,3:0|3:0,0:0:0:0:
381,246,25279,1,4,3:0:0:0:
381,246,25422,1,0,3:0:0:0:
381,246,25565,1,0,3:0:0:0:
381,246,25708,1,0,3:0:0:0:
415,127,25851,2,0,B|452:125|452:125|474:134|474:134|520:129,2,78.7499975967408,0|2|4,1:0|0:0|3:0,0:0:0:0:
303,148,26279,6,0,B|214:150|259:101|148:106,1,157.499995193482,4|0,3:0|0:0,0:0:0:0:
52,44,26708,2,0,B|66:8|66:8|89:47,1,78.7499975967408,8|8,3:0|3:0,0:0:0:0:
31,138,26994,1,8,1:3:0:0:
22,168,27065,1,8,3:0:0:0:
17,199,27137,1,8,3:0:0:0:
124,216,27279,1,8,3:0:0:0:
133,246,27350,1,8,3:0:0:0:
138,277,27422,1,8,3:0:0:0:
17,346,27565,6,0,P|69:320|126:330,1,118.124996395111,8|0,3:0|0:0,0:0:0:0:
151,347,27851,2,0,P|169:357|188:361,1,39.3749987983704,8|8,3:0|3:0,0:0:0:0:
274,339,27994,2,0,P|290:328|303:313,1,39.3749987983704,8|8,3:0|3:0,0:0:0:0:
322,225,28137,1,4,3:0:0:0:
324,193,28208,1,4,3:0:0:0:
326,161,28279,1,4,3:0:0:0:
328,129,28351,1,4,3:0:0:0:
328,97,28422,6,0,P|354:54|428:93,1,118.124996395111,0|0,1:0|0:0,0:0:0:0:
462,132,28708,6,0,B|453:161|453:161|429:143,1,61.2499981307984,4|4,3:0|3:0,0:0:0:0:
328,97,28994,1,8,0:3:0:0:
250,79,29137,1,8,0:3:0:0:
172,62,29279,1,8,0:3:0:0:
94,43,29422,1,8,0:3:0:0:
15,26,29565,2,0,B|-24:68|-5:152|52:180|52:180|92:148|84:113,1,244.999992523194,4|0,0:0|0:0,0:0:0:0:
15,26,30422,1,4,0:0:0:0:
53,179,30994,6,0,B|35:205|35:205|28:176,1,61.2499981307984,4|4,3:0|3:0,0:0:0:0:
133,106,31279,1,8,0:3:0:0:
211,88,31422,1,8,0:3:0:0:
289,71,31564,1,8,0:3:0:0:
367,52,31707,1,8,0:3:0:0:
446,35,31850,2,0,B|488:136|400:108|438:207|438:207|481:169|463:137,1,244.999992523194,4|4,0:0|1:2,0:0:0:0:
446,35,32708,1,2,0:0:0:0:
468,153,32994,1,0,1:0:0:0:
492,270,33279,6,0,B|520:261|520:261|492:246,1,61.2499981307984,4|4,3:0|3:0,0:0:0:0:
378,220,33565,1,8,0:3:0:0:
300,202,33708,1,8,0:3:0:0:
222,185,33850,1,8,0:3:0:0:
144,166,33993,1,8,0:3:0:0:
67,142,34137,2,0,P|81:111|156:210,1,244.999992523194,4|0,0:0|0:0,0:0:0:0:
51,251,34994,5,4,3:0:0:0:
51,251,35065,1,4,3:0:0:0:
51,251,35137,1,4,3:0:0:0:
71,340,35279,1,4,3:0:0:0:
160,361,35422,1,4,3:0:0:0:
238,305,35565,6,0,B|236:270|236:270|195:295,1,61.2499981307984,4|4,0:0|3:0,0:0:0:0:
331,357,35851,2,0,P|325:327|327:296,1,61.2499981307984,4|4,0:3|0:3,0:0:0:0:
474,299,36137,2,0,P|451:319|423:331,1,61.2499981307984,4|4,0:3|0:3,0:0:0:0:
329,211,36422,2,0,P|418:228|473:298,1,183.749994392395,4|4,0:3|0:3,0:0:0:0:
469,329,36922,1,4,0:3:0:0:
469,329,36994,1,4,0:2:0:0:
484,176,37279,1,4,0:3:0:0:
484,176,37351,1,4,0:3:0:0:
484,176,37422,2,0,B|465:132|510:127|515:58|472:15,1,153.124995326996,4|0,0:0|0:0,0:0:0:0:
381,26,37851,5,4,0:3:0:0:
381,26,37922,1,4,0:3:0:0:
381,26,37994,2,0,P|364:59|365:116,1,70,4|4,0:3|0:3,0:0:0:0:
265,88,38279,1,4,0:3:0:0:
265,88,38422,2,0,P|267:122|280:154,1,70,4|4,0:3|0:3,0:0:0:0:
350,217,38708,1,2,3:2:0:0:
350,217,39279,1,0,3:0:0:0:
350,217,39851,1,0,1:0:0:0:
432,340,40137,5,4,0:3:0:0:
432,340,40208,1,4,0:3:0:0:
432,340,40279,2,0,L|346:328,1,70,4|4,0:3|0:3,0:0:0:0:
278,278,40565,2,0,L|192:290,1,70,4|4,0:3|0:3,0:0:0:0:
99,355,40851,1,4,0:3:0:0:
99,355,40994,2,0,L|120:75,1,280,2|0,3:2|3:0,0:0:0:0:
9,7,41851,2,0,L|16:158,1,140,0|0,3:0|1:0,0:0:0:0:
169,29,42422,5,4,0:3:0:0:
169,29,42494,1,4,0:3:0:0:
169,29,42565,2,0,P|227:22|262:42,1,70,4|4,0:3|0:3,0:0:0:0:
228,149,42851,1,4,0:3:0:0:
228,149,42994,2,0,P|193:154|160:145,1,70,4|4,0:3|0:3,0:0:0:0:
15,146,43279,2,0,P|84:140|129:326,1,280,2|0,3:2|3:0,0:0:0:0:
89,369,44137,6,0,B|46:366|46:366|65:347,1,70,4|4,3:0|3:0,0:0:0:0:
198,333,44422,1,0,1:0:0:0:
309,370,44565,1,4,3:0:0:0:
424,333,44708,5,4,0:0:0:0:
424,333,44779,1,4,3:0:0:0:
424,333,44851,2,0,P|422:298|427:263,1,70,4|4,3:0|3:0,0:0:0:0:
484,162,45137,1,0,3:0:0:0:
364,96,45279,2,0,P|369:130|367:165,1,70,4|4,0:3|0:3,0:0:0:0:
280,249,45565,2,0,B|243:258|243:258|195:245|180:200,1,105,4|0,0:0|0:0,0:0:0:0:
188,186,45851,6,0,P|188:168|184:151,3,35,8|8|8|8,0:3|0:3|0:3|0:3,0:0:0:0:
93,192,46137,2,0,P|77:183|61:177,3,35,8|8|8|8,0:3|0:3|0:3|0:3,0:0:0:0:
39,268,46422,1,4,0:0:0:0:
4,102,46565,1,4,0:3:0:0:
4,102,46994,6,0,B|21:68|63:59|63:59|104:83|104:83|146:74,1,157.499995193482,4|0,0:0|1:0,0:0:0:0:
237,1,47422,1,4,0:3:0:0:
153,90,47565,2,0,P|142:128|145:167,1,78.7499975967408,0|4,0:0|0:3,0:0:0:0:
218,263,47851,1,0,1:0:0:0:
218,263,47922,1,4,3:0:0:0:
218,263,47994,1,0,3:0:0:0:
292,157,48137,6,0,B|332:143|332:143|387:154,1,78.7499975967408,4|4,0:3|0:3,0:0:0:0:
462,219,48422,1,4,0:3:0:0:
345,274,48565,2,0,B|308:314|308:314|330:373|330:373|339:328,1,157.499995193482,4|4,0:3|0:3,0:0:0:0:
370,173,48994,1,0,1:0:0:0:
370,173,49065,1,4,3:0:0:0:
370,173,49137,1,0,3:0:0:0:
393,57,49279,6,0,B|445:27|497:54|497:54|477:75|477:75|443:62,1,157.499995193482,4|0,0:3|1:0,0:0:0:0:
283,24,49708,2,0,B|252:34|252:34|237:94,1,78.7499975967408,4|0,0:3|0:0,0:0:0:0:
176,180,49994,2,0,B|145:170|145:170|133:125,1,78.7499975967408,4|0,0:3|1:0,0:0:0:0:
144,93,50208,1,4,3:0:0:0:
144,93,50280,1,0,3:0:0:0:
55,200,50422,6,0,B|31:234|31:234|26:197,1,78.7499975967408,4|4,0:3|0:3,0:0:0:0:
24,53,50708,1,0,1:0:0:0:
24,53,50779,1,0,1:0:0:0:
24,53,50851,1,4,0:3:0:0:
163,98,50994,2,0,L|209:86,2,39.3749987983704,4|4|4,0:3|0:3|0:3,0:0:0:0:
55,200,51279,1,0,1:0:0:0:
55,200,51350,1,4,0:3:0:0:
55,200,51422,1,4,0:3:0:0:
156,269,51565,6,0,P|171:304|169:343,1,78.7499975967408,4|4,0:0|0:3,0:0:0:0:
70,319,51851,1,0,1:0:0:0:
172,259,51994,2,0,B|212:237|212:237|246:270|246:270|322:284,1,157.499995193482,4|4,0:3|0:3,0:0:0:0:
433,335,52422,2,0,B|415:371|415:371|389:342,1,78.7499975967408,0|0,1:0|3:0,0:0:0:0:
400,233,52708,6,0,B|405:199|405:199|389:181|389:181|412:122|371:70,1,157.499995193482,4|0,0:3|1:0,0:0:0:0:
267,139,53137,2,0,L|90:120,1,157.499995193482,4|4,0:3|0:3,0:0:0:0:
36,46,53565,1,4,3:0:0:0:
36,46,53637,1,4,3:0:0:0:
36,46,53708,1,4,3:0:0:0:
110,122,53851,6,0,L|116:165,1,43.75,4|0,1:2|0:0,0:0:0:0:
30,179,53994,2,0,B|37:231|37:231|25:262|25:262|29:311,1,131.25,0|0,1:0|0:0,0:0:0:0:
105,363,54279,2,0,P|175:359|179:292,1,131.25,0|0,1:0|0:0,0:0:0:0:
174,274,54565,2,0,P|163:312|190:365,1,87.5,4|4,0:3|0:3,0:0:0:0:
264,381,54779,1,4,0:3:0:0:
264,381,54851,1,4,0:3:0:0:
392,326,54994,6,0,B|423:301|423:301|379:290|354:306|354:306|328:281|280:285,1,175,4|0,1:2|1:0,0:0:0:0:
153,281,55422,1,4,3:0:0:0:
248,188,55565,1,0,1:0:0:0:
238,154,55637,1,4,3:0:0:0:
256,124,55708,1,4,3:0:0:0:
245,90,55779,1,4,3:0:0:0:
256,56,55851,2,0,L|246:6,2,43.75,4|4|4,3:0|3:0|3:0,0:0:0:0:
358,112,56137,5,4,1:2:0:0:
456,146,56280,1,0,0:0:0:0:
491,46,56423,1,0,0:0:0:0:
392,13,56565,1,0,0:0:0:0:
348,129,56708,6,0,L|362:228,1,87.5,0|0,3:0|0:0,0:0:0:0:
477,284,56994,1,0,1:0:0:0:
376,358,57137,6,0,B|306:350|306:350|262:312|262:312|196:302,1,192.500005874634,4|4,0:0|3:0,0:0:0:0:
16,317,57565,1,0,1:0:0:0:
106,373,57708,2,0,L|117:271,1,96.250002937317,4|0,0:3|0:0,0:0:0:0:
203,194,57994,1,4,0:3:0:0:
40,121,58137,2,0,L|28:216,1,96.250002937317,0|4,1:0|0:3,0:0:0:0:
144,126,58422,6,0,B|202:96|263:151|263:151|237:173|198:171,1,192.500005874634,2|0,0:0|1:0,0:0:0:0:
48,109,58851,1,4,0:3:0:0:
141,34,58994,2,0,P|188:28|235:36,1,96.250002937317,2|4,0:0|0:3,0:0:0:0:
330,98,59279,1,0,1:0:0:0:
450,21,59422,6,0,B|369:12|369:12|327:54|353:122,1,192.500005874634,4|4,0:0|0:3,0:0:0:0:
252,182,59851,2,0,L|154:171,1,96.250002937317,0|4,1:0|0:3,0:0:0:0:
48,109,60137,1,0,0:0:0:0:
48,109,60279,1,4,0:3:0:0:
29,221,60422,2,0,P|47:276|45:327,1,96.250002937317,0|4,1:1|0:3,0:0:0:0:
142,370,60708,6,0,P|153:299|187:235,1,144.375004405975,2|0,0:0|0:0,0:0:0:0:
252,182,60994,2,0,P|214:153|167:154,1,96.250002937317,0|4,1:0|0:3,0:0:0:0:
134,257,61279,1,2,0:0:0:0:
229,321,61422,1,4,0:3:0:0:
331,261,61565,1,0,1:0:0:0:
438,327,61708,6,0,B|424:213|495:261|482:146,1,192.500005874634,4|4,0:0|0:3,0:0:0:0:
333,135,62137,2,0,P|322:89|339:45,1,96.250002937317,0|4,1:0|0:3,0:0:0:0:
437,7,62422,2,0,P|482:20|512:57,1,96.250002937317,0|4,0:0|0:3,0:0:0:0:
359,136,62708,1,0,1:0:0:0:
359,136,62851,1,4,0:3:0:0:
231,61,62994,6,0,B|195:74|195:74|163:58|163:58|129:66|129:66|92:40|43:56,1,192.500005874634,2|0,0:0|1:0,0:0:0:0:
50,248,63422,2,0,B|36:187|69:139|69:139|122:159|122:207,1,192.500005874634,2|4,0:0|0:3,0:0:0:0:
44,270,63851,1,0,1:0:0:0:
146,353,63994,6,0,B|268:376|205:290|350:323,1,192.500005874634,4|0,0:0|0:0,0:0:0:0:
431,382,64422,1,0,1:0:0:0:
475,306,64565,1,0,1:0:0:0:
389,242,64708,1,0,1:0:0:0:
477,152,64851,1,0,1:0:0:0:
368,75,64994,1,0,1:0:0:0:
486,26,65137,6,0,P|485:81|362:92,1,192.500005874634,4|4,0:0|0:3,0:0:0:0:
278,35,65565,2,0,P|256:28|232:29,3,48.1250014686585,4|4|4|4,0:3|0:3|0:3|0:3,0:0:0:0:
185,108,65851,2,0,P|189:131|202:151,3,48.1250014686585,4|4|4|4,0:3|0:3|0:3|0:3,0:0:0:0:
294,153,66137,2,0,P|311:136|322:115,1,48.1250014686585,0|0,1:0|0:0,0:0:0:0:
266,19,66279,6,0,B|194:13|194:13|143:33|143:33|70:25,1,192.500005874634,4|4,0:0|3:0,0:0:0:0:
5,136,66708,2,0,P|65:127|98:248,1,192.500005874634,0|0,1:0|0:0,0:0:0:0:
30,306,67137,1,4,0:3:0:0:
142,365,67279,2,0,P|130:318|140:272,1,96.250002937317,0|4,1:0|0:3,0:0:0:0:
293,238,67565,6,0,P|261:273|248:319,1,96.250002937317,2|4,0:0|3:0,0:0:0:0:
357,319,67851,2,0,P|404:308|451:318,1,96.250002937317,0|4,1:0|0:3,0:0:0:0:
480,206,68137,2,0,P|446:171|431:126,1,96.250002937317,2|4,0:0|0:3,0:0:0:0:
477,19,68422,1,0,1:0:0:0:
322,4,68565,6,0,B|359:52|321:119|321:119|245:107,1,192.500005874634,4|4,0:0|0:3,0:0:0:0:
176,190,68994,2,0,B|57:208|57:208|19:146,1,192.500005874634,0|0,1:0|0:0,0:0:0:0:
72,33,69422,1,4,0:3:0:0:
72,33,69565,2,0,P|110:64|96:127,1,96.250002937317,0|4,1:1|0:3,0:0:0:0:
57,217,69851,6,0,P|33:278|59:364,1,144.375004405975,2|0,0:0|0:0,0:0:0:0:
68,361,70137,2,0,P|86:322|36:297,1,96.250002937317,0|4,1:0|0:3,0:0:0:0:
164,381,70422,1,2,0:0:0:0:
210,280,70565,1,4,0:3:0:0:
137,215,70708,1,0,1:0:0:0:
226,292,70851,6,0,B|268:253|321:281|321:281|355:328|429:326,1,192.500005874634,4|4,0:0|0:3,0:0:0:0:
499,263,71279,2,0,B|429:293|432:369|432:369|474:355|473:320,1,192.500005874634,0|0,1:0|0:0,0:0:0:0:
408,222,71708,1,4,0:3:0:0:
481,136,71851,2,0,L|493:27,1,96.250002937317,0|4,1:0|0:3,0:0:0:0:
366,51,72137,6,0,B|316:29|316:29|277:73|277:73|293:150,1,192.500005874634,2|0,0:0|1:0,0:0:0:0:
340,277,72565,2,0,B|223:269|280:332|155:324,1,192.500005874634,2|4,0:0|0:3,0:0:0:0:
34,281,72994,1,0,1:0:0:0:
69,376,73137,6,0,L|89:171,1,192.500005874634,4|4,0:0|0:3,0:0:0:0:
45,71,73565,2,0,B|12:39|12:39|8:89,1,96.250002937317,0|4,1:0|1:3,0:0:0:0:
152,81,73851,2,0,B|185:49|185:49|188:99,1,96.250002937317,0|4,1:0|3:0,0:0:0:0:
56,62,74137,1,0,1:0:0:0:
2,175,74279,1,4,0:3:0:0:
98,243,74422,5,4,3:0:0:0:
136,235,74494,1,4,3:0:0:0:
173,228,74565,1,4,3:0:0:0:
211,221,74637,1,4,3:0:0:0:
248,214,74708,2,0,L|238:284,1,48.1250014686585,4|4,3:3|0:3,0:0:0:0:
341,260,74851,2,0,L|334:307,1,48.1250014686585,4|4,0:3|0:3,0:0:0:0:
253,363,74994,5,0,1:0:0:0:
176,353,75137,1,0,1:0:0:0:
100,342,75279,1,0,1:0:0:0:
23,331,75422,1,4,0:0:0:0:
23,59,84708,6,0,P|31:46|41:35,2,30.6249990653992,4|4|4,3:2|3:0|3:0,0:0:0:0:
98,105,84994,2,0,P|126:93|156:95,1,61.2499981307984,8|8,0:3|0:3,0:0:0:0:
139,192,85279,2,0,P|165:193|194:213,1,61.2499981307984,8|8,0:3|0:3,0:0:0:0:
130,284,85565,1,0,0:0:0:0:
50,348,86422,1,0,1:0:0:0:
489,59,86994,6,0,P|480:46|470:35,2,30.6249990653992,4|4|4,3:0|3:0|3:0,0:0:0:0:
414,105,87280,2,0,P|385:93|355:95,1,61.2499981307984,8|8,0:3|0:3,0:0:0:0:
373,192,87565,2,0,P|346:193|317:213,1,61.2499981307984,8|8,0:3|0:3,0:0:0:0:
382,284,87851,1,0,0:0:0:0:
462,348,88708,1,0,1:0:0:0:
251,349,89279,6,0,L|244:406,2,30.6249990653992,4|4|4,3:0|3:0|3:0,0:0:0:0:
322,275,89565,2,0,L|312:206,1,61.2499981307984,8|8,0:3|0:3,0:0:0:0:
205,223,89851,2,0,L|216:135,1,61.2499981307984,8|8,0:3|0:3,0:0:0:0:
292,76,90137,1,0,0:0:0:0:
222,9,90994,5,4,3:0:0:0:
222,9,91065,1,4,3:0:0:0:
222,9,91137,1,4,3:0:0:0:
117,28,91279,1,4,3:0:0:0:
16,47,91422,1,4,3:0:0:0:
135,137,91565,6,0,B|169:123|169:123|138:110,1,70,4|4,0:0|3:0,0:0:0:0:
11,186,91851,1,4,3:0:0:0:
126,254,91994,1,4,3:0:0:0:
126,254,92065,1,4,3:0:0:0:
125,253,92137,2,0,P|134:287|135:322,1,70,4|0,3:0|1:0,0:0:0:0:
21,366,92422,2,0,P|16:350|13:333,3,35,4|4|4|4,3:0|3:0|3:0|3:0,0:0:0:0:
63,261,92708,6,0,L|135:271,1,70,4|4,0:3|0:3,0:0:0:0:
250,227,92994,2,0,L|240:299,1,70,4|4,0:3|0:3,0:0:0:0:
372,365,93279,1,0,1:0:0:0:
362,281,93422,1,0,1:0:0:0:
352,197,93565,1,0,1:0:0:0:
342,113,93708,1,0,1:0:0:0:
413,28,93851,5,4,0:3:0:0:
413,28,93922,1,4,0:3:0:0:
413,28,93994,2,0,L|499:38,1,70,4|0,0:3|1:0,0:0:0:0:
510,137,94279,1,4,0:3:0:0:
510,137,94422,2,0,L|440:128,1,70,4|4,0:3|0:3,0:0:0:0:
342,113,94708,1,0,1:0:0:0:
342,113,95279,1,0,1:0:0:0:
342,113,95851,1,0,1:0:0:0:
99,28,96137,5,6,0:3:0:0:
99,28,96208,1,4,0:3:0:0:
99,28,96280,2,0,L|29:36,1,70,4|0,0:3|1:0,0:0:0:0:
2,137,96565,1,4,0:3:0:0:
2,137,96708,2,4,L|71:128,1,70,4|4,0:3|0:3,0:3:0:0:
170,113,96994,2,0,P|141:223|160:343,1,210,2|0,3:2|0:0,0:0:0:0:
32,373,97565,2,0,P|35:303|4:242,2,140,0|0|0,1:0|3:0|1:0,0:0:0:0:
151,317,98422,5,4,0:3:0:0:
151,317,98494,1,4,0:3:0:0:
151,317,98565,2,0,L|220:324,1,70,4|4,0:3|0:3,0:0:0:0:
316,369,98851,1,4,0:3:0:0:
316,369,98994,2,0,L|323:299,1,70,4|4,0:3|0:3,0:0:0:0:
370,197,99279,2,0,B|233:227|233:227|87:211,1,280,2|0,1:2|1:0,0:0:0:0:
94,211,100137,2,0,L|96:245,2,35,4|4|4,3:0|3:0|3:0,0:0:0:0:
82,120,100422,1,0,1:0:0:0:
71,28,100565,1,4,3:0:0:0:
0,127,100708,6,0,P|30:137|69:131,1,70,4|4,0:0|3:0,0:0:0:0:
93,111,100922,2,0,P|126:99|175:104,1,70,0|0,1:0|0:0,0:0:0:0:
190,121,101137,1,0,3:0:0:0:
295,37,101279,1,4,3:0:0:0:
295,37,101351,2,0,L|287:114,1,70,0|0,1:0|0:0,0:0:0:0:
312,138,101565,2,0,L|320:215,1,70,4|8,0:0|3:0,0:0:0:0:
306,248,101779,1,8,0:3:0:0:
306,248,101851,5,8,0:3:0:0:
428,279,101994,1,0,1:0:0:0:
339,370,102137,1,8,0:3:0:0:
225,317,102279,1,8,0:3:0:0:
225,317,102351,1,8,0:3:0:0:
225,317,102422,2,0,L|144:334,1,70,4|4,0:3|0:3,0:0:0:0:
35,359,102708,1,8,3:0:0:0:
40,317,102779,1,8,3:0:0:0:
45,275,102851,1,8,3:0:0:0:
50,233,102922,1,8,3:0:0:0:
55,193,102994,6,0,B|141:178|125:238|236:215,1,157.499995193482,4|0,0:0|1:0,0:0:0:0:
289,138,103422,2,0,P|286:98|189:27,1,157.499995193482,4|4,0:3|0:3,0:0:0:0:
101,79,103851,1,0,1:0:0:0:
101,79,103922,1,4,3:0:0:0:
101,79,103994,1,0,3:0:0:0:
22,163,104137,6,0,L|34:255,1,78.7499975967408,4|4,0:3|0:3,0:0:0:0:
9,355,104422,1,4,0:3:0:0:
121,293,104565,2,0,B|179:302|179:302|208:327|208:327|268:334,1,157.499995193482,4|4,0:3|0:3,0:0:0:0:
401,373,104994,1,0,1:0:0:0:
401,373,105065,1,4,3:0:0:0:
401,373,105137,1,4,3:0:0:0:
477,258,105279,6,0,B|447:285|447:285|375:278|375:278|406:247,1,157.499995193482,4|0,0:3|1:0,0:0:0:0:
465,161,105708,2,0,P|470:120|447:68,1,78.7499975967408,4|0,0:3|0:0,0:0:0:0:
355,29,105994,2,0,P|343:66|348:105,1,78.7499975967408,4|0,0:3|1:0,0:0:0:0:
330,136,106208,1,4,3:0:0:0:
330,136,106279,1,0,3:0:0:0:
264,237,106422,6,0,P|244:241|225:241,2,39.3749987983704,4|4|4,0:3|0:3|0:3,0:0:0:0:
174,151,106708,2,0,P|179:132|189:115,2,39.3749987983704,0|0|4,1:0|1:0|0:3,0:0:0:0:
293,116,106994,2,0,P|306:130|315:147,2,39.3749987983704,4|4|4,0:3|0:3|0:3,0:0:0:0:
264,237,107279,2,0,P|244:241|225:241,2,39.3749987983704,0|4|4,1:0|0:3|0:3,0:0:0:0:
159,155,107565,6,0,B|118:147|118:147|82:159,1,78.7499975967408,4|4,0:0|0:3,0:0:0:0:
15,88,107851,1,0,1:0:0:0:
150,46,107994,2,0,B|215:58|215:58|235:80|235:80|295:90,1,157.499995193482,4|4,0:3|0:3,0:0:0:0:
434,29,108422,1,0,1:0:0:0:
434,29,108494,1,4,3:0:0:0:
434,29,108565,1,4,3:0:0:0:
495,143,108708,6,0,B|463:131|463:131|439:148|439:148|387:127|337:175,1,157.499995193482,4|0,0:3|1:0,0:0:0:0:
356,310,109137,2,0,B|367:333|405:336|405:336|425:292|393:214,1,157.499995193482,4|4,0:3|0:3,0:0:0:0:
266,158,109565,1,4,3:0:0:0:
266,158,109637,1,4,3:0:0:0:
266,158,109708,1,4,3:0:0:0:
169,234,109851,6,0,L|161:294,1,43.75,4|0,1:2|0:0,0:0:0:0:
198,364,109994,2,0,L|183:230,1,131.25,0|0,1:0|0:0,0:0:0:0:
120,158,110279,2,0,P|59:162|24:202,1,87.5,0|0,1:0|0:0,0:0:0:0:
0,34,110565,2,0,P|37:55|80:52,1,87.5,4|4,0:3|0:3,0:0:0:0:
212,10,110851,5,4,0:3:0:0:
212,10,110922,1,0,0:0:0:0:
212,10,110994,2,0,B|296:-11|274:67|382:46,1,175,4|0,1:2|1:0,0:0:0:0:
512,0,111422,1,4,3:0:0:0:
448,115,111565,1,0,1:0:0:0:
465,145,111637,1,4,3:0:0:0:
451,176,111708,1,4,3:0:0:0:
465,207,111779,1,4,3:0:0:0:
457,241,111851,2,0,L|396:232,1,43.75,4|4,3:0|3:0,0:0:0:0:
350,298,111994,2,0,L|289:289,1,43.75,4|4,3:0|3:0,0:0:0:0:
228,352,112137,5,4,3:2:0:0:
131,322,112279,2,0,P|123:344|125:369,3,29.1666666666667,8|8|8|8,3:0|3:0|3:0|3:0,0:0:0:0:
78,246,112565,2,0,P|66:254|56:265,3,29.1666666666667,8|8|8|8,3:0|3:0|3:0|3:0,0:0:0:0:
72,151,112851,2,0,P|57:152|43:157,3,29.1666666666667,8|8|8|0,3:0|3:0|3:0|1:0,0:0:0:0:
110,60,113137,6,0,B|220:45|185:127|291:108,1,192.500005874634,4|4,0:0|3:0,0:0:0:0:
439,38,113565,2,0,P|405:85|409:138,1,96.250002937317,0|4,1:0|0:3,0:0:0:0:
468,232,113851,1,0,0:0:0:0:
468,232,113994,1,4,0:3:0:0:
355,339,114137,2,0,L|366:238,1,96.250002937317,0|4,1:0|0:3,0:0:0:0:
485,145,114422,6,0,L|502:346,1,192.500005874634,2|0,0:0|1:0,0:0:0:0:
380,257,114851,1,4,0:3:0:0:
265,359,114994,2,0,P|266:293|254:257,1,96.250002937317,2|4,0:0|0:3,0:0:0:0:
165,184,115279,1,0,1:0:0:0:
29,248,115422,6,0,B|68:280|68:280|81:120,1,192.500005874634,4|4,0:0|0:3,0:0:0:0:
144,15,115851,2,0,P|57:28|52:116,1,192.500005874634,0|0,1:0|0:0,0:0:0:0:
175,164,116279,1,4,0:3:0:0:
265,91,116422,2,0,L|252:-12,1,96.250002937317,0|4,1:1|0:3,0:0:0:0:
397,13,116708,6,0,P|385:87|440:137,1,144.375004405975,2|0,0:0|0:0,0:0:0:0:
464,128,116994,2,0,P|435:95|372:90,1,96.250002937317,0|4,1:0|0:3,0:0:0:0:
305,139,117279,1,2,0:0:0:0:
302,236,117422,1,4,0:3:0:0:
402,279,117565,1,0,1:0:0:0:
368,381,117708,6,0,B|411:306|496:336|496:336|473:363|436:362,1,192.500005874634,4|4,0:0|0:3,0:0:0:0:
300,325,118137,2,0,P|248:315|202:338,1,96.250002937317,0|4,1:0|0:3,0:0:0:0:
80,373,118422,1,0,0:0:0:0:
80,373,118565,2,0,L|88:263,1,96.250002937317,4|0,0:3|1:0,0:0:0:0:
182,205,118851,1,4,0:3:0:0:
36,137,118994,6,0,B|10:79|10:79|31:32|31:32|79:11|124:51,1,192.500005874634,2|0,0:0|1:0,0:0:0:0:
215,116,119422,2,0,B|274:149|274:149|339:121|339:121|278:116,1,192.500005874634,2|4,0:0|0:3,0:0:0:0:
168,213,119851,1,0,1:0:0:0:
257,276,119994,6,0,B|294:343|247:386|247:386|175:380,1,192.500005874634,4|0,0:0|0:0,0:0:0:0:
66,368,120422,1,0,1:0:0:0:
22,292,120565,1,0,1:0:0:0:
108,228,120708,1,0,1:0:0:0:
20,138,120851,1,0,1:0:0:0:
129,61,120994,1,0,1:0:0:0:
10,12,121137,6,0,P|37:97|125:88,1,192.500005874634,4|4,0:0|0:3,0:0:0:0:
236,22,121565,1,4,0:3:0:0:
274,22,121637,1,4,0:3:0:0:
302,47,121708,1,4,0:3:0:0:
306,85,121779,1,4,0:3:0:0:
285,117,121851,2,0,P|258:83|253:59,2,48.1250014686585,4|4|4,0:3|0:3|0:3,0:0:0:0:
388,6,122137,1,0,1:0:0:0:
496,96,122279,6,0,L|478:306,1,192.500005874634,4|4,0:0|3:0,0:0:0:0:
323,227,122708,2,0,P|311:183|405:203,1,192.500005874634,0|0,1:0|0:0,0:0:0:0:
367,310,123137,1,4,0:3:0:0:
241,268,123279,2,0,L|140:256,1,96.250002937317,0|4,1:0|0:3,0:0:0:0:
0,384,123565,6,0,L|95:372,1,96.250002937317,2|4,0:0|3:0,0:0:0:0:
51,193,123851,2,0,L|46:289,1,96.250002937317,0|4,1:0|0:3,0:0:0:0:
221,371,124137,2,0,L|216:274,1,96.250002937317,2|4,0:0|0:3,0:0:0:0:
271,153,124422,1,0,1:0:0:0:
149,49,124565,6,0,B|84:20|16:60|16:60|43:91|104:71,1,192.500005874634,4|4,0:0|0:3,0:0:0:0:
239,26,124994,2,0,P|322:53|307:140,1,192.500005874634,0|0,1:0|0:0,0:0:0:0:
146,141,125422,1,4,0:3:0:0:
146,141,125565,2,0,L|134:245,1,96.250002937317,0|4,1:1|0:3,0:0:0:0:
41,338,125851,6,0,P|47:274|122:280,1,144.375004405975,2|0,0:0|0:0,0:0:0:0:
140,354,126137,2,0,P|185:328|198:273,1,96.250002937317,0|4,1:0|0:3,0:0:0:0:
159,195,126422,1,2,0:0:0:0:
228,125,126565,1,4,0:3:0:0:
168,48,126708,1,0,1:0:0:0:
250,146,126851,6,0,B|318:152|318:152|361:186|361:186|429:193,1,192.500005874634,4|4,0:0|0:3,0:0:0:0:
497,83,127279,2,0,L|389:99,1,96.250002937317,0|4,1:0|0:3,0:0:0:0:
260,130,127565,1,0,0:0:0:0:
128,160,127708,1,4,0:3:0:0:
35,102,127851,2,0,B|49:62|49:62|112:49|112:49|138:75,1,144.375004405975,0|0,1:0|0:0,0:0:0:0:
128,160,128137,6,0,B|115:215|115:215|146:250|146:250|151:304|101:324,1,192.500005874634,2|0,0:0|1:0,0:0:0:0:
268,360,128565,2,0,B|236:329|242:290|242:290|284:294|284:294|261:325,1,144.375004405975,2|0,0:0|0:0,0:0:0:0:
257,374,128851,2,0,P|235:346|232:270,1,96.250002937317,0|2,1:0|0:0,0:0:0:0:
307,187,129137,6,0,B|402:176|374:286|483:274,1,192.500005874634,4|0,0:0|0:0,0:0:0:0:
502,145,129565,2,0,B|484:98|484:98|456:134,1,96.250002937317,0|0,1:0|1:0,0:0:0:0:
392,295,129851,2,0,B|374:342|374:342|346:305,1,96.250002937317,0|4,1:0|3:0,0:0:0:0:
242,112,130137,1,0,1:0:0:0:
112,238,130279,2,0,B|-3:304|-44:188|35:184|43:229,1,192.500005874634,4|4,1:2|3:0,0:0:0:0:
106,348,130708,5,4,3:3:0:0:
142,359,130779,1,4,0:3:0:0:
180,357,130851,1,4,0:3:0:0:
212,337,130922,1,4,0:3:0:0:
228,301,130994,2,0,L|217:220,1,48.1250014686585,0|4,1:0|0:3,0:0:0:0:
307,202,131137,2,0,L|313:154,1,48.1250014686585,4|4,0:3|0:3,0:0:0:0:
207,48,131279,1,0,1:0:0:0:
304,13,131422,1,4,0:0:0:0:
304,13,131851,5,0,3:0:0:0:
304,13,132137,1,0,3:0:0:0:
304,13,132422,1,0,3:0:0:0:
304,13,132708,6,0,L|415:23,1,78.7499975967408,8|8,3:0|3:0,0:0:0:0:
427,121,132994,2,0,L|348:128,1,78.7499975967408,8|8,3:0|3:0,0:0:0:0:
249,198,133279,2,0,P|239:215|236:234,3,39.3749987983704,0|0|4|4,1:0|0:0|0:3|0:3,0:0:0:0:
161,280,133565,2,0,P|171:296|186:309,3,39.3749987983704,4|4|4|4,0:3|0:3|0:3|0:3,0:0:0:0:
256,369,133851,6,0,L|358:359,1,78.7499975967408,4|0,3:0|0:0,0:0:0:0:
444,378,134137,2,0,P|416:326|423:269,1,118.124996395111,2|0,0:0|0:0,0:0:0:0:
445,256,134422,2,0,P|460:219|457:180,1,78.7499975967408,0|2,0:0|0:0,0:0:0:0:
386,103,134708,1,4,3:0:0:0:
386,103,134851,1,0,0:0:0:0:
465,22,134994,5,0,1:0:0:0:
465,22,135279,1,2,0:0:0:0:
465,22,135565,1,2,0:0:0:0:
366,37,135708,1,4,3:0:0:0:
270,57,135851,1,4,3:0:0:0:
166,12,135994,6,0,L|151:177,1,157.499995193482,4|0,0:0|0:0,0:0:0:0:
44,208,136422,2,0,P|55:151|41:107,1,78.7499975967408,2|0,0:0|0:0,0:0:0:0:
22,95,136637,1,0,0:0:0:0:
22,95,136708,2,0,L|126:114,1,78.7499975967408,0|2,0:0|0:0,0:0:0:0:
209,132,136994,1,4,3:0:0:0:
209,132,137137,1,2,0:0:0:0:
137,252,137279,6,0,P|111:299|116:352,1,78.7499975967408,0|0,1:0|0:0,0:0:0:0:
88,368,137494,1,0,0:0:0:0:
88,368,137565,2,0,P|70:332|40:308,1,78.7499975967408
218,320,137851,5,2,0:0:0:0:
259,314,137946,5,2,0:0:0:0:
299,325,138041,5,2,0:0:0:0:
327,353,138137,6,0,P|361:371|400:370,1,78.7499975967408,2|2,0:0|0:0,0:0:0:0:
479,316,138422,6,0,L|486:226,1,78.7499975967408,4|4,3:0|3:0,0:0:0:0:
413,182,138708,2,0,P|403:122|447:45,1,118.124996395111,2|0,0:0|0:0,0:0:0:0:
453,52,138994,2,0,P|456:91|420:125,1,78.7499975967408,0|2,0:0|0:0,0:0:0:0:
311,57,139279,1,4,3:0:0:0:
311,57,139422,1,2,0:0:0:0:
192,20,139565,5,0,1:0:0:0:
192,20,139851,1,0,0:0:0:0:
192,20,140137,1,2,0:0:0:0:
206,127,140279,1,4,0:3:0:0:
222,238,140422,1,4,0:3:0:0:
122,323,140565,6,0,P|128:263|109:207,1,118.124996395111,4|0,0:0|0:0,0:0:0:0:
92,202,140851,2,0,P|85:251|109:285,1,78.7499975967408,4|4,0:3|0:3,0:0:0:0:
217,349,141137,1,4,0:3:0:0:
321,275,141279,1,4,0:3:0:0:
290,152,141422,1,4,0:3:0:0:
397,76,141565,1,4,0:3:0:0:
497,172,141708,1,4,0:3:0:0:
438,286,141851,6,0,P|391:290|359:275,1,78.7499975967408,0|4,1:0|0:3,0:0:0:0:
280,165,142137,2,0,P|233:160|201:175,1,78.7499975967408,4|4,0:3|0:3,0:0:0:0:
139,266,142422,1,4,3:0:0:0:
166,384,142565,1,0,3:3:0:0:
285,359,142708,1,0,3:3:0:0:
259,241,142851,1,0,3:3:0:0:
139,266,142994,1,4,0:0:0:0:
45,62,152137,6,0,L|131:50,1,87.5,4|0,0:0|0:0,0:0:0:0:
251,31,152422,2,0,B|276:59|276:59|261:135,1,87.5,0|0,3:0|3:0,0:0:0:0:
161,216,152708,2,0,B|136:188|136:188|151:112,1,87.5,0|0,1:0|3:0,0:0:0:0:
274,193,152994,2,0,B|306:188|306:188|331:198|331:198|394:187,1,87.5,0|0,3:0|3:0,0:0:0:0:
512,151,153279,6,0,B|470:133|470:133|437:172|437:172|461:269,1,175,4|0,3:0|3:0,0:0:0:0:
395,346,153708,1,0,3:0:0:0:
395,346,153851,2,0,B|441:339|441:339|500:369,2,87.5,0|2|4,1:0|0:0|3:0,0:0:0:0:
281,368,154279,2,0,B|265:323|265:323|289:288|289:288|293:244|258:203,1,175,4|0,3:0|3:0,0:0:0:0:
154,250,154708,5,8,3:0:0:0:
154,250,154779,1,8,3:0:0:0:
154,250,154851,1,8,3:0:0:0:
50,227,154994,5,8,1:3:0:0:
50,227,155065,1,8,3:0:0:0:
50,227,155137,1,8,3:0:0:0:
39,125,155279,5,8,3:0:0:0:
39,125,155350,1,8,3:0:0:0:
39,125,155422,1,8,3:0:0:0:
131,71,155565,5,8,3:0:0:0:
131,71,155636,1,8,3:0:0:0:
131,71,155708,1,8,3:0:0:0:
204,149,155851,5,8,3:0:0:0:
204,149,155922,1,8,3:0:0:0:
204,149,155994,1,8,3:0:0:0:
296,95,156137,6,0,B|382:75|366:173|465:152,1,175,4|4,0:0|0:0,0:0:0:0:
450,154,156708,6,0,B|483:212|483:212|456:257|456:257|461:330,1,175,4|0,0:0|3:0,0:0:0:0:
358,362,157137,1,0,3:0:0:0:
358,362,157279,2,0,B|369:315|369:315|343:272,1,87.5,0|4,1:0|3:0,0:0:0:0:
190,299,157565,2,0,B|179:346|179:346|205:389,1,87.5,4|4,3:0|3:0,0:0:0:0:
260,221,157851,6,0,B|217:208|217:208|170:224|170:224|120:199|127:152,1,175,4|0,3:0|3:0,0:0:0:0:
190,72,158279,1,0,3:0:0:0:
190,72,158422,2,0,B|238:79|238:79|274:64,2,87.5,0|6|4,1:0|0:0|3:0,0:0:0:0:
24,14,158851,6,0,B|63:59|63:59|36:184,1,175,4|0,3:0|0:0,0:0:0:0:
13,275,159279,1,8,3:0:0:0:
35,301,159351,1,8,3:0:0:0:
66,316,159422,1,8,3:0:0:0:
101,312,159494,1,4,3:0:0:0:
132,297,159565,2,0,P|133:273|143:245,3,43.75,8|8|8|4,1:3|3:0|3:0|0:3,0:0:0:0:
223,228,159851,2,0,P|241:239|256:255,3,43.75,8|8|8|8,3:0|3:0|3:0|0:3,0:0:0:0:
238,342,160137,6,0,P|216:354|187:358,2,43.75,8|8|8,3:0|3:0|3:0,0:0:0:0:
343,286,160422,2,0,B|400:257|453:300|453:300|445:343|416:353,1,175,8|4,3:0|3:0,0:0:0:0:
397,362,160779,1,4,3:0:0:0:
397,362,160851,1,4,3:0:0:0:
417,235,160994,1,0,1:0:0:0:
477,145,161137,6,0,B|432:106|360:116|380:172|299:158,1,175,4|4,0:0|3:0,0:0:0:0:
192,78,161565,2,0,P|267:61|310:149,1,175,0|0,1:0|0:0,0:0:0:0:
212,198,161994,1,4,0:3:0:0:
104,143,162137,2,0,P|85:104|88:40,1,87.5,0|4,1:0|3:0,0:0:0:0:
1,227,162422,6,0,P|69:229|103:332,1,175,2|0,0:0|1:0,0:0:0:0:
224,374,162851,2,0,B|263:329|253:257|197:277|211:196,1,175,4|4,0:3|0:3,0:0:0:0:
306,130,163279,1,0,1:0:0:0:
392,207,163422,1,4,0:0:0:0:
480,134,163565,6,0,B|503:86|476:20|476:20|446:32|436:57,1,175,2|0,0:2|1:0,0:0:0:0:
294,143,163994,2,0,B|254:103|213:112|213:112|171:155|100:131,1,175,4|4,0:3|0:3,0:0:0:0:
35,34,164422,2,0,P|111:-8|149:61,1,175,0|0,1:1|0:0,0:0:0:0:
54,137,164851,1,4,0:3:0:0:
134,227,164994,2,0,B|159:266|159:266|140:334,1,87.5,0|4,1:0|0:3,0:0:0:0:
50,384,165279,1,2,0:0:0:0:
33,299,165422,1,4,0:3:0:0:
20,216,165565,1,0,1:0:0:0:
159,265,165708,6,0,B|208:250|247:279|247:279|275:237|320:237,1,175,4|4,0:0|0:3,0:0:0:0:
408,361,166137,2,0,B|345:377|345:377|313:353|319:298,1,131.25,0|0,1:0|0:0,0:0:0:0:
337,239,166422,2,0,P|342:195|329:154,1,87.5,2|4,0:2|0:3,0:0:0:0:
406,87,166708,2,0,P|371:60|329:50,1,87.5,0|4,1:0|0:3,0:0:0:0:
150,3,166994,6,0,P|144:46|157:87,1,87.5,2|4,0:0|0:3,0:0:0:0:
81,154,167280,2,0,P|115:180|157:190,1,87.5,0|4,1:0|3:0,0:0:0:0:
321,135,167565,2,0,L|226:124,1,87.5,2|4,0:2|0:3,0:0:0:0:
80,110,167851,1,0,1:0:0:0:
243,41,167994,1,4,0:0:0:0:
150,205,168137,6,0,B|117:247|141:310|141:310|185:313|212:293,1,175,2|0,0:2|1:0,0:0:0:0:
324,264,168565,2,0,P|291:303|287:353,1,87.5,4|0,0:3|0:0,0:0:0:0:
448,374,168851,2,0,P|438:331|408:300,1,87.5,4|0,0:3|1:1,0:0:0:0:
310,242,169137,6,0,P|291:181|391:149,1,175,4|4,0:3|0:3,0:0:0:0:
502,25,169565,2,0,B|470:56|470:56|334:37,1,175,0|2,1:0|0:0,0:0:0:0:
231,28,169994,1,4,0:3:0:0:
135,74,170137,1,0,1:0:0:0:
32,122,170279,6,0,B|33:78|100:46|149:114|98:205,1,175,4|4,0:0|0:3,0:0:0:0:
33,266,170708,2,0,B|14:290|14:290|72:284|72:284|96:263|96:263|169:253,1,175,0|0,1:0|0:0,0:0:0:0:
254,298,171137,1,4,0:3:0:0:
369,350,171279,2,0,B|356:299|356:299|381:262|381:262|366:213,1,131.25,0|0,1:0|0:0,0:0:0:0:
442,200,171565,6,0,B|456:242|456:242|486:196,1,87.5,2|4,0:0|0:3,0:0:0:0:
477,71,171851,1,0,1:0:0:0:
360,125,171994,2,0,B|318:134|318:134|292:106|261:103|261:103|227:134|163:132,1,175,2|4,3:2|0:3,0:0:0:0:
91,87,172422,1,0,1:0:0:0:
201,27,172565,6,0,L|181:207,1,175,4|0,0:0|1:0,0:0:0:0:
106,304,172994,2,0,B|62:293|61:293|61:293|99:271,1,87.5,4|0,3:0|1:0,0:0:0:0:
252,269,173279,2,0,B|296:258|297:258|297:258|259:236,1,87.5,0|4,1:0|3:0,0:0:0:0:
140,181,173565,2,0,B|151:137|151:136|151:136|171:171,1,87.5,4|4,3:0|3:3,0:0:0:0:
174,303,173851,5,4,1:3:0:0:
187,335,173922,1,4,3:0:0:0:
217,352,173994,1,4,3:0:0:0:
250,359,174065,1,4,3:0:0:0:
284,352,174137,2,0,L|328:343,1,43.75,4|4,3:0|3:0,0:0:0:0:
410,378,174279,2,0,L|454:369,1,43.75,4|4,3:0|3:0,0:0:0:0:
454,275,174422,2,0,L|498:266,3,43.75,4|4|4|4,3:0|3:0|3:0|3:0,0:0:0:0:
354,240,174708,5,0,1:0:0:0:
354,240,174851,2,0,P|337:185|459:154,1,210,4|0,0:0|0:0,0:0:0:0:
452,146,176708,6,0,L|410:140,1,35,0|0,1:0|1:0,0:0:0:0:
345,195,176851,2,0,L|303:201,1,35,0|0,1:0|1:0,0:0:0:0:
230,148,176994,2,0,L|188:142,1,35,0|0,1:0|1:0,0:0:0:0:
125,206,177137,6,0,B|80:241|87:310|141:331|141:331|177:299|167:265,1,210,4|4,1:2|0:0,0:0:0:0:
169,283,178994,6,0,L|240:293,2,52.4999983978272,0|0|0,3:0|3:0|3:0,0:0:0:0:
63,269,179422,1,2,3:2:0:0:
52,273,181565,5,4,3:0:0:0:
52,273,181637,1,4,3:0:0:0:
52,273,181708,2,0,B|10:192|52:141|52:141|120:152,1,210,4|0,0:0|1:0,0:0:0:0:
120,152,182994,6,0,P|136:157|154:158,2,35,4|4|4,3:0|3:0|3:0,0:0:0:0:
210,223,183279,2,0,P|222:211|232:196,2,35,0|0|4,1:0|1:0|0:3,0:0:0:0:
316,180,183565,2,0,P|312:162|304:147,1,35,4|0,0:0|0:0,0:0:0:0:
236,100,183708,2,0,P|251:48|325:74,1,140,4|4,0:0|0:2,0:0:0:0:
321,63,184422,1,4,0:3:0:0:
321,63,184708,1,0,1:0:0:0:
320,63,185279,6,4,B|356:47|356:47|395:51,1,78.7499975967408,4|4,3:0|3:0,3:0:0:0:
455,128,185565,1,4,3:0:0:0:
420,217,185708,2,4,L|456:224,3,26.2499991989136,4|4|4|4,3:0|3:0|3:0|3:0,3:0:0:0:
471,313,185994,2,0,L|445:318,3,26.2499991989136,4|4|4|0,3:0|3:0|3:0|1:0,0:0:0:0:
471,313,186708,5,4,1:2:0:0:
359,372,186851,2,0,B|276:364|276:364|252:341|252:341|176:330,1,192.500005874634,4|4,0:3|0:3,0:0:0:0:
46,375,187279,2,0,P|68:333|66:285,1,96.250002937317,0|4,1:0|0:3,0:0:0:0:
25,152,187565,2,0,B|6:98|30:54|30:54|81:50|128:116,1,192.500005874634,2|0,0:0|1:0,0:0:0:0:
210,219,187994,1,4,0:3:0:0:
210,219,188137,2,0,L|225:104,1,96.250002937317,2|4,0:0|0:3,0:0:0:0:
325,37,188422,1,0,1:0:0:0:
159,26,188565,6,0,P|261:19|304:109,1,192.500005874634,4|4,0:0|0:3,0:0:0:0:
354,198,188994,2,0,P|400:199|432:165,1,96.250002937317,0|4,1:0|0:3,0:0:0:0:
222,123,189279,2,0,L|210:219,1,96.250002937317,0|4,0:0|0:3,0:0:0:0:
310,365,189565,2,0,L|297:269,1,96.250002937317,0|4,1:1|0:3,0:0:0:0:
126,198,189851,6,0,P|39:208|16:278,1,144.375004405975,2|0,0:0|0:0,0:0:0:0:
22,282,190137,2,0,P|56:242|49:192,1,96.250002937317,0|4,1:0|0:3,0:0:0:0:
7,114,190422,1,2,0:0:0:0:
62,24,190565,1,4,0:3:0:0:
164,28,190708,1,0,1:0:0:0:
201,120,190851,6,0,B|246:155|286:153|286:153|325:108|387:112,1,192.500005874634,4|4,0:0|0:3,0:0:0:0:
472,227,191279,2,0,P|411:241|375:217,1,96.250002937317,0|4,1:0|0:3,0:0:0:0:
394,86,191565,1,0,0:0:0:0:
394,86,191708,1,4,0:3:0:0:
506,138,191851,2,0,L|494:233,1,96.250002937317,0|4,1:0|0:3,0:0:0:0:
465,360,192137,6,0,B|482:324|482:324|399:334|399:334|336:301,1,192.500005874634,2|0,0:0|1:0,0:0:0:0:
195,313,192565,2,0,B|207:355|207:355|254:323|254:323|226:231,1,192.500005874634,2|4,0:0|0:3,0:0:0:0:
161,110,192994,1,0,1:0:0:0:
12,147,193137,6,0,B|40:74|12:15|12:15|-5:42|1:68,1,192.500005874634,4|0,0:0|0:0,0:0:0:0:
138,133,193565,1,0,1:0:0:0:
214,89,193708,1,4,3:0:0:0:
278,175,193851,2,0,P|285:140|293:125,1,48.1250014686585,0|4,1:0|3:0,0:0:0:0:
368,87,193994,2,0,P|365:116|377:144,1,48.1250014686585,4|4,3:0|3:0,0:0:0:0:
445,196,194137,2,0,P|469:175|476:156,1,48.1250014686585,0|4,1:0|3:0,0:0:0:0:
493,70,194280,6,0,B|464:20|464:20|450:153,1,192.500005874634,4|0,0:0|0:0,0:0:0:0:
410,285,194708,1,4,0:3:0:0:
334,241,194851,1,4,0:3:0:0:
270,327,194994,2,0,P|263:292|255:277,1,48.1250014686585,0|4,1:0|0:3,0:0:0:0:
180,239,195137,2,0,P|183:268|171:296,1,48.1250014686585,4|4,0:3|0:3,0:0:0:0:
103,348,195279,2,0,P|78:327|72:308,1,48.1250014686585,0|4,1:0|0:3,0:0:0:0:
46,223,195422,6,0,P|48:292|163:310,1,192.500005874634,4|4,0:0|3:0,0:0:0:0:
258,198,195851,2,0,L|265:83,1,96.250002937317,0|4,1:0|0:3,0:0:0:0:
132,7,196137,2,0,L|137:103,1,96.250002937317,0|4,0:0|0:3,0:0:0:0:
305,23,196422,2,0,P|350:8|396:19,1,96.250002937317,0|4,1:0|0:3,0:0:0:0:
443,163,196708,6,0,P|409:130|363:121,1,96.250002937317,2|4,0:0|3:0,0:0:0:0:
360,229,196994,2,0,P|395:260|408:306,1,96.250002937317,0|4,1:0|0:3,0:0:0:0:
328,384,197279,1,2,0:0:0:0:
231,336,197422,1,4,0:3:0:0:
246,235,197565,1,0,1:0:0:0:
214,348,197708,6,0,B|172:378|172:378|29:360,1,192.500005874634,4|4,0:0|0:3,0:0:0:0:
47,194,198137,2,0,B|153:177|121:259|249:238,1,192.500005874634,0|0,1:0|0:0,0:0:0:0:
323,154,198565,1,4,0:3:0:0:
213,57,198708,2,0,P|199:105|217:167,1,96.250002937317,0|4,1:1|0:3,0:0:0:0:
348,188,198994,6,0,P|405:148|414:79,1,144.375004405975,2|0,0:0|0:0,0:0:0:0:
398,0,199279,2,0,P|354:19|333:61,1,96.250002937317,0|4,1:0|0:3,0:0:0:0:
437,140,199565,1,2,0:0:0:0:
508,249,199708,1,4,0:3:0:0:
418,334,199851,1,0,1:0:0:0:
305,273,199994,6,0,B|256:254|256:254|201:307|201:307|136:302,1,192.500005874634,4|4,0:0|0:3,0:0:0:0:
0,221,200422,2,0,B|66:233|66:233|47:357,1,192.500005874634,0|0,1:0|0:0,0:0:0:0:
179,346,200851,1,4,0:3:0:0:
303,331,200994,2,0,B|313:288|313:288|288:236,1,96.250002937317,0|4,1:0|0:3,0:0:0:0:
230,93,201279,6,0,B|237:41|237:41|284:26|321:66|321:66|311:116,1,192.500005874634,2|0,0:0|1:0,0:0:0:0:
179,182,201708,1,4,3:0:0:0:
144,164,201779,1,4,3:0:0:0:
111,184,201851,1,4,3:0:0:0:
76,168,201922,1,4,3:0:0:0:
42,188,201994,2,0,L|29:330,1,96.250002937317,0|0,1:0|1:0,0:0:0:0:
179,375,202279,5,4,0:0:0:0:
178,374,202422,2,0,P|164:328|268:288,1,144.375004405975,0|8,0:0|3:0,0:0:0:0:
312,327,202708,1,0,1:0:0:0:
349,333,202779,1,4,3:0:0:0:
386,325,202851,1,4,3:0:0:0:
416,302,202922,1,4,3:0:0:0:
431,266,202994,2,0,P|398:271|381:292,2,48.1250014686585,0|4|4,1:0|3:0|3:0,0:0:0:0:
375,164,203279,2,0,P|367:141|369:117,1,48.1250014686585,0|4,1:0|3:0,0:0:0:0:
470,110,203422,2,0,P|477:132|475:156,1,48.1250014686585,0|0,1:0|3:0,0:0:0:0:
361,175,203565,6,0,L|258:165,1,96.250002937317,4|4,3:0|3:0,0:0:0:0:
50,177,203851,2,0,P|81:230|82:277,1,96.250002937317,0|4,1:0|0:3,0:0:0:0:
173,362,204137,2,0,P|180:314|206:275,1,96.250002937317,0|4,1:0|0:3,0:0:0:0:
345,254,204422,1,4,1:2:0:0:
345,254,204565,1,4,1:2:0:0:
267,138,204708,6,0,L|186:153,1,78.7499975967408,4|4,0:0|0:3,0:0:0:0:
50,177,204994,1,0,1:0:0:0:
0,41,205137,2,0,L|156:58,1,157.499995193482,4|4,3:0|3:0,0:0:0:0:
256,88,205565,2,0,B|294:68|294:68|261:53,1,78.7499975967408,2|4,1:2|0:3,0:0:0:0:
150,148,205851,6,0,P|139:185|141:224,1,78.7499975967408,4|4,3:0|0:3,0:0:0:0:
196,313,206137,1,0,1:0:0:0:
56,372,206279,2,0,P|69:300|41:206,1,157.499995193482,4|4,3:0|3:0,0:0:0:0:
0,135,206708,2,0,B|0:97|0:97|32:123,1,78.7499975967408,2|4,1:2|0:3,0:0:0:0:
139,186,206994,5,4,0:3:0:0:
229,212,207137,1,4,0:3:0:0:
319,236,207279,1,0,1:0:0:0:
319,236,207422,2,0,B|344:274|326:348|284:355|255:300|296:275,1,157.499995193482,4|4,3:0|3:0,0:0:0:0:
382,160,207851,1,2,1:2:0:0:
382,160,207922,1,0,1:0:0:0:
382,160,207994,1,4,0:3:0:0:
301,41,208137,6,0,P|302:21|311:3,2,39.3749987983704,4|4|4,0:3|0:3|0:3,0:0:0:0:
265,150,208422,2,0,P|247:158|227:159,2,39.3749987983704,0|0|4,1:0|1:0|0:3,0:0:0:0:
377,126,208708,2,0,P|393:137|403:153,2,39.3749987983704,4|4|4,0:3|0:3|0:3,0:0:0:0:
212,56,208994,1,0,1:0:0:0:
212,56,209065,1,0,1:0:0:0:
212,56,209137,1,4,0:3:0:0:
85,85,209279,6,0,L|75:183,1,78.7499975967408,4|4,0:3|0:3,0:0:0:0:
6,255,209565,1,0,1:0:0:0:
104,316,209708,2,0,B|196:303|171:361|261:353,1,157.499995193482,4|4,3:0|3:0,0:0:0:0:
347,336,210137,2,0,B|375:305|375:305|338:304,1,78.7499975967408,2|4,1:2|0:3,0:0:0:0:
477,377,210422,6,0,P|460:341|465:287,1,78.7499975967408,4|4,3:0|0:3,0:0:0:0:
502,220,210708,1,0,1:0:0:0:
407,143,210851,2,0,B|352:136|352:136|312:154|312:154|254:147,1,157.499995193482,4|4,3:0|3:0,0:0:0:0:
120,126,211279,1,2,1:2:0:0:
120,126,211351,1,0,1:0:0:0:
120,126,211422,1,4,0:3:0:0:
216,26,211565,6,0,L|222:79,3,39.3749987983704,4|0|0|0,3:0|1:0|1:0|1:0,0:0:0:0:
254,147,211851,2,0,L|248:200,3,39.3749987983704,0|0|0|0,1:0|1:0|1:0|1:0,0:0:0:0:
165,222,212137,2,0,L|171:275,3,39.3749987983704,0|0|0|0,1:0|1:0|1:0|1:0,0:0:0:0:
203,343,212423,2,0,L|197:396,3,39.3749987983704,0|0|4|4,1:0|1:0|3:0|3:0,0:0:0:0:
284,289,212708,1,4,0:3:0:0:
329,276,212779,1,4,0:3:0:0:
376,279,212851,1,4,0:3:0:0:
419,297,212922,1,4,3:0:0:0:
446,335,212994,6,0,P|426:331|407:325,1,39.3749987983704,0|4,1:0|3:0,0:0:0:0:
338,262,213137,2,0,P|330:243|326:224,1,39.3749987983704,4|4,0:3|3:0,0:0:0:0:
365,127,213279,2,0,P|377:111|391:98,3,39.3749987983704,4|4|4|4,1:3|1:3|0:3|3:0,0:0:0:0:
489,83,213565,1,4,1:2:0:0:
489,83,213708,6,0,L|472:258,1,157.499995193482,4|4,0:2|3:2,0:0:0:0:
473,239,215279,6,0,L|447:293,3,39.3749987983704,4|4|4|4,3:0|3:0|3:0|3:0,0:0:0:0:
376,262,215565,1,4,3:0:0:0:
284,286,215708,1,0,1:0:0:0:
193,314,215851,1,0,1:0:0:0:
101,349,215994,6,0,B|110:292|79:251|79:251|100:216|100:216|62:170|87:84,1,262.499991989136,4|0,0:0|0:0,0:0:0:0:
