osu file format v14

[General]
AudioFilename: audio.mp3
AudioLeadIn: 0
PreviewTime: 57137
Countdown: 0
SampleSet: Soft
StackLeniency: 0.5
Mode: 0
LetterboxInBreaks: 0
WidescreenStoryboard: 0

[Editor]
DistanceSpacing: 1.2
BeatDivisor: 4
GridSize: 8
TimelineZoom: 5.399997

[Metadata]
Title:Adore Your Pain
TitleUnicode:Adore Your Pain
Artist:UNDEAD CORPORATION
ArtistUnicode:UNDEAD CORPORATION
Creator:Zelq
Version:Extra
Source:東方地霊殿 ~ Subterranean Animism.
Tags:osu! TOHO Complete Box - RED metal rock english fa featured artist mappers' guild mpg cheri hailie dj lucky trynna satori komeiji touhou 東方Project video game
BeatmapID:2133119
BeatmapSetID:1019398

[Difficulty]
HPDrainRate:6.3
CircleSize:4
OverallDifficulty:9.3
ApproachRate:9.6
SliderMultiplier:1.75
SliderTickRate:1

[Events]
//Background and Video events
0,0,"mpgbg.jpg",0,0
//Break Periods
//Storyboard Layer 0 (Background)
//Storyboard Layer 1 (Fail)
//Storyboard Layer 2 (Pass)
//Storyboard Layer 3 (Foreground)
//Storyboard Layer 4 (Overlay)
//Storyboard Sound Samples

[TimingPoints]
137,285.714285714286,4,2,0,65,1,0
137,-90.9090909090909,4,2,0,65,0,0
1137,-125,4,2,0,50,0,0
6994,-111.111111111111,4,2,0,60,0,0
8708,-142.857142857143,4,2,0,50,0,0
9279,-111.111111111111,4,2,0,70,0,0
10422,-99.9999999999999,4,2,0,70,0,0
18422,-99.9999999999999,4,2,0,80,0,0
19565,-99.9999999999999,4,2,0,60,0,0
28708,-111.111111111111,4,2,0,50,0,0
29565,-125,4,2,0,50,0,0
30994,-111.111111111111,4,2,0,50,0,0
31851,-125,4,2,0,50,0,0
33279,-111.111111111111,4,2,0,50,0,0
34137,-125,4,2,0,50,0,0
34994,-111.111111111111,4,2,0,50,0,0
36422,-125,4,2,0,50,0,0
37851,-111.111111111111,4,2,0,50,0,0
38708,-125,4,2,0,50,0,0
40137,-111.111111111111,4,2,0,50,0,0
40994,-125,4,2,0,50,0,0
42422,-111.111111111111,4,2,0,50,0,0
43279,-125,4,2,0,50,0,0
44137,-111.111111111111,4,2,0,50,0,0
44708,-100,4,2,0,65,0,0
45565,-125,4,2,0,60,0,0
45851,-100,4,2,0,70,0,0
46994,-100,4,2,0,65,0,0
53851,-76.9230769230769,4,2,0,70,0,0
54994,-100,4,2,0,80,0,0
57137,-90.9090909090909,4,2,0,80,0,1
75422,-100,4,2,0,50,0,0
84708,-111.111111111111,4,2,0,40,0,0
91565,-99.9999999999999,4,2,0,70,0,0
93851,-111.111111111111,4,2,0,50,0,0
94708,-125,4,2,0,50,0,0
96137,-111.111111111111,4,2,0,50,0,0
96994,-125,4,2,0,50,0,0
98422,-111.111111111111,4,2,0,50,0,0
99279,-125,4,2,0,50,0,0
100708,-100,4,2,0,65,0,0
109851,-76.9230769230769,4,2,0,70,0,0
110994,-100,4,2,0,70,0,0
113137,-90.9090909090909,4,2,0,80,0,1
131422,-100,4,2,0,60,0,0
133279,-90.9090909090909,4,2,0,60,0,0
133851,-111.111111111111,4,2,0,50,0,0
142994,-99.9999999999999,4,2,0,60,0,0
160137,-76.9230769230769,4,2,0,70,0,0
161137,-90.9090909090909,4,2,0,80,0,0
177137,-125,4,2,0,50,0,0
182994,-111.111111111111,4,2,0,70,0,0
186708,-90.9090909090908,4,2,0,90,0,1
204708,-100,4,2,0,80,0,0
215994,-142.857142857143,4,2,0,60,0,0

[Colours]
Combo1 : 149,149,255
Combo2 : 255,128,128
Combo3 : 217,152,252
Combo4 : 251,216,111

[HitObjects]
273,71,137,5,4,1:3:0:0:
313,104,208,1,4,0:3:0:0:
364,115,279,1,4,0:3:0:0:
417,110,351,1,4,0:3:0:0:
462,82,422,5,0,1:0:0:0:
475,116,494,1,4,0:3:0:0:
482,151,565,1,4,0:3:0:0:
477,187,637,1,4,0:3:0:0:
459,218,708,1,0,1:0:0:0:
423,210,779,1,4,0:3:0:0:
387,218,851,1,4,0:3:0:0:
358,240,922,1,4,0:3:0:0:
422,291,994,5,0,1:0:0:0:
130,122,1137,6,0,B|111:168|111:168|136:219|136:219|111:278|130:330,1,210,6|4,0:0|0:0,0:0:0:0:
126,319,3422,5,2,0:0:0:0:
38,46,5565,5,4,0:3:0:0:
64,40,5637,1,4,0:3:0:0:
89,34,5708,2,0,B|73:94|99:171|99:171|130:126|116:90,1,210,0|0,1:0|1:0,0:0:0:0:
119,105,6708,1,0,0:0:0:0:
298,35,6994,5,0,1:0:0:0:
294,64,7065,1,4,0:3:0:0:
290,93,7137,1,4,0:3:0:0:
481,175,7279,1,8,1:3:0:0:
477,146,7351,1,8,0:3:0:0:
473,117,7422,1,8,0:3:0:0:
262,220,7565,1,4,0:0:0:0:
462,338,7708,2,0,P|458:270|407:286,1,118.124996395111,4|0,0:0|0:0,0:0:0:0:
380,339,7994,6,0,B|323:334|323:334|293:350|293:350|205:341,1,157.499995193482,4|0,0:3|0:0,0:0:0:0:
21,254,8422,2,0,P|55:266|86:352,1,118.124996395111,4|0,0:3|0:0,0:0:0:0:
162,294,8708,6,0,P|172:202|205:117,1,183.749994392395,0|0,1:0|0:0,0:0:0:0:
430,32,9279,5,0,1:0:0:0:
400,48,9351,1,4,0:3:0:0:
367,52,9422,1,4,0:3:0:0:
335,39,9494,1,4,0:3:0:0:
257,58,9565,5,4,0:3:0:0:
227,42,9637,1,4,0:3:0:0:
194,38,9708,1,4,0:3:0:0:
162,51,9780,1,4,0:3:0:0:
79,56,9851,6,0,P|84:78|84:110,1,39.3749987983704,4|4,0:3|0:3,0:0:0:0:
162,294,9994,2,0,P|163:274|168:255,1,39.3749987983704,4|4,0:3|0:3,0:0:0:0:
306,123,10137,1,0,1:0:0:0:
24,182,10422,6,0,L|32:274,1,87.5,4|0,0:0|0:0,0:0:0:0:
205,117,10708,1,4,1:3:0:0:
310,352,10851,2,0,B|272:328|229:346|229:346|194:388|132:377,1,175,4|4,3:0|3:0,0:0:0:0:
341,232,11279,1,2,1:2:0:0:
398,226,11351,1,0,1:0:0:0:
454,221,11422,1,4,0:3:0:0:
205,117,11565,5,4,3:0:0:0:
403,16,11708,1,4,0:3:0:0:
335,220,11851,1,0,1:0:0:0:
213,30,11994,2,0,P|156:42|125:158,1,175,0|4,3:0|3:0,0:0:0:0:
228,347,12422,1,2,1:2:0:0:
171,341,12494,1,0,1:0:0:0:
115,336,12565,1,4,3:0:0:0:
212,107,12708,6,0,L|218:194,1,87.5,4|4,0:3|0:3,0:0:0:0:
337,368,12994,1,0,1:0:0:0:
474,143,13137,2,0,B|434:152|399:134|399:134|382:145|382:145|343:123|307:134,1,175,4|4,3:0|3:0,0:0:0:0:
54,259,13565,1,2,1:2:0:0:
50,201,13637,1,0,1:0:0:0:
46,144,13708,1,4,0:3:0:0:
260,34,13851,5,4,0:3:0:0:
204,21,13923,1,4,0:3:0:0:
152,45,13994,1,4,0:3:0:0:
348,214,14137,5,0,1:0:0:0:
387,172,14209,1,0,1:0:0:0:
392,114,14280,1,4,0:3:0:0:
166,189,14422,5,4,0:3:0:0:
163,224,14494,1,4,0:3:0:0:
160,258,14565,1,4,0:3:0:0:
325,362,14707,5,0,1:0:0:0:
322,327,14779,1,0,1:0:0:0:
319,293,14850,1,4,0:3:0:0:
61,138,14994,5,4,0:3:0:0:
178,352,15137,1,4,0:3:0:0:
0,244,15279,1,0,1:0:0:0:
219,117,15422,2,0,B|291:110|291:110|324:122|324:122|391:113,1,175,4|4,3:0|3:0,0:0:0:0:
136,49,15851,1,2,1:2:0:0:
79,42,15922,1,0,1:0:0:0:
22,34,15994,1,4,0:3:0:0:
198,283,16137,6,0,L|209:185,1,87.5,4|4,3:0|0:3,0:0:0:0:
339,39,16422,1,0,1:0:0:0:
439,288,16565,2,0,B|390:320|319:294|319:294|357:291|381:266,1,175,4|4,3:0|3:0,0:0:0:0:
124,356,16994,1,2,1:2:0:0:
180,366,17065,1,0,1:0:0:0:
237,375,17137,1,4,0:3:0:0:
264,94,17279,5,4,3:0:0:0:
80,266,17422,1,4,0:3:0:0:
320,210,17565,1,0,1:0:0:0:
99,12,17708,2,0,L|86:186,1,175,4|4,3:0|3:0,0:0:0:0:
367,137,18137,1,2,1:2:0:0:
360,80,18208,1,0,1:0:0:0:
354,23,18279,1,4,0:3:0:0:
140,207,18422,5,4,0:3:0:0:
83,199,18494,1,4,0:3:0:0:
26,192,18565,1,4,0:3:0:0:
366,241,18708,5,0,1:0:0:0:
423,232,18780,1,0,1:0:0:0:
480,226,18851,1,4,0:3:0:0:
196,348,18994,5,4,0:3:0:0:
190,313,19065,1,4,0:3:0:0:
196,278,19137,1,4,0:3:0:0:
282,140,19279,5,0,1:0:0:0:
288,175,19350,1,0,1:0:0:0:
282,210,19422,1,4,0:3:0:0:
98,62,19565,6,0,B|126:37|175:36|175:36|207:77|283:60,1,175,4|0,0:0|3:0,0:0:0:0:
346,8,19994,1,0,3:0:0:0:
468,115,20137,2,0,L|481:28,1,87.5,0|0,1:0|3:0,0:0:0:0:
359,112,20422,1,0,3:0:0:0:
359,112,20565,1,0,3:0:0:0:
483,229,20708,5,4,3:0:0:0:
485,260,20851,1,0,3:0:0:0:
398,370,20994,1,0,3:0:0:0:
400,339,21137,1,0,3:0:0:0:
262,204,21279,2,0,B|274:250|267:290,2,87.5,0|2|4,1:0|0:0|3:0,0:0:0:0:
89,347,21708,6,0,P|70:269|101:150,1,175,4|0,3:0|0:0,0:0:0:0:
177,25,22137,5,8,3:0:0:0:
211,29,22208,1,8,3:0:0:0:
245,34,22279,1,8,3:0:0:0:
385,113,22422,5,8,1:3:0:0:
351,108,22493,1,8,3:0:0:0:
317,104,22564,1,8,3:0:0:0:
194,195,22708,5,8,3:0:0:0:
228,199,22779,1,8,3:0:0:0:
262,204,22850,1,8,3:0:0:0:
393,345,22994,5,8,3:0:0:0:
404,312,23065,1,8,3:0:0:0:
395,277,23137,1,8,3:0:0:0:
228,316,23279,5,8,3:0:0:0:
217,349,23350,1,8,3:0:0:0:
226,384,23422,1,8,3:0:0:0:
407,354,23565,6,0,B|426:304|403:221|403:221|378:268,1,175,4|4,0:0|0:0,0:0:0:0:
31,56,24137,6,0,B|132:36|97:108|223:76,1,175,4|0,0:0|3:0,0:0:0:0:
262,156,24565,1,0,3:0:0:0:
164,256,24708,2,0,L|171:160,1,87.5,0|0,1:0|3:0,0:0:0:0:
106,98,24994,1,0,3:0:0:0:
106,98,25137,1,0,3:0:0:0:
15,185,25279,5,4,3:0:0:0:
45,192,25422,1,0,3:0:0:0:
152,271,25565,1,0,3:0:0:0:
122,278,25708,1,0,3:0:0:0:
8,375,25851,2,0,L|-1:274,2,87.5,0|2|4,1:0|0:0|3:0,0:0:0:0:
225,355,26279,6,0,L|241:180,1,175,4|0,3:0|0:0,0:0:0:0:
376,40,26708,5,8,3:0:0:0:
410,34,26779,1,8,3:0:0:0:
444,41,26851,1,8,3:0:0:0:
241,92,26994,5,8,1:3:0:0:
218,65,27065,1,8,3:0:0:0:
207,32,27137,1,8,3:0:0:0:
354,183,27279,5,8,3:0:0:0:
342,215,27350,1,8,3:0:0:0:
319,241,27422,1,8,3:0:0:0:
64,158,27565,5,8,3:0:0:0:
99,161,27637,1,8,3:0:0:0:
133,165,27708,1,8,3:0:0:0:
185,339,27851,5,8,3:0:0:0:
150,342,27922,1,8,3:0:0:0:
114,345,27994,1,8,3:0:0:0:
79,348,28065,1,8,3:0:0:0:
47,352,28137,6,0,L|43:308,1,43.75,4|4,3:0|3:0,0:0:0:0:
225,190,28279,2,0,L|221:233,1,43.75,4|4,3:0|3:0,0:0:0:0:
41,150,28422,2,0,B|42:108|20:67|20:67|44:78|76:78,1,131.25,0|0,1:0|0:0,0:0:0:0:
134,34,28708,5,4,3:0:0:0:
134,34,28779,1,4,3:0:0:0:
134,34,28851,1,4,3:0:0:0:
205,1,28994,1,8,0:3:0:0:
283,6,29137,1,8,0:3:0:0:
346,52,29279,1,8,0:3:0:0:
383,121,29422,1,8,0:3:0:0:
377,206,29565,6,0,B|320:242|292:351|357:384|450:355|418:282,1,280,4|0,0:0|0:0,0:0:0:0:
418,282,30422,2,0,B|371:256|326:295|326:295|299:360|226:357,1,210,4|0,0:0|0:0,0:0:0:0:
48,302,30994,5,4,3:0:0:0:
48,302,31065,1,4,3:0:0:0:
48,302,31137,1,4,3:0:0:0:
120,332,31279,1,8,0:3:0:0:
191,299,31422,1,8,0:3:0:0:
206,221,31565,1,8,0:3:0:0:
155,160,31708,1,8,0:3:0:0:
72,162,31851,6,0,B|79:81|28:27|28:27|87:67|178:33,1,280,4|4,0:0|1:2,0:0:0:0:
278,103,32708,1,2,0:0:0:0:
420,22,32994,2,0,P|411:73|419:125,1,105,0|0,1:0|0:0,0:0:0:0:
473,219,33279,5,4,3:0:0:0:
473,219,33351,1,4,3:0:0:0:
473,219,33422,1,4,3:0:0:0:
396,198,33565,1,8,0:3:0:0:
322,226,33708,1,8,0:3:0:0:
283,294,33851,1,8,0:3:0:0:
209,323,33994,1,8,0:3:0:0:
138,287,34137,6,0,B|123:207|175:225|155:129|155:129|83:122|76:205,1,280,4|0,0:0|0:0,0:0:0:0:
11,31,34994,5,4,3:0:0:0:
11,31,35065,1,4,3:0:0:0:
11,31,35137,1,4,3:0:0:0:
88,44,35279,1,4,3:0:0:0:
166,53,35422,1,4,3:0:0:0:
268,2,35565,5,4,0:0:0:0:
281,39,35637,1,4,3:0:0:0:
284,78,35708,1,4,3:0:0:0:
442,117,35851,2,0,P|446:78|460:41,1,78.7499975967408,4|4,0:3|0:3,0:0:0:0:
325,164,36137,1,4,0:3:0:0:
482,224,36279,1,4,0:3:0:0:
315,340,36422,6,0,B|253:344|220:299|220:299|166:276|109:315,1,210,4|4,0:3|0:3,0:0:0:0:
80,373,36922,1,4,0:3:0:0:
80,373,36994,1,4,0:2:0:0:
32,53,37279,5,4,0:3:0:0:
34,88,37351,1,4,0:3:0:0:
37,122,37422,2,0,B|143:109|103:177|219:152,1,175,4|0,0:0|0:0,0:0:0:0:
270,115,37851,5,4,0:3:0:0:
270,115,37922,1,4,0:3:0:0:
270,115,37994,1,4,0:3:0:0:
458,193,38137,2,0,L|469:115,1,78.7499975967408,4|4,0:3|0:3,0:0:0:0:
280,204,38422,2,0,L|290:285,1,78.7499975967408,4|4,0:3|0:3,0:0:0:0:
512,48,38708,6,0,B|461:24|417:55|417:55|372:31|372:31|297:39,1,210,2|0,3:2|0:0,0:0:0:0:
216,16,39279,1,0,3:0:0:0:
36,80,39565,2,0,B|82:111|142:82|142:82|106:67,1,140,0|0,3:0|1:0,0:0:0:0:
199,243,40137,5,4,0:3:0:0:
199,243,40208,1,4,0:3:0:0:
199,243,40279,1,4,0:3:0:0:
49,318,40422,1,4,0:3:0:0:
102,202,40565,1,4,0:3:0:0:
163,353,40708,2,4,L|260:358,1,78.7499975967408,4|4,0:3|0:3,0:3:0:0:
403,337,40994,6,0,B|379:350|364:383|364:383|298:293|343:165,1,280,2|0,3:2|3:0,0:0:0:0:
461,33,41851,1,0,3:0:0:0:
465,239,42137,1,0,1:0:0:0:
294,0,42422,5,4,0:3:0:0:
294,0,42494,1,4,0:3:0:0:
294,0,42565,1,4,0:3:0:0:
218,169,42708,1,4,0:3:0:0:
381,55,42851,1,4,0:3:0:0:
177,20,42994,1,4,0:3:0:0:
340,173,43137,1,4,0:3:0:0:
87,274,43279,6,0,B|55:201|148:172|213:205|185:314|128:350,1,280,2|0,3:2|3:0,0:0:0:0:
12,118,44137,5,4,3:0:0:0:
44,131,44208,1,4,3:0:0:0:
78,131,44279,1,4,3:0:0:0:
188,62,44422,1,0,1:0:0:0:
57,38,44565,1,4,3:0:0:0:
184,200,44708,5,4,0:0:0:0:
204,238,44779,1,4,3:0:0:0:
209,281,44851,1,4,3:0:0:0:
312,105,44994,2,0,P|347:79|389:69,1,87.5,4|0,3:0|3:0,0:0:0:0:
496,239,45279,2,0,P|453:228|418:203,1,87.5,4|4,0:3|0:3,0:0:0:0:
244,41,45565,6,0,P|194:28|144:44,1,105,4|0,0:0|0:0,0:0:0:0:
52,103,45851,5,8,0:3:0:0:
45,146,45922,1,8,0:3:0:0:
61,186,45994,1,8,0:3:0:0:
100,204,46065,1,8,0:3:0:0:
144,201,46137,5,8,0:3:0:0:
188,228,46208,1,8,0:3:0:0:
202,278,46280,1,8,0:3:0:0:
178,324,46351,1,8,0:3:0:0:
129,342,46422,6,0,B|106:332|106:332|145:326,1,43.75,4|0,0:0|0:0,0:0:0:0:
362,347,46565,1,4,0:3:0:0:
362,347,46994,6,0,B|358:304|358:304|367:265|367:265|341:218|360:171,1,175,4|0,0:0|1:0,0:0:0:0:
512,57,47422,2,0,B|477:95|477:95|335:74,1,175,4|4,0:3|0:3,0:0:0:0:
148,49,47851,1,0,1:0:0:0:
152,107,47923,1,4,3:0:0:0:
155,164,47994,1,0,3:0:0:0:
13,354,48137,6,0,L|25:236,1,87.5,4|4,0:3|0:3,0:0:0:0:
52,67,48422,1,4,0:3:0:0:
140,263,48565,2,0,B|187:269|219:243|219:243|268:230|322:270,1,175,4|4,0:3|0:3,0:0:0:0:
481,372,48994,1,0,1:0:0:0:
485,314,49066,1,4,3:0:0:0:
488,257,49137,1,0,3:0:0:0:
462,30,49279,6,0,B|430:41|430:41|369:17|369:17|337:38|297:41,1,175,4|0,0:3|1:0,0:0:0:0:
92,0,49708,2,0,B|113:39|113:39|109:89,1,87.5,4|0,0:3|0:0,0:0:0:0:
8,238,49994,2,0,B|47:217|47:217|97:221,1,87.5,4|0,0:3|1:0,0:0:0:0:
161,268,50208,1,4,3:0:0:0:
161,268,50279,1,0,3:0:0:0:
375,114,50422,5,4,0:3:0:0:
318,123,50494,1,4,0:3:0:0:
262,133,50565,1,4,0:3:0:0:
398,339,50708,5,0,1:0:0:0:
389,282,50780,1,0,1:0:0:0:
379,226,50851,1,4,0:3:0:0:
163,159,50994,5,4,0:3:0:0:
121,364,51137,2,0,L|226:354,1,87.5,4|0,0:3|1:0,0:0:0:0:
288,378,51351,1,4,0:3:0:0:
288,378,51422,1,4,0:3:0:0:
45,238,51565,5,4,0:0:0:0:
318,123,51708,1,4,0:3:0:0:
60,31,51851,1,0,1:0:0:0:
210,227,51994,2,0,B|246:238|280:220|280:220|305:230|305:230|339:212|379:226,1,175,4|4,0:3|0:3,0:0:0:0:
156,107,52422,1,0,1:0:0:0:
101,123,52494,1,0,3:0:0:0:
44,118,52565,1,0,3:0:0:0:
309,29,52708,6,0,P|358:38|415:109,1,131.25,4|0,0:3|0:0,0:0:0:0:
477,55,52994,1,0,1:0:0:0:
496,271,53137,2,0,B|494:253|511:220|511:220|459:252|392:235,1,175,4|4,0:3|0:3,0:0:0:0:
190,174,53565,1,4,3:0:0:0:
210,227,53637,1,4,3:0:0:0:
215,283,53708,1,4,3:0:0:0:
0,381,53851,6,0,L|4:324,1,56.8749973964692,4|0,1:2|0:0,0:0:0:0:
57,35,53994,2,0,B|65:63|61:87|61:87|76:109|76:109|77:171,1,113.749994792938,0|0,1:0|0:0,0:0:0:0:
305,377,54279,2,0,B|301:320|301:320|321:264,1,113.749994792938,0|0,1:0|0:0,0:0:0:0:
512,87,54565,2,0,B|455:91|455:91|399:70,1,113.749994792938,4|4,0:3|0:3,0:0:0:0:
341,24,54779,1,4,0:3:0:0:
341,24,54851,1,4,0:3:0:0:
26,178,54994,6,0,B|125:157|98:224|205:203,1,175,4|0,1:2|1:0,0:0:0:0:
441,301,55422,1,4,3:0:0:0:
448,257,55494,1,4,3:0:0:0:
472,219,55565,1,0,1:0:0:0:
410,244,55637,1,4,3:0:0:0:
345,238,55708,1,4,3:0:0:0:
302,188,55779,1,4,3:0:0:0:
299,121,55851,1,4,3:0:0:0:
321,158,55922,1,4,3:0:0:0:
330,201,55994,1,4,3:0:0:0:
334,244,56065,1,4,3:0:0:0:
316,284,56137,5,4,1:2:0:0:
235,348,56279,1,0,0:0:0:0:
100,344,56422,1,0,0:0:0:0:
12,218,56565,1,0,0:0:0:0:
120,62,56708,5,0,3:0:0:0:
147,247,56851,1,0,0:0:0:0:
3,65,56994,1,0,1:0:0:0:
290,21,57137,6,0,B|341:5|400:24|400:24|374:58|370:100,1,192.500005874634,4|4,0:0|3:0,0:0:0:0:
394,328,57565,1,0,1:0:0:0:
250,147,57708,2,0,P|196:135|145:148,1,96.250002937317,4|0,0:3|0:0,0:0:0:0:
263,349,57994,1,4,0:3:0:0:
419,170,58137,2,0,P|465:158|512:165,1,96.250002937317,0|4,1:0|0:3,0:0:0:0:
251,256,58422,6,0,P|198:263|137:155,1,192.500005874634,2|0,0:0|1:0,0:0:0:0:
287,36,58851,1,4,0:3:0:0:
55,2,58994,2,0,P|66:41|73:96,1,96.250002937317,2|4,0:0|0:3,0:0:0:0:
14,310,59279,1,0,1:0:0:0:
225,174,59422,6,0,B|281:143|333:161|333:161|371:148|371:148|430:169,1,192.500005874634,4|4,0:0|0:3,0:0:0:0:
188,67,59851,1,0,1:0:0:0:
294,277,59994,2,0,L|288:373,1,96.250002937317,4|0,0:3|0:0,0:0:0:0:
462,239,60279,1,4,0:3:0:0:
211,157,60422,2,0,L|205:253,1,96.250002937317,0|4,1:1|0:3,0:0:0:0:
459,56,60708,6,0,B|404:69|365:23|365:23|321:3|253:38,1,192.500005874634,2|0,0:0|1:0,0:0:0:0:
92,153,61137,1,4,0:3:0:0:
294,277,61279,2,0,L|298:169,1,96.250002937317,2|4,0:0|0:3,0:0:0:0:
107,10,61565,1,0,1:0:0:0:
39,241,61708,6,0,B|104:268|161:222|161:222|128:286,1,192.500005874634,4|4,0:0|0:3,0:0:0:0:
334,370,62137,2,0,P|314:283|317:175,1,192.500005874634,0|0,1:0|0:0,0:0:0:0:
174,358,62565,1,4,0:3:0:0:
91,152,62708,2,0,P|54:123|7:116,1,96.250002937317,0|4,1:0|0:3,0:0:0:0:
307,31,62994,6,0,B|347:52|347:52|387:44|387:44|415:55|415:55|446:57,1,144.375004405975,2|0,0:0|0:0,0:0:0:0:
509,15,63279,1,0,1:0:0:0:
244,115,63422,2,0,B|209:155|209:155|219:293,1,192.500005874634,2|4,0:0|0:3,0:0:0:0:
136,74,63851,1,0,1:0:0:0:
337,333,63994,6,0,P|427:335|464:252,1,192.500005874634,4|0,0:0|0:0,0:0:0:0:
307,31,64422,1,0,1:0:0:0:
224,282,64565,1,0,1:0:0:0:
311,19,64708,1,0,1:0:0:0:
384,264,64851,1,0,1:0:0:0:
482,0,64994,1,0,1:0:0:0:
167,83,65137,6,0,B|207:108|207:108|243:97|243:97|294:138|367:104,1,192.500005874634,4|4,0:0|0:3,0:0:0:0:
157,330,65565,1,4,0:3:0:0:
163,281,65637,1,4,0:3:0:0:
134,242,65708,1,4,0:3:0:0:
88,225,65779,1,4,0:3:0:0:
41,240,65851,2,0,P|25:258|18:281,1,48.1250014686585,4|4,0:3|0:3,0:0:0:0:
259,228,65994,2,0,P|251:205|236:186,1,48.1250014686585,4|4,0:3|0:3,0:0:0:0:
1,63,66137,1,0,1:0:0:0:
308,15,66279,6,0,B|370:-14|443:11|443:11|398:62,1,192.500005874634,4|4,0:0|3:0,0:0:0:0:
157,71,66708,2,0,B|114:30|114:30|125:171,1,192.500005874634,0|0,1:0|0:0,0:0:0:0:
239,358,67137,1,4,0:3:0:0:
41,240,67279,2,0,L|33:341,1,96.250002937317,0|4,1:0|0:3,0:0:0:0:
236,186,67565,6,0,P|283:180|328:196,1,96.250002937317,2|4,0:0|3:0,0:0:0:0:
490,381,67851,2,0,P|460:344|452:295,1,96.250002937317,0|4,1:0|0:3,0:0:0:0:
505,91,68137,1,2,0:0:0:0:
339,271,68279,1,4,0:3:0:0:
414,31,68422,1,0,1:0:0:0:
182,90,68565,6,0,B|69:109|106:42|-2:58,1,192.500005874634,4|4,0:0|0:3,0:0:0:0:
56,277,68994,2,0,B|109:260|128:202|128:202|164:249|224:247,1,192.500005874634,0|0,1:0|0:0,0:0:0:0:
333,116,69422,1,4,0:3:0:0:
376,345,69565,1,0,1:1:0:0:
273,208,69708,1,4,0:3:0:0:
505,91,69851,6,0,L|497:186,1,96.250002937317,2|4,0:0|0:3,0:0:0:0:
229,71,70137,2,0,P|183:62|135:69,1,96.250002937317,0|4,1:0|0:3,0:0:0:0:
143,332,70422,2,0,P|189:341|237:334,1,96.250002937317,2|4,0:0|0:3,0:0:0:0:
351,127,70708,1,0,1:0:0:0:
497,312,70851,6,0,P|413:268|321:289,1,192.500005874634,4|4,0:0|0:3,0:0:0:0:
62,366,71279,2,0,B|47:321|70:285|70:285|39:233|66:176,1,192.500005874634,0|0,1:0|0:0,0:0:0:0:
191,3,71708,1,4,0:3:0:0:
244,221,71851,6,0,B|201:236|201:236|144:223,1,96.250002937317,0|4,1:0|0:3,0:0:0:0:
427,44,72137,2,0,B|443:90|443:90|424:146|424:146|450:191|438:239,1,192.500005874634,2|0,0:0|1:0,0:0:0:0:
104,22,72565,2,0,B|71:-11|38:-1|38:-1|9:47|35:121,1,192.500005874634,2|4,0:0|0:3,0:0:0:0:
244,221,72994,1,0,1:0:0:0:
147,136,73137,1,4,0:0:0:0:
34,285,73279,6,0,P|100:260|166:285,1,144.375004405975
234,342,73565,1,0,1:0:0:0:
282,344,73637,1,4,3:0:0:0:
327,330,73708,1,4,1:3:0:0:
361,296,73779,1,4,3:0:0:0:
380,251,73851,2,0,L|370:190,1,48.1250014686585,0|0,1:0|0:0,0:0:0:0:
481,32,73994,2,0,L|471:93,1,48.1250014686585,4|4,3:0|3:0,0:0:0:0:
473,277,74137,2,0,L|463:216,1,48.1250014686585,0|4,1:0|3:0,0:0:0:0:
400,0,74279,2,0,L|390:61,1,48.1250014686585,4|4,0:3|3:0,0:0:0:0:
232,218,74422,5,4,3:0:0:0:
196,232,74494,1,4,3:0:0:0:
157,229,74565,1,4,3:0:0:0:
121,213,74637,1,4,3:0:0:0:
95,184,74708,1,4,3:3:0:0:
100,155,74779,1,4,0:3:0:0:
105,126,74851,1,4,0:3:0:0:
110,97,74922,1,4,0:3:0:0:
115,68,74994,5,0,1:0:0:0:
64,332,75137,1,0,1:0:0:0:
241,79,75279,1,0,1:0:0:0:
372,342,75422,6,0,B|316:356|285:318|285:318|240:298|178:326,1,175,4|0,0:0|0:0,0:0:0:0:
74,348,75851,1,0,3:0:0:0:
140,251,75994,1,0,3:0:0:0:
11,174,76137,2,0,P|23:219|27:265,1,87.5,0|0,1:0|3:0,0:0:0:0:
135,159,76422,1,0,3:0:0:0:
135,159,76565,1,0,3:0:0:0:
46,22,76708,5,4,3:2:0:0:
40,61,76851,1,0,3:0:0:0:
191,93,76994,1,0,3:0:0:0:
185,54,77137,1,0,3:0:0:0:
357,13,77279,2,0,P|400:5|443:14,2,87.5,0|2|4,1:0|0:0|3:0,0:0:0:0:
264,154,77708,6,0,L|247:328,1,175,4|0,3:0|0:0,0:0:0:0:
474,307,78137,5,8,3:0:0:0:
444,289,78208,1,8,3:0:0:0:
410,280,78279,1,8,3:0:0:0:
432,109,78422,5,8,1:3:0:0:
401,125,78493,1,8,3:0:0:0:
376,150,78564,1,8,3:0:0:0:
239,47,78708,5,8,3:0:0:0:
237,81,78779,1,8,3:0:0:0:
247,115,78850,1,8,3:0:0:0:
78,205,78994,5,8,3:0:0:0:
43,198,79065,1,8,3:0:0:0:
9,190,79136,1,8,3:0:0:0:
222,235,79279,5,8,3:0:0:0:
257,228,79350,1,8,3:0:0:0:
291,220,79421,1,8,3:0:0:0:
74,303,79565,6,0,B|182:285|140:352|254:335,1,175,4|4,0:0|0:0,0:0:0:0:
459,371,80137,6,0,B|410:344|410:344|405:221,1,175,4|0,0:0|3:0,0:0:0:0:
363,138,80565,1,0,3:0:0:0:
474,58,80708,2,0,L|480:166,1,87.5,0|0,1:0|3:0,0:0:0:0:
361,39,80994,1,0,3:0:0:0:
361,39,81137,1,0,3:0:0:0:
219,120,81279,5,4,3:2:0:0:
180,114,81422,1,0,3:0:0:0:
271,223,81565,1,0,3:0:0:0:
310,217,81708,1,0,3:0:0:0:
173,303,81851,2,0,P|166:343|172:390,2,87.5,0|2|4,1:0|0:0|3:0,0:0:0:0:
20,181,82279,6,0,P|38:241|31:370,1,175,4|0,3:0|0:0,0:0:0:0:
143,223,82708,5,8,3:0:0:0:
177,217,82779,1,8,3:0:0:0:
211,225,82851,1,8,3:0:0:0:
276,52,82994,5,8,1:3:0:0:
298,78,83065,1,8,3:0:0:0:
308,111,83137,1,8,3:0:0:0:
490,81,83280,5,8,3:0:0:0:
479,113,83351,1,8,3:0:0:0:
455,138,83423,1,8,3:0:0:0:
395,324,83565,5,8,3:0:0:0:
388,288,83637,1,8,3:0:0:0:
382,254,83708,1,8,3:0:0:0:
321,41,83851,5,0,1:0:0:0:
331,92,83923,1,0,1:0:0:0:
314,141,83994,1,8,3:0:0:0:
273,173,84065,1,8,3:0:0:0:
220,180,84137,1,4,3:0:0:0:
192,158,84208,1,4,3:0:0:0:
158,148,84279,1,4,3:0:0:0:
123,153,84351,1,4,3:0:0:0:
93,171,84422,6,0,L|100:246,1,43.75,0|0,1:0|0:0,0:0:0:0:
266,295,84565,2,0,L|270:251,1,43.75
12,372,84708,5,4,3:2:0:0:
12,372,84779,1,4,3:0:0:0:
12,372,84851,1,4,3:0:0:0:
65,314,84994,1,8,0:3:0:0:
143,312,85137,1,8,0:3:0:0:
205,358,85279,1,8,0:3:0:0:
281,376,85422,1,8,0:3:0:0:
350,338,85565,5,0,0:0:0:0:
350,338,86422,1,0,1:0:0:0:
350,338,86994,5,4,3:0:0:0:
350,338,87065,1,4,3:0:0:0:
350,338,87137,1,4,3:0:0:0:
306,273,87279,1,8,0:3:0:0:
301,194,87422,1,8,0:3:0:0:
328,120,87565,1,8,0:3:0:0:
382,63,87708,1,8,0:3:0:0:
452,28,87851,5,0,0:0:0:0:
452,28,88708,1,0,1:0:0:0:
452,28,89279,5,4,3:0:0:0:
452,28,89351,1,4,3:0:0:0:
452,28,89422,1,4,3:0:0:0:
381,64,89565,1,8,0:3:0:0:
312,24,89708,1,8,0:3:0:0:
237,50,89851,1,8,0:3:0:0:
166,15,89994,1,8,0:3:0:0:
96,52,90137,5,0,0:0:0:0:
96,52,90994,2,0,L|38:44,2,39.3749987983704,4|4|4,3:0|3:0|3:0,0:0:0:0:
179,122,91279,1,4,3:0:0:0:
53,204,91422,1,4,3:0:0:0:
210,289,91565,6,0,L|217:197,1,87.5,4|4,0:0|3:0,0:0:0:0:
54,333,91851,1,4,3:0:0:0:
39,186,91994,1,4,3:0:0:0:
153,356,92137,1,4,3:0:0:0:
336,209,92279,5,0,1:0:0:0:
336,209,92351,1,4,3:0:0:0:
336,209,92422,2,0,L|340:309,1,87.5,4|4,3:0|3:0,0:0:0:0:
429,356,92637,1,4,3:0:0:0:
429,356,92708,2,0,L|433:256,1,87.5,4|4,0:3|0:3,0:0:0:0:
488,203,92922,1,4,0:3:0:0:
488,203,92994,1,4,0:3:0:0:
446,191,93065,1,4,0:3:0:0:
418,156,93137,1,4,0:3:0:0:
419,112,93208,1,4,0:3:0:0:
445,77,93279,5,0,1:0:0:0:
229,296,93422,1,0,1:0:0:0:
205,34,93565,1,0,1:0:0:0:
432,268,93708,1,0,1:0:0:0:
193,151,93851,5,4,0:3:0:0:
162,142,93922,1,4,0:3:0:0:
130,143,93994,1,4,0:3:0:0:
10,239,94137,2,0,P|9:199|1:161,1,78.7499975967408,0|4,1:0|0:3,0:0:0:0:
148,238,94422,2,0,P|140:276|139:315,1,78.7499975967408,4|4,0:3|0:3,0:0:0:0:
109,122,94708,6,0,B|178:88|240:156|240:156|307:181|374:126,1,280,0|0,1:0|1:0,0:0:0:0:
364,133,95565,2,0,P|321:81|336:10,1,140,0|0,3:0|1:0,0:0:0:0:
493,275,96137,5,6,0:3:0:0:
470,292,96208,1,4,0:3:0:0:
442,297,96280,1,4,0:3:0:0:
294,230,96422,1,0,1:0:0:0:
355,364,96565,1,4,0:3:0:0:
437,209,96708,2,4,L|448:131,1,78.7499975967408,4|4,0:3|0:3,0:3:0:0:
248,49,96994,6,0,L|275:347,1,280,2|0,3:2|1:0,0:0:0:0:
120,151,97851,1,0,3:0:0:0:
55,363,98137,1,0,1:0:0:0:
226,260,98422,5,4,0:3:0:0:
255,247,98494,1,4,0:3:0:0:
286,247,98565,1,4,0:3:0:0:
417,361,98708,1,4,0:3:0:0:
331,172,98851,1,4,0:3:0:0:
467,259,98994,1,4,0:3:0:0:
273,327,99137,1,4,0:3:0:0:
197,113,99279,6,0,B|165:71|122:60|122:60|88:120|96:180,1,210,2|0,1:2|0:0,0:0:0:0:
121,247,99851,1,0,1:0:0:0:
321,92,100137,5,4,3:0:0:0:
348,92,100208,1,4,3:0:0:0:
373,102,100279,1,4,3:0:0:0:
429,172,100422,1,0,1:0:0:0:
412,260,100565,1,4,3:0:0:0:
305,329,100708,6,0,L|217:320,1,87.5,4|4,0:0|3:0,0:0:0:0:
160,372,100922,1,0,1:0:0:0:
160,372,100994,1,4,3:0:0:0:
0,210,101137,2,0,L|87:201,1,87.5,0|4,3:0|3:0,0:0:0:0:
145,253,101351,1,0,1:0:0:0:
145,253,101423,1,4,3:0:0:0:
280,164,101565,1,4,0:0:0:0:
76,31,101708,5,8,3:0:0:0:
76,31,101779,1,8,0:3:0:0:
76,31,101851,2,0,L|66:131,1,87.5,8|0,0:3|1:0,0:0:0:0:
267,0,102137,2,0,L|272:63,1,43.75,8|8,0:3|0:3,0:0:0:0:
456,171,102279,1,8,0:3:0:0:
456,171,102351,1,8,0:3:0:0:
456,171,102422,2,0,L|462:75,1,87.5,4|4,0:3|0:3,0:0:0:0:
323,334,102708,1,8,3:0:0:0:
277,358,102779,1,8,3:0:0:0:
224,350,102851,1,8,3:0:0:0:
187,312,102922,1,8,3:0:0:0:
177,259,102994,6,0,B|201:222|181:175|181:175|189:135|189:135|177:88,1,175,4|0,0:0|1:0,0:0:0:0:
425,5,103422,2,0,B|380:35|380:35|365:154,1,175,4|4,0:3|0:3,0:0:0:0:
479,337,103851,1,0,1:0:0:0:
475,279,103923,1,4,3:0:0:0:
472,222,103994,1,0,3:0:0:0:
263,94,104137,6,0,P|220:85|177:89,1,87.5,4|4,0:3|0:3,0:0:0:0:
36,259,104422,1,4,0:3:0:0:
25,31,104565,2,0,B|50:14|92:27|92:27|58:77|81:147,1,175,4|4,0:3|0:3,0:0:0:0:
209,346,104994,1,0,1:0:0:0:
151,350,105066,1,4,3:0:0:0:
94,353,105137,1,4,3:0:0:0:
333,193,105279,6,0,B|319:229|334:265|334:265|324:296|324:296|339:325|332:370,1,175,4|0,0:3|1:0,0:0:0:0:
499,120,105708,2,0,B|459:107|459:107|414:115,1,87.5,4|0,0:3|0:0,0:0:0:0:
194,2,105994,2,0,B|181:42|181:42|189:86,1,87.5,4|0,0:3|1:0,0:0:0:0:
237,151,106208,1,4,3:0:0:0:
237,151,106279,1,0,3:0:0:0:
7,216,106422,5,4,0:3:0:0:
33,170,106494,1,4,0:3:0:0:
78,144,106565,1,4,0:3:0:0:
262,346,106708,5,0,1:0:0:0:
209,346,106780,1,0,1:0:0:0:
164,320,106851,1,4,0:3:0:0:
264,47,106994,5,4,0:3:0:0:
371,191,107137,2,0,P|411:205|454:197,1,87.5,4|0,0:3|1:0,0:0:0:0:
500,136,107351,1,4,0:3:0:0:
500,136,107422,1,4,0:3:0:0:
259,31,107565,5,4,0:0:0:0:
356,274,107708,1,4,0:3:0:0:
432,39,107851,1,0,1:0:0:0:
223,194,107994,2,0,B|177:210|133:187|133:187|94:199|94:199|45:181,1,175,4|4,0:3|0:3,0:0:0:0:
262,346,108422,1,0,1:0:0:0:
317,358,108494,1,4,3:0:0:0:
373,355,108565,1,4,3:0:0:0:
473,62,108708,6,0,P|443:105|431:202,1,131.25,4|0,0:3|0:0,0:0:0:0:
469,245,108994,1,0,1:0:0:0:
299,72,109137,2,0,B|259:31|259:31|200:40|188:112,1,175,4|4,0:3|0:3,0:0:0:0:
117,332,109565,1,4,3:0:0:0:
62,344,109637,1,4,3:0:0:0:
6,341,109708,1,4,3:0:0:0:
335,241,109851,6,0,L|391:247,1,56.8749973964692,4|0,1:2|0:0,0:0:0:0:
107,85,109994,2,0,B|95:120|111:153|111:153|103:178|103:178|105:203,1,113.749994792938,0|0,1:0|0:0,0:0:0:0:
425,16,110279,2,0,B|464:57|464:57|461:123,1,113.749994792938,0|0,1:0|0:0,0:0:0:0:
243,345,110565,2,0,B|204:304|204:304|207:238,1,113.749994792938,4|4,0:3|0:3,0:0:0:0:
259,179,110779,1,4,0:3:0:0:
259,179,110851,1,4,0:3:0:0:
73,30,110994,6,0,B|107:85|107:85|103:195,1,175,4|0,1:2|1:0,0:0:0:0:
36,371,111422,1,4,3:0:0:0:
24,328,111494,1,4,3:0:0:0:
3,289,111565,1,0,1:0:0:0:
61,318,111637,1,4,3:0:0:0:
125,324,111708,1,4,3:0:0:0:
185,300,111779,1,4,3:0:0:0:
229,251,111851,1,4,3:0:0:0:
252,214,111922,1,4,3:0:0:0:
289,191,111994,1,4,3:0:0:0:
332,187,112065,1,4,3:0:0:0:
368,211,112137,6,0,L|363:274,1,43.75,4|0,3:2|0:0,0:0:0:0:
505,330,112279,2,0,L|501:374,2,29.1666666666667,8|8|8,3:0|3:0|3:0,0:0:0:0:
491,249,112422,6,0,L|486:186,1,43.75,8|8,3:0|3:0,0:0:0:0:
468,51,112565,2,0,L|464:5,2,29.1666666666667,8|8|8,3:0|3:0|3:0,0:0:0:0:
396,77,112708,6,0,L|339:69,1,43.75,8|8,3:0|3:0,0:0:0:0:
255,101,112851,1,8,3:0:0:0:
243,102,112898,1,8,3:0:0:0:
231,103,112946,1,8,3:0:0:0:
219,104,112994,1,0,1:0:0:0:
17,17,113137,6,0,B|47:80|47:80|16:140|41:217,1,192.500005874634,4|4,0:0|3:0,0:0:0:0:
154,380,113565,1,0,1:0:0:0:
296,227,113708,2,0,P|298:179|282:134,1,96.250002937317,4|0,0:3|0:0,0:0:0:0:
90,252,113994,1,4,0:3:0:0:
321,370,114137,2,0,P|365:386|413:383,1,96.250002937317,0|4,1:0|0:3,0:0:0:0:
479,115,114422,6,0,B|430:95|381:107|381:107|338:144|295:136,1,192.500005874634,2|0,0:0|1:0,0:0:0:0:
96,46,114851,1,4,0:3:0:0:
187,293,114994,2,0,P|193:245|204:198,1,96.250002937317,2|4,0:0|0:3,0:0:0:0:
345,13,115279,1,0,1:0:0:0:
471,297,115422,6,0,B|415:317|375:271|375:271|333:250|284:269,1,192.500005874634,4|4,0:0|0:3,0:0:0:0:
34,353,115851,2,0,B|77:328|77:328|93:186,1,192.500005874634,0|0,1:0|0:0,0:0:0:0:
263,25,116279,1,4,0:3:0:0:
23,13,116422,2,0,L|11:108,1,96.250002937317,0|4,1:1|0:3,0:0:0:0:
210,206,116708,6,0,L|198:110,1,96.250002937317,2|4,0:0|0:3,0:0:0:0:
464,52,116994,2,0,B|424:14|424:14|406:150,1,192.500005874634,0|2,1:0|0:0,0:0:0:0:
339,384,117422,1,4,0:3:0:0:
489,227,117565,1,0,1:0:0:0:
165,302,117708,6,0,P|257:297|313:220,1,192.500005874634,4|4,0:0|0:3,0:0:0:0:
129,50,118137,2,0,B|110:98|110:98|120:146|120:146|95:195|113:240,1,192.500005874634,0|0,1:0|0:0,0:0:0:0:
291,101,118565,1,4,0:3:0:0:
379,303,118708,2,0,L|474:314,1,96.250002937317,0|4,1:0|0:3,0:0:0:0:
76,358,118994,6,0,B|69:340|69:340|68:315|68:315|18:286|21:222,1,144.375004405975,2|0,0:0|0:0,0:0:0:0:
17,152,119279,1,0,1:0:0:0:
248,205,119422,2,0,B|285:215|285:215|320:202|320:202|377:235|433:212,1,192.500005874634,2|4,0:0|0:3,0:0:0:0:
258,335,119851,1,0,1:0:0:0:
179,74,119994,6,0,B|168:50|132:25|132:25|94:93|108:143,1,192.500005874634,4|0,0:0|0:0,0:0:0:0:
258,349,120422,1,0,1:0:0:0:
307,78,120565,1,0,1:0:0:0:
258,364,120708,1,0,1:0:0:0:
462,40,120851,1,0,1:0:0:0:
421,342,120994,1,0,1:0:0:0:
130,157,121137,6,0,B|74:134|-6:162|-6:162|23:188|78:182,1,192.500005874634,4|4,0:0|0:3,0:0:0:0:
87,244,121494,1,4,0:3:0:0:
87,244,121565,2,0,P|93:269|95:294,1,48.1250014686585,4|4,0:3|0:3,0:0:0:0:
258,377,121708,2,0,P|260:353|265:329,1,48.1250014686585,4|4,0:3|0:3,0:0:0:0:
374,154,121851,1,4,0:3:0:0:
427,131,121922,1,4,0:3:0:0:
475,162,121993,1,4,0:3:0:0:
477,219,122065,1,4,0:3:0:0:
429,253,122136,1,0,1:0:0:0:
246,71,122279,6,0,B|202:44|138:65|138:65|107:101|61:98,1,192.500005874634,4|4,0:0|3:0,0:0:0:0:
183,298,122708,2,0,B|226:269|223:212|223:212|247:255|311:257,1,192.500005874634,0|0,1:0|0:0,0:0:0:0:
475,162,123137,1,4,0:3:0:0:
325,8,123279,2,0,L|318:109,1,96.250002937317,0|4,1:0|0:3,0:0:0:0:
435,349,123565,6,0,L|428:248,1,96.250002937317,2|4,0:0|3:0,0:0:0:0:
196,121,123851,2,0,B|145:94|76:118|76:118|104:147|109:183,1,192.500005874634,0|2,1:0|0:0,0:0:0:0:
19,382,124279,1,4,0:3:0:0:
240,216,124422,1,0,1:0:0:0:
37,42,124565,6,0,P|143:26|246:54,1,192.500005874634,4|4,0:0|0:3,0:0:0:0:
470,181,124994,2,0,B|418:151|418:151|429:10,1,192.500005874634,0|0,1:0|0:0,0:0:0:0:
299,283,125422,1,4,0:3:0:0:
239,50,125565,1,0,1:1:0:0:
346,204,125708,1,4,0:3:0:0:
109,367,125851,6,0,L|97:271,1,96.250002937317,2|4,0:0|0:3,0:0:0:0:
10,47,126137,2,0,P|53:65|101:65,1,96.250002937317,0|4,1:0|0:3,0:0:0:0:
287,260,126422,2,0,P|243:241|195:241,1,96.250002937317,2|4,0:0|0:3,0:0:0:0:
1,375,126708,1,0,1:0:0:0:
99,86,126851,6,0,B|145:106|145:106|186:92|186:92|227:117|297:105,1,192.500005874634,4|4,0:0|0:3,0:0:0:0:
492,13,127279,2,0,P|468:62|474:223,1,192.500005874634,0|0,1:0|0:0,0:0:0:0:
384,359,127708,1,4,0:3:0:0:
198,227,127851,6,0,B|244:219|244:219|287:243,1,96.250002937317,0|4,1:0|0:3,0:0:0:0:
492,13,128137,2,0,B|442:36|442:36|394:27|394:27|353:48|305:33,1,192.500005874634,2|0,0:0|1:0,0:0:0:0:
14,121,128565,2,0,B|19:104|38:91|38:91|71:139|51:215,1,144.375004405975,2|0,0:0|0:0,0:0:0:0:
36,273,128851,2,0,P|68:273|92:264,1,48.1250014686585,0|0,1:0|0:0,0:0:0:0:
185,200,128994,1,2,0:0:0:0:
301,276,129137,1,4,0:0:0:0:
429,348,129279,6,0,L|446:188,1,144.375004405975
495,146,129565,1,0,1:0:0:0:
452,113,129637,1,4,0:3:0:0:
399,107,129708,1,0,1:0:0:0:
349,125,129779,1,4,3:0:0:0:
310,162,129851,2,0,L|318:232,1,48.1250014686585,0|4,1:0|0:3,0:0:0:0:
215,375,129994,2,0,L|209:327,1,48.1250014686585,4|4,3:0|3:0,0:0:0:0:
212,98,130137,2,0,L|220:168,1,48.1250014686585,0|4,1:0|3:0,0:0:0:0:
122,285,130279,6,0,B|78:356|8:331|8:331|-9:288|30:232,1,240.625007343292,4|2,1:2|0:0,0:0:0:0:
88,179,130708,1,4,3:3:0:0:
139,168,130779,1,4,0:3:0:0:
187,189,130851,1,4,0:3:0:0:
223,227,130922,1,4,0:3:0:0:
285,281,130994,5,0,1:0:0:0:
336,292,131065,1,4,0:3:0:0:
384,271,131137,1,4,0:3:0:0:
420,233,131208,1,4,0:3:0:0:
460,164,131279,6,0,L|454:105,1,48.1250014686585,0|0,1:0|0:0,0:0:0:0:
482,373,131422,1,4,0:0:0:0:
480,355,131851,5,0,3:0:0:0:
384,344,132137,1,0,3:0:0:0:
288,333,132423,1,0,3:0:0:0:
191,320,132708,5,8,3:0:0:0:
88,179,132851,1,8,3:0:0:0:
36,366,132994,1,8,3:0:0:0:
204,180,133137,1,8,3:0:0:0:
383,343,133279,6,0,P|368:298|370:251,1,96.250002937317,0|4,1:0|0:3,0:0:0:0:
444,197,133494,1,4,0:3:0:0:
457,146,133565,1,4,0:3:0:0:
433,98,133637,1,4,0:3:0:0:
382,84,133708,1,4,0:3:0:0:
333,103,133779,1,4,0:3:0:0:
311,150,133851,6,0,P|262:183|204:180,1,118.124996395111,4|0,3:0|0:0,0:0:0:0:
131,139,134137,2,0,P|93:127|54:130,1,78.7499975967408,2|0,0:0|0:0,0:0:0:0:
118,252,134422,1,0,0:0:0:0:
200,63,134565,2,0,P|238:51|277:54,1,78.7499975967408,2|4,0:0|3:0,0:0:0:0:
411,164,134851,1,0,0:0:0:0:
262,312,134994,6,0,L|249:155,1,157.499995193482,0|2,1:0|0:0,0:0:0:0:
249,155,135565,2,0,L|170:150,1,78.7499975967408,2|4,0:0|3:0,0:0:0:0:
46,144,135851,1,4,3:0:0:0:
238,54,135994,6,0,B|329:46|298:110|408:95,1,157.499995193482,4|0,0:0|0:0,0:0:0:0:
480,263,136422,2,0,P|420:211|332:231,1,157.499995193482,2|0,0:0|0:0,0:0:0:0:
248,346,136851,2,0,B|263:311|263:311|254:252,1,78.7499975967408,2|4,0:0|3:0,0:0:0:0:
175,196,137137,1,2,0:0:0:0:
50,287,137279,6,0,B|76:299|76:299|68:225|104:255|86:172,1,157.499995193482,0|0,1:0|0:0,0:0:0:0:
13,19,137708,2,0,P|22:38|28:61,1,39.3749987983704
186,94,137851,5,2,0:0:0:0:
193,9,137946,5,2,0:0:0:0:
117,46,138041,5,2,0:0:0:0:
193,105,138137,6,0,L|275:108,1,78.7499975967408,2|2,0:0|0:0,0:0:0:0:
471,190,138422,6,0,P|474:150|491:116,2,78.7499975967408,4|4|2,3:0|3:0|0:0,0:0:0:0:
471,190,138994,1,0,0:0:0:0:
414,247,139137,2,0,B|357:248|357:248|321:232|321:232|233:235,1,157.499995193482,2|2,0:0|0:0,0:0:0:0:
100,331,139565,6,0,B|142:303|173:314|173:314|203:349|258:348,1,157.499995193482,0|0,1:0|0:0,0:0:0:0:
242,347,140137,1,2,0:0:0:0:
259,234,140279,1,4,0:3:0:0:
276,121,140422,1,4,0:3:0:0:
409,12,140565,6,0,B|374:37|335:36|335:36|302:17|302:17|242:23,1,157.499995193482,4|4,0:0|0:3,0:0:0:0:
48,81,140994,1,4,0:3:0:0:
212,171,141137,1,4,0:3:0:0:
36,228,141279,1,4,0:3:0:0:
150,36,141422,1,4,0:3:0:0:
248,335,141565,1,4,0:3:0:0:
356,135,141708,1,4,0:3:0:0:
83,314,141851,5,0,1:0:0:0:
466,360,141994,1,4,0:3:0:0:
251,109,142137,1,4,0:3:0:0:
144,384,142279,1,4,0:3:0:0:
505,172,142422,5,4,3:0:0:0:
156,82,142565,1,0,3:3:0:0:
372,0,142708,1,0,3:3:0:0:
270,218,142851,1,0,3:3:0:0:
58,16,142994,6,0,B|18:72|41:149|41:149|57:107,1,175,4|0,0:0|3:0,0:0:0:0:
156,82,143422,1,0,3:0:0:0:
250,210,143565,2,0,P|198:201|153:209,1,87.5,0|0,1:0|3:0,0:0:0:0:
40,259,143851,1,0,3:0:0:0:
40,259,143994,1,0,3:0:0:0:
149,379,144137,5,4,3:2:0:0:
145,334,144279,1,0,3:0:0:0:
300,268,144422,1,0,3:0:0:0:
296,313,144564,1,4,3:0:0:0:
441,367,144708,2,0,L|533:373,2,87.5,0|2|4,1:0|0:0|3:0,0:0:0:0:
406,216,145137,6,0,P|397:166|449:55,1,175,4|0,3:0|0:0,0:0:0:0:
273,19,145565,5,8,3:0:0:0:
239,29,145637,1,8,3:0:0:0:
204,28,145708,1,8,3:0:0:0:
220,184,145851,5,8,1:3:0:0:
185,175,145923,1,8,3:0:0:0:
155,157,145994,1,8,3:0:0:0:
91,300,146137,5,8,3:0:0:0:
65,275,146209,1,8,3:0:0:0:
48,244,146280,1,8,3:0:0:0:
313,228,146422,5,8,3:0:0:0:
318,262,146494,1,8,3:0:0:0:
322,296,146565,1,8,3:0:0:0:
146,225,146708,5,8,3:0:0:0:
151,191,146780,1,8,3:0:0:0:
155,157,146851,1,8,3:0:0:0:
416,111,146994,6,0,B|390:139|395:170|395:170|358:117|288:130,1,175,4|4,0:0|0:0,0:0:0:0:
81,337,147565,6,0,B|134:321|134:321|172:352|172:352|269:349,1,175,4|0,0:0|3:0,0:0:0:0:
318,262,147994,1,0,3:0:0:0:
200,181,148137,2,0,P|211:224|203:268,1,87.5,0|0,1:0|3:0,0:0:0:0:
80,228,148422,1,0,3:0:0:0:
80,228,148565,1,0,3:0:0:0:
4,116,148708,5,4,3:2:0:0:
49,120,148850,1,0,3:0:0:0:
166,0,148994,1,0,3:0:0:0:
121,4,149136,1,0,3:0:0:0:
263,121,149279,2,0,P|262:77|273:35,2,87.5,0|2|4,1:0|0:0|3:0,0:0:0:0:
429,17,149708,6,0,P|447:89|432:209,1,175,4|0,3:0|0:0,0:0:0:0:
331,353,150137,5,8,3:0:0:0:
329,318,150208,1,8,3:0:0:0:
328,283,150279,1,8,3:0:0:0:
185,145,150422,5,8,1:3:0:0:
183,180,150493,1,8,3:0:0:0:
182,215,150564,1,8,3:0:0:0:
54,367,150708,5,8,3:0:0:0:
52,332,150779,1,8,3:0:0:0:
51,297,150850,1,8,3:0:0:0:
0,76,150994,5,8,3:0:0:0:
67,51,151065,1,8,3:0:0:0:
138,66,151137,1,8,3:0:0:0:
429,180,151279,5,8,3:0:0:0:
362,204,151350,1,8,3:0:0:0:
291,189,151422,1,8,3:0:0:0:
480,20,151565,5,4,3:0:0:0:
480,20,151637,1,4,3:0:0:0:
480,20,151708,1,4,3:0:0:0:
307,288,151851,5,0,1:0:0:0:
307,288,151923,1,8,0:3:0:0:
307,288,151994,1,4,3:0:0:0:
104,18,152137,6,0,B|109:84|109:84|84:126|84:126|92:205,1,175,4|0,0:0|3:0,0:0:0:0:
145,267,152565,1,0,3:0:0:0:
7,343,152708,2,0,B|9:297|9:297|41:329,1,87.5,0|0,1:0|3:0,0:0:0:0:
205,383,152994,2,0,B|203:337|203:337|171:369,1,87.5,0|0,3:0|3:0,0:0:0:0:
0,183,153279,6,0,B|30:214|74:219|74:219|108:173|178:186,1,175,4|0,3:0|3:0,0:0:0:0:
238,245,153708,1,0,3:0:0:0:
307,146,153851,2,0,B|310:120|310:120|296:101|296:101|284:51,2,87.5,0|2|4,1:0|0:0|3:0,0:0:0:0:
412,293,154279,6,0,B|458:274|458:274|382:256|382:256|325:280,1,175,4|0,3:0|3:0,0:0:0:0:
191,375,154708,5,8,3:0:0:0:
158,311,154779,1,8,3:0:0:0:
170,241,154851,1,8,3:0:0:0:
408,67,154994,5,8,1:3:0:0:
369,126,155065,1,8,3:0:0:0:
302,150,155137,1,8,3:0:0:0:
26,30,155279,5,8,3:0:0:0:
96,34,155350,1,8,3:0:0:0:
150,80,155422,1,8,3:0:0:0:
45,377,155565,5,8,3:0:0:0:
34,308,155637,1,8,3:0:0:0:
26,239,155708,1,8,3:0:0:0:
242,8,155851,5,8,3:0:0:0:
231,76,155923,1,8,3:0:0:0:
223,145,155994,1,8,3:0:0:0:
412,293,156137,6,0,B|386:282|386:282|357:294|357:294|312:285|312:285|284:299|284:299|234:305,1,175,4|4,0:0|0:0,0:0:0:0:
13,67,156708,6,0,B|60:73|53:42|109:47|109:47|124:80|124:80|163:91,1,175,4|0,0:0|3:0,0:0:0:0:
246,33,157137,1,0,3:0:0:0:
386,117,157279,2,0,B|432:115|432:115|400:83,1,87.5,0|4,1:0|3:0,0:0:0:0:
265,189,157565,2,0,B|219:187|219:187|251:155,1,87.5,4|4,3:0|3:0,0:0:0:0:
485,293,157851,6,0,B|445:280|445:280|404:295|404:295|356:268|300:304,1,175,4|0,3:0|3:0,0:0:0:0:
230,355,158279,1,0,3:0:0:0:
106,280,158422,2,0,B|98:322|98:322|104:337|104:337|99:375,2,87.5,0|6|4,1:0|0:0|3:0,0:0:0:0:
35,87,158851,6,0,B|39:112|15:139|15:139|58:145|58:145|89:137|89:137|130:141,1,175,4|0,3:0|0:0,0:0:0:0:
343,287,159279,1,8,3:0:0:0:
305,242,159351,1,8,3:0:0:0:
311,185,159422,1,8,3:0:0:0:
355,148,159494,1,4,3:0:0:0:
411,146,159565,5,8,1:3:0:0:
390,116,159637,1,8,3:0:0:0:
398,82,159708,1,8,3:0:0:0:
426,62,159779,1,4,0:3:0:0:
460,56,159851,6,0,L|525:65,1,43.75,8|8,3:0|3:0,0:0:0:0:
224,78,159994,2,0,L|159:69,1,43.75,8|8,3:0|0:3,0:0:0:0:
425,245,160137,6,0,P|436:308|342:381,1,170.624992189408,8|0,3:0|0:0,0:0:0:0:
231,358,160422,2,0,B|281:344|281:344|338:367,1,113.749994792938,8|8,3:0|3:0,0:0:0:0:
242,161,160708,5,4,3:0:0:0:
169,150,160779,1,4,3:0:0:0:
104,187,160851,1,4,3:0:0:0:
78,255,160922,1,4,3:0:0:0:
103,324,160994,1,0,1:0:0:0:
0,101,161137,6,0,B|46:91|77:48|77:48|127:24|178:53,1,192.500005874634,4|4,0:0|3:0,0:0:0:0:
354,206,161565,2,0,B|319:165|319:165|340:5,1,192.500005874634,0|0,1:0|0:0,0:0:0:0:
453,170,161994,1,4,0:3:0:0:
245,263,162137,2,0,P|232:318|231:361,1,96.250002937317,0|4,1:0|3:0,0:0:0:0:
27,207,162422,6,0,P|24:159|12:112,1,96.250002937317,2|4,0:0|3:0,0:0:0:0:
141,264,162708,1,0,1:0:0:0:
207,71,162851,2,0,B|323:62|287:129|406:118,1,192.500005874634,4|4,0:3|0:3,0:0:0:0:
263,268,163279,1,0,1:0:0:0:
487,204,163422,1,4,0:0:0:0:
367,11,163565,6,0,P|390:116|340:229,1,192.500005874634,2|0,0:2|1:0,0:0:0:0:
132,248,163994,2,0,P|199:190|268:247,1,192.500005874634,4|4,0:3|0:3,0:0:0:0:
27,361,164422,2,0,B|7:259|69:291|48:152,1,192.500005874634,0|0,1:1|0:0,0:0:0:0:
0,2,164851,1,4,0:3:0:0:
187,161,164994,6,0,P|192:113|209:68,1,96.250002937317,0|4,1:0|0:3,0:0:0:0:
7,250,165279,1,2,0:0:0:0:
101,82,165422,1,4,0:3:0:0:
196,254,165565,1,0,1:0:0:0:
321,69,165708,6,0,B|392:19|463:78|463:78|421:145|351:118,1,240.625007343292,4|0,0:0|0:0,0:0:0:0:
337,179,166137,2,0,P|316:221|314:269,1,96.250002937317,0|4,1:0|0:3,0:0:0:0:
105,82,166422,2,0,L|201:88,1,96.250002937317,2|4,0:2|0:3,0:0:0:0:
137,296,166708,1,0,1:0:0:0:
46,161,166851,1,4,0:3:0:0:
247,267,166994,6,0,P|315:269|370:217,1,144.375004405975,2|0,0:0|0:0,0:0:0:0:
448,225,167279,2,0,L|459:332,1,96.250002937317,0|4,1:0|3:0,0:0:0:0:
304,87,167565,2,0,P|263:84|210:116,1,96.250002937317,2|4,0:2|0:3,0:0:0:0:
77,227,167851,1,0,1:0:0:0:
25,44,167994,1,4,0:0:0:0:
216,229,168137,6,0,P|228:287|223:346,1,96.250002937317,2|4,0:2|0:3,0:0:0:0:
0,384,168422,2,0,P|0:335|10:289,1,96.250002937317,0|4,1:0|0:3,0:0:0:0:
101,127,168708,1,0,0:0:0:0:
322,259,168851,2,0,P|310:206|310:145,1,96.250002937317,4|0,0:3|1:1,0:0:0:0:
467,15,169137,6,0,B|434:58|383:57|383:57|335:17|256:43,1,192.500005874634,4|4,0:3|0:3,0:0:0:0:
95,142,169565,2,0,P|146:125|204:131,1,96.250002937317,0|4,1:0|0:3,0:0:0:0:
332,274,169851,1,2,0:0:0:0:
292,49,169994,1,4,0:3:0:0:
199,223,170137,1,0,1:0:0:0:
449,127,170279,6,0,L|438:330,1,192.500005874634,4|4,0:0|0:3,0:0:0:0:
256,157,170708,2,0,B|207:119|155:146|155:146|118:128|118:128|78:150,1,192.500005874634,0|0,1:0|0:0,0:0:0:0:
239,296,171137,1,4,0:3:0:0:
32,372,171279,2,0,B|14:330|14:330|35:276,1,96.250002937317,0|4,1:0|0:3,0:0:0:0:
321,107,171565,6,0,B|349:151|349:151|328:200|328:200|339:275,1,144.375004405975,2|0,0:0|0:0,0:0:0:0:
347,314,171851,1,0,1:0:0:0:
64,170,171994,2,0,B|120:161|120:161|172:192|172:192|199:166|240:161,1,192.500005874634,2|4,3:2|0:3,0:0:0:0:
434,221,172422,1,0,1:0:0:0:
164,351,172565,6,0,B|114:380|114:380|107:241,1,192.500005874634,4|0,0:0|1:0,0:0:0:0:
10,22,172994,1,4,3:0:0:0:
10,22,173065,1,4,3:0:0:0:
10,22,173137,2,0,L|59:29,1,48.1250014686585,0|4,1:0|3:0,0:0:0:0:
239,161,173279,1,0,1:0:0:0:
239,161,173350,1,4,3:0:0:0:
239,161,173422,2,0,L|190:168,1,48.1250014686585,4|4,3:0|3:0,0:0:0:0:
12,306,173565,1,4,3:0:0:0:
12,306,173636,1,4,3:0:0:0:
12,306,173708,2,0,L|5:257,1,48.1250014686585,4|4,3:3|0:3,0:0:0:0:
191,43,173851,5,4,1:3:0:0:
249,21,173922,1,4,3:0:0:0:
311,28,173994,1,4,3:0:0:0:
361,64,174065,1,4,3:0:0:0:
386,121,174137,1,4,3:0:0:0:
380,182,174208,1,4,3:0:0:0:
342,231,174279,1,4,3:0:0:0:
284,257,174351,1,4,3:0:0:0:
222,248,174422,6,0,L|229:201,1,48.1250014686585,4|4,3:0|3:0,0:0:0:0:
471,88,174565,2,0,L|478:135,1,48.1250014686585,4|4,3:0|3:0,0:0:0:0:
366,384,174708,6,0,L|359:337,1,48.1250014686585,0|0,1:0|0:0,0:0:0:0:
311,28,174851,1,4,0:0:0:0:
311,28,176708,5,0,1:0:0:0:
272,24,176779,1,0,1:0:0:0:
233,21,176851,1,0,1:0:0:0:
197,18,176922,1,0,1:0:0:0:
123,41,176993,5,0,1:0:0:0:
84,38,177065,1,0,1:0:0:0:
16,67,177137,6,0,B|-19:140|15:204|15:204|41:172|29:123,1,210,4|4,1:2|0:0,0:0:0:0:
32,140,178994,5,0,3:0:0:0:
119,117,179137,1,0,3:0:0:0:
195,142,179279,1,0,3:0:0:0:
222,181,179422,5,2,3:2:0:0:
448,332,181565,5,4,3:0:0:0:
420,338,181637,1,4,3:0:0:0:
392,344,181708,2,0,B|358:230|429:271|403:123,1,210,4|0,0:0|1:0,0:0:0:0:
405,139,182708,6,0,P|355:156|304:150,1,105
233,106,182994,5,4,3:0:0:0:
230,73,183065,1,4,3:0:0:0:
227,41,183137,1,4,3:0:0:0:
28,9,183279,5,0,1:0:0:0:
31,42,183350,1,0,1:0:0:0:
34,74,183422,1,4,0:3:0:0:
170,207,183565,5,4,0:0:0:0:
13,323,183708,2,0,P|56:284|114:286,1,118.124996395111,4|0,0:0|0:0,0:0:0:0:
174,341,183994,6,0,P|230:364|325:241,1,236.249992790222,4|4,0:2|0:3,0:0:0:0:
327,249,184708,1,0,1:0:0:0:
454,39,185279,6,4,P|458:61|473:88,1,39.3749987983704,4|4,3:0|3:0,3:0:0:0:
441,246,185422,2,4,P|427:225|420:190,1,39.3749987983704,4|4,3:0|3:0,3:0:0:0:
316,56,185565,6,4,P|306:77|301:113,1,39.3749987983704,4|4,3:0|3:0,3:0:0:0:
214,138,185708,2,4,P|215:151|219:163,2,26.2499991989136,4|4|4,3:0|3:0|3:0,3:0:0:0:
177,63,185851,6,4,P|188:46|201:32,1,39.3749987983704,4|4,3:0|3:0,3:0:0:0:
132,165,185994,1,4,3:0:0:0:
129,180,186041,1,4,3:0:0:0:
130,195,186089,1,4,3:0:0:0:
133,210,186137,6,0,L|27:196,1,78.7499975967408,0|0,1:0|0:0,0:0:0:0:
38,215,186708,5,4,1:2:0:0:
146,354,186851,2,0,B|205:379|265:356|265:356|251:326|258:286,1,192.500005874634,4|4,0:3|0:3,0:0:0:0:
411,135,187279,2,0,P|370:163|323:172,1,96.250002937317,0|4,1:0|0:3,0:0:0:0:
151,14,187565,6,0,B|257:9|224:82|341:67,1,192.500005874634,2|0,0:0|1:0,0:0:0:0:
153,231,187994,1,4,0:3:0:0:
355,345,188137,2,0,L|348:247,1,96.250002937317,2|4,0:0|0:3,0:0:0:0:
126,369,188422,1,0,1:0:0:0:
35,121,188565,6,0,B|82:89|135:111|135:111|172:160|239:154,1,192.500005874634,4|4,0:0|0:3,0:0:0:0:
447,87,188994,2,0,P|362:80|309:183,1,192.500005874634,0|0,1:0|0:0,0:0:0:0:
366,361,189422,1,4,0:3:0:0:
166,252,189565,2,0,P|118:240|67:247,1,96.250002937317,0|4,1:1|0:3,0:0:0:0:
340,252,189851,6,0,P|387:263|438:256,1,96.250002937317,2|4,0:0|0:3,0:0:0:0:
212,14,190137,2,0,P|226:86|199:167,1,144.375004405975,0|0,1:0|0:0,0:0:0:0:
130,130,190422,2,0,L|23:138,1,96.250002937317,2|4,0:0|0:3,0:0:0:0:
312,42,190708,1,0,1:0:0:0:
201,255,190851,6,0,B|253:259|294:209|294:209|296:261|340:294,1,192.500005874634,4|4,0:0|0:3,0:0:0:0:
85,384,191279,2,0,B|43:360|43:360|37:215,1,192.500005874634,0|0,1:0|0:0,0:0:0:0:
21,0,191708,1,4,0:3:0:0:
144,158,191851,2,0,P|193:168|252:137,1,96.250002937317,0|4,1:0|0:3,0:0:0:0:
438,1,192137,6,0,B|420:34|420:34|438:61|438:61|406:106|419:160,1,144.375004405975,2|0,0:0|0:0,0:0:0:0:
443,202,192422,1,0,1:0:0:0:
253,340,192565,2,0,B|259:267|259:267|238:229|238:229|247:153,1,192.500005874634,2|4,0:0|0:3,0:0:0:0:
96,36,192994,1,0,1:0:0:0:
0,234,193137,6,0,B|108:231|66:305|182:287,1,192.500005874634,4|0,0:0|0:0,0:0:0:0:
340,204,193565,1,0,1:0:0:0:
388,197,193637,1,4,3:0:0:0:
432,213,193708,1,4,3:0:0:0:
465,247,193779,1,4,3:0:0:0:
475,294,193851,2,0,L|464:348,1,48.1250014686585,0|4,1:0|3:0,0:0:0:0:
434,92,193994,2,0,L|424:44,1,48.1250014686585,4|4,3:0|3:0,0:0:0:0:
345,310,194137,2,0,L|335:357,1,48.1250014686585,0|4,1:0|3:0,0:0:0:0:
293,73,194280,6,0,B|269:15|219:22|219:22|191:65|118:69,1,192.500005874634,4|0,0:0|0:0,0:0:0:0:
19,259,194708,1,4,0:3:0:0:
48,221,194779,1,4,0:3:0:0:
89,195,194851,1,4,0:3:0:0:
136,197,194922,1,4,0:3:0:0:
179,219,194994,1,0,1:0:0:0:
221,270,195065,1,4,0:3:0:0:
286,286,195137,1,4,0:3:0:0:
347,260,195208,1,4,0:3:0:0:
384,204,195279,1,0,1:0:0:0:
385,136,195351,1,4,0:3:0:0:
343,83,195422,6,0,B|277:57|214:94|214:94|235:109|281:103,1,192.500005874634,4|4,0:0|3:0,0:0:0:0:
512,9,195851,2,0,B|489:62|489:62|523:122|500:198,1,192.500005874634,0|0,1:0|0:0,0:0:0:0:
369,368,196279,1,4,0:3:0:0:
264,192,196422,2,0,L|168:177,1,96.250002937317,0|4,1:0|0:3,0:0:0:0:
29,374,196708,6,0,L|124:359,1,96.250002937317,2|4,0:0|3:0,0:0:0:0:
347,260,196994,1,0,1:0:0:0:
60,207,197137,1,4,0:3:0:0:
265,384,197279,2,0,P|254:337|261:290,1,96.250002937317,2|4,0:0|0:3,0:0:0:0:
398,74,197565,1,0,1:0:0:0:
120,24,197708,6,0,B|171:14|201:61|201:61|170:102|183:162,1,192.500005874634,4|4,0:0|0:3,0:0:0:0:
403,344,198137,2,0,P|441:290|376:167,1,192.500005874634,0|0,1:0|0:0,0:0:0:0:
177,285,198565,1,4,0:3:0:0:
282,54,198708,1,0,1:1:0:0:
347,260,198851,1,4,0:3:0:0:
158,137,198994,6,0,P|99:126|39:140,1,96.250002937317,2|4,0:0|0:3,0:0:0:0:
273,366,199279,2,0,B|289:262|225:291|260:162,1,192.500005874634,0|2,1:0|0:0,0:0:0:0:
418,29,199708,1,4,0:3:0:0:
455,239,199851,1,0,1:0:0:0:
274,89,199994,6,0,B|208:76|158:136|158:136|123:149|70:126,1,192.500005874634,4|4,0:0|0:3,0:0:0:0:
0,321,200422,2,0,L|103:310,1,96.250002937317,0|4,1:0|0:3,0:0:0:0:
304,364,200708,1,0,0:0:0:0:
121,223,200851,1,4,0:3:0:0:
349,145,200994,6,0,B|367:194|367:194|352:266,1,96.250002937317,0|4,1:0|0:3,0:0:0:0:
70,57,201279,2,0,B|104:46|104:46|138:61|138:61|193:40|193:40|217:56|259:59,1,192.500005874634,2|0,0:0|1:0,0:0:0:0:
153,323,201708,1,4,3:0:0:0:
129,292,201779,1,4,3:0:0:0:
130,253,201851,1,4,3:0:0:0:
150,220,201922,1,4,3:0:0:0:
186,207,201994,2,0,B|218:235|218:235|227:329,1,96.250002937317,0|0,1:0|1:0,0:0:0:0:
338,128,202279,1,4,0:0:0:0:
497,335,202422,6,0,L|401:322,1,96.250002937317,2|8,0:0|3:0,0:0:0:0:
327,365,202637,1,8,3:0:0:0:
327,365,202708,2,0,L|255:356,1,48.1250014686585,0|4,1:0|3:0,0:0:0:0:
429,185,202851,1,4,3:0:0:0:
440,148,202922,1,4,3:0:0:0:
432,109,202994,1,0,1:0:0:0:
387,127,203065,1,4,3:0:0:0:
338,128,203137,1,4,3:0:0:0:
294,107,203208,1,4,3:0:0:0:
271,64,203279,2,0,L|276:-2,1,48.1250014686585,0|4,1:0|3:0,0:0:0:0:
118,9,203422,6,0,L|128:72,1,48.1250014686585,0|0,1:0|3:0,0:0:0:0:
87,171,203565,1,4,3:0:0:0:
123,177,203637,1,4,3:0:0:0:
156,171,203708,1,4,3:0:0:0:
187,160,203779,1,4,3:0:0:0:
208,138,203851,2,0,P|155:131|97:161,1,96.250002937317,0|4,1:0|0:3,0:0:0:0:
76,299,204065,5,4,0:3:0:0:
81,326,204137,1,0,1:0:0:0:
241,350,204279,1,4,0:3:0:0:
387,374,204422,6,0,L|392:317,1,48.1250014686585,4|0,1:2|0:0,0:0:0:0:
446,100,204565,2,0,L|439:147,1,48.1250014686585,4|0,1:2|0:0,0:0:0:0:
236,254,204708,6,0,P|193:261|150:251,1,87.5,4|4,0:0|0:3,0:0:0:0:
78,119,204994,1,0,1:0:0:0:
298,14,205137,2,0,B|310:63|310:63|294:88|294:88|313:132|298:182,1,175,4|4,3:0|3:0,0:0:0:0:
71,19,205565,1,2,1:2:0:0:
126,3,205637,1,0,1:0:0:0:
181,16,205708,1,4,0:3:0:0:
29,285,205851,6,0,L|19:179,1,87.5,4|4,3:0|0:3,0:0:0:0:
207,136,206137,1,0,1:0:0:0:
131,325,206279,2,0,B|189:311|224:334|224:334|258:387|325:374,1,175,4|4,3:0|3:0,0:0:0:0:
455,240,206708,1,2,1:2:0:0:
400,227,206779,1,0,1:0:0:0:
345,243,206851,1,4,0:3:0:0:
181,22,206994,5,4,0:3:0:0:
261,261,207137,1,4,0:3:0:0:
338,26,207279,1,0,1:0:0:0:
148,215,207422,2,0,P|63:206|19:134,1,175,4|4,3:0|3:0,0:0:0:0:
258,62,207851,1,2,1:2:0:0:
274,117,207923,1,0,1:0:0:0:
261,172,207994,1,4,0:3:0:0:
471,295,208137,5,4,0:3:0:0:
455,240,208209,1,4,0:3:0:0:
468,185,208280,1,4,0:3:0:0:
292,340,208422,5,0,1:0:0:0:
306,284,208494,1,0,1:0:0:0:
345,243,208565,1,4,0:3:0:0:
140,309,208708,5,4,0:3:0:0:
164,281,208780,1,4,0:3:0:0:
200,271,208851,1,4,0:3:0:0:
42,197,208993,5,0,1:0:0:0:
77,187,209065,1,0,1:0:0:0:
112,195,209136,1,4,0:3:0:0:
181,21,209279,6,0,L|176:108,1,87.5,4|4,0:3|0:3,0:0:0:0:
164,281,209565,1,0,1:0:0:0:
324,155,209708,2,0,B|420:140|399:216|508:206,1,175,4|4,3:0|3:0,0:0:0:0:
295,364,210137,1,2,1:2:0:0:
287,307,210208,1,0,1:0:0:0:
280,250,210279,1,4,0:3:0:0:
299,5,210422,5,4,3:0:0:0:
162,173,210565,1,4,0:3:0:0:
343,171,210708,1,0,1:0:0:0:
117,40,210851,2,0,B|91:23|48:30|48:30|21:90|69:156,1,175,4|4,3:0|3:0,0:0:0:0:
328,0,211279,1,2,1:2:0:0:
320,57,211350,1,0,1:0:0:0:
313,114,211421,1,4,0:3:0:0:
78,352,211565,5,4,3:0:0:0:
78,352,211637,1,0,1:0:0:0:
78,352,211708,2,0,L|68:283,1,43.75,0|0,1:0|1:0,0:0:0:0:
339,206,211851,1,0,1:0:0:0:
339,206,211923,1,0,1:0:0:0:
339,206,211994,2,0,L|329:275,1,43.75,0|0,1:0|1:0,0:0:0:0:
129,60,212137,1,0,1:0:0:0:
69,48,212208,1,0,1:0:0:0:
17,76,212279,1,0,1:0:0:0:
3,134,212351,1,0,1:0:0:0:
23,189,212422,1,0,1:0:0:0:
77,215,212494,1,0,1:0:0:0:
135,207,212565,2,0,P|152:187|166:156,1,43.75,4|4,3:0|3:0,0:0:0:0:
304,27,212708,5,4,0:3:0:0:
374,4,212779,1,4,0:3:0:0:
447,13,212851,1,4,0:3:0:0:
497,66,212922,1,4,3:0:0:0:
512,138,212994,1,0,1:0:0:0:
486,208,213065,1,4,3:0:0:0:
430,257,213137,1,4,0:3:0:0:
356,270,213208,1,4,3:0:0:0:
290,233,213279,2,0,L|282:182,1,43.75,4|4,1:3|1:3,0:0:0:0:
118,0,213422,2,0,L|112:43,1,43.75,4|4,0:3|3:0,0:0:0:0:
164,350,213565,2,0,L|169:306,1,43.75,4|0,1:2|0:0,0:0:0:0:
304,27,213708,5,4,0:2:0:0:
304,27,214137,1,4,3:2:0:0:
304,27,215279,5,4,3:0:0:0:
317,64,215351,1,4,3:0:0:0:
319,103,215422,1,4,3:0:0:0:
311,142,215494,1,4,3:0:0:0:
295,178,215565,5,4,3:0:0:0:
164,155,215708,1,0,1:0:0:0:
34,128,215851,1,0,1:0:0:0:
164,350,215994,6,0,B|225:363|276:318|276:318|327:352|327:352|378:317|458:340,1,306.249990653992,4|0,0:0|0:0,0:0:0:0:
