osu file format v14

[General]
AudioFilename: audio.mp3
AudioLeadIn: 0
PreviewTime: 57137
Countdown: 0
SampleSet: None
StackLeniency: 0.5
Mode: 0
LetterboxInBreaks: 0
WidescreenStoryboard: 1

[Editor]
DistanceSpacing: 0.9
BeatDivisor: 6
GridSize: 8
TimelineZoom: 4.599998

[Metadata]
Title:Adore Your Pain
TitleUnicode:Adore Your Pain
Artist:UNDEAD CORPORATION
ArtistUnicode:UNDEAD CORPORATION
Creator:Zelq
Version:Cheri's Extra
Source:東方地霊殿 ~ Subterranean Animism.
Tags:osu! TOHO Complete Box - RED metal rock english fa featured artist mappers' guild mpg cheri hailie dj lucky trynna satori komeiji touhou 東方Project video game
BeatmapID:2397591
BeatmapSetID:1019398

[Difficulty]
HPDrainRate:5
CircleSize:3.8
OverallDifficulty:8.7
ApproachRate:9
SliderMultiplier:1.75
SliderTickRate:1

[Events]
//Background and Video events
0,0,"mpgbg.jpg",0,0
//Break Periods
2,75622,84108
2,143336,151537
2,175336,176108
2,177907,180965
//Storyboard Layer 0 (Background)
//Storyboard Layer 1 (Fail)
//Storyboard Layer 2 (Pass)
//Storyboard Layer 3 (Foreground)
//Storyboard Layer 4 (Overlay)
//Storyboard Sound Samples

[TimingPoints]
137,285.714285714286,4,2,0,65,1,0
137,-90.9090909090909,4,2,0,65,0,0
1137,-125,4,2,0,50,0,0
6994,-111.111111111111,4,2,0,60,0,0
7851,-111.111111111111,4,2,0,50,0,0
8279,-111.111111111111,4,2,0,60,0,0
8564,-111.111111111111,4,2,0,50,0,0
8708,-142.857142857143,4,2,0,50,0,0
9279,-111.111111111111,4,2,0,70,0,0
10422,-99.9999999999999,4,2,0,70,0,0
10993,-99.9999999999999,4,2,0,60,0,0
11137,-99.9999999999999,4,2,0,70,0,0
12137,-99.9999999999999,4,2,0,60,0,0
12279,-99.9999999999999,4,2,0,70,0,0
13279,-99.9999999999999,4,2,0,60,0,0
13422,-99.9999999999999,4,2,0,70,0,0
15564,-99.9999999999999,4,2,0,60,0,0
15708,-99.9999999999999,4,2,0,70,0,0
16708,-99.9999999999999,4,2,0,60,0,0
16993,-99.9999999999999,4,2,0,70,0,0
17851,-99.9999999999999,4,2,0,60,0,0
17993,-99.9999999999999,4,2,0,70,0,0
18422,-99.9999999999999,4,2,0,80,0,0
19565,-99.9999999999999,4,2,0,60,0,0
28708,-111.111111111111,4,2,0,50,0,0
29565,-125,4,2,0,50,0,0
30994,-111.111111111111,4,2,0,50,0,0
31851,-125,4,2,0,50,0,0
33279,-111.111111111111,4,2,0,50,0,0
34137,-125,4,2,0,50,0,0
34994,-111.111111111111,4,2,0,50,0,0
36422,-125,4,2,0,50,0,0
37851,-111.111111111111,4,2,0,50,0,0
38708,-125,4,2,0,50,0,0
40137,-111.111111111111,4,2,0,50,0,0
40994,-125,4,2,0,50,0,0
42422,-111.111111111111,4,2,0,50,0,0
43279,-125,4,2,0,50,0,0
44137,-111.111111111111,4,2,0,50,0,0
44708,-100,4,2,0,65,0,0
45565,-125,4,2,0,60,0,0
45851,-100,4,2,0,70,0,0
46636,-100,4,2,0,50,0,0
46994,-100,4,2,0,65,0,0
48279,-100,4,2,0,65,0,0
48422,-100,4,2,0,65,0,0
49851,-100,4,2,0,60,0,0
49993,-100,4,2,0,65,0,0
52136,-100,4,2,0,60,0,0
52279,-100,4,2,0,65,0,0
52850,-100,4,2,0,65,0,0
52994,-100,4,2,0,65,0,0
53851,-76.9230769230769,4,2,0,70,0,0
54065,-76.9230769230769,4,2,0,60,0,0
54279,-76.9230769230769,4,2,0,70,0,0
54636,-76.9230769230769,4,2,0,60,0,0
54707,-76.9230769230769,4,2,0,70,0,0
54994,-100,4,2,0,80,0,0
57137,-90.9090909090909,4,2,0,80,0,1
75422,-100,4,2,0,50,0,0
84708,-111.111111111111,4,2,0,40,0,0
91565,-99.9999999999999,4,2,0,70,0,0
93851,-111.111111111111,4,2,0,50,0,0
94708,-125,4,2,0,50,0,0
96137,-111.111111111111,4,2,0,50,0,0
96994,-125,4,2,0,50,0,0
98422,-111.111111111111,4,2,0,50,0,0
99279,-125,4,2,0,50,0,0
100708,-100,4,2,0,65,0,0
109851,-76.9230769230769,4,2,0,70,0,0
110994,-100,4,2,0,70,0,0
113137,-90.9090909090909,4,2,0,80,0,1
131422,-100,4,2,0,60,0,0
133279,-90.9090909090909,4,2,0,60,0,0
133851,-111.111111111111,4,2,0,50,0,0
142994,-99.9999999999999,4,2,0,60,0,0
160137,-76.9230769230769,4,2,0,70,0,0
161137,-90.9090909090909,4,2,0,80,0,0
177137,-125,4,2,0,50,0,0
182994,-111.111111111111,4,2,0,70,0,0
186708,-90.9090909090908,4,2,0,90,0,1
204708,-100,4,2,0,80,0,0
215994,-142.857142857143,4,2,0,60,0,0

[Colours]
Combo1 : 149,149,255
Combo2 : 255,128,128
Combo3 : 217,152,252
Combo4 : 251,216,111

[HitObjects]
477,96,137,6,0,L|475:38,3,48.1250014686585,4|4|4|4,1:3|0:3|0:3|0:3,0:0:0:0:
376,60,422,2,0,L|378:126,3,48.1250014686585,0|4|4|4,1:0|0:3|0:3|0:3,0:0:0:0:
290,201,708,5,0,1:0:0:0:
290,201,779,1,4,0:3:0:0:
290,201,851,1,4,0:3:0:0:
290,201,922,1,4,0:3:0:0:
290,201,994,1,0,1:0:0:0:
322,183,1137,6,0,L|324:346,1,140,6|0,0:0|0:0,0:0:0:0:
430,180,1565,2,0,L|432:278,1,70,4|0,0:0|0:0,0:0:0:0:
387,60,5565,1,4,0:3:0:0:
387,60,5637,1,4,0:3:0:0:
387,60,5708,2,0,L|298:49,1,70,0|0,1:0|0:0,0:0:0:0:
371,288,6137,2,0,L|524:318,1,140,0|0,1:0|0:0,0:0:0:0:
61,298,6994,6,0,L|61:345,2,39.3749987983704,0|4|4,1:0|0:3|0:3,0:0:0:0:
168,165,7279,2,0,L|168:108,2,39.3749987983704,8|8|8,1:3|0:3|0:3,0:0:0:0:
430,115,7565,6,0,L|391:38,1,78.7499975967408,4|4,0:0|0:0,0:0:0:0:
477,215,7851,1,0,0:0:0:0:
477,215,8137,6,0,P|416:210|367:221,1,78.7499975967408
291,329,8422,2,0,P|325:332|399:330,1,78.7499975967408,4|0,0:3|0:0,0:0:0:0:
128,320,8708,2,0,P|121:252|107:178,1,122.499996261597,0|0,1:0|0:0,0:0:0:0:
458,62,9279,6,0,L|439:7,3,39.3749987983704,0|4|4|4,1:0|0:3|0:3|0:3,0:0:0:0:
418,191,9565,2,0,L|437:241,3,39.3749987983704,4|4|4|4,0:3|0:3|0:3|0:3,0:0:0:0:
391,297,9851,5,4,0:3:0:0:
391,297,9922,1,4,0:3:0:0:
391,297,9994,1,4,0:3:0:0:
391,297,10065,1,4,0:3:0:0:
391,297,10137,1,0,1:0:0:0:
64,323,10422,6,0,L|64:209,1,87.5,4|0,0:0|0:0,0:0:0:0:
163,69,10708,2,0,L|163:261,1,175,4|0,1:3|0:0,0:0:0:0:
315,74,11137,1,4,3:0:0:0:
367,260,11279,1,2,1:2:0:0:
367,260,11351,1,0,1:0:0:0:
367,260,11422,1,4,0:3:0:0:
163,244,11565,6,0,P|105:244|63:213,1,87.5,4|4,3:0|0:3,0:0:0:0:
171,42,11851,2,0,L|275:43,1,87.5,0|0,1:0|3:0,0:0:0:0:
434,159,12137,2,0,L|325:158,1,87.5,0|4,0:0|3:0,0:0:0:0:
420,22,12422,1,2,1:2:0:0:
420,22,12494,1,0,1:0:0:0:
420,22,12565,1,4,3:0:0:0:
464,248,12708,6,0,L|463:341,1,87.5,4|4,0:3|0:3,0:0:0:0:
190,230,12994,2,0,P|249:254|345:182,1,175,0|0,1:0|0:0,0:0:0:0:
129,92,13422,1,4,3:0:0:0:
139,322,13565,1,2,1:2:0:0:
139,322,13637,1,0,1:0:0:0:
141,326,13708,1,4,0:3:0:0:
376,146,13851,6,0,L|379:92,2,43.75,4|4|4,0:3|0:3|0:3,0:0:0:0:
438,261,14137,2,0,L|444:328,2,43.75,0|0|4,1:0|1:0|0:3,0:0:0:0:
270,190,14422,1,4,0:3:0:0:
259,190,14494,1,4,0:3:0:0:
245,191,14565,1,4,0:3:0:0:
82,304,14708,1,0,1:0:0:0:
95,304,14779,1,0,1:0:0:0:
110,304,14851,1,4,0:3:0:0:
190,373,14994,6,0,P|225:307|224:266,1,87.5,4|4,0:3|0:3,0:0:0:0:
378,189,15279,2,0,L|166:191,1,175,0|0,1:0|0:0,0:0:0:0:
329,55,15708,1,4,3:0:0:0:
450,269,15851,1,2,1:2:0:0:
450,269,15922,1,0,1:0:0:0:
450,269,15994,1,4,0:3:0:0:
215,282,16137,6,0,P|164:270|126:242,1,87.5,4|4,3:0|0:3,0:0:0:0:
210,32,16422,2,0,P|241:65|258:107,1,87.5,0|4,1:0|3:0,0:0:0:0:
496,185,16708,2,0,P|432:185|302:187,1,175,0|2,0:0|1:2,0:0:0:0:
321,186,17065,1,0,1:0:0:0:
321,186,17137,1,4,0:3:0:0:
418,304,17279,5,4,3:0:0:0:
375,99,17422,1,4,0:3:0:0:
176,218,17565,2,0,L|197:98,1,87.5,0|4,1:0|3:0,0:0:0:0:
69,251,17851,2,0,L|46:347,1,87.5,0|4,0:0|3:0,0:0:0:0:
278,219,18137,1,2,1:2:0:0:
278,219,18208,1,0,1:0:0:0:
278,219,18279,1,4,0:3:0:0:
437,269,18422,5,4,0:3:0:0:
438,285,18494,1,4,0:3:0:0:
439,302,18565,1,4,0:3:0:0:
278,219,18708,1,0,1:0:0:0:
278,204,18779,1,0,1:0:0:0:
279,187,18851,1,4,0:3:0:0:
133,295,18994,1,4,0:3:0:0:
133,316,19065,1,4,0:3:0:0:
133,337,19137,1,4,0:3:0:0:
43,218,19279,1,0,1:0:0:0:
43,208,19351,1,0,1:0:0:0:
44,195,19422,1,4,0:3:0:0:
262,49,19565,6,0,L|388:49,2,87.5,4|0|0,0:0|0:0|3:0,0:0:0:0:
127,95,19994,1,0,3:0:0:0:
61,184,20137,2,0,P|107:184|186:180,1,87.5,0|0,1:0|3:0,0:0:0:0:
271,343,20422,2,0,P|323:342|391:343,2,87.5,0|0|4,3:0|3:0|3:0,0:0:0:0:
489,216,20851,1,0,3:0:0:0:
489,216,20994,2,0,P|422:215|372:215,1,87.5,0|0,3:0|3:0,0:0:0:0:
113,224,21279,6,0,L|114:163,1,43.75,0|0,1:0|0:0,0:0:0:0:
205,228,21422,2,0,L|209:161,1,43.75,2|0,0:0|0:0,0:0:0:0:
4,179,21565,1,4,3:0:0:0:
130,340,21708,6,0,B|202:342|202:342|235:305|235:305|298:307,1,175,4|0,3:0|0:0,0:0:0:0:
484,250,22137,2,0,L|484:326,2,43.75,8|8|8,3:0|3:0|3:0,0:0:0:0:
355,77,22422,2,0,L|356:21,2,43.75,8|8|8,1:3|3:0|3:0,0:0:0:0:
267,170,22708,2,0,L|265:229,2,43.75,8|8|8,3:0|3:0|3:0,0:0:0:0:
41,76,22994,6,0,L|134:78,1,87.5,8|8,3:0|3:0,0:0:0:0:
130,229,23279,2,0,L|28:228,1,87.5,8|8,3:0|3:0,0:0:0:0:
331,355,23565,6,0,L|514:366,1,175,4|4,0:0|0:0,0:0:0:0:
483,344,24137,6,0,P|484:287|484:243,1,87.5,4|0,0:0|0:0,0:0:0:0:
400,142,24422,2,0,L|399:255,1,87.5,0|0,3:0|3:0,0:0:0:0:
290,96,24708,2,0,L|164:92,1,87.5,0|0,1:0|3:0,0:0:0:0:
119,189,24994,2,0,L|10:187,1,87.5,0|0,3:0|3:0,0:0:0:0:
148,315,25279,6,0,L|271:317,1,87.5,4|0,3:0|3:0,0:0:0:0:
311,230,25565,2,0,L|432:228,1,87.5,0|0,3:0|3:0,0:0:0:0:
512,96,25851,5,0,1:0:0:0:
368,133,25994,1,2,0:0:0:0:
466,270,26137,1,4,3:0:0:0:
347,40,26279,6,0,P|300:18|161:37,1,175,4|0,3:0|0:0,0:0:0:0:
34,204,26708,6,0,L|31:281,2,43.75,8|8|8,3:0|3:0|3:0,0:0:0:0:
145,95,26994,2,0,L|148:37,2,43.75,8|8|8,1:3|3:0|3:0,0:0:0:0:
264,226,27279,2,0,L|264:277,2,43.75,8|8|8,3:0|3:0|3:0,0:0:0:0:
465,130,27565,2,0,L|464:38,1,87.5,8|8,3:0|3:0,0:0:0:0:
492,264,27851,6,0,L|491:338,3,43.75,8|8|8|8,3:0|3:0|3:0|3:0,0:0:0:0:
414,337,28137,1,4,3:0:0:0:
368,335,28208,1,4,3:0:0:0:
334,336,28279,1,4,3:0:0:0:
290,335,28351,1,4,3:0:0:0:
253,308,28422,5,0,1:0:0:0:
40,335,28708,5,4,3:0:0:0:
40,335,28779,1,4,3:0:0:0:
40,335,28851,1,4,3:0:0:0:
179,154,28994,2,0,L|271:155,1,78.7499975967408,8|8,0:3|0:3,0:0:0:0:
257,277,29279,2,0,L|158:278,1,78.7499975967408,8|8,0:3|0:3,0:0:0:0:
387,349,29565,2,0,P|379:232|502:118,1,280,4|0,0:0|0:0,0:0:0:0:
491,153,30422,2,0,P|374:156|280:155,1,210,4|0,0:0|0:0,0:0:0:0:
38,56,30994,5,4,3:0:0:0:
38,56,31065,1,4,3:0:0:0:
38,56,31137,1,4,3:0:0:0:
68,167,31279,2,0,L|64:251,1,78.7499975967408,8|8,0:3|0:3,0:0:0:0:
165,189,31565,2,0,L|169:86,1,78.7499975967408,8|8,0:3|0:3,0:0:0:0:
387,56,31851,6,0,P|329:168|361:257,1,210,4|0,0:0|0:0,0:0:0:0:
489,353,32422,2,0,P|374:370|298:312,1,210,4|0,1:2|0:0,0:0:0:0:
170,135,32994,2,0,P|206:133|257:141,1,70,0|0,1:0|0:0,0:0:0:0:
34,56,33279,5,4,3:0:0:0:
34,56,33351,1,4,3:0:0:0:
34,56,33422,1,4,3:0:0:0:
177,179,33565,2,0,L|281:178,1,78.7499975967408,8|8,0:3|0:3,0:0:0:0:
249,69,33851,2,0,L|158:67,1,78.7499975967408,8|8,0:3|0:3,0:0:0:0:
439,33,34137,2,0,P|448:111|485:316,1,280,4|0,0:0|0:0,0:0:0:0:
125,369,34994,5,4,3:0:0:0:
125,369,35065,1,4,3:0:0:0:
125,369,35137,1,4,3:0:0:0:
244,344,35279,1,4,3:0:0:0:
354,319,35422,1,4,3:0:0:0:
359,93,35565,5,4,0:0:0:0:
367,101,35637,1,4,3:0:0:0:
367,101,35708,1,4,3:0:0:0:
462,200,35851,1,4,0:3:0:0:
387,313,35994,1,4,0:3:0:0:
290,226,36137,1,4,0:3:0:0:
367,101,36279,1,4,0:3:0:0:
142,126,36422,2,0,P|157:230|221:254,1,175,4|0,0:3|0:0,0:0:0:0:
312,260,36851,5,4,0:3:0:0:
312,260,36922,1,4,0:3:0:0:
312,260,36994,2,0,L|308:142,1,105,4|0,0:2|0:0,0:0:0:0:
454,108,37279,5,4,0:3:0:0:
454,108,37351,1,4,0:3:0:0:
454,108,37422,2,0,L|469:13,1,70,4|0,0:0|0:0,0:0:0:0:
214,56,37851,5,4,0:3:0:0:
214,56,37922,1,4,0:3:0:0:
214,56,37994,1,4,0:3:0:0:
172,235,38137,1,4,0:3:0:0:
211,56,38279,1,4,0:3:0:0:
280,172,38422,1,4,0:3:0:0:
98,130,38565,1,4,0:3:0:0:
182,343,38708,6,0,L|334:331,3,140,2|0|0|0,3:2|0:0|3:0|3:0,0:0:0:0:
107,124,39851,2,0,L|29:128,1,70,0|0,1:0|0:0,0:0:0:0:
236,43,40137,5,4,0:3:0:0:
236,43,40208,1,4,0:3:0:0:
236,43,40279,1,4,0:3:0:0:
157,256,40422,1,4,0:3:0:0:
236,43,40565,1,4,0:3:0:0:
339,181,40708,1,4,0:3:0:0:
107,124,40851,1,4,0:3:0:0:
258,305,40994,6,0,L|431:298,1,140,2|0,3:2|0:0,0:0:0:0:
381,64,41565,2,0,L|220:68,1,140,0|0,3:0|3:0,0:0:0:0:
101,286,42137,2,0,L|99:363,1,70,0|0,1:0|0:0,0:0:0:0:
43,147,42422,5,4,0:3:0:0:
43,147,42494,1,4,0:3:0:0:
43,147,42565,1,4,0:3:0:0:
224,171,42708,1,4,0:3:0:0:
126,66,42851,1,4,0:3:0:0:
206,280,42994,1,4,0:3:0:0:
339,105,43137,1,4,0:3:0:0:
440,132,43279,6,0,P|392:188|246:80,1,280,2|0,3:2|3:0,0:0:0:0:
349,113,44137,5,4,3:0:0:0:
349,113,44208,1,4,3:0:0:0:
349,113,44279,1,4,3:0:0:0:
442,275,44422,1,0,1:0:0:0:
349,113,44565,1,4,3:0:0:0:
166,274,44708,5,4,0:0:0:0:
166,274,44779,1,4,3:0:0:0:
166,274,44851,1,4,3:0:0:0:
360,211,44994,1,4,3:0:0:0:
140,172,45137,1,0,3:0:0:0:
255,310,45279,1,4,0:3:0:0:
264,88,45422,1,4,0:3:0:0:
491,258,45565,6,0,L|497:376,1,105,4|0,0:0|0:0,0:0:0:0:
407,163,45851,6,0,L|339:166,3,43.75,8|8|8|8,0:3|0:3|0:3|0:3,0:0:0:0:
218,168,46137,5,8,0:3:0:0:
194,206,46208,1,8,0:3:0:0:
202,246,46279,1,8,0:3:0:0:
241,271,46351,1,8,0:3:0:0:
307,229,46422,6,0,L|307:155,1,43.75,4|0,0:0|0:0,0:0:0:0:
392,87,46565,2,0,L|407:45,1,43.75,4|0,0:3|0:0,0:0:0:0:
451,53,46994,6,0,P|450:145|466:248,1,175,4|0,0:0|1:0,0:0:0:0:
217,328,47422,2,0,P|135:316|16:303,1,175,4|4,0:3|0:3,0:0:0:0:
178,192,47851,1,0,1:0:0:0:
178,192,47922,1,4,3:0:0:0:
178,192,47994,1,0,3:0:0:0:
299,353,48137,6,0,L|388:354,1,87.5,4|4,0:3|0:3,0:0:0:0:
482,230,48422,1,4,0:3:0:0:
482,230,48565,2,0,L|290:231,1,175,4|4,0:3|0:3,0:0:0:0:
329,69,48994,1,0,1:0:0:0:
329,69,49065,1,4,3:0:0:0:
329,69,49137,1,0,3:0:0:0:
104,62,49279,6,0,L|78:259,1,175,4|0,0:3|1:0,0:0:0:0:
255,146,49708,1,4,0:3:0:0:
255,146,49851,2,0,L|241:37,1,87.5,0|4,0:0|0:3,0:0:0:0:
413,188,50137,1,0,1:0:0:0:
413,188,50208,1,4,3:0:0:0:
413,188,50279,1,0,3:0:0:0:
270,360,50422,6,0,L|194:364,2,43.75,4|4|4,0:3|0:3|0:3,0:0:0:0:
230,175,50708,2,0,L|288:171,2,43.75,0|0|4,1:0|1:0|0:3,0:0:0:0:
408,271,50994,1,4,0:3:0:0:
408,284,51065,1,4,0:3:0:0:
407,299,51137,1,4,0:3:0:0:
468,119,51279,1,0,1:0:0:0:
468,106,51350,1,4,0:3:0:0:
467,91,51422,1,4,0:3:0:0:
250,91,51565,6,0,P|230:157|235:211,1,87.5,4|4,0:0|0:3,0:0:0:0:
362,295,51851,2,0,P|267:298|179:298,1,175,0|0,1:0|0:0,0:0:0:0:
287,118,52279,1,4,0:3:0:0:
479,195,52422,1,0,1:0:0:0:
479,195,52494,1,0,3:0:0:0:
479,195,52565,1,0,3:0:0:0:
345,31,52708,6,0,L|241:32,1,87.5,4|4,0:3|0:3,0:0:0:0:
170,269,52994,1,0,1:0:0:0:
100,127,53137,2,0,L|284:126,1,175,4|4,0:3|0:3,0:0:0:0:
302,327,53565,1,4,3:0:0:0:
302,327,53637,1,4,3:0:0:0:
302,327,53708,1,4,3:0:0:0:
479,181,53851,6,0,L|505:95,1,56.8749973964692,4|0,1:2|0:0,0:0:0:0:
413,107,53994,2,0,L|395:173,1,56.8749973964692,0|0,1:0|0:0,0:0:0:0:
97,90,54279,1,0,1:0:0:0:
97,90,54565,2,0,L|163:84,3,56.8749973964692,4|0|4|4,0:3|0:0|0:3|0:3,0:0:0:0:
236,341,54994,6,0,L|221:140,1,175,4|0,1:2|1:0,0:0:0:0:
441,38,55422,1,4,3:0:0:0:
483,274,55565,6,0,L|475:222,3,43.75,0|4|4|4,1:0|3:0|3:0|3:0,0:0:0:0:
382,191,55851,1,4,3:0:0:0:
382,191,55922,1,4,3:0:0:0:
382,191,55994,1,4,3:0:0:0:
382,191,56065,1,4,3:0:0:0:
382,191,56137,5,4,1:2:0:0:
365,242,56279,1,0,0:0:0:0:
375,304,56422,1,0,0:0:0:0:
290,214,56565,5,0,0:0:0:0:
264,206,56708,1,0,3:0:0:0:
245,220,56851,1,0,0:0:0:0:
39,311,56994,5,0,1:0:0:0:
88,26,57137,2,0,L|91:168,1,96.250002937317,4|0,0:0|0:0,0:0:0:0:
226,315,57422,5,4,3:0:0:0:
344,91,57565,2,0,L|347:206,1,96.250002937317,0|4,1:0|0:3,0:0:0:0:
500,319,57851,1,0,0:0:0:0:
481,176,57994,1,4,0:3:0:0:
500,319,58137,2,0,P|428:294|389:309,1,96.250002937317,0|4,1:0|0:3,0:0:0:0:
62,206,58422,2,0,P|54:88|49:8,1,192.500005874634,2|0,0:0|1:0,0:0:0:0:
166,105,58851,2,0,L|173:209,1,96.250002937317,4|2,0:3|0:0,0:0:0:0:
291,63,59137,1,4,0:3:0:0:
49,13,59279,1,0,1:0:0:0:
172,201,59422,6,0,B|242:195|242:195|277:142|277:142|342:136,1,192.500005874634,4|4,0:0|0:3,0:0:0:0:
489,349,59851,2,0,L|471:137,1,192.500005874634,0|0,1:0|0:0,0:0:0:0:
248,52,60279,1,4,0:3:0:0:
306,273,60422,5,0,1:1:0:0:
328,48,60565,1,4,0:3:0:0:
79,146,60708,6,0,P|70:197|167:298,1,192.500005874634,2|0,0:0|1:0,0:0:0:0:
285,138,61137,1,4,0:3:0:0:
37,152,61279,1,2,0:0:0:0:
181,338,61422,2,0,L|180:201,1,96.250002937317,4|0,0:3|1:0,0:0:0:0:
333,114,61708,1,4,0:0:0:0:
333,114,61851,2,0,L|434:115,1,96.250002937317,0|4,0:0|0:3,0:0:0:0:
496,254,62137,2,0,L|275:253,1,192.500005874634,0|0,1:0|0:0,0:0:0:0:
92,273,62565,1,4,0:3:0:0:
58,88,62708,2,0,B|55:41|55:41|79:-9,1,96.250002937317,0|4,1:0|0:3,0:0:0:0:
200,171,62994,6,0,B|210:214|210:214|201:274,1,96.250002937317,2|4,0:0|0:3,0:0:0:0:
302,66,63279,1,0,1:0:0:0:
98,339,63422,2,0,L|316:339,1,192.500005874634,2|4,0:0|0:3,0:0:0:0:
461,229,63851,2,0,L|330:228,1,96.250002937317,0|4,1:0|0:0,0:0:0:0:
119,50,64137,6,0,L|2:48,1,96.250002937317,2|0,0:2|0:0,0:0:0:0:
88,246,64422,1,0,1:0:0:0:
188,13,64565,1,0,1:0:0:0:
260,152,64708,1,0,1:0:0:0:
22,48,64851,1,0,1:0:0:0:
216,306,64994,2,0,L|332:262,1,96.250002937317,0|4,1:0|0:0,0:0:0:0:
305,271,65565,6,0,L|331:318,3,48.1250014686585,4|4|4|4,0:3|0:3|0:3|0:3,0:0:0:0:
343,175,65851,1,4,0:3:0:0:
343,175,65922,1,4,0:3:0:0:
343,175,65994,1,4,0:3:0:0:
343,175,66065,1,4,0:3:0:0:
232,228,66137,6,0,L|170:228,1,48.1250014686585,0|0,1:0|0:0,0:0:0:0:
66,262,66279,6,0,P|77:189|115:53,1,192.500005874634,4|4,0:0|3:0,0:0:0:0:
285,0,66708,2,0,P|303:66|316:222,1,192.500005874634,0|0,1:0|0:0,0:0:0:0:
506,122,67137,1,4,0:3:0:0:
458,330,67279,2,0,L|339:330,1,96.250002937317,0|4,1:0|0:3,0:0:0:0:
220,189,67565,2,0,L|333:189,1,96.250002937317,2|4,0:0|3:0,0:0:0:0:
236,294,67851,1,0,1:0:0:0:
329,83,67994,1,4,0:3:0:0:
76,103,68137,2,0,P|71:168|81:218,1,96.250002937317,2|4,0:0|0:3,0:0:0:0:
329,83,68422,1,0,1:0:0:0:
236,294,68565,6,0,L|38:295,1,192.500005874634,4|4,0:0|0:3,0:0:0:0:
292,360,68994,2,0,P|324:304|257:208,1,192.500005874634,0|0,1:0|0:0,0:0:0:0:
410,118,69422,1,4,0:3:0:0:
402,309,69565,1,0,1:1:0:0:
191,189,69708,1,4,0:3:0:0:
410,118,69851,2,0,L|523:112,1,96.250002937317,2|4,0:0|0:3,0:0:0:0:
306,46,70137,2,0,L|187:54,1,96.250002937317,0|4,1:0|0:3,0:0:0:0:
128,233,70422,1,2,0:0:0:0:
45,60,70565,1,4,0:3:0:0:
306,46,70708,1,0,1:0:0:0:
459,343,70851,6,0,P|484:325|453:190,1,192.500005874634,4|4,0:0|0:3,0:0:0:0:
144,145,71279,2,0,L|367:143,1,192.500005874634,0|0,1:0|0:0,0:0:0:0:
195,312,71708,1,4,0:3:0:0:
148,50,71851,2,0,L|32:51,1,96.250002937317,0|4,1:0|0:3,0:0:0:0:
257,211,72137,2,0,L|375:210,1,96.250002937317,2|4,0:0|0:3,0:0:0:0:
469,33,72422,1,0,1:0:0:0:
148,50,72565,2,0,P|129:154|155:236,1,192.500005874634,2|4,0:0|0:3,0:0:0:0:
353,210,72994,1,0,1:0:0:0:
148,50,73137,1,4,0:0:0:0:
57,250,73279,6,0,L|55:355,1,96.250002937317,0|4,0:0|0:3,0:0:0:0:
227,192,73565,1,0,1:0:0:0:
421,268,73708,1,4,1:3:0:0:
421,268,73779,1,4,3:0:0:0:
421,268,73851,2,0,L|424:373,1,96.250002937317,0|4,1:0|3:0,0:0:0:0:
407,374,74066,1,4,3:0:0:0:
407,374,74137,1,0,1:0:0:0:
129,328,74279,1,4,0:3:0:0:
129,328,74351,1,4,3:0:0:0:
129,328,74422,6,0,L|128:279,3,48.1250014686585,4|4|4|4,3:0|3:0|3:0|3:0,0:0:0:0:
205,241,74708,1,4,3:3:0:0:
205,241,74779,1,4,0:3:0:0:
205,241,74851,1,4,0:3:0:0:
205,241,74922,1,4,0:3:0:0:
277,195,74994,6,0,L|277:119,1,48.1250014686585,0|4,1:0|0:3,0:0:0:0:
381,136,75137,2,0,L|381:87,1,48.1250014686585,0|4,1:0|0:3,0:0:0:0:
466,48,75279,2,0,L|466:0,1,48.1250014686585,0|0,1:0|0:0,0:0:0:0:
512,142,75422,5,4,0:0:0:0:
24,350,84708,5,4,3:2:0:0:
24,350,84779,1,4,3:0:0:0:
24,350,84851,1,4,3:0:0:0:
201,235,84994,2,0,L|283:235,1,78.7499975967408,8|8,0:3|0:3,0:0:0:0:
168,131,85279,2,0,L|84:131,1,78.7499975967408,8|8,0:3|0:3,0:0:0:0:
322,154,85565,2,0,P|333:64|349:-19,1,157.499995193482
342,89,86422,2,0,L|364:0,1,78.7499975967408,0|0,1:0|0:0,0:0:0:0:
476,193,86994,5,4,3:0:0:0:
476,193,87065,1,4,3:0:0:0:
476,193,87137,1,4,3:0:0:0:
397,277,87279,2,0,L|295:278,1,78.7499975967408,8|8,0:3|0:3,0:0:0:0:
324,173,87565,2,0,L|426:171,1,78.7499975967408,8|8,0:3|0:3,0:0:0:0:
194,195,87851,2,0,P|204:86|246:32,1,157.499995193482
194,39,88708,2,0,L|154:119,1,78.7499975967408,0|0,1:0|0:0,0:0:0:0:
24,348,89279,5,4,3:0:0:0:
24,348,89351,1,4,3:0:0:0:
24,348,89422,1,4,3:0:0:0:
151,291,89565,2,0,L|244:291,1,78.7499975967408,8|8,0:3|0:3,0:0:0:0:
227,183,89851,2,0,L|138:181,1,78.7499975967408,8|8,0:3|0:3,0:0:0:0:
302,77,90137,2,0,P|340:116|461:166,1,157.499995193482
468,136,90994,5,4,3:0:0:0:
468,136,91065,1,4,3:0:0:0:
468,136,91137,1,4,3:0:0:0:
450,260,91279,1,4,3:0:0:0:
394,75,91422,1,4,3:0:0:0:
297,259,91565,6,0,L|284:359,1,87.5,4|4,0:0|3:0,0:0:0:0:
148,248,91851,1,4,3:0:0:0:
148,248,91994,2,0,L|138:312,2,43.75,4|4|4,3:0|3:0|3:0,0:0:0:0:
37,94,92279,1,0,1:0:0:0:
37,94,92422,2,0,L|24:166,2,43.75,4|4|4,3:0|3:0|3:0,0:0:0:0:
255,35,92708,2,0,L|329:30,3,43.75,4|4|4|4,0:3|0:3|0:3|0:3,0:0:0:0:
389,74,92994,1,4,0:3:0:0:
375,115,93065,1,4,0:3:0:0:
343,133,93137,1,4,0:3:0:0:
311,132,93208,1,4,0:3:0:0:
274,122,93279,5,0,1:0:0:0:
476,120,93422,1,0,1:0:0:0:
390,280,93565,1,0,1:0:0:0:
305,42,93708,1,0,1:0:0:0:
231,204,93851,5,4,0:3:0:0:
238,211,93922,1,4,0:3:0:0:
238,211,93994,1,4,0:3:0:0:
200,66,94137,1,0,1:0:0:0:
120,261,94279,1,4,0:3:0:0:
200,66,94422,1,4,0:3:0:0:
63,116,94565,1,4,0:3:0:0:
317,99,94708,6,0,L|465:62,3,140,0|0|0|0,1:0|0:0|1:0|3:0,0:0:0:0:
132,336,95851,2,0,L|49:326,1,70,0|0,1:0|0:0,0:0:0:0:
118,159,96137,5,6,0:3:0:0:
118,159,96208,1,4,0:3:0:0:
118,159,96279,1,4,0:3:0:0:
238,215,96422,1,0,1:0:0:0:
118,159,96565,1,4,0:3:0:0:
325,99,96708,1,4,0:3:0:0:
238,215,96851,1,4,0:3:0:0:
357,325,96994,6,0,L|507:343,1,140,2|0,3:2|0:0,0:0:0:0:
405,78,97565,2,0,L|250:95,1,140,0|0,1:0|3:0,0:0:0:0:
89,353,98137,2,0,L|100:280,1,70,0|0,1:0|0:0,0:0:0:0:
11,301,98422,5,4,0:3:0:0:
11,301,98494,1,4,0:3:0:0:
11,301,98565,1,4,0:3:0:0:
189,230,98708,1,4,0:3:0:0:
54,168,98851,1,4,0:3:0:0:
178,19,98994,1,4,0:3:0:0:
339,105,99137,1,4,0:3:0:0:
244,101,99279,6,0,P|329:198|440:132,1,280,2|0,1:2|1:0,0:0:0:0:
349,113,100137,5,4,3:0:0:0:
349,113,100208,1,4,3:0:0:0:
349,113,100279,1,4,3:0:0:0:
442,275,100422,1,0,1:0:0:0:
349,113,100565,1,4,3:0:0:0:
166,274,100708,5,4,0:0:0:0:
166,274,100779,1,4,3:0:0:0:
166,274,100851,1,4,3:0:0:0:
166,274,100922,2,0,L|122:163,1,87.5,0|0,1:0|0:0,0:0:0:0:
182,91,101137,1,0,3:0:0:0:
294,170,101279,1,4,3:0:0:0:
294,170,101351,1,0,1:0:0:0:
294,170,101422,1,4,3:0:0:0:
489,259,101565,6,0,L|497:375,1,87.5,4|8,0:0|3:0,0:0:0:0:
495,346,101779,1,8,0:3:0:0:
495,346,101851,1,8,0:3:0:0:
400,174,101994,1,0,1:0:0:0:
266,202,102137,5,8,0:3:0:0:
232,177,102208,1,8,0:3:0:0:
226,147,102279,1,8,0:3:0:0:
243,115,102351,1,8,0:3:0:0:
293,88,102422,6,0,L|359:92,3,43.75,4|0|4|0,0:3|0:0|0:3|0:0,0:0:0:0:
451,53,102708,1,8,3:0:0:0:
451,53,102779,1,8,3:0:0:0:
451,53,102851,1,8,3:0:0:0:
451,53,102922,1,8,3:0:0:0:
451,53,102994,6,0,P|471:143|426:233,1,175,4|0,0:0|1:0,0:0:0:0:
146,222,103422,2,0,P|112:178|153:51,1,175,4|4,0:3|0:3,0:0:0:0:
312,144,103851,1,0,1:0:0:0:
312,144,103922,1,4,3:0:0:0:
312,144,103994,1,0,3:0:0:0:
241,341,104137,6,0,L|153:340,1,87.5,4|4,0:3|0:3,0:0:0:0:
137,143,104422,1,4,0:3:0:0:
137,143,104565,2,0,L|329:144,1,175,4|4,0:3|0:3,0:0:0:0:
501,150,104994,1,0,1:0:0:0:
501,150,105065,1,4,3:0:0:0:
501,150,105137,1,4,3:0:0:0:
318,56,105279,6,0,P|295:162|310:252,1,175,4|0,0:3|1:0,0:0:0:0:
158,341,105708,1,4,0:3:0:0:
158,341,105851,2,0,L|61:362,1,87.5,0|4,0:0|0:3,0:0:0:0:
224,233,106137,1,0,1:0:0:0:
224,233,106208,1,4,3:0:0:0:
224,233,106279,1,0,3:0:0:0:
385,327,106422,6,0,L|441:341,2,43.75,4|4|4,0:3|0:3|0:3,0:0:0:0:
330,188,106708,2,0,L|265:191,2,43.75,0|0|4,1:0|1:0|0:3,0:0:0:0:
471,204,106994,1,4,0:3:0:0:
471,191,107065,1,4,0:3:0:0:
470,176,107137,1,4,0:3:0:0:
346,62,107279,1,0,1:0:0:0:
346,49,107350,1,4,0:3:0:0:
345,34,107422,1,4,0:3:0:0:
177,91,107565,6,0,L|177:205,1,87.5,4|4,0:0|0:3,0:0:0:0:
24,308,107851,2,0,P|110:301|185:344,1,175,0|0,1:0|0:0,0:0:0:0:
369,384,108279,1,4,0:3:0:0:
300,218,108422,1,0,1:0:0:0:
300,218,108494,1,4,3:0:0:0:
300,218,108565,1,4,3:0:0:0:
427,133,108708,6,0,L|428:28,1,87.5,4|4,0:3|0:3,0:0:0:0:
300,218,108994,1,0,1:0:0:0:
87,122,109137,2,0,P|156:138|193:26,1,175,4|4,0:3|0:3,0:0:0:0:
35,196,109565,1,4,3:0:0:0:
35,196,109637,1,4,3:0:0:0:
35,196,109708,1,4,3:0:0:0:
97,344,109851,6,0,L|98:257,1,56.8749973964692,4|0,1:2|0:0,0:0:0:0:
206,60,109994,2,0,L|206:135,1,56.8749973964692,0|0,1:0|0:0,0:0:0:0:
358,116,110279,1,0,1:0:0:0:
318,302,110422,1,0,0:0:0:0:
79,319,110565,1,4,0:3:0:0:
79,319,110708,2,0,L|27:250,2,56.8749973964692,4|4|4,0:3|0:3|0:3,0:0:0:0:
136,47,110994,6,0,L|149:221,1,175,4|0,1:2|1:0,0:0:0:0:
304,100,111422,1,4,3:0:0:0:
390,279,111565,6,0,L|382:227,3,43.75,0|4|4|4,1:0|3:0|3:0|3:0,0:0:0:0:
473,230,111851,2,0,L|477:286,3,43.75,4|4|4|4,3:0|3:0|3:0|3:0,0:0:0:0:
316,325,112137,5,4,3:2:0:0:
203,226,112279,1,8,3:0:0:0:
203,226,112327,1,8,3:0:0:0:
203,226,112375,1,8,3:0:0:0:
203,226,112422,2,0,L|137:226,1,43.75,8|8,3:0|3:0,0:0:0:0:
144,129,112565,1,8,3:0:0:0:
144,129,112613,1,8,3:0:0:0:
144,129,112660,1,8,3:0:0:0:
144,129,112708,2,0,L|81:128,1,43.75,8|8,3:0|3:0,0:0:0:0:
36,57,112851,1,8,3:0:0:0:
36,57,112898,1,8,3:0:0:0:
36,57,112946,1,8,3:0:0:0:
36,57,112994,1,0,1:0:0:0:
33,260,113137,6,0,L|30:388,1,96.250002937317,4|0,0:0|0:0,0:0:0:0:
172,231,113422,1,4,3:0:0:0:
288,141,113565,2,0,L|287:41,1,96.250002937317,0|4,1:0|0:3,0:0:0:0:
462,220,113851,1,0,0:0:0:0:
404,30,113994,1,4,0:3:0:0:
462,220,114137,2,0,P|390:195|370:210,1,96.250002937317,0|4,1:0|0:3,0:0:0:0:
148,361,114422,2,0,P|58:333|69:237,1,192.500005874634,2|0,0:0|1:0,0:0:0:0:
204,37,114851,2,0,L|208:140,1,96.250002937317,4|2,0:3|0:0,0:0:0:0:
286,11,115137,1,4,0:3:0:0:
78,160,115279,1,0,1:0:0:0:
476,77,115422,6,0,B|373:147|373:147|305:133,1,192.500005874634,4|4,0:0|0:3,0:0:0:0:
64,339,115851,2,0,L|68:134,1,192.500005874634,0|0,1:0|0:0,0:0:0:0:
283,190,116279,1,4,0:3:0:0:
53,46,116422,5,0,1:1:0:0:
101,274,116565,1,4,0:3:0:0:
246,110,116708,6,0,P|312:101|362:218,1,192.500005874634,2|0,0:0|1:0,0:0:0:0:
211,299,117137,1,4,0:3:0:0:
369,197,117279,1,2,0:0:0:0:
111,204,117422,2,0,L|110:67,1,96.250002937317,4|0,0:3|1:0,0:0:0:0:
304,32,117708,1,4,0:0:0:0:
304,32,117851,2,0,L|304:154,1,96.250002937317,0|4,0:0|0:3,0:0:0:0:
492,271,118137,2,0,B|465:250|412:243|391:331|336:315|288:279,1,192.500005874634,0|0,1:0|0:0,0:0:0:0:
246,122,118565,1,4,0:3:0:0:
48,109,118708,2,0,B|45:62|45:62|69:12,1,96.250002937317,0|4,1:0|0:3,0:0:0:0:
127,214,118994,6,0,B|141:256|141:256|128:317,1,96.250002937317,2|4,0:0|0:3,0:0:0:0:
234,84,119279,1,0,1:0:0:0:
454,207,119422,2,0,B|374:248|335:189|335:189|260:203,1,192.500005874634,2|4,0:0|0:3,0:0:0:0:
402,18,119851,2,0,L|403:116,1,96.250002937317,0|4,1:0|0:0,0:0:0:0:
185,264,120137,6,0,L|184:375,1,96.250002937317,2|0,0:2|0:0,0:0:0:0:
89,271,120422,1,0,1:0:0:0:
89,17,120565,1,0,1:0:0:0:
185,158,120708,1,0,1:0:0:0:
84,268,120851,1,0,1:0:0:0:
402,65,120994,2,0,L|528:41,1,96.250002937317,0|4,1:0|0:0,0:0:0:0:
488,75,121422,1,4,0:3:0:0:
488,75,121494,1,4,0:3:0:0:
488,75,121565,6,0,L|514:122,3,48.1250014686585,4|4|4|4,0:3|0:3|0:3|0:3,0:0:0:0:
480,186,121851,1,4,0:3:0:0:
480,186,121922,1,4,0:3:0:0:
480,186,121994,1,4,0:3:0:0:
480,186,122065,1,4,0:3:0:0:
370,245,122137,6,0,L|308:245,1,48.1250014686585,0|0,1:0|0:0,0:0:0:0:
135,298,122279,6,0,P|120:214|171:113,1,192.500005874634,4|4,0:0|3:0,0:0:0:0:
349,31,122708,2,0,L|348:264,1,192.500005874634,0|0,1:0|0:0,0:0:0:0:
489,159,123137,1,4,0:3:0:0:
458,330,123279,2,0,B|413:353|413:353|339:330,1,96.250002937317,0|4,1:0|0:3,0:0:0:0:
173,217,123565,2,0,B|222:205|222:205|282:225,1,96.250002937317,2|4,0:0|3:0,0:0:0:0:
130,330,123851,1,0,1:0:0:0:
215,104,123994,1,4,0:3:0:0:
12,54,124137,2,0,P|1:116|17:169,1,96.250002937317,2|4,0:0|0:3,0:0:0:0:
215,104,124422,1,0,1:0:0:0:
299,211,124565,6,0,L|101:212,1,192.500005874634,4|4,0:0|0:3,0:0:0:0:
365,283,124994,2,0,P|397:227|330:131,1,192.500005874634,0|0,1:0|0:0,0:0:0:0:
106,211,125422,1,4,0:3:0:0:
332,131,125565,1,0,1:1:0:0:
261,278,125708,1,4,0:3:0:0:
424,67,125851,2,0,L|489:157,1,96.250002937317,2|4,0:0|0:3,0:0:0:0:
196,138,126137,2,0,L|143:52,1,96.250002937317,0|4,1:0|0:3,0:0:0:0:
212,240,126422,1,2,0:0:0:0:
36,31,126565,1,4,0:3:0:0:
285,49,126708,1,0,1:0:0:0:
443,196,126851,6,0,P|494:270|446:348,1,192.500005874634,4|4,0:0|0:3,0:0:0:0:
75,348,127279,2,0,L|76:145,1,192.500005874634,0|0,1:0|0:0,0:0:0:0:
264,262,127708,1,4,0:3:0:0:
332,57,127851,2,0,L|216:58,1,96.250002937317,0|4,1:0|0:3,0:0:0:0:
258,252,128137,2,0,L|376:251,1,96.250002937317,2|4,0:0|0:3,0:0:0:0:
235,57,128422,1,0,1:0:0:0:
166,204,128565,2,0,P|147:308|212:336,1,192.500005874634,2|0,0:0|1:0,0:0:0:0:
340,153,128994,1,2,0:0:0:0:
123,132,129137,1,4,0:0:0:0:
211,336,129279,6,0,L|86:363,1,96.250002937317
366,197,129565,2,0,L|290:213,3,48.1250014686585,0|4|0|4,1:0|0:3|1:0|3:0,0:0:0:0:
240,114,129851,1,0,1:0:0:0:
216,120,129922,1,4,0:3:0:0:
179,115,129994,1,4,3:0:0:0:
158,89,130065,1,4,3:0:0:0:
111,45,130137,2,0,L|218:26,1,96.250002937317,0|4,1:0|1:2,0:0:0:0:
37,327,130708,6,0,L|107:339,3,48.1250014686585,4|4|4|4,3:3|0:3|0:3|0:3,0:0:0:0:
193,336,130994,1,0,1:0:0:0:
193,336,131065,1,4,0:3:0:0:
193,336,131137,1,4,0:3:0:0:
193,336,131208,1,4,0:3:0:0:
276,279,131279,5,0,1:0:0:0:
494,174,131422,5,4,0:0:0:0:
404,177,131851,1,0,3:0:0:0:
291,181,132137,1,0,3:0:0:0:
183,182,132422,1,0,3:0:0:0:
123,97,132708,5,8,3:0:0:0:
73,82,132851,1,8,3:0:0:0:
64,120,132994,1,8,3:0:0:0:
83,144,133137,1,8,3:0:0:0:
121,126,133279,1,0,1:0:0:0:
304,108,133422,6,0,L|295:61,2,48.1250014686585,4|4|4,0:3|0:3|0:3,0:0:0:0:
345,123,133637,1,4,0:3:0:0:
372,124,133708,1,4,0:3:0:0:
406,127,133779,1,4,0:3:0:0:
473,72,133851,5,4,3:0:0:0:
473,72,133994,2,0,L|383:47,1,78.7499975967408,0|2,0:0|0:0,0:0:0:0:
139,342,134422,1,0,0:0:0:0:
139,342,134565,2,0,L|27:374,1,78.7499975967408,2|4,0:0|3:0,0:0:0:0:
117,243,134851,2,0,L|224:242,1,78.7499975967408,0|0,0:0|1:0,0:0:0:0:
384,103,135279,2,0,L|467:124,1,78.7499975967408,2|0,0:0|0:0,0:0:0:0:
164,33,135565,1,2,0:0:0:0:
164,33,135708,2,0,L|166:137,1,78.7499975967408,4|4,3:0|3:0,0:0:0:0:
41,284,135994,2,0,L|22:383,1,78.7499975967408,4|0,0:0|0:0,0:0:0:0:
356,176,136422,6,0,L|447:204,1,78.7499975967408,2|0,0:0|0:0,0:0:0:0:
199,140,136708,1,0,0:0:0:0:
199,140,136851,2,0,L|295:142,1,78.7499975967408,2|4,0:0|3:0,0:0:0:0:
34,87,137137,2,0,L|16:-10,1,78.7499975967408,2|0,0:0|1:0,0:0:0:0:
34,162,137422,5,0,0:0:0:0:
22,244,137565,1,0,0:0:0:0:
14,331,137708,1,0,0:0:0:0:
158,239,137851,1,2,0:0:0:0:
155,248,137946,1,2,0:0:0:0:
153,256,138041,1,2,0:0:0:0:
151,264,138137,1,2,0:0:0:0:
292,280,138279,1,2,0:0:0:0:
469,303,138422,6,0,L|511:388,1,78.7499975967408,4|4,3:0|3:0,0:0:0:0:
383,154,138708,2,0,L|281:138,1,78.7499975967408,2|0,0:0|0:0,0:0:0:0:
160,53,138994,1,0,0:0:0:0:
160,53,139137,2,0,L|71:67,1,78.7499975967408,2|4,0:0|3:0,0:0:0:0:
38,362,139422,2,0,L|22:275,1,78.7499975967408,2|0,0:0|1:0,0:0:0:0:
237,108,139851,2,0,L|319:100,1,78.7499975967408
120,43,140137,1,2,0:0:0:0:
61,135,140279,1,4,0:3:0:0:
78,232,140422,1,4,0:3:0:0:
409,136,140565,6,0,L|385:47,1,78.7499975967408,4|0,0:0|0:0,0:0:0:0:
361,205,140851,5,4,0:3:0:0:
277,205,140994,1,4,0:3:0:0:
193,199,141137,1,4,0:3:0:0:
310,279,141279,5,4,0:3:0:0:
198,236,141422,1,4,0:3:0:0:
98,185,141565,1,4,0:3:0:0:
57,250,141708,5,4,0:3:0:0:
187,153,141851,1,0,1:0:0:0:
297,76,141994,1,4,0:3:0:0:
424,28,142137,2,0,L|369:108,1,78.7499975967408,4|4,0:3|0:3,0:0:0:0:
396,284,142422,5,4,3:0:0:0:
309,269,142565,1,0,3:3:0:0:
223,253,142708,1,0,3:3:0:0:
132,236,142851,1,0,3:3:0:0:
491,290,142994,6,0,L|510:381,1,87.5,4|0,0:0|0:0,0:0:0:0:
90,26,152137,6,0,L|216:26,2,87.5,4|0|0,0:0|0:0|3:0,0:0:0:0:
199,117,152566,1,0,3:0:0:0:
128,234,152709,2,0,L|40:235,1,87.5,0|0,1:0|3:0,0:0:0:0:
46,353,152994,2,0,P|98:352|166:353,2,87.5,0|0|4,3:0|3:0|3:0,0:0:0:0:
305,291,153423,1,0,3:0:0:0:
305,291,153566,2,0,L|304:189,1,87.5,0|0,3:0|3:0,0:0:0:0:
371,50,153851,6,0,L|371:93,1,43.75,0|0,1:0|0:0,0:0:0:0:
456,52,153994,2,0,L|454:114,1,43.75,2|0,0:0|0:0,0:0:0:0:
274,97,154137,1,4,3:0:0:0:
209,263,154279,6,0,B|131:249|137:305|73:337|23:288,1,175,4|0,3:0|3:0,0:0:0:0:
279,321,154709,2,0,L|279:397,2,43.75,8|8|8,3:0|3:0|3:0,0:0:0:0:
341,123,154994,2,0,L|342:67,2,43.75,8|8|8,1:3|3:0|3:0,0:0:0:0:
447,238,155280,2,0,L|449:301,2,43.75,8|8|8,3:0|3:0|3:0,0:0:0:0:
240,215,155565,1,8,3:0:0:0:
240,215,155637,1,8,3:0:0:0:
240,215,155708,1,8,3:0:0:0:
88,56,155851,1,8,3:0:0:0:
88,56,155922,1,8,3:0:0:0:
88,56,155994,1,8,3:0:0:0:
30,209,156137,6,0,L|27:387,1,175,4|4,0:0|0:0,0:0:0:0:
183,124,156709,6,0,P|184:67|184:23,1,87.5,4|0,0:0|0:0,0:0:0:0:
322,32,156994,2,0,L|321:145,1,87.5,0|0,3:0|3:0,0:0:0:0:
190,216,157280,2,0,L|64:212,1,87.5,0|4,1:0|3:0,0:0:0:0:
290,320,157566,2,0,L|377:321,1,87.5,4|4,3:0|3:0,0:0:0:0:
486,188,157851,6,0,L|486:88,1,87.5,4|0,3:0|3:0,0:0:0:0:
347,26,158137,2,0,L|345:128,1,87.5,0|0,3:0|3:0,0:0:0:0:
238,233,158423,5,0,1:0:0:0:
49,242,158566,1,6,0:0:0:0:
141,152,158709,1,4,3:0:0:0:
347,40,158851,6,0,P|300:18|161:37,1,175,4|0,3:0|0:0,0:0:0:0:
36,285,159280,6,0,L|35:361,3,43.75,8|8|8|4,3:0|3:0|3:0|3:0,0:0:0:0:
129,258,159566,2,0,L|130:198,3,43.75,8|8|8|4,1:3|3:0|3:0|0:3,0:0:0:0:
240,179,159851,1,8,3:0:0:0:
240,179,159922,1,8,3:0:0:0:
240,179,159994,1,8,3:0:0:0:
240,179,160065,1,8,0:3:0:0:
330,145,160137,6,0,L|329:15,1,113.749994792938,8|8,3:0|3:0,0:0:0:0:
504,241,160422,2,0,L|506:400,1,113.749994792938,8|8,3:0|3:0,0:0:0:0:
349,267,160709,1,4,3:0:0:0:
301,270,160780,1,4,3:0:0:0:
264,239,160851,1,4,3:0:0:0:
270,184,160923,1,4,3:0:0:0:
319,147,160994,5,0,1:0:0:0:
485,21,161137,2,0,L|271:19,1,192.500005874634,4|4,0:0|3:0,0:0:0:0:
81,29,161565,5,0,1:0:0:0:
151,137,161708,2,0,L|152:250,1,96.250002937317,4|0,0:3|0:0,0:0:0:0:
337,135,161994,1,4,0:3:0:0:
337,135,162137,2,0,P|268:104|228:77,1,96.250002937317,0|4,1:0|3:0,0:0:0:0:
14,237,162422,2,0,P|6:119|44:53,1,192.500005874634,2|0,0:0|1:0,0:0:0:0:
250,93,162851,2,0,L|246:317,1,192.500005874634,4|4,0:3|0:3,0:0:0:0:
424,140,163280,1,0,1:0:0:0:
328,35,163422,1,4,0:0:0:0:
249,174,163565,6,0,B|186:175|186:175|151:228|151:228|81:234,1,192.500005874634,2|0,0:2|1:0,0:0:0:0:
352,343,163994,2,0,L|352:136,1,192.500005874634,4|4,0:3|0:3,0:0:0:0:
141,50,164422,2,0,P|116:136|148:236,1,192.500005874634,0|2,1:1|0:0,0:0:0:0:
340,215,164851,1,4,0:3:0:0:
307,32,164994,6,0,L|417:34,1,96.250002937317,0|4,1:0|0:3,0:0:0:0:
437,209,165279,2,0,L|334:210,1,96.250002937317,2|4,0:0|0:3,0:0:0:0:
89,144,165565,1,0,1:0:0:0:
89,144,165708,2,0,P|59:248|117:299,1,192.500005874634,4|4,0:0|0:3,0:0:0:0:
300,206,166137,2,0,L|183:204,1,96.250002937317,0|4,1:0|0:3,0:0:0:0:
292,66,166422,6,0,L|491:67,1,192.500005874634,2|0,0:2|1:0,0:0:0:0:
512,316,166851,1,4,0:3:0:0:
512,316,166994,2,0,P|520:242|422:172,1,192.500005874634,2|0,0:0|1:0,0:0:0:0:
292,66,167422,1,4,3:0:0:0:
78,163,167565,2,0,L|296:163,1,192.500005874634,2|0,0:2|1:0,0:0:0:0:
501,288,167994,1,4,0:0:0:0:
501,288,168137,6,0,L|381:289,1,96.250002937317,2|4,0:2|0:3,0:0:0:0:
209,350,168422,1,0,1:0:0:0:
209,350,168565,2,0,B|195:305|195:305|235:243,1,96.250002937317,4|0,0:3|0:0,0:0:0:0:
51,36,168851,2,0,L|48:162,1,96.250002937317,4|0,0:3|1:1,0:0:0:0:
306,63,169137,2,0,L|530:65,1,192.500005874634,4|4,0:3|0:3,0:0:0:0:
482,295,169565,2,0,P|399:345|357:250,1,192.500005874634,0|2,1:0|0:0,0:0:0:0:
220,229,169994,1,4,0:3:0:0:
95,336,170137,1,0,1:0:0:0:
95,336,170279,6,0,P|98:262|96:135,1,192.500005874634,4|4,0:0|0:3,0:0:0:0:
327,8,170708,2,0,B|395:74|395:74|518:70,1,192.500005874634,0|0,1:0|0:0,0:0:0:0:
276,141,171137,1,4,0:3:0:0:
461,195,171279,2,0,L|461:315,1,96.250002937317,0|4,1:0|0:3,0:0:0:0:
287,352,171565,2,0,L|291:236,1,96.250002937317,2|4,0:0|0:3,0:0:0:0:
154,62,171851,1,0,1:0:0:0:
121,193,171994,2,0,P|175:196|220:168,1,96.250002937317,2|0,3:2|0:0,0:0:0:0:
58,42,172279,1,4,0:3:0:0:
0,198,172422,1,0,1:0:0:0:
356,80,172565,6,0,L|158:81,1,192.500005874634,4|0,0:0|1:0,0:0:0:0:
174,266,172994,5,4,3:0:0:0:
163,80,173137,1,0,1:0:0:0:
163,80,173208,1,4,3:0:0:0:
163,80,173279,1,0,1:0:0:0:
312,183,173422,1,4,3:0:0:0:
312,183,173494,1,4,3:0:0:0:
312,183,173565,2,0,L|349:280,1,96.250002937317,4|4,3:0|3:3,0:0:0:0:
260,327,173779,1,4,0:3:0:0:
260,327,173851,2,0,L|241:392,3,48.1250014686585,4|4|4|4,1:3|3:0|3:0|3:0,0:0:0:0:
163,317,174137,2,0,L|141:393,3,48.1250014686585,4|4|4|4,3:0|3:0|3:0|3:0,0:0:0:0:
102,358,174422,1,4,3:0:0:0:
78,349,174494,1,4,3:0:0:0:
65,329,174565,1,4,3:0:0:0:
69,289,174637,1,4,3:0:0:0:
100,246,174708,5,0,1:0:0:0:
251,126,174851,6,0,L|468:126,1,192.500005874634,4|0,0:0|0:0,0:0:0:0:
466,150,176708,5,0,1:0:0:0:
466,150,176779,1,0,1:0:0:0:
466,150,176851,1,0,1:0:0:0:
466,150,176922,1,0,1:0:0:0:
466,150,176994,1,0,1:0:0:0:
466,150,177065,1,0,1:0:0:0:
466,150,177137,1,4,1:2:0:0:
60,380,177565,2,0,L|-11:333,1,70,4|0,0:0|0:0,0:0:0:0:
83,307,181565,5,4,3:0:0:0:
83,307,181637,1,4,3:0:0:0:
83,307,181708,2,0,L|96:216,1,70,4|0,0:0|0:0,0:0:0:0:
395,99,182137,2,0,L|448:29,1,70,0|0,1:0|0:0,0:0:0:0:
54,304,182994,6,0,L|48:362,2,39.3749987983704,4|4|4,3:0|3:0|3:0,0:0:0:0:
157,234,183279,2,0,L|161:166,2,39.3749987983704,0|0|4,1:0|1:0|0:3,0:0:0:0:
262,214,183565,1,4,0:0:0:0:
349,304,183708,1,4,0:0:0:0:
349,304,183994,2,0,P|395:268|392:171,1,157.499995193482,4|0,0:2|0:0,0:0:0:0:
315,92,184422,6,0,L|222:91,1,78.7499975967408,4|0,0:3|0:0,0:0:0:0:
394,175,184708,2,0,L|498:175,1,78.7499975967408,0|0,1:0|0:0,0:0:0:0:
96,363,185279,6,4,P|32:346|90:230,1,236.249992790222,4|4,3:0|3:0,3:0:0:0:
112,230,185756,1,4,3:0:0:0:
137,212,185803,1,4,3:0:0:0:
159,179,185851,2,4,L|162:109,1,39.3749987983704,4|4,3:0|3:0,3:0:0:0:
258,65,185994,1,4,3:0:0:0:
279,58,186041,1,4,3:0:0:0:
305,64,186089,1,4,3:0:0:0:
327,84,186137,5,0,1:0:0:0:
115,71,186708,6,0,L|-2:72,1,96.250002937317,4|4,1:2|0:3,0:0:0:0:
162,267,186994,2,0,L|60:268,1,96.250002937317,0|4,0:0|0:3,0:0:0:0:
280,136,187279,2,0,L|279:36,1,96.250002937317,0|4,1:0|0:3,0:0:0:0:
487,38,187565,2,0,P|478:119|483:240,1,192.500005874634,2|0,0:0|1:0,0:0:0:0:
260,362,187994,1,4,0:3:0:0:
260,362,188137,2,0,P|162:350|69:355,1,192.500005874634,2|0,0:0|1:0,0:0:0:0:
29,193,188565,6,0,L|34:80,1,96.250002937317,4|0,0:0|0:0,0:0:0:0:
205,13,188850,1,4,0:3:0:0:
374,108,188994,2,0,P|276:146|324:219,1,192.500005874634,0|0,1:0|0:0,0:0:0:0:
269,357,189422,1,4,0:3:0:0:
269,357,189565,6,0,L|131:360,1,96.250002937317,0|4,1:1|0:3,0:0:0:0:
34,269,189851,2,0,P|36:192|52:158,1,96.250002937317,2|4,0:0|0:3,0:0:0:0:
74,24,190137,2,0,L|183:22,1,96.250002937317,0|4,1:0|0:3,0:0:0:0:
243,161,190422,1,2,0:0:0:0:
377,44,190565,2,0,P|392:119|466:114,1,144.375004405975,4|0,0:3|0:0,0:0:0:0:
482,254,190851,2,0,L|371:254,1,96.250002937317,4|0,0:0|0:0,0:0:0:0:
197,341,191137,1,4,0:3:0:0:
197,341,191279,2,0,L|198:140,1,192.500005874634,0|0,1:0|0:0,0:0:0:0:
410,57,191708,1,4,0:3:0:0:
410,57,191851,2,0,B|363:78|363:78|302:60,1,96.250002937317,0|4,1:0|0:3,0:0:0:0:
52,88,192137,6,0,B|36:127|36:127|46:188,1,96.250002937317,2|4,0:0|0:3,0:0:0:0:
240,99,192422,1,0,1:0:0:0:
249,269,192565,2,0,P|153:261|59:276,1,192.500005874634,2|4,0:0|0:3,0:0:0:0:
259,357,192994,6,0,L|356:358,1,96.250002937317,0|4,1:0|0:0,0:0:0:0:
478,205,193280,2,0,L|361:203,1,96.250002937317
195,37,193565,2,0,L|127:33,3,48.1250014686585,0|4|4|4,1:0|3:0|3:0|3:0,0:0:0:0:
178,140,193851,2,0,L|111:138,3,48.1250014686585,0|4|4|4,1:0|3:0|3:0|3:0,0:0:0:0:
56,226,194137,1,0,1:0:0:0:
56,226,194208,1,4,3:0:0:0:
56,226,194279,2,0,L|183:252,1,96.250002937317,4|0,0:0|0:0,0:0:0:0:
150,245,194708,6,0,L|176:292,3,48.1250014686585,4|4|4|4,0:3|0:3|0:3|0:3,0:0:0:0:
235,181,194994,1,0,1:0:0:0:
235,181,195065,1,4,0:3:0:0:
235,181,195137,1,4,0:3:0:0:
235,181,195208,1,4,0:3:0:0:
310,248,195280,6,0,L|367:248,1,48.1250014686585,0|4,1:0|0:3,0:0:0:0:
493,214,195422,6,0,L|492:11,1,192.500005874634,4|4,0:0|3:0,0:0:0:0:
299,36,195851,2,0,P|317:102|212:133,1,192.500005874634,0|0,1:0|0:0,0:0:0:0:
55,261,196280,1,4,0:3:0:0:
239,325,196422,2,0,L|238:216,1,96.250002937317,0|4,1:0|0:3,0:0:0:0:
343,55,196708,2,0,L|456:55,1,96.250002937317,2|4,0:0|3:0,0:0:0:0:
340,183,196994,1,0,1:0:0:0:
215,55,197137,1,4,0:3:0:0:
46,158,197280,2,0,L|51:273,1,96.250002937317,2|4,0:0|0:3,0:0:0:0:
215,55,197565,1,0,1:0:0:0:
182,351,197708,6,0,P|275:331|366:357,1,192.500005874634,4|4,0:0|0:3,0:0:0:0:
455,154,198137,2,0,P|487:98|420:2,1,192.500005874634,0|0,1:0|0:0,0:0:0:0:
265,95,198565,1,4,0:3:0:0:
455,154,198708,1,0,1:1:0:0:
335,265,198851,1,4,0:3:0:0:
269,99,198994,2,0,L|126:96,1,96.250002937317,2|4,0:0|0:3,0:0:0:0:
36,241,199280,2,0,L|136:251,1,96.250002937317,0|4,1:0|0:3,0:0:0:0:
258,88,199565,1,2,0:0:0:0:
334,218,199708,1,4,0:3:0:0:
152,245,199851,1,0,1:0:0:0:
394,297,199994,6,0,P|419:279|388:144,1,192.500005874634,4|4,0:0|0:3,0:0:0:0:
221,290,200422,2,0,B|147:276|147:276|108:315|108:315|26:295,1,192.500005874634,0|0,1:0|0:0,0:0:0:0:
154,172,200851,1,4,0:3:0:0:
271,53,200994,2,0,L|260:176,1,96.250002937317,0|4,1:0|0:3,0:0:0:0:
365,290,201280,2,0,L|372:191,1,96.250002937317,2|4,0:0|0:3,0:0:0:0:
271,53,201565,1,0,1:0:0:0:
151,175,201708,2,0,L|86:165,3,48.1250014686585,4|4|4|4,3:0|3:0|3:0|3:0,0:0:0:0:
103,260,201994,1,0,1:0:0:0:
204,98,202137,2,0,L|315:117,1,96.250002937317,0|4,1:0|0:0,0:0:0:0:
508,259,202422,6,0,L|506:364,1,96.250002937317,0|8,0:0|3:0,0:0:0:0:
409,152,202708,2,0,L|415:243,3,48.1250014686585,0|4|4|4,1:0|3:0|3:0|3:0,0:0:0:0:
305,26,202994,2,0,L|308:131,1,96.250002937317,0|4,1:0|3:0,0:0:0:0:
295,138,203208,1,4,3:0:0:0:
289,145,203279,1,0,1:0:0:0:
208,316,203422,1,0,1:0:0:0:
208,316,203494,1,0,3:0:0:0:
208,316,203565,6,0,L|203:393,3,48.1250014686585,4|4|4|4,3:0|3:0|3:0|3:0,0:0:0:0:
172,376,203851,1,0,1:0:0:0:
171,145,203994,1,4,0:3:0:0:
171,145,204065,1,4,0:3:0:0:
171,145,204137,2,0,L|163:35,1,96.250002937317,0|4,1:0|0:3,0:0:0:0:
195,51,204351,1,4,0:3:0:0:
344,125,204422,2,0,L|351:206,1,48.1250014686585,4|0,1:2|0:0,0:0:0:0:
461,293,204565,2,0,L|469:360,1,48.1250014686585,4|0,1:2|0:0,0:0:0:0:
306,318,204708,6,0,L|199:325,1,87.5,4|4,0:0|0:3,0:0:0:0:
51,243,204994,2,0,P|39:156|58:71,1,175,0|0,1:0|0:0,0:0:0:0:
254,20,205423,1,4,3:0:0:0:
174,121,205565,1,2,1:2:0:0:
174,121,205637,1,0,1:0:0:0:
174,121,205708,1,4,0:3:0:0:
396,129,205851,6,0,L|395:34,1,87.5,4|4,3:0|0:3,0:0:0:0:
472,232,206137,2,0,L|472:341,1,87.5,0|4,1:0|3:0,0:0:0:0:
294,267,206423,2,0,L|185:266,1,87.5,0|4,0:0|3:0,0:0:0:0:
63,363,206708,1,2,1:2:0:0:
63,363,206780,1,0,1:0:0:0:
63,363,206851,1,4,0:3:0:0:
17,218,206994,6,0,L|17:130,1,87.5,4|4,0:3|0:3,0:0:0:0:
217,39,207280,2,0,P|276:63|397:29,1,175,0|0,1:0|0:0,0:0:0:0:
512,120,207708,1,4,3:0:0:0:
379,36,207851,1,2,1:2:0:0:
379,36,207923,1,0,1:0:0:0:
381,40,207994,1,4,0:3:0:0:
361,188,208137,6,0,L|359:130,2,43.75,4|4|4,0:3|0:3|0:3,0:0:0:0:
267,279,208423,2,0,L|269:349,2,43.75,0|0|4,1:0|1:0|0:3,0:0:0:0:
107,346,208708,1,4,0:3:0:0:
96,346,208780,1,4,0:3:0:0:
84,347,208851,1,4,0:3:0:0:
196,228,208994,1,0,1:0:0:0:
209,228,209065,1,0,1:0:0:0:
224,228,209137,1,4,0:3:0:0:
21,254,209280,6,0,L|23:143,1,87.5,4|4,0:3|0:3,0:0:0:0:
191,46,209565,2,0,P|278:69|363:33,1,175,0|0,1:0|0:0,0:0:0:0:
512,78,209994,1,4,3:0:0:0:
413,159,210137,1,2,1:2:0:0:
413,159,210208,1,0,1:0:0:0:
413,159,210280,1,4,0:3:0:0:
308,284,210423,6,0,L|305:407,1,87.5,4|4,3:0|0:3,0:0:0:0:
195,125,210708,2,0,L|194:19,1,87.5,0|4,1:0|3:0,0:0:0:0:
0,247,210994,2,0,P|84:237|174:246,1,175,0|2,0:0|1:2,0:0:0:0:
172,245,211351,1,0,1:0:0:0:
172,245,211423,1,4,0:3:0:0:
268,116,211565,5,4,3:0:0:0:
268,116,211708,2,0,L|209:93,2,43.75,0|0|0,1:0|1:0|1:0,0:0:0:0:
179,257,211994,2,0,L|121:279,2,43.75,0|0|0,1:0|1:0|1:0,0:0:0:0:
347,88,212279,2,0,L|414:81,2,43.75,0|0|0,1:0|1:0|1:0,0:0:0:0:
112,57,212565,1,4,3:0:0:0:
112,57,212637,1,4,3:0:0:0:
112,57,212708,1,4,0:3:0:0:
57,181,212851,1,4,0:3:0:0:
57,181,212922,1,4,3:0:0:0:
57,181,212994,2,0,L|50:250,3,43.75,0|4|4|4,1:0|3:0|0:3|3:0,0:0:0:0:
120,292,213279,1,4,1:3:0:0:
120,292,213351,1,4,1:3:0:0:
120,292,213422,1,4,0:3:0:0:
120,292,213494,1,4,3:0:0:0:
120,292,213565,2,0,L|159:259,1,43.75,4|0,1:2|0:0,0:0:0:0:
253,174,213708,2,0,L|180:124,1,87.5,4|0,0:2|0:0,0:0:0:0:
461,78,214137,2,0,L|363:71,1,87.5,4|0,3:2|0:0,0:0:0:0:
497,361,215279,5,4,3:0:0:0:
497,361,215351,1,4,3:0:0:0:
497,361,215422,1,4,3:0:0:0:
497,361,215494,1,4,3:0:0:0:
497,361,215565,6,0,L|422:358,1,43.75,4|0,3:0|0:0,0:0:0:0:
363,279,215708,2,0,L|298:271,1,43.75,0|0,1:0|0:0,0:0:0:0:
217,338,215851,2,0,L|134:328,1,43.75,0|0,1:0|0:0,0:0:0:0:
75,373,215994,6,0,P|22:294|172:233,1,306.249990653992,4|0,0:0|0:0,0:0:0:0:
