osu file format v14

[General]
AudioFilename: Metalcore - Adore Your Pain - UNDEAD CORPORATION.mp3
AudioLeadIn: 0
PreviewTime: 188104
Countdown: 0
SampleSet: Normal
StackLeniency: 0.8
Mode: 0
LetterboxInBreaks: 1
WidescreenStoryboard: 0

[Editor]
Bookmarks: 67604,133318,179032
DistanceSpacing: 2
BeatDivisor: 4
GridSize: 4
TimelineZoom: 2.7

[Metadata]
Title:Adore Your Pain
TitleUnicode:Adore Your Pain
Artist:UNDEAD CORPORATION
ArtistUnicode:UNDEAD CORPORATION
Creator:Fenrir
Version:Pain
Source:Watashi wa Mou Shindeiru?
Tags:ten desires the game th13 UNDEAD CORPORATION Metal J-Rock Touhou Scream
BeatmapID:400211
BeatmapSetID:164357

[Difficulty]
HPDrainRate:8
CircleSize:4
OverallDifficulty:8
ApproachRate:9
SliderMultiplier:1.9
SliderTickRate:2

[Events]
//Background and Video events
0,0,"saya.png",0,0
//Break Periods
2,2661,5861
2,8804,10718
2,179032,181861
//Storyboard Layer 0 (Background)
//Storyboard Layer 1 (Fail)
//Storyboard Layer 2 (Pass)
//Storyboard Layer 3 (Foreground)
//Storyboard Sound Samples

[TimingPoints]
1032.63981042654,285.714285714286,4,1,1,100,1,0
11318,-100,4,1,1,100,0,0
20746,-133.333333333333,4,2,1,100,0,0
24461,-133.333333333333,4,1,1,60,0,0
25032,-133.333333333333,4,2,1,60,0,0
29604,-133.333333333333,4,1,1,60,0,0
36889,-80,4,1,1,60,0,0
37746,-133.333333333333,4,1,1,60,0,0
38746,-100,4,1,1,60,0,0
47461,-200,4,1,1,60,0,0
47889,-86.9565217391304,4,1,1,80,0,1
56604,-86.9565217391304,4,2,1,80,0,1
57032,-100,4,2,1,60,0,0
57889,-86.9565217391304,4,1,1,60,0,0
58032,-86.9565217391304,4,1,1,80,0,1
75318,-86.9565217391304,4,2,1,80,0,1
75889,-86.9565217391304,4,1,1,80,0,1
76175,-86.9565217391304,4,1,1,60,0,0
77604,-133.333333333333,4,2,1,60,0,0
83604,-133.333333333333,4,2,1,60,0,0
84746,-100,4,1,1,60,0,0
85604,-133.333333333333,4,2,1,60,0,0
91889,-100,4,1,1,60,0,0
94175,-100,4,1,1,80,0,0
94746,-100,4,1,1,60,0,0
103889,-86.9565217391304,4,1,1,80,0,1
113104,-133.333333333333,4,2,1,60,0,0
114032,-86.9565217391304,4,1,1,80,0,1
132175,-133.333333333333,4,1,1,80,0,0
134746,-133.333333333333,4,2,1,80,0,0
142746,-133.333333333333,4,1,1,80,0,0
143889,-133.333333333333,4,2,1,100,0,0
143961,-133.333333333333,4,2,1,60,0,0
153318,-133.333333333333,4,2,1,60,0,0
162032,-100,4,1,1,60,0,0
164175,-133.333333333333,4,1,1,60,0,0
164461,-100,4,1,1,60,0,0
176461,-133.333333333333,4,1,1,60,0,0
182461,-133.333333333333,4,1,1,60,0,0
187604,-86.9565217391304,4,1,1,80,0,1
203604,-133.333333333333,4,1,1,60,0,1
203889,-86.9565217391304,4,1,1,60,0,1
205604,-100,4,1,1,60,0,0
213604,-100,4,2,1,60,0,0
215032,-133.333333333333,4,2,1,30,0,0
216175,-100,4,1,1,60,0,0
217746,-100,4,1,1,25,0,0

[Colours]
Combo1 : 128,64,64
Combo2 : 198,0,0
Combo3 : 130,130,130
Combo4 : 242,24,57

[HitObjects]
376,252,1032,6,8,L|444:216,3,47.5,8|8|8|8,0:0|0:0|0:0|0:0,0:0:0:0:
384,136,1318,2,0,L|344:112,3,47.5,0|0|0|0,0:0|0:0|0:0|0:0,0:0:0:0:
316,96,1604,5,0,0:0:0:0:
272,77,1675,1,8,0:0:0:0:
225,72,1746,1,8,0:0:0:0:
179,82,1818,1,8,0:0:0:0:
138,106,1889,1,8,0:0:0:0:
192,304,2032,6,0,P|136:296|48:188,1,190,4|0,0:0|0:0,0:0:0:0:
172,176,2461,1,4,0:0:0:0:
172,176,6461,5,8,2:0:0:0:
172,176,6532,1,8,2:0:0:0:
172,176,6604,2,0,B|240:168|344:232|352:232|392:188|456:184,1,285,4|4,0:0|0:0,0:0:0:0:
132,116,7889,5,8,0:0:0:0:
168,88,7961,1,8,0:0:0:0:
212,80,8032,1,8,0:0:0:0:
400,268,8175,1,8,0:0:0:0:
372,300,8246,1,8,0:0:0:0:
332,312,8318,1,8,0:0:0:0:
256,188,8461,5,4,0:0:0:0:
256,188,8604,1,4,0:0:0:0:
184,96,11318,6,8,P|148:144|200:256,1,190,0|8,0:0|0:0,0:0:0:0:
272,288,11746,1,0,0:0:0:0:
340,236,11889,2,0,P|364:168|472:100,1,190,0|8,0:0|0:0,0:0:0:0:
452,188,12318,5,0,0:0:0:0:
348,304,12461,2,0,P|304:320|160:296,1,190,0|8,0:0|0:0,0:0:0:0:
148,216,12889,1,0,0:0:0:0:
144,132,13032,2,0,P|72:156|56:204,1,95
80,332,13318,5,8,0:0:0:0:
76,288,13389,1,8,0:0:0:0:
72,244,13461,1,8,0:0:0:0:
68,200,13532,1,8,0:0:0:0:
72,156,13604,2,0,P|100:96|216:56,1,190,0|8,0:0|0:0,0:0:0:0:
344,132,14032,5,0,0:0:0:0:
440,252,14175,2,0,B|368:260|368:260|328:232|328:232|232:236,1,190,0|8,0:0|0:0,0:0:0:0:
196,96,14604,1,0,0:0:0:0:
104,288,14746,6,0,P|144:328|200:340,1,95,8|0,0:0|0:0,0:0:0:0:
404,104,15032,2,0,P|368:64|328:56,1,95,8|0,0:0|0:0,0:0:0:0:
96,260,15318,2,0,P|120:304|168:328,1,95,8|0,0:0|0:0,0:0:0:0:
416,120,15604,2,0,P|388:72|348:56,1,95,8|0,0:0|0:0,0:0:0:0:
60,116,15889,2,0,B|60:176|60:176|84:212|84:212|84:316,1,190,0|8,0:0|0:0,0:0:0:0:
200,200,16318,1,0,0:0:0:0:
304,312,16461,2,0,P|360:292|376:240,1,95,0|0,0:0|0:0,0:0:0:0:
336,116,16746,5,8,0:0:0:0:
336,116,16818,1,0,0:0:0:0:
336,116,16889,2,0,P|288:92|240:96,1,95
104,152,17175,1,0,0:0:0:0:
248,204,17318,1,8,0:0:0:0:
60,296,17461,2,0,B|116:320|152:292|152:292|248:296,1,190
380,224,17889,5,8,0:0:0:0:
380,224,17961,1,0,0:0:0:0:
380,224,18032,1,0,0:0:0:0:
268,324,18175,2,0,B|216:312|184:248|196:152,1,190,0|8,0:0|0:0,0:0:0:0:
344,140,18604,1,0,0:0:0:0:
492,160,18746,2,0,P|472:104|344:48,1,190,0|8,0:0|0:0,0:0:0:0:
332,48,19104,5,8,0:0:0:0:
304,56,19175,1,8,0:0:0:0:
176,172,19318,5,8,0:0:0:0:
176,343,19461,1,0,0:0:0:0:
347,343,19604,1,8,0:0:0:0:
347,173,19746,1,0,0:0:0:0:
176,188,19889,6,0,P|136:228|128:280,1,95,8|0,0:0|0:0,0:0:0:0:
344,328,20175,2,0,P|368:288|364:240,1,95,8|0,0:0|0:0,0:0:0:0:
272,96,20461,6,0,B|220:84|220:84|136:92|136:92|120:72|104:68|80:64,1,190,4|0,0:0|0:0,0:0:0:0:
68,156,20889,1,0,0:0:0:0:
76,248,21032,2,0,P|136:256|164:240,1,71.2500027179719,8|0,0:0|0:0,0:0:0:0:
208,188,21318,1,0,0:0:0:0:
264,264,21461,1,0,0:0:0:0:
312,344,21604,2,0,P|372:320|388:292,1,71.2500027179719,8|0,0:0|0:0,0:0:0:0:
392,224,21889,1,0,0:0:0:0:
376,316,22032,1,8,0:0:0:0:
312,248,22175,6,0,P|288:208|292:180,1,71.2500027179719
348,112,22461,1,0,0:0:0:0:
280,48,22604,2,0,P|236:32|128:52,1,142.500005435944,0|8,0:0|0:0,0:0:0:0:
128,224,23032,6,0,L|128:140,1,71.2500027179719,8|0,0:0|0:0,0:0:0:0:
220,152,23318,2,0,L|220:232,1,71.2500027179719,8|0,0:0|0:0,0:0:0:0:
100,200,23604,6,0,L|100:104,1,71.2500027179719,8|0,0:0|0:0,0:0:0:0:
256,168,23889,2,0,L|256:240,1,71.2500027179719,8|0,0:0|0:0,0:0:0:0:
104,296,24175,6,0,P|76:264|72:232,1,71.2500027179719,8|0,0:0|0:0,0:0:0:0:
128,104,24461,6,0,P|164:68|208:64,1,71.2500027179719,4|0,0:0|0:0,0:0:0:0:
212,152,24746,2,0,P|204:192|264:284,1,142.500005435944,4|0,0:0|0:0,0:0:0:0:
308,204,25175,1,0,0:0:0:0:
392,164,25318,1,0,0:0:0:0:
472,208,25461,1,0,0:0:0:0:
412,280,25604,6,0,P|352:296|320:288,1,71.2500027179719,8|0,0:0|0:0,0:0:0:0:
268,240,25889,1,0,0:0:0:0:
192,188,26032,1,0,0:0:0:0:
268,240,26175,2,0,P|236:288|196:292,1,71.2500027179719,8|0,0:0|0:0,0:0:0:0:
140,256,26461,1,0,0:0:0:0:
64,200,26604,2,0,P|56:152|68:124,1,71.2500027179719,8|0,0:0|0:0,0:0:0:0:
260,84,26889,5,0,0:0:0:0:
140,80,27032,1,0,0:0:0:0:
192,188,27175,2,0,B|192:236|192:236|216:260|216:260|208:324,1,142.500005435944
332,332,27604,6,0,P|372:312|380:280,1,71.2500027179719,8|0,0:0|0:0,0:0:0:0:
316,184,27889,2,0,L|316:260,1,71.2500027179719,8|0,0:0|0:0,0:0:0:0:
236,160,28175,2,0,P|212:120|208:84,1,71.2500027179719,8|0,0:0|0:0,0:0:0:0:
320,48,28461,2,0,P|356:48|400:64,1,71.2500027179719,8|0,0:0|0:0,0:0:0:0:
472,96,28746,5,8,1:0:0:0:
464,104,28818,1,8,1:0:0:0:
456,112,28889,1,8,1:0:0:0:
448,120,28961,1,8,1:0:0:0:
428,132,29032,1,0,0:0:0:0:
407,103,29103,5,0,0:0:0:0:
380,80,29174,1,0,0:0:0:0:
348,64,29246,1,0,0:0:0:0:
313,56,29317,1,0,0:0:0:0:
278,57,29389,1,0,0:0:0:0:
244,67,29460,1,0,0:0:0:0:
213,84,29532,1,0,0:0:0:0:
192,100,29604,6,0,P|152:152|148:180,1,71.2500027179719,8|0,0:0|0:0,0:0:0:0:
112,272,29889,1,8,0:0:0:0:
248,180,30032,1,0,0:0:0:0:
308,216,30175,2,0,L|232:172,1,71.2500027179719,8|0,0:0|0:0,0:0:0:0:
196,268,30461,2,0,P|232:312|384:164,1,356.25001358986,4|0,0:0|0:0,0:0:0:0:
304,228,31318,1,8,0:0:0:0:
168,80,31604,1,0,0:0:0:0:
44,236,31889,5,8,0:0:0:0:
44,236,31961,1,0,0:0:0:0:
44,236,32032,2,0,P|80:272|124:284,1,71.2500027179719,0|8,0:0|0:0,0:0:0:0:
164,204,32318,1,0,0:0:0:0:
196,268,32461,2,0,L|160:192,1,71.2500027179719,8|8,0:0|0:0,0:0:0:0:
232,128,32746,2,0,L|304:276,1,142.500005435944,4|0,0:0|0:0,0:0:0:0:
380,304,33175,5,0,0:0:0:0:
464,248,33318,2,0,P|472:200|464:168,1,71.2500027179719,8|0,0:0|0:0,0:0:0:0:
388,120,33604,2,0,P|368:160|364:188,1,71.2500027179719
292,252,33889,1,8,0:0:0:0:
200,212,34032,1,0,0:0:0:0:
112,260,34175,6,0,L|80:284,2,35.625001358986,8|0|0,0:0|0:0|0:0,0:0:0:0:
112,160,34461,1,8,0:0:0:0:
156,248,34604,1,0,0:0:0:0:
216,80,34746,1,8,0:0:0:0:
112,160,34889,1,0,0:0:0:0:
260,200,35032,2,0,P|304:224|328:320,2,142.500005435944,4|0|0,0:0|0:0|0:0,0:0:0:0:
84,104,35889,5,8,2:0:0:0:
84,104,35961,1,8,2:0:0:0:
84,104,36032,1,8,2:0:0:0:
180,200,36175,6,0,P|168:152|176:124,1,71.2500027179719,8|0,0:0|0:0,0:0:0:0:
248,68,36461,1,12,1:0:0:0:
248,68,36532,1,8,2:0:0:0:
248,68,36604,2,0,P|292:88|328:120,1,71.2500027179719,8|0,0:0|0:0,0:0:0:0:
384,252,36889,6,0,P|336:296|160:272,1,237.5,4|0,0:0|0:0,0:0:0:0:
174,284,37246,1,0,0:0:0:0:
174,284,37318,2,0,P|120:256|104:192,1,118.75,4|0,0:0|0:0,0:0:0:0:
264,160,37604,1,0,0:0:0:0:
400,88,37746,5,0,0:0:0:0:
400,88,37818,1,0,0:0:0:0:
400,88,37889,2,0,P|424:140|400:228,1,142.500005435944,8|0,0:0|0:0,0:0:0:0:
405,220,38318,1,8,0:0:0:0:
264,276,38746,5,0,0:0:0:0:
308,180,38889,1,0,0:0:0:0:
164,288,39032,2,0,P|116:256|104:216,1,95,8|0,0:0|0:0,0:0:0:0:
204,56,39318,1,0,0:0:0:0:
120,120,39461,1,0,0:0:0:0:
224,140,39604,2,0,P|264:176|232:296,1,190,8|0,0:0|0:0,0:0:0:0:
160,220,40032,1,0,0:0:0:0:
80,152,40175,6,0,P|56:200|64:240,1,95,8|0,0:0|0:0,0:0:0:0:
124,324,40461,2,0,P|144:272|136:224,1,95
164,132,40746,1,8,0:0:0:0:
232,212,40889,1,0,0:0:0:0:
268,116,41032,5,0,0:0:0:0:
268,116,41104,1,0,0:0:0:0:
268,116,41175,2,0,P|324:96|364:104,1,95,0|8,0:0|0:0,0:0:0:0:
435,255,41461,1,0,0:0:0:0:
384,336,41604,2,0,L|440:248,1,95
392,160,41889,2,0,P|352:224|392:348,1,190,8|0,0:0|0:0,0:0:0:0:
435,255,42318,5,0,0:0:0:0:
332,252,42461,2,0,L|216:252,1,95,8|0,0:0|0:0,0:0:0:0:
104,180,42746,2,0,L|200:180,1,95,8|8,0:0|0:0,0:0:0:0:
304,168,43032,2,0,P|288:112|164:80,1,190,4|0,0:0|0:0,0:0:0:0:
152,92,43389,5,0,0:0:0:0:
132,108,43461,1,0,0:0:0:0:
76,288,43604,2,0,L|60:184,1,95,8|0,0:0|0:0,0:0:0:0:
148,152,43889,1,8,0:0:0:0:
244,140,44032,1,0,0:0:0:0:
328,184,44175,2,0,B|368:224|368:224|360:264|360:264|432:332,1,190,4|0,0:0|0:0,0:0:0:0:
460,240,44604,5,0,0:0:0:0:
428,152,44746,2,0,B|388:104|388:104|348:100|348:100|280:40,1,190,8|2,0:0|0:0,0:0:0:0:
76,88,45175,1,0,0:0:0:0:
216,64,45318,1,10,0:0:0:0:
388,184,45461,1,0,0:0:0:0:
248,164,45604,2,0,P|200:204|192:248,1,95,2|0,0:0|0:0,0:0:0:0:
304,324,45889,5,8,0:0:0:0:
440,276,46032,2,0,P|448:220|420:184,1,95,6|0,0:0|0:0,0:0:0:0:
336,80,46318,1,0,0:0:0:0:
198,81,46461,2,0,P|154:121|106:243,1,190,12|0,0:0|0:0,0:0:0:0:
100,252,46818,1,0,0:0:0:0:
92,264,46889,1,0,0:0:0:0:
84,276,46961,1,0,0:0:0:0:
72,300,47032,5,0,0:0:0:0:
117,311,47103,1,0,0:0:0:0:
165,310,47174,1,0,0:0:0:0:
212,304,47246,1,0,0:0:0:0:
259,298,47317,1,4,0:0:0:0:
305,305,47389,1,0,0:0:0:0:
332,304,47461,6,0,P|388:288|440:216,1,142.5,2|0,0:0|0:0,0:0:0:0:
376,136,48032,5,0,0:0:0:0:
284,196,48175,1,0,0:0:0:0:
282,76,48318,2,0,B|224:88|184:48|200:36|188:24|92:44|92:83,1,218.500004167557
284,196,48746,2,0,L|204:288,1,109.250002083778,8|0,0:0|0:0,0:0:0:0:
136,200,49032,2,0,P|104:248|200:356,1,218.500004167557,0|8,0:0|0:0,0:0:0:0:
184,268,49461,1,0,0:0:0:0:
292,264,49604,6,0,P|344:288|404:268,1,109.250002083778
448,128,49889,1,8,0:0:0:0:
416,172,49961,1,8,0:0:0:0:
372,200,50032,1,8,0:0:0:0:
320,224,50104,1,8,0:0:0:0:
272,204,50175,6,0,B|204:160|220:128|236:128|216:100|144:156|96:136,1,218.500004167557,0|8,0:0|0:0,0:0:0:0:
108,244,50604,1,0,0:0:0:0:
240,204,50746,6,0,B|308:160|292:128|276:128|296:100|368:156|416:136,1,218.500004167557,0|8,0:0|0:0,0:0:0:0:
428,244,51175,1,0,0:0:0:0:
340,308,51318,6,0,P|260:340|236:336,1,109.250002083778,8|0,0:0|0:0,0:0:0:0:
188,72,51604,2,0,P|240:44|300:56,1,109.250002083778,8|0,0:0|0:0,0:0:0:0:
396,256,51889,2,0,P|421:209|416:156,1,109.250002083778,8|0,0:0|0:0,0:0:0:0:
104,155,52175,2,0,P|80:204|89:257,1,109.250002083778,8|0,0:0|0:0,0:0:0:0:
192,216,52461,6,0,B|256:204|272:240|320:244|348:204|404:200,1,218.500004167557,8|12,0:0|0:0,0:0:0:0:
344,108,52889,1,0,0:0:0:0:
244,156,53032,2,0,P|240:96|196:72,1,109.250002083778
100,120,53318,1,8,0:0:0:0:
36,208,53461,1,0,0:0:0:0:
96,300,53604,2,0,B|144:328|144:328|184:300|184:300|300:308,1,218.500004167557,4|8,0:0|0:0,0:0:0:0:
440,312,54032,6,0,B|416:276|416:276|424:260|424:260|404:272|404:272|416:272|416:272|360:160,1,218.500004167557,4|0,0:0|0:0,0:0:0:0:
308,64,54461,1,8,0:0:0:0:
308,64,54532,1,0,0:0:0:0:
308,64,54604,1,0,0:0:0:0:
116,168,54746,5,2,0:0:0:0:
268,324,54889,1,2,0:0:0:0:
424,176,55032,1,2,0:0:0:0:
236,60,55175,2,0,P|180:88|120:160,1,109.250002083778,4|0,0:0|0:0,0:0:0:0:
108,244,55461,5,4,0:0:0:0:
132,264,55532,1,0,0:0:0:0:
160,280,55604,1,0,0:0:0:0:
192,280,55675,1,0,0:0:0:0:
220,268,55746,1,0,0:0:0:0:
252,256,55818,1,0,0:0:0:0:
284,268,55889,6,0,P|348:276|396:256,1,109.250002083778,8|0,0:0|0:0,0:0:0:0:
336,48,56175,2,0,P|276:44|232:64,1,109.250002083778,8|0,0:0|0:0,0:0:0:0:
300,272,56461,2,0,P|368:264|400:236,1,109.250002083778,8|8,0:0|0:0,0:0:0:0:
420,208,56675,1,8,0:0:0:0:
439,158,56746,1,8,0:0:0:0:
424,107,56817,1,8,0:0:0:0:
380,76,56889,1,8,0:0:0:0:
326,81,56960,1,8,0:0:0:0:
296,96,57032,6,0,P|232:104|204:128,1,95,2|0,1:0|0:0,0:0:0:0:
148,196,57318,1,2,1:0:0:0:
108,280,57461,1,0,0:0:0:0:
176,348,57604,1,2,1:0:0:0:
272,344,57746,1,0,0:0:0:0:
376,308,57889,6,0,P|416:256|404:208,1,109.250002083778,2|4,1:0|0:0,0:0:0:0:
328,144,58175,1,0,0:0:0:0:
236,88,58318,1,0,0:0:0:0:
128,88,58461,2,0,B|124:144|140:156|140:156|164:196|164:196|152:308,1,218.500004167557,8|0,0:0|0:0,0:0:0:0:
252,244,58889,5,0,0:0:0:0:
353,253,59032,2,0,L|312:152,1,109.250002083778,8|0,0:0|0:0,0:0:0:0:
162,66,59318,2,0,L|204:168,1,109.250002083778
252,268,59604,1,8,0:0:0:0:
204,172,59746,1,0,0:0:0:0:
112,232,59889,6,0,P|124:304|172:328,1,109.250002083778
228,248,60175,1,8,0:0:0:0:
328,296,60318,2,0,P|416:288|432:168,1,218.500004167557,4|0,0:0|0:0,0:0:0:0:
364,220,60746,2,0,P|352:152|468:88,1,218.500004167557,4|0,0:0|0:0,0:0:0:0:
456,196,61175,1,0,0:0:0:0:
464,88,61318,2,0,L|352:88,1,109.250002083778,8|0,0:0|0:0,0:0:0:0:
244,84,61604,5,0,0:0:0:0:
140,108,61746,1,0,0:0:0:0:
36,72,61889,5,8,0:0:0:0:
140,108,62032,1,0,0:0:0:0:
84,200,62175,2,0,B|120:256|132:256|132:256|144:232|144:232|288:228,1,218.500004167557,0|8,0:0|0:0,0:0:0:0:
368,208,62604,1,4,0:0:0:0:
368,208,62746,2,0,P|400:264|384:304,1,109.250002083778
284,256,63032,5,12,0:0:0:0:
208,180,63175,2,0,P|168:240|180:280,1,109.250002083778,0|0,0:0|0:0,0:0:0:0:
52,144,63461,1,0,0:0:0:0:
96,244,63604,1,8,0:0:0:0:
180,312,63746,5,0,0:0:0:0:
180,312,63818,1,0,0:0:0:0:
180,312,63889,2,0,P|240:304|272:240,1,109.250002083778,4|0,0:0|0:0,0:0:0:0:
384,112,64175,1,0,0:0:0:0:
460,276,64318,2,0,B|436:200|472:164|472:164|492:112|476:60,1,218.500004167557,4|0,0:0|0:0,0:0:0:0:
372,44,64746,6,0,P|300:40|264:60,1,109.250002083778,8|0,0:0|0:0,0:0:0:0:
52,144,65032,1,8,0:0:0:0:
152,100,65175,2,0,L|36:148,1,109.250002083778,0|8,0:0|0:0,0:0:0:0:
76,248,65461,1,0,0:0:0:0:
164,312,65604,2,0,P|220:328|272:312,1,109.250002083778,8|0,0:0|0:0,0:0:0:0:
272,144,65889,1,8,0:0:0:0:
108,208,66032,2,0,P|148:136|296:188,1,218.500004167557,4|0,0:0|0:0,0:0:0:0:
212,232,66461,5,8,2:0:0:0:
224,244,66532,1,8,2:0:0:0:
232,256,66604,1,8,2:0:0:0:
240,268,66675,1,8,2:0:0:0:
252,280,66746,5,8,2:0:0:0:
272,308,66818,1,8,2:0:0:0:
300,284,66889,1,8,2:0:0:0:
336,272,66960,1,8,2:0:0:0:
372,284,67032,1,8,2:0:0:0:
444,192,67175,6,0,P|440:120|408:88,1,109.250002083778,4|0,0:0|0:0,0:0:0:0:
312,68,67461,1,0,0:0:0:0:
312,68,67604,2,0,P|368:104|384:156,2,109.250002083778,8|0|0,0:0|0:0|0:0,0:0:0:0:
204,44,68032,1,0,0:0:0:0:
116,112,68175,2,0,L|40:192,1,109.250002083778,8|0,0:0|0:0,0:0:0:0:
128,328,68461,6,0,L|128:208,1,109.250002083778
220,50,68746,2,0,L|220:160,1,109.250002083778,8|0,0:0|0:0,0:0:0:0:
224,304,69032,1,0,0:0:0:0:
284,176,69175,1,0,0:0:0:0:
224,304,69318,1,0,0:0:0:0:
144,184,69461,6,0,P|124:124|248:68,1,218.500004167557,4|0,0:0|0:0,0:0:0:0:
332,164,69889,2,0,P|356:108|236:68,1,218.500004167557,4|0,0:0|0:0,0:0:0:0:
236,208,70318,1,0,0:0:0:0:
236,64,70461,1,8,0:0:0:0:
352,148,70604,1,0,0:0:0:0:
236,64,70746,1,8,0:0:0:0:
124,152,70889,1,0,0:0:0:0:
236,64,71032,6,0,P|296:48|356:64,1,109.250002083778,8|0,0:0|0:0,0:0:0:0:
416,332,71318,2,0,B|416:236|432:224|432:224|464:180|428:124,1,218.500004167557,8|0,0:0|0:0,0:0:0:0:
320,116,71746,2,0,P|272:76|208:88,1,109.250002083778,4|0,0:0|0:0,0:0:0:0:
120,104,72032,1,0,0:0:0:0:
56,192,72175,2,0,L|56:308,2,109.250002083778,4|0|0,0:0|0:0|0:0,0:0:0:0:
120,104,72604,5,0,0:0:0:0:
188,188,72746,1,2,0:0:0:0:
212,80,72889,1,0,0:0:0:0:
192,188,73032,1,2,0:0:0:0:
212,80,73175,1,0,0:0:0:0:
292,152,73318,1,2,0:0:0:0:
288,260,73461,6,0,B|312:316|336:312|336:312|372:296|372:296|412:336|476:340,1,218.500004167557,4|0,0:0|0:0,0:0:0:0:
464,228,73889,2,0,P|460:144|432:116,1,109.250002083778,8|0,0:0|0:0,0:0:0:0:
228,120,74175,2,0,P|224:180|248:224,1,109.250002083778,8|0,0:0|0:0,0:0:0:0:
368,40,74461,2,0,P|424:68|448:112,1,109.250002083778,8|0,0:0|0:0,0:0:0:0:
276,244,74746,2,0,P|220:204|208:156,1,109.250002083778,8|0,0:0|0:0,0:0:0:0:
340,100,75032,1,8,0:0:0:0:
436,172,75175,6,0,P|416:232|364:300,1,109.250002083778,4|8,0:0|0:0,0:0:0:0:
368,284,75389,1,8,0:0:0:0:
344,296,75461,1,8,0:0:0:0:
320,304,75532,1,8,0:0:0:0:
292,308,75604,1,8,0:0:0:0:
264,308,75675,5,8,0:0:0:0:
236,308,75746,1,8,0:0:0:0:
208,304,75818,1,8,0:0:0:0:
184,296,75889,2,0,P|120:256|108:212,1,109.250002083778,8|8,0:0|0:0,0:0:0:0:
100,64,76175,5,8,0:0:0:0:
256,192,76318,12,0,77032,0:0:0:0:
256,192,77604,5,8,0:0:0:0:
320,268,78032,2,0,L|384:212,1,71.2500027179719,8|0,0:0|0:0,0:0:0:0:
424,144,78318,1,0,0:0:0:0:
360,80,78461,1,0,0:0:0:0:
268,76,78604,2,0,P|232:68|132:100,1,142.500005435944,8|0,0:0|0:0,0:0:0:0:
72,284,79032,6,0,P|56:236|64:204,1,71.2500027179719,8|0,0:0|0:0,0:0:0:0:
264,168,79318,2,0,P|276:208|264:240,1,71.2500027179719,8|0,0:0|0:0,0:0:0:0:
88,84,79604,2,0,P|128:56|168:64,1,71.2500027179719,8|0,0:0|0:0,0:0:0:0:
216,184,79889,2,0,P|176:212|136:212,1,71.2500027179719,8|0,0:0|0:0,0:0:0:0:
116,76,80175,6,0,P|164:56|200:60,1,71.2500027179719,8|0,0:0|0:0,0:0:0:0:
296,140,80461,5,8,1:0:0:0:
400,240,80604,1,0,0:0:0:0:
260,220,80746,1,8,1:0:0:0:
388,160,80889,1,0,0:0:0:0:
328,288,81032,1,4,1:0:0:0:
328,216,81604,6,0,P|312:172|100:140,1,285.000010871888,8|8,0:0|0:0,0:0:0:0:
156,344,82603,1,8,0:0:0:0:
236,228,82746,1,0,0:0:0:0:
236,228,82889,1,0,0:0:0:0:
96,204,83032,1,0,0:0:0:0:
96,204,83175,2,0,P|96:256|188:296,1,142.500005435944,8|0,0:0|0:0,0:0:0:0:
232,172,83604,6,0,P|280:136|320:144,1,71.2500027179719,8|0,0:0|0:0,0:0:0:0:
376,248,83889,1,8,0:0:0:0:
376,248,83961,1,0,0:0:0:0:
376,248,84032,1,0,0:0:0:0:
248,312,84175,2,0,P|212:272|212:248,1,71.2500027179719,8|0,0:0|0:0,0:0:0:0:
316,160,84461,1,8,0:0:0:0:
316,160,84532,1,0,0:0:0:0:
316,160,84604,1,0,0:0:0:0:
160,84,84746,5,8,0:0:0:0:
140,100,84818,1,8,0:0:0:0:
120,116,84889,1,8,0:0:0:0:
100,132,84961,1,8,0:0:0:0:
80,144,85032,1,8,2:0:0:0:
64,188,85103,5,8,2:0:0:0:
64,235,85174,1,8,2:0:0:0:
80,280,85246,1,8,2:0:0:0:
109,317,85317,1,8,2:0:0:0:
149,342,85389,1,8,2:0:0:0:
195,353,85460,1,8,2:0:0:0:
242,347,85531,1,8,2:0:0:0:
260,324,85604,6,0,P|280:284|304:280,1,71.2500027179719,8|0,0:0|0:0,0:0:0:0:
396,212,85889,1,8,0:0:0:0:
416,324,86032,1,0,0:0:0:0:
264,212,86175,1,8,0:0:0:0:
328,120,86318,1,0,0:0:0:0:
332,252,86461,6,0,B|324:304|276:312|260:300|240:272|216:256|192:252|176:260|168:276|160:288|152:288|148:292|128:292|116:280|104:272|96:256|92:248|92:248,1,285.000010871888,8|8,0:0|0:0,0:0:0:0:
256,88,87318,1,0,0:0:0:0:
100,224,87461,1,8,0:0:0:0:
440,216,87889,5,8,0:0:0:0:
440,216,87961,1,0,0:0:0:0:
440,216,88032,2,0,P|396:176|376:168,1,71.2500027179719,0|8,0:0|0:0,0:0:0:0:
300,156,88318,1,0,0:0:0:0:
220,188,88461,1,8,0:0:0:0:
172,260,88604,1,0,0:0:0:0:
216,332,88746,1,8,0:0:0:0:
464,96,89318,5,8,0:0:0:0:
356,228,89604,1,0,0:0:0:0:
196,64,89746,1,8,0:0:0:0:
104,304,90175,6,0,L|80:340,2,35.625001358986,8|0|0,0:0|0:0|0:0,0:0:0:0:
204,360,90461,1,8,0:0:0:0:
104,188,90604,1,0,0:0:0:0:
104,304,90746,1,8,0:0:0:0:
200,240,90889,1,0,0:0:0:0:
104,304,91032,2,0,P|72:256|196:104,1,285.000010871888,8|8,0:0|0:0,0:0:0:0:
376,136,91889,5,8,0:0:0:0:
376,136,91961,1,8,0:0:0:0:
376,136,92032,1,8,0:0:0:0:
352,268,92175,1,0,0:0:0:0:
268,164,92318,1,0,0:0:0:0:
144,140,92461,5,8,0:0:0:0:
136,156,92532,1,8,0:0:0:0:
132,176,92604,1,8,0:0:0:0:
128,196,92675,1,8,0:0:0:0:
128,216,92746,2,8,L|148:284,3,47.5,0|0|0|0,0:0|0:0|0:0|0:0,2:0:0:0:
152,276,93032,5,8,0:0:0:0:
168,288,93104,1,8,0:0:0:0:
184,300,93175,1,8,0:0:0:0:
200,312,93246,1,8,0:0:0:0:
220,316,93318,2,0,L|272:308,3,47.5,0|0|0|0,0:0|0:0|0:0|0:0,0:0:0:0:
300,312,93604,5,8,0:0:0:0:
344,327,93675,1,8,0:0:0:0:
390,339,93746,1,8,0:0:0:0:
435,328,93818,1,8,0:0:0:0:
462,289,93889,1,8,2:0:0:0:
466,242,93961,1,8,2:0:0:0:
454,197,94032,1,8,2:0:0:0:
428,157,94103,1,8,2:0:0:0:
395,123,94175,1,8,1:0:0:0:
252,116,94318,5,0,0:0:0:0:
116,152,94461,1,8,0:0:0:0:
408,216,94604,1,0,0:0:0:0:
252,116,94746,6,0,P|208:88|148:88,1,95,8|0,0:0|0:0,0:0:0:0:
28,116,95032,1,8,0:0:0:0:
168,80,95175,1,0,0:0:0:0:
104,224,95318,2,0,L|104:116,1,95,8|0,0:0|0:0,0:0:0:0:
176,52,95604,2,0,B|228:40|236:40|256:48|272:56|292:64|308:76|312:88|312:92|316:104|316:116|316:128|312:136|304:144|296:152|284:160|240:172|240:184|248:200|260:208|272:228|284:236|296:244|304:248|308:248|316:248|336:248|356:228,1,380,8|8,0:0|0:0,0:0:0:0:
420,156,96318,5,0,0:0:0:0:
416,260,96461,2,0,P|396:308|328:336,1,95
332,232,96746,2,0,P|352:172|380:156,1,95,8|0,0:0|0:0,0:0:0:0:
460,48,97032,5,0,0:0:0:0:
452,60,97104,1,0,0:0:0:0:
440,68,97175,2,0,P|384:104|348:104,1,95,0|8,0:0|0:0,0:0:0:0:
252,100,97461,1,0,0:0:0:0:
168,80,97604,2,0,P|220:76|260:112,1,95,8|0,0:0|0:0,0:0:0:0:
196,188,97889,6,0,B|148:188|120:196|120:208|108:220|104:232|108:244|112:260|128:272|152:284|180:288|204:280|220:280|232:288|236:304|232:328|224:348|216:356|188:368|172:372|164:372|144:368|116:368|96:368,1,380,8|8,0:0|0:0,0:0:0:0:
44,288,98604,1,0,0:0:0:0:
44,192,98746,2,0,P|36:256|44:304,1,95
144,288,99032,2,0,P|204:260|324:308,1,190,8|0,0:0|0:0,0:0:0:0:
324,308,99389,1,0,0:0:0:0:
332,320,99461,1,0,0:0:0:0:
376,204,99604,6,0,L|424:296,1,95,8|0,0:0|0:0,0:0:0:0:
464,172,99889,2,0,L|412:80,1,95,8|0,0:0|0:0,0:0:0:0:
296,68,100175,2,0,P|240:56|104:92,2,190,10|2|10,0:0|0:0|0:0,0:0:0:0:
404,128,100889,1,0,0:0:0:0:
372,248,101032,2,8,L|328:284,3,47.5,2|0|0|0,0:0|0:0|0:0|0:0,0:0:0:0:
312,288,101318,1,10,0:0:0:0:
192,228,101461,5,8,0:0:0:0:
96,96,101604,1,8,0:0:0:0:
96,96,101675,1,8,0:0:0:0:
96,96,101746,1,8,0:0:0:0:
240,144,101889,1,0,0:0:0:0:
264,300,102033,5,8,0:0:0:0:
248,308,102104,1,8,0:0:0:0:
228,312,102175,1,8,0:0:0:0:
208,316,102247,1,8,0:0:0:0:
188,316,102318,1,8,0:0:0:0:
92,256,102461,5,0,0:0:0:0:
148,156,102604,1,8,0:0:0:0:
176,132,102675,1,8,0:0:0:0:
208,112,102746,1,8,0:0:0:0:
244,100,102818,1,8,0:0:0:0:
280,104,102889,2,0,P|360:112|380:132,1,95
416,176,103175,5,0,0:0:0:0:
376,336,103318,2,8,L|408:288,1,47.5
304,176,103461,2,8,L|280:216,1,47.5
120,296,103604,2,8,L|152:260,1,47.5
149,106,103746,2,8,L|116:140,1,47.5
332,72,103889,6,0,B|392:104|416:144|416:144|396:184|400:200|408:216|452:252,1,218.500004167557,0|8,0:0|0:0,0:0:0:0:
344,300,104318,1,0,0:0:0:0:
240,268,104461,2,0,B|212:224|168:208|144:236|144:236|88:216|88:144,1,218.500004167557,0|8,0:0|0:0,0:0:0:0:
172,88,104889,1,0,0:0:0:0:
280,88,105032,2,0,P|288:144|184:252,1,218.500004167557,0|8,0:0|0:0,0:0:0:0:
172,144,105461,1,0,0:0:0:0:
84,76,105604,2,0,P|56:128|64:188,1,109.250002083778
64,284,105889,5,8,0:0:0:0:
64,244,105961,1,8,0:0:0:0:
64,196,106032,1,8,0:0:0:0:
64,148,106104,1,8,0:0:0:0:
76,100,106175,2,0,P|108:52|164:56,1,109.250002083778
260,224,106461,1,8,0:0:0:0:
441,137,106604,2,0,P|455:240|368:296,1,218.500004167557
344,188,107032,5,8,0:0:0:0:
336,140,107104,1,8,0:0:0:0:
324,92,107175,1,8,0:0:0:0:
308,44,107246,1,8,0:0:0:0:
272,8,107318,2,0,P|208:32|172:72,1,109.250002083778,8|0,0:0|0:0,0:0:0:0:
252,288,107604,6,0,P|312:264|336:224,1,109.250002083778,8|0,0:0|0:0,0:0:0:0:
92,116,107889,2,0,P|64:176|72:216,1,109.250002083778,8|0,0:0|0:0,0:0:0:0:
384,216,108175,2,0,P|400:156|376:116,1,109.250002083778,8|0,0:0|0:0,0:0:0:0:
284,84,108461,2,0,B|256:152|276:224|284:236|280:248|272:264|252:296,1,218.500004167557,8|4,0:0|0:0,0:0:0:0:
164,256,108889,1,0,0:0:0:0:
152,160,109032,2,0,B|148:100|144:92|132:76|112:72|96:84|88:96|80:112|72:124|64:140|64:160|76:216,1,218.500004167557,8|0,0:0|0:0,0:0:0:0:
72,216,109389,5,0,0:0:0:0:
76,244,109461,1,0,0:0:0:0:
80,272,109532,1,0,0:0:0:0:
96,296,109604,2,0,B|144:336|144:336|188:304|204:296|324:304,1,218.500004167557,4|0,0:0|0:0,0:0:0:0:
291,302,110032,2,0,B|236:272|288:192|300:188|316:188|344:176|344:108,1,218.500004167557,4|0,0:0|0:0,0:0:0:0:
216,88,110461,5,0,0:0:0:0:
196,112,110532,1,0,0:0:0:0:
180,140,110604,1,0,0:0:0:0:
168,172,110675,1,0,0:0:0:0:
164,204,110746,1,2,0:0:0:0:
348,320,110889,5,2,0:0:0:0:
460,132,111032,1,2,0:0:0:0:
256,56,111175,2,0,P|184:44|72:136,1,218.500004167557,4|4,0:0|0:0,0:0:0:0:
92,244,111604,5,0,0:0:0:0:
120,244,111675,1,0,0:0:0:0:
148,244,111746,1,0,0:0:0:0:
176,244,111818,1,0,0:0:0:0:
204,244,111889,2,0,L|328:244,1,109.250002083778,8|0,0:0|0:0,0:0:0:0:
420,104,112175,6,0,L|288:104,1,109.250002083778,8|0,0:0|0:0,0:0:0:0:
136,140,112461,1,8,0:0:0:0:
296,216,112604,1,0,0:0:0:0:
168,244,112746,5,0,0:0:0:0:
168,244,112818,1,0,0:0:0:0:
168,244,112889,1,0,0:0:0:0:
168,244,112961,1,0,0:0:0:0:
168,244,113032,1,0,0:0:0:0:
188,220,113104,5,8,0:0:0:0:
208,191,113175,1,8,0:0:0:0:
229,162,113246,1,8,0:0:0:0:
249,133,113318,1,8,0:0:0:0:
270,104,113389,1,8,0:0:0:0:
290,75,113461,1,8,0:0:0:0:
304,60,113532,5,8,0:0:0:0:
308,95,113603,1,8,0:0:0:0:
330,124,113674,1,8,0:0:0:0:
362,138,113746,1,8,0:0:0:0:
397,135,113817,1,8,0:0:0:0:
426,115,113889,1,8,0:0:0:0:
400,304,114032,6,0,P|348:260|308:256,1,109.250002083778,4|0,0:0|0:0,0:0:0:0:
232,88,114318,1,0,0:0:0:0:
132,132,114461,2,0,P|100:192|168:312,1,218.500004167557,8|0,0:0|0:0,0:0:0:0:
216,212,114889,1,0,0:0:0:0:
300,140,115032,2,0,P|356:120|416:128,1,109.250002083778,8|0,0:0|0:0,0:0:0:0:
468,216,115318,2,0,P|400:232|360:228,1,109.250002083778
300,136,115604,5,8,0:0:0:0:
208,80,115746,2,0,P|148:56|96:76,2,109.250002083778,0|0|0,0:0|0:0|0:0,0:0:0:0:
300,140,116175,1,8,0:0:0:0:
360,232,116318,2,0,B|324:280|268:284|264:276|260:248|256:240|224:224|180:224|156:256,1,218.500004167557,4|0,0:0|0:0,0:0:0:0:
124,344,116746,2,0,B|92:280|64:244|64:236|80:220|96:204|136:176|140:148,1,218.500004167557,4|0,0:0|0:0,0:0:0:0:
140,48,117175,5,0,0:0:0:0:
140,156,117318,2,0,P|164:208|216:216,1,109.250002083778,8|0,0:0|0:0,0:0:0:0:
236,108,117604,2,0,P|256:48|388:76,2,218.500004167557,0|8|0,0:0|0:0|0:0,0:0:0:0:
232,216,118318,1,0,0:0:0:0:
328,336,118461,1,8,0:0:0:0:
200,308,118604,6,0,P|148:272|72:376,1,218.500004167557,4|0,0:0|0:0,0:0:0:0:
164,320,119032,1,4,0:0:0:0:
136,212,119175,2,0,P|164:160|208:144,1,109.250002083778,0|0,0:0|0:0,0:0:0:0:
292,216,119461,1,0,0:0:0:0:
380,152,119604,1,8,0:0:0:0:
388,260,119746,1,0,0:0:0:0:
380,152,119889,5,8,0:0:0:0:
380,152,119961,1,8,0:0:0:0:
380,152,120032,1,8,0:0:0:0:
300,76,120175,1,0,0:0:0:0:
103,233,120318,2,0,P|103:128|192:72,1,218.500004167557,4|0,0:0|0:0,0:0:0:0:
248,168,120746,5,8,0:0:0:0:
316,320,120889,1,0,0:0:0:0:
176,236,121032,1,8,0:0:0:0:
340,228,121175,1,0,0:0:0:0:
216,332,121318,2,0,P|144:336|100:320,1,109.250002083778,8|0,0:0|0:0,0:0:0:0:
236,216,121604,2,0,P|312:216|352:240,1,109.250002083778,8|0,0:0|0:0,0:0:0:0:
405,304,121889,5,0,0:0:0:0:
340,228,122032,2,0,P|320:172|352:120,1,109.250002083778,4|0,0:0|0:0,0:0:0:0:
464,180,122318,1,0,0:0:0:0:
380,76,122461,1,8,2:0:0:0:
364,60,122532,1,8,2:0:0:0:
344,52,122604,1,8,2:0:0:0:
324,44,122675,1,8,2:0:0:0:
304,40,122746,1,8,2:0:0:0:
280,40,122818,5,8,2:0:0:0:
260,44,122889,1,8,2:0:0:0:
240,48,122961,1,8,2:0:0:0:
220,60,123032,1,8,2:0:0:0:
144,204,123175,6,0,P|100:152|108:104,1,109.250002083778
264,144,123461,1,0,0:0:0:0:
348,228,123604,2,0,P|332:288|280:320,2,109.250002083778,8|0|0,0:0|0:0|0:0,0:0:0:0:
264,144,124032,1,0,0:0:0:0:
144,148,124175,2,0,B|136:208|124:236|96:252|96:252|92:356,1,218.500004167557,8|8,0:0|0:0,0:0:0:0:
196,292,124604,6,0,L|288:224,1,109.250002083778,0|8,0:0|0:0,0:0:0:0:
292,108,124889,1,0,0:0:0:0:
412,112,125032,1,8,0:0:0:0:
412,232,125175,1,0,0:0:0:0:
412,112,125318,1,8,0:0:0:0:
292,108,125461,1,4,0:0:0:0:
436,300,125746,1,0,0:0:0:0:
320,272,125889,6,0,P|280:224|136:272,1,218.500004167557,4|0,0:0|0:0,0:0:0:0:
236,336,126318,2,0,P|160:296|144:252,1,109.250002083778,0|8,0:0|0:0,0:0:0:0:
112,164,126604,1,0,0:0:0:0:
148,276,126746,1,8,0:0:0:0:
248,344,126889,1,0,0:0:0:0:
112,164,127032,5,8,0:0:0:0:
248,344,127175,1,0,0:0:0:0:
148,276,127318,1,8,0:0:0:0:
240,200,127461,1,0,0:0:0:0:
276,84,127604,1,8,0:0:0:0:
384,32,127746,2,0,P|440:72|408:220,1,218.500004167557,4|0,0:0|0:0,0:0:0:0:
148,208,128175,6,0,P|176:268|316:252,2,218.500004167557,4|0|8,0:0|0:0|0:0,0:0:0:0:
148,192,128818,1,8,0:0:0:0:
148,176,128889,1,8,0:0:0:0:
156,44,129032,5,4,0:0:0:0:
224,156,129175,1,0,0:0:0:0:
156,44,129318,1,0,0:0:0:0:
148,192,129461,2,0,B|120:248|100:240|76:248|64:256|40:280|40:304|56:324|76:336|120:352,1,218.500004167557,4|0,0:0|0:0,0:0:0:0:
392,272,129889,6,0,P|328:252|284:260,1,109.250002083778,8|0,0:0|0:0,0:0:0:0:
64,308,130175,2,0,P|128:320|184:308,1,109.250002083778,8|0,0:0|0:0,0:0:0:0:
236,200,130461,5,8,2:0:0:0:
244,180,130532,1,8,2:0:0:0:
256,160,130604,1,8,2:0:0:0:
272,144,130675,1,8,2:0:0:0:
288,132,130746,1,8,2:0:0:0:
304,120,130818,5,8,2:0:0:0:
324,112,130889,1,8,2:0:0:0:
348,112,130961,1,8,2:0:0:0:
368,116,131032,1,8,2:0:0:0:
388,128,131104,1,8,2:0:0:0:
400,144,131175,2,0,B|436:204|392:260|392:256|348:232|336:232|320:240|288:296,1,218.500004167557,4|0,0:0|0:0,0:0:0:0:
152,272,131604,6,0,P|100:244|68:200,1,109.250002083778,8|0,0:0|0:0,0:0:0:0:
252,30,131889,2,0,P|295:63|320:112,1,109.250002083778,8|0,0:0|0:0,0:0:0:0:
256,192,132175,1,8,0:0:0:0:
412,300,132318,6,0,B|348:276|332:288|328:304|304:312|292:320|264:324|244:312|232:296|196:272,1,213.750008153916,4|2,0:0|0:0,0:0:0:0:
68,168,133032,1,2,0:0:0:0:
240,100,133318,1,2,0:0:0:0:
416,160,133604,5,0,0:0:0:0:
308,216,133746,1,0,0:0:0:0:
160,64,133889,1,8,0:0:0:0:
216,172,134032,1,0,0:0:0:0:
144,268,134175,5,8,0:0:0:0:
156,280,134246,1,0,0:0:0:0:
168,292,134318,1,0,0:0:0:0:
180,304,134389,1,0,0:0:0:0:
192,316,134461,5,8,0:0:0:0:
224,301,134532,1,0,0:0:0:0:
250,277,134603,1,0,0:0:0:0:
267,246,134675,1,0,0:0:0:0:
276,216,134746,6,0,P|292:168|332:148,1,71.2500027179719,8|0,0:0|0:0,0:0:0:0:
380,224,135032,2,0,P|412:184|440:180,1,71.2500027179719,8|0,0:0|0:0,0:0:0:0:
440,320,135318,1,8,0:0:0:0:
440,320,135461,1,8,0:0:0:0:
192,328,135746,2,0,P|248:312|332:344,1,142.500005435944,8|0,1:0|0:0,0:0:0:0:
360,176,136175,2,0,P|348:136|316:112,1,71.2500027179719,8|0,0:0|0:0,0:0:0:0:
240,124,136461,2,0,P|208:84|172:80,1,71.2500027179719,8|0,0:0|0:0,0:0:0:0:
120,128,136746,5,8,0:0:0:0:
84,204,136889,2,0,P|84:252|144:332,1,142.500005435944,2|8,1:0|0:0,0:0:0:0:
204,272,137318,2,0,P|256:264|348:304,1,142.500005435944,8|8,0:0|1:0,0:0:0:0:
284,360,137746,1,0,0:0:0:0:
228,296,137889,2,0,L|184:216,1,71.2500027179719
120,128,138175,1,8,0:0:0:0:
120,128,138318,1,0,0:0:0:0:
284,68,138461,1,8,0:0:0:0:
284,68,138604,1,0,0:0:0:0:
276,216,138746,6,8,L|316:280,2,47.5000018119813
352,120,139032,2,8,L|376:64,2,47.5000018119813
440,212,139318,1,12,0:0:0:0:
448,296,139461,1,0,0:0:0:0:
372,336,139604,2,0,P|320:344|284:332,1,71.2500027179719,8|0,0:0|0:0,0:0:0:0:
128,240,139889,2,0,P|188:228|216:240,1,71.2500027179719,8|8,0:0|0:0,0:0:0:0:
128,224,140318,6,0,P|184:208|276:240,1,142.500005435944,8|8,1:0|0:0,0:0:0:0:
344,196,140746,2,0,P|360:148|352:116,1,71.2500027179719,8|0,0:0|0:0,0:0:0:0:
280,92,141032,2,0,P|264:48|244:40,1,71.2500027179719,8|0,0:0|0:0,0:0:0:0:
160,64,141318,1,0,0:0:0:0:
56,32,141461,2,0,B|32:84|48:116|60:120|84:140|84:184,1,142.500005435944,4|8,0:0|0:0,0:0:0:0:
140,228,141889,5,8,0:0:0:0:
204,288,142032,1,8,0:0:0:0:
288,308,142175,1,8,0:0:0:0:
432,184,142318,5,8,0:0:0:0:
348,204,142461,1,8,0:0:0:0:
264,188,142604,1,8,0:0:0:0:
112,48,142746,5,8,0:0:0:0:
60,180,142889,1,0,0:0:0:0:
196,140,143032,1,8,0:0:0:0:
60,180,143175,5,0,0:0:0:0:
168,276,143318,1,8,0:0:0:0:
196,136,143461,1,0,0:0:0:0:
60,176,143604,1,8,0:0:0:0:
160,276,143746,1,0,0:0:0:0:
256,192,143889,6,0,B|244:240|204:248|192:240|168:224|160:224|128:248,1,142.500005435944,12|0,0:0|0:0,0:0:0:0:
92,168,144318,1,0,0:0:0:0:
92,168,144461,2,0,B|60:196|48:200|32:216|40:240|52:252|72:256|72:272|68:304,1,142.500005435944,8|0,0:0|0:0,0:0:0:0:
152,312,144889,1,0,0:0:0:0:
312,216,145032,1,8,0:0:0:0:
120,48,145461,1,8,0:0:0:0:
64,112,145604,6,0,P|48:164|48:188,1,71.2500027179719
76,260,145889,1,0,0:0:0:0:
128,328,146032,2,0,B|204:312|220:320|228:332|236:340|248:348|280:336,1,142.500005435944,8|0,0:0|0:0,0:0:0:0:
336,292,146461,6,0,P|380:260|388:240,1,71.2500027179719,8|0,0:0|0:0,0:0:0:0:
232,104,146746,2,0,P|192:128|180:168,1,71.2500027179719,8|0,0:0|0:0,0:0:0:0:
412,232,147032,2,0,P|416:188|400:160,1,71.2500027179719,8|0,0:0|0:0,0:0:0:0:
160,180,147318,2,0,P|156:220|188:256,1,71.2500027179719,8|0,0:0|0:0,0:0:0:0:
392,160,147604,2,0,P|372:120|344:108,1,71.2500027179719,8|0,0:0|0:0,0:0:0:0:
156,212,147889,6,0,P|168:252|196:272,1,71.2500027179719,2|0,1:0|0:0,0:0:0:0:
392,168,148175,2,0,L|332:216,1,71.2500027179719,2|0,1:0|0:0,0:0:0:0:
98,50,148461,2,0,P|160:82|224:56,1,142.500005435944,2|0,1:0|0:0,0:0:0:0:
308,44,148889,1,0,0:0:0:0:
448,232,149032,1,8,0:0:0:0:
112,300,149604,6,0,P|92:264|176:136,1,213.750008153916,8|8,0:0|0:0,0:0:0:0:
180,220,150175,1,0,0:0:0:0:
224,292,150318,1,0,0:0:0:0:
296,340,150461,1,0,0:0:0:0:
380,348,150604,2,0,P|452:336|464:268,1,142.500005435944,8|0,0:0|0:0,0:0:0:0:
316,100,151032,6,0,L|376:152,1,71.2500027179719,2|0,1:0|0:0,0:0:0:0:
264,204,151318,2,0,L|208:152,1,71.2500027179719,2|0,1:0|0:0,0:0:0:0:
320,96,151604,1,2,1:0:0:0:
200,96,151746,1,0,0:0:0:0:
390,238,151889,6,0,L|340:188,1,71.2500027179719,2|0,1:0|0:0,0:0:0:0:
220,180,152175,2,0,L|268:240,1,71.2500027179719,2|0,1:0|0:0,0:0:0:0:
340,332,152461,1,8,1:0:0:0:
380,216,152604,1,0,0:0:0:0:
216,328,152746,5,8,1:0:0:0:
156,224,152889,1,0,0:0:0:0:
272,192,153032,2,0,L|272:44,1,142.500005435944,4|0,1:0|0:0,0:0:0:0:
56,164,153604,5,0,0:0:0:0:
244,316,153889,1,0,0:0:0:0:
136,100,154175,1,0,0:0:0:0:
124,344,154461,1,0,0:0:0:0:
256,140,154746,1,0,0:0:0:0:
440,300,155032,5,0,0:0:0:0:
256,140,155318,1,0,0:0:0:0:
80,308,155604,1,0,0:0:0:0:
250,137,155889,1,0,0:0:0:0:
8,152,156175,1,0,0:0:0:0:
244,212,156461,1,0,0:0:0:0:
464,312,156746,1,0,0:0:0:0:
356,96,157032,6,0,P|308:64|272:56,1,71.2500027179719,4|0,1:0|0:0,0:0:0:0:
192,124,157318,2,0,P|208:160|240:184,1,71.2500027179719,4|0,1:0|0:0,0:0:0:0:
352,212,157604,2,0,B|344:256|312:240|312:240|292:232|280:236|264:240|248:256|240:280,1,142.500005435944,4|0,1:0|0:0,0:0:0:0:
124,252,158032,5,0,0:0:0:0:
96,220,158175,1,0,0:0:0:0:
88,180,158318,1,0,0:0:0:0:
92,136,158461,1,0,0:0:0:0:
116,100,158604,1,0,0:0:0:0:
148,72,158746,2,0,P|192:56|240:56,1,71.2500027179719
256,64,159032,5,0,0:0:0:0:
292,88,159175,1,0,0:0:0:0:
328,112,159318,2,0,P|340:160|340:192,1,71.2500027179719
200,304,159604,2,0,P|184:260|196:224,1,71.2500027179719
236,152,159889,1,0,0:0:0:0:
296,232,160032,1,0,0:0:0:0:
236,152,160175,5,8,0:0:0:0:
228,140,160246,1,8,0:0:0:0:
216,128,160318,1,8,0:0:0:0:
76,192,160461,1,8,0:0:0:0:
76,208,160533,1,8,0:0:0:0:
80,220,160604,1,8,0:0:0:0:
176,248,160746,5,0,0:0:0:0:
272,216,160889,1,0,0:0:0:0:
368,244,161032,2,0,P|416:276|432:312,1,71.2500027179719
336,336,161318,1,0,0:0:0:0:
236,152,161604,1,8,1:0:0:0:
156,212,161746,1,8,1:0:0:0:
136,116,161889,1,8,1:0:0:0:
256,192,162032,12,0,163032,0:0:0:0:
232,124,163318,6,0,B|216:176|216:176|172:164|136:164|120:188|112:224|120:260,1,190,0|8,0:0|0:0,0:0:0:0:
228,308,163746,1,0,0:0:0:0:
344,240,163889,2,0,B|344:184|344:184|356:176|364:176|388:168|400:160|412:144|416:124|416:112|412:80,1,190,0|8,0:0|0:0,0:0:0:0:
324,36,164318,1,0,0:0:0:0:
192,44,164461,2,0,B|132:40|116:44|96:64|88:84|96:96|116:136|132:140|136:160|72:200,1,237.5,8|0,0:0|0:0,0:0:0:0:
80,204,164889,6,0,B|52:252|48:256|40:268|52:288|68:284|88:284|108:296|120:308|124:320|140:352|140:352|160:312,1,237.5,8|0,0:0|0:0,0:0:0:0:
192,296,165318,2,0,B|196:240|196:240|212:224|232:228|264:236|276:248|288:264|304:268|340:212,2,190,8|0|8,0:0|0:0|0:0,0:0:0:0:
68,248,166032,1,0,0:0:0:0:
96,120,166175,1,8,0:0:0:0:
184,220,166318,1,0,0:0:0:0:
96,120,166461,1,8,0:0:0:0:
68,248,166604,6,0,P|96:304|160:316,2,95,4|0|0,0:0|0:0|0:0,0:0:0:0:
84,144,167032,1,8,0:0:0:0:
24,60,167175,1,0,0:0:0:0:
116,8,167318,2,0,P|176:8|216:24,1,95
276,100,167604,1,8,0:0:0:0:
208,180,167746,1,0,0:0:0:0:
308,208,167889,6,0,P|368:200|400:228,1,95
436,316,168175,1,8,0:0:0:0:
484,224,168318,1,0,0:0:0:0:
448,124,168461,2,0,P|420:80|376:56,1,95
168,112,168746,2,0,P|200:72|240:56,1,95,8|0,0:0|0:0,0:0:0:0:
388,100,169032,5,8,0:0:0:0:
292,216,169175,1,8,0:0:0:0:
440,176,169318,1,8,0:0:0:0:
296,132,169461,1,8,0:0:0:0:
392,256,169746,1,2,0:0:0:0:
96,184,170032,1,2,0:0:0:0:
96,184,170461,6,0,P|72:232|176:308,1,190,2|8,0:0|0:0,0:0:0:0:
188,224,170889,1,0,0:0:0:0:
212,132,171032,1,8,0:0:0:0:
212,132,171104,1,0,0:0:0:0:
212,132,171175,2,0,L|248:40,1,95
296,136,171461,5,0,0:0:0:0:
340,52,171604,2,0,B|408:64|420:68|432:88|412:116|400:136|408:176|444:184,1,190,8|0,0:0|0:0,0:0:0:0:
372,252,172032,1,0,0:0:0:0:
280,228,172175,2,0,B|264:172|244:160|224:164|208:176|192:172|160:148|152:132|160:100,1,190,8|0,0:0|0:0,0:0:0:0:
92,40,172604,1,8,0:0:0:0:
92,228,172889,1,8,0:0:0:0:
256,128,173175,1,8,0:0:0:0:
468,320,173461,1,2,0:0:0:0:
284,276,173746,5,0,0:0:0:0:
284,276,173889,2,0,P|228:268|184:236,1,95,2|0,0:0|0:0,0:0:0:0:
316,60,174175,2,0,P|368:68|412:92,1,95,2|0,0:0|0:0,0:0:0:0:
260,264,174461,2,0,P|220:232|200:188,1,95,2|0,0:0|0:0,0:0:0:0:
344,60,174746,1,8,0:0:0:0:
386,79,174817,1,8,0:0:0:0:
411,118,174888,1,8,0:0:0:0:
424,164,174961,1,8,0:0:0:0:
421,211,175032,5,8,2:0:0:0:
407,256,175103,1,8,2:0:0:0:
381,296,175175,1,8,2:0:0:0:
346,327,175246,1,8,2:0:0:0:
304,349,175318,1,8,2:0:0:0:
257,359,175389,1,8,2:0:0:0:
210,356,175461,1,8,2:0:0:0:
165,341,175532,1,8,2:0:0:0:
126,315,175603,1,8,2:0:0:0:
96,224,175746,6,0,P|88:168|268:116,1,285,0|2,0:0|0:0,0:0:0:0:
360,216,176461,2,0,L|424:268,2,71.2500027179719,0|0|2,0:0|0:0|0:0,0:0:0:0:
296,160,176889,2,0,P|272:120|232:100,1,71.2500027179719,0|0,0:0|0:0,0:0:0:0:
168,96,177175,1,0,0:0:0:0:
84,112,177318,2,0,P|84:160|144:236,1,142.500005435944,2|8,0:0|0:0,0:0:0:0:
164,236,177675,5,8,0:0:0:0:
190,211,177746,1,8,0:0:0:0:
216,187,177817,1,8,0:0:0:0:
242,163,177889,1,8,0:0:0:0:
268,139,177960,1,8,0:0:0:0:
304,116,178032,2,0,P|352:128|368:276,1,213.750008153916,4|0,0:0|0:0,0:0:0:0:
256,192,182461,5,0,2:0:0:0:
256,192,182532,1,0,2:0:0:0:
256,192,182604,2,0,B|212:192|196:184|180:168|160:168|144:168|136:180|124:192|120:208|100:208|80:200|68:196|40:184,1,213.750008153916,4|4,0:0|0:0,0:0:0:0:
396,192,183604,1,0,0:0:0:0:
268,304,183889,5,8,0:0:0:0:
244,312,183961,1,8,0:0:0:0:
220,316,184032,2,0,P|168:324|144:316,1,71.2500027179719,8|8,0:0|0:0,0:0:0:0:
136,300,184246,1,8,0:0:0:0:
132,276,184318,2,0,P|180:248|216:244,1,71.2500027179719,8|2,0:0|0:0,0:0:0:0:
194,244,184604,1,2,0:0:0:0:
280,192,184889,5,0,0:0:0:0:
384,84,185318,2,0,P|440:104|460:192,1,142.500005435944,0|8,0:0|0:0,0:0:0:0:
380,292,185746,1,0,0:0:0:0:
288,184,185889,1,0,0:0:0:0:
256,192,186032,12,0,187032,0:0:0:0:
256,200,187604,6,0,B|252:144|248:136|228:132|216:128|172:116|168:88|188:60|208:48|240:32|268:24|312:32|320:36|336:40|360:116,1,327.750006251335,4|0,0:0|0:0,0:0:0:0:
376,232,188175,2,0,P|376:296|348:340,1,109.250002083778,8|0,0:0|0:0,0:0:0:0:
236,236,188461,2,0,P|236:172|264:128,1,109.250002083778
380,40,188746,1,8,0:0:0:0:
304,172,188889,1,0,0:0:0:0:
252,316,189032,2,0,P|188:320|144:288,1,109.250002083778
64,168,189318,1,8,0:0:0:0:
156,44,189461,6,0,P|220:16|364:52,1,218.500004167557,4|0,0:0|0:0,0:0:0:0:
432,184,189889,2,0,P|372:208|220:168,1,218.500004167557,4|0,0:0|0:0,0:0:0:0:
80,216,190318,1,0,0:0:0:0:
224,160,190461,1,8,0:0:0:0:
100,68,190604,1,0,0:0:0:0:
152,212,190746,5,8,0:0:0:0:
80,348,190889,1,0,0:0:0:0:
52,196,191032,1,8,0:0:0:0:
152,312,191175,1,0,0:0:0:0:
288,244,191318,2,8,P|340:288|388:280,1,109.250002083778
416,136,191604,5,8,0:0:0:0:
300,236,191746,2,0,P|272:180|380:92,1,218.500004167557,4|0,0:0|0:0,0:0:0:0:
444,228,192175,1,4,0:0:0:0:
348,348,192318,1,0,0:0:0:0:
196,336,192461,2,0,P|132:320|88:280,1,109.250002083778
92,140,192746,5,8,0:0:0:0:
224,220,192889,1,0,0:0:0:0:
196,68,193032,1,8,0:0:0:0:
196,68,193104,1,8,0:0:0:0:
196,68,193175,1,8,0:0:0:0:
120,200,193318,5,0,0:0:0:0:
120,200,193461,2,0,B|136:260|152:268|168:264|192:256|216:252|248:260|256:264|268:320,1,218.500004167557,4|0,0:0|0:0,0:0:0:0:
416,280,193889,5,8,0:0:0:0:
384,132,194032,1,0,0:0:0:0:
416,280,194175,1,8,0:0:0:0:
296,184,194318,1,0,0:0:0:0:
416,280,194461,5,8,2:0:0:0:
400,296,194532,1,8,2:0:0:0:
380,308,194604,1,8,2:0:0:0:
360,316,194675,1,8,2:0:0:0:
340,320,194746,1,8,2:0:0:0:
320,324,194818,5,8,2:0:0:0:
300,324,194889,1,8,2:0:0:0:
280,320,194961,1,8,2:0:0:0:
260,312,195032,1,8,2:0:0:0:
240,300,195104,1,8,2:0:0:0:
220,292,195175,6,0,B|152:280|144:288|132:304|128:312|104:320|80:320|64:268|84:208,1,218.500004167557,4|0,0:0|0:0,0:0:0:0:
140,104,195604,2,0,L|176:52,3,54.6250010418892,2|0|0|0,0:0|0:0|0:0|0:0,0:0:0:0:
360,124,195889,2,0,L|328:172,3,54.6250010418892,2|0|0|0,0:0|0:0|0:0|0:0,0:0:0:0:
296,196,196175,2,0,P|224:224|176:212,1,109.250002083778,0|2,0:0|0:0,0:0:0:0:
100,128,196461,2,0,P|68:180|68:240,1,109.250002083778
116,324,196746,2,0,P|168:304|220:328,1,109.250002083778,8|0,0:0|0:0,0:0:0:0:
324,324,197032,5,0,0:0:0:0:
400,248,197175,1,0,0:0:0:0:
368,144,197318,2,0,P|316:116|244:128,1,109.250002083778,8|0,0:0|0:0,0:0:0:0:
164,156,197604,2,0,P|224:192|264:192,1,109.250002083778
268,84,197889,2,0,P|216:64|148:72,1,109.250002083778,8|0,0:0|0:0,0:0:0:0:
88,148,198175,5,8,0:0:0:0:
152,60,198318,1,0,0:0:0:0:
136,256,198461,1,8,0:0:0:0:
88,148,198604,2,0,P|160:136|296:192,1,218.500004167557,4|0,0:0|0:0,0:0:0:0:
256,252,199032,2,0,P|224:200|324:108,1,218.500004167557,4|0,0:0|0:0,0:0:0:0:
348,212,199461,6,0,L|376:324,1,109.250002083778,0|8,0:0|0:0,0:0:0:0:
440,232,199746,1,0,0:0:0:0:
304,96,199889,2,0,P|368:72|416:84,1,109.250002083778
348,172,200175,2,0,P|296:204|240:204,1,109.250002083778,8|0,0:0|0:0,0:0:0:0:
160,140,200461,1,8,0:0:0:0:
60,100,200604,5,0,0:0:0:0:
76,208,200746,1,8,0:0:0:0:
160,140,200889,1,4,0:0:0:0:
288,316,201175,1,0,0:0:0:0:
224,228,201318,2,0,P|220:168|256:112,2,109.250002083778,4|0|0,0:0|0:0|0:0,0:0:0:0:
288,316,201746,1,0,0:0:0:0:
372,244,201889,6,0,P|408:192|400:148,1,109.250002083778,8|0,0:0|0:0,0:0:0:0:
340,60,202175,2,0,P|312:112|328:168,1,109.250002083778
280,260,202461,1,8,0:0:0:0:
172,280,202604,2,0,P|112:244|120:92,1,218.500004167557,4|0,0:0|0:0,0:0:0:0:
106,107,202961,1,0,0:0:0:0:
106,107,203032,2,0,P|160:64|236:64,1,109.250002083778,8|0,0:0|0:0,0:0:0:0:
400,144,203318,2,0,P|360:192|312:220,1,109.250002083778,8|0,0:0|0:0,0:0:0:0:
232,108,203604,5,8,0:0:0:0:
206,132,203675,1,8,0:0:0:0:
180,157,203746,1,8,0:0:0:0:
154,181,203818,1,8,0:0:0:0:
128,216,203889,1,8,0:0:0:0:
163,236,203961,5,8,0:0:0:0:
212,260,204031,1,8,0:0:0:0:
263,279,204103,1,8,0:0:0:0:
315,296,204174,1,8,0:0:0:0:
368,309,204246,1,8,0:0:0:0:
408,300,204318,6,0,P|412:236|324:116,1,218.500004167557
176,80,204746,5,2,0:0:0:0:
176,80,205032,1,2,0:0:0:0:
64,364,205318,1,2,0:0:0:0:
140,232,205461,1,2,0:0:0:0:
212,344,205604,6,0,B|272:320|272:316|280:296|288:280|312:272|332:264|352:260|384:272,1,190,4|8,0:0|0:0,0:0:0:0:
408,180,206032,1,0,0:0:0:0:
348,108,206175,2,0,B|308:80|292:80|276:92|264:108|256:120,1,95
100,192,206461,1,8,0:0:0:0:
88,236,206532,1,8,0:0:0:0:
84,284,206603,1,8,0:0:0:0:
108,324,206675,1,8,0:0:0:0:
148,348,206746,6,0,P|184:312|320:320,1,190,8|8,0:0|0:0,0:0:0:0:
236,372,207175,1,0,0:0:0:0:
236,372,207318,2,0,B|236:304|224:284|208:264|204:240|220:176,1,190,0|8,0:0|0:0,0:0:0:0:
232,160,207675,5,8,0:0:0:0:
248,136,207746,1,8,0:0:0:0:
272,120,207818,1,8,0:0:0:0:
296,108,207889,1,8,0:0:0:0:
388,176,208032,5,0,0:0:0:0:
444,288,208175,1,8,0:0:0:0:
324,260,208318,2,0,B|280:224|248:220|212:248|196:268|176:276|140:252,1,190
116,136,208746,5,8,1:0:0:0:
116,136,208818,1,8,1:0:0:0:
116,136,208889,1,8,1:0:0:0:
116,136,208961,1,8,1:0:0:0:
116,136,209032,2,0,P|112:188|128:248,1,95,8|0,0:0|0:0,0:0:0:0:
336,68,209318,2,0,P|340:120|328:168,1,95,8|0,0:0|0:0,0:0:0:0:
124,316,209604,2,0,P|108:260|112:220,1,95,8|0,0:0|0:0,0:0:0:0:
348,188,209889,2,0,P|352:140|336:92,1,95,8|0,0:0|0:0,0:0:0:0:
224,52,210175,6,0,B|176:72|152:64|128:60|96:72|64:96|60:148,1,190,4|8,0:0|0:0,0:0:0:0:
48,252,210604,1,0,0:0:0:0:
168,228,210746,2,0,B|168:188|168:176|168:172|176:164|176:160|176:160|216:172|248:136|308:116,1,190,0|8,0:0|0:0,0:0:0:0:
320,244,211175,1,0,0:0:0:0:
400,152,211318,2,0,L|444:236,1,95
384,128,211604,1,8,0:0:0:0:
384,252,211746,6,0,P|376:324|344:340,1,95
244,300,212032,1,0,0:0:0:0:
120,316,212175,2,8,L|72:348,3,47.5,0|0|0|0,0:0|0:0|0:0|0:0,0:0:0:0:
120,292,212461,1,10,0:0:0:0:
120,168,212604,1,0,0:0:0:0:
244,168,212746,1,10,0:0:0:0:
244,291,212889,1,0,0:0:0:0:
180,340,213032,5,10,0:0:0:0:
287,232,213175,1,10,0:0:0:0:
179,124,213318,1,2,0:0:0:0:
71,231,213461,1,10,0:0:0:0:
104,72,213604,5,8,2:0:0:0:
116,88,213675,1,8,2:0:0:0:
132,100,213746,1,8,2:0:0:0:
152,104,213818,1,8,2:0:0:0:
172,100,213889,1,8,2:0:0:0:
188,88,213961,5,8,2:0:0:0:
204,80,214032,1,8,2:0:0:0:
224,76,214104,1,8,2:0:0:0:
240,84,214175,2,0,B|308:96|336:124|360:172|372:172|416:152,1,190,8|8,1:0|1:0,0:0:0:0:
392,272,214604,2,0,B|340:256|292:264|280:280|264:288|236:296|208:288|208:252|184:228|120:284,1,285,4|4,1:0|1:0,0:0:0:0:
244,160,215318,5,0,0:0:0:0:
320,124,215461,1,0,0:0:0:0:
384,180,215604,1,0,0:0:0:0:
304,224,215746,2,0,P|264:236|148:208,1,142.500005435944
156,104,216175,5,8,2:0:0:0:
156,104,216246,1,8,2:0:0:0:
156,104,216318,1,8,2:0:0:0:
156,104,216389,1,8,2:0:0:0:
156,104,216461,2,0,P|128:164|132:204,1,95,8|8,0:0|0:0,0:0:0:0:
164,300,216746,1,8,0:0:0:0:
256,192,216889,12,0,217746,2:0:0:0:
