osu file format v14

[General]
AudioFilename: audio.mp3
AudioLeadIn: 0
PreviewTime: 46051
Countdown: 1
SampleSet: Normal
StackLeniency: 0.7
Mode: 0
LetterboxInBreaks: 0
WidescreenStoryboard: 0

[Editor]
DistanceSpacing: 1
BeatDivisor: 4
GridSize: 4
TimelineZoom: 1

[Metadata]
Title:Stargaze
TitleUnicode:Stargaze
Artist:UNDEAD CORPORATION (feat. Register6)
ArtistUnicode:UNDEAD CORPORATION (feat. Register6)
Creator:Stampfgas
Version:Stargaze
Source:
Tags:undead corporation register6 everything will freeze stargaze insane touhou metal vocal
BeatmapID:1057139
BeatmapSetID:496654

[Difficulty]
HPDrainRate:6
CircleSize:4
OverallDifficulty:7
ApproachRate:9.3
SliderMultiplier:1.4
SliderTickRate:1

[Events]
//Background and Video events
0,0,"58439420_p0.jpg",0,0
//Break Periods
2,28760,44006
//Storyboard Layer 0 (Background)
//Storyboard Layer 1 (Fail)
//Storyboard Layer 2 (Pass)
//Storyboard Layer 3 (Foreground)
//Storyboard Sound Samples

[TimingPoints]
418,285.714285714286,4,1,0,100,1,0
46418,-100,4,1,0,100,0,1

[HitObjects]
124,64,132,5,0,0:0:0:0:
388,64,418,1,0,0:0:0:0:
256,104,703,1,0,0:0:0:0:
256,120,775,1,0,0:0:0:0:
256,136,846,1,0,0:0:0:0:
256,152,918,1,0,0:0:0:0:
256,168,989,1,0,0:0:0:0:
256,184,1060,1,0,0:0:0:0:
256,200,1132,1,0,0:0:0:0:
192,296,1418,5,0,0:0:0:0:
384,188,1560,1,0,0:0:0:0:
92,200,1846,5,0,0:0:0:0:
376,44,2132,1,0,0:0:0:0:
292,332,2418,1,0,0:0:0:0:
440,192,2703,1,0,0:0:0:0:
132,208,2989,5,0,0:0:0:0:
80,68,3132,1,0,0:0:0:0:
236,96,3275,1,0,0:0:0:0:
132,208,3418,1,0,0:0:0:0:
80,68,3703,5,0,0:0:0:0:
320,212,3846,1,0,0:0:0:0:
252,64,4132,5,0,0:0:0:0:
96,208,4418,1,0,0:0:0:0:
388,148,4703,1,0,0:0:0:0:
224,308,4989,1,0,0:0:0:0:
136,116,5275,5,0,0:0:0:0:
256,60,5418,1,0,0:0:0:0:
320,184,5561,1,0,0:0:0:0:
200,240,5704,1,0,0:0:0:0:
96,264,5990,5,0,0:0:0:0:
428,112,6132,1,0,0:0:0:0:
112,164,6418,5,0,0:0:0:0:
272,312,6704,1,0,0:0:0:0:
424,160,6990,1,0,0:0:0:0:
252,28,7275,1,0,0:0:0:0:
136,280,7561,5,0,0:0:0:0:
408,204,7704,1,0,0:0:0:0:
132,160,7847,1,0,0:0:0:0:
396,72,7990,1,0,0:0:0:0:
240,56,8275,5,0,0:0:0:0:
240,296,8418,1,0,0:0:0:0:
256,164,8704,5,0,0:0:0:0:
216,160,8990,1,0,0:0:0:0:
172,164,9275,1,0,0:0:0:0:
136,184,9561,1,0,0:0:0:0:
140,204,9847,5,0,0:0:0:0:
176,216,9918,1,0,0:0:0:0:
212,216,9990,1,0,0:0:0:0:
248,204,10060,1,0,0:0:0:0:
284,196,10132,1,0,0:0:0:0:
328,188,10203,1,0,0:0:0:0:
368,200,10275,1,0,0:0:0:0:
400,80,10561,5,0,0:0:0:0:
104,260,10704,1,0,0:0:0:0:
260,72,10989,5,0,0:0:0:0:
344,200,11275,1,0,0:0:0:0:
208,280,11561,1,0,0:0:0:0:
124,152,11847,1,0,0:0:0:0:
124,152,12132,5,0,0:0:0:0:
208,280,12275,1,0,0:0:0:0:
344,200,12418,1,0,0:0:0:0:
260,76,12561,1,0,0:0:0:0:
392,72,12847,5,0,0:0:0:0:
80,280,12990,1,0,0:0:0:0:
124,136,13275,5,0,0:0:0:0:
396,212,13561,1,0,0:0:0:0:
288,72,13846,1,0,0:0:0:0:
228,288,14132,1,0,0:0:0:0:
304,204,14418,5,0,0:0:0:0:
368,344,14561,1,0,0:0:0:0:
464,220,14704,1,0,0:0:0:0:
304,204,14847,1,0,0:0:0:0:
396,84,15132,5,0,0:0:0:0:
128,284,15275,1,0,0:0:0:0:
128,84,15560,2,0,L|176:120,2,35
184,124,15846,2,0,L|268:176,1,70
268,308,16132,1,0,0:0:0:0:
372,116,16418,1,0,0:0:0:0:
332,136,16704,5,0,0:0:0:0:
316,152,16775,1,0,0:0:0:0:
296,164,16846,1,0,0:0:0:0:
272,168,16918,1,0,0:0:0:0:
252,164,16990,1,0,0:0:0:0:
232,156,17060,1,0,0:0:0:0:
212,156,17132,1,0,0:0:0:0:
112,252,17418,5,0,0:0:0:0:
400,80,17561,1,0,0:0:0:0:
112,124,17847,5,0,0:0:0:0:
276,72,18132,1,0,0:0:0:0:
196,288,18418,1,0,0:0:0:0:
432,212,18704,1,0,0:0:0:0:
228,144,18990,5,0,0:0:0:0:
284,176,19132,1,0,0:0:0:0:
232,204,19275,1,0,0:0:0:0:
284,236,19418,1,0,0:0:0:0:
120,180,19846,1,0,0:0:0:0:
244,184,20132,1,0,0:0:0:0:
244,184,20418,1,0,0:0:0:0:
248,180,20560,1,0,0:0:0:0:
248,172,20989,5,0,0:0:0:0:
248,164,21275,1,0,0:0:0:0:
248,164,21418,1,0,0:0:0:0:
244,184,21703,1,0,0:0:0:0:
244,188,21989,1,0,0:0:0:0:
244,184,22132,1,0,0:0:0:0:
240,176,22418,5,0,0:0:0:0:
232,164,22560,1,0,0:0:0:0:
244,184,22703,1,0,0:0:0:0:
244,184,22846,1,0,0:0:0:0:
244,176,23132,5,0,0:0:0:0:
244,184,23275,1,0,0:0:0:0:
244,184,23560,5,0,0:0:0:0:
244,184,23703,1,0,0:0:0:0:
248,192,23846,1,0,0:0:0:0:
248,196,23989,1,0,0:0:0:0:
248,188,24275,5,0,0:0:0:0:
248,188,24418,1,0,0:0:0:0:
248,192,24703,5,0,0:0:0:0:
248,192,24846,1,0,0:0:0:0:
248,188,25132,5,0,0:0:0:0:
248,196,25275,1,0,0:0:0:0:
248,192,25560,5,0,0:0:0:0:
248,196,25846,5,0,0:0:0:0:
248,196,25989,1,0,0:0:0:0:
248,196,26132,1,0,0:0:0:0:
248,196,26275,1,0,0:0:0:0:
248,196,26703,5,0,0:0:0:0:
248,196,26989,1,0,0:0:0:0:
248,192,27275,1,0,0:0:0:0:
248,196,27560,1,0,0:0:0:0:
248,196,27846,1,0,0:0:0:0:
248,200,28132,5,0,0:0:0:0:
248,192,28275,5,0,0:0:0:0:
248,196,28418,1,0,0:0:0:0:
248,196,28560,1,0,0:0:0:0:
256,192,44560,12,0,45275,0:0:0:0:
236,116,45560,5,0,0:0:0:0:
240,160,45703,1,0,0:0:0:0:
216,180,46418,1,0,0:0:0:0:
216,180,46560,1,0,0:0:0:0:
216,180,46846,1,0,0:0:0:0:
192,196,47132,1,0,0:0:0:0:
192,196,47275,1,0,0:0:0:0:
192,196,47560,1,0,0:0:0:0:
192,196,47846,1,0,0:0:0:0:
192,196,47989,1,0,0:0:0:0:
192,196,48275,1,0,0:0:0:0:
192,196,48418,1,0,0:0:0:0:
192,196,48560,1,0,0:0:0:0:
192,196,48703,1,0,0:0:0:0:
168,188,48989,1,0,0:0:0:0:
192,196,49132,1,0,0:0:0:0:
192,196,49418,1,0,0:0:0:0:
192,196,49703,1,0,0:0:0:0:
192,196,49846,1,0,0:0:0:0:
184,192,50132,1,0,0:0:0:0:
184,180,50275,1,0,0:0:0:0:
192,196,50418,1,0,0:0:0:0:
192,196,50560,1,0,0:0:0:0:
184,192,50703,1,0,0:0:0:0:
184,192,50989,5,0,0:0:0:0:
184,192,51132,1,0,0:0:0:0:
