osu file format v14

[General]
AudioFilename: audio.mp3
AudioLeadIn: 0
PreviewTime: 39238
Countdown: 0
SampleSet: Soft
StackLeniency: 0.5
Mode: 0
LetterboxInBreaks: 0
WidescreenStoryboard: 1

[Editor]
Bookmarks: 76286
DistanceSpacing: 1
BeatDivisor: 3
GridSize: 4
TimelineZoom: 0.9999999

[Metadata]
Title:Valentine Eve's Nightmare
TitleUnicode:Valentine Eve's Nightmare
Artist:UNDEAD
ArtistUnicode:UNDEAD
Creator:Ryuusei Aika
Version:NyanChu's Hard
Source:あんさんぶるスターズ!!
Tags:あんさんぶるスターズ! あんさんぶるスターズ Ensemble Stars Stars! Stars!! basic music japanese pop jpop j-pop male idol vocal enstars video game videogame Addy Addy2607 Nyantiaz Chu arronchu1207 Hazu Hazu- mono mononymous 朔間零 増田俊樹 羽風薫 細貝圭 大神晃牙 小野友樹 乙狩アドニス 羽多野渉 松井洋平 matsui youhei まふまふ mafumafu 三矢禅晃
BeatmapID:2851522
BeatmapSetID:1374903

[Difficulty]
HPDrainRate:5
CircleSize:3.5
OverallDifficulty:6
ApproachRate:8
SliderMultiplier:1.5
SliderTickRate:1

[Events]
//Background and Video events
0,0,"H.jpg",0,0
//Break Periods
2,12486,18318
//Storyboard Layer 0 (Background)
//Storyboard Layer 1 (Fail)
//Storyboard Layer 2 (Pass)
//Storyboard Layer 3 (Foreground)
//Storyboard Layer 4 (Overlay)
//Storyboard Sound Samples

[TimingPoints]
-285,285.714285714286,4,2,1,60,1,0
857,-100,4,2,1,80,0,0
10000,-125,4,2,1,55,0,0
12286,-125,4,2,1,65,0,0
21429,-111.111111111111,4,2,1,75,0,0
30572,-111.111111111111,4,2,1,65,0,0
32476,-111.111111111111,4,2,1,75,0,0
32856,-111.111111111111,4,2,1,65,0,0
34762,-111.111111111111,4,2,1,75,0,0
35143,-133.333333333333,4,2,1,70,0,0
37143,-133.333333333333,4,2,1,75,0,0
37429,-133.333333333333,4,2,1,70,0,0
39715,-95.2380952380952,4,2,1,85,0,1
44286,-95.2380952380952,4,2,2,85,0,1
44572,-95.2380952380952,4,2,3,85,0,1
44762,-95.2380952380952,4,2,4,85,0,1
44857,-95.2380952380952,4,2,1,85,0,1
45047,-95.2380952380952,4,2,5,85,0,1
45143,-95.2380952380952,4,2,1,85,0,1
45334,-95.2380952380952,4,2,6,85,0,1
45429,-95.2380952380952,4,2,1,85,0,1
45715,-95.2380952380952,4,2,4,85,0,1
45905,-95.2380952380952,4,2,3,85,0,1
46190,-95.2380952380952,4,2,2,85,0,1
46286,-95.2380952380952,4,2,1,85,0,1
46476,-95.2380952380952,4,2,2,85,0,1
46572,-95.2380952380952,4,2,1,85,0,1
46857,-95.2380952380952,4,2,7,85,0,1
47429,-95.2380952380952,4,2,1,85,0,1
62572,-95.2380952380952,4,2,2,85,0,1
62857,-95.2380952380952,4,2,3,85,0,1
63048,-95.2380952380952,4,2,4,85,0,1
63143,-95.2380952380952,4,2,1,85,0,1
63333,-95.2380952380952,4,2,5,85,0,1
63429,-95.2380952380952,4,2,1,85,0,1
63619,-95.2380952380952,4,2,6,85,0,1
63715,-95.2380952380952,4,2,1,85,0,1
64000,-95.2380952380952,4,2,4,85,0,1
64191,-95.2380952380952,4,2,3,85,0,1
64476,-95.2380952380952,4,2,2,85,0,1
64572,-95.2380952380952,4,2,1,85,0,1
64762,-95.2380952380952,4,2,2,85,0,1
64857,-95.2380952380952,4,2,1,85,0,1
65143,-95.2380952380952,4,2,3,85,0,1
65334,-95.2380952380952,4,2,7,85,0,1
65715,-95.2380952380952,4,2,1,85,0,1
71715,-111.111111111111,4,2,1,85,0,0
74000,-111.111111111111,4,2,1,70,0,0
76286,-95.2380952380952,4,2,1,80,0,1
84286,-95.2380952380952,4,2,1,70,0,0
87619,-95.2380952380952,4,2,1,80,0,0
88572,-95.2380952380952,4,2,1,70,0,0
88857,-125,4,2,1,75,0,0
91333,-125,4,2,1,80,0,0
91428,-125,4,2,1,75,0,0
91715,-95.2380952380952,4,2,1,75,0,0
91857,-95.2380952380952,4,2,1,80,0,0
91929,-95.2380952380952,4,2,1,75,0,0
92071,-95.2380952380952,4,2,1,80,0,0
92143,-95.2380952380952,4,2,1,75,0,0
92572,-95.2380952380952,4,2,1,70,0,0
93429,-95.2380952380952,4,2,2,85,0,1
93715,-95.2380952380952,4,2,3,85,0,1
93905,-95.2380952380952,4,2,4,85,0,1
94190,-95.2380952380952,4,2,5,85,0,1
94286,-95.2380952380952,4,2,1,85,0,1
94476,-95.2380952380952,4,2,6,85,0,1
94572,-95.2380952380952,4,2,1,85,0,1
94857,-95.2380952380952,4,2,4,85,0,1
95048,-95.2380952380952,4,2,3,85,0,1
95333,-95.2380952380952,4,2,2,85,0,1
95429,-95.2380952380952,4,2,1,85,0,1
95619,-95.2380952380952,4,2,2,85,0,1
95715,-95.2380952380952,4,2,1,85,0,1
96000,-95.2380952380952,4,2,7,85,0,1
96572,-95.2380952380952,4,2,1,85,0,1
102380,-95.2380952380952,4,2,1,60,0,1
102572,-95.2380952380952,4,2,1,85,0,1
111715,-95.2380952380952,4,2,2,85,0,1
112000,-95.2380952380952,4,2,3,85,0,1
112191,-95.2380952380952,4,2,4,85,0,1
112476,-95.2380952380952,4,2,5,85,0,1
112572,-95.2380952380952,4,2,1,85,0,1
112762,-95.2380952380952,4,2,6,85,0,1
112857,-95.2380952380952,4,2,1,85,0,1
113143,-95.2380952380952,4,2,4,85,0,1
113334,-95.2380952380952,4,2,3,85,0,1
113619,-95.2380952380952,4,2,2,85,0,1
113715,-95.2380952380952,4,2,1,85,0,1
113905,-95.2380952380952,4,2,2,85,0,1
114000,-95.2380952380952,4,2,1,85,0,1
114286,-95.2380952380952,4,2,3,85,0,1
114476,-95.2380952380952,4,2,7,85,0,1
114857,-95.2380952380952,4,2,1,85,0,1
120857,-125,4,2,1,85,0,0
123143,-125,4,2,1,70,0,0
124762,-100,4,2,1,75,0,0
124952,-100,4,2,1,70,0,0
125047,-100,4,2,1,75,0,0
125429,-100,4,2,1,80,0,0
125619,-100,4,2,1,70,0,0
125715,-100,4,2,1,80,0,0
126143,-100,4,2,1,70,0,0
126190,-100,4,2,1,80,0,0
126667,-100,4,2,1,70,0,0
126762,-100,4,2,1,80,0,0
127286,-100,4,2,1,70,0,0
127333,-100,4,2,1,80,0,0
128999,-100,4,2,1,70,0,0
129047,-100,4,2,1,80,0,0
129572,-100,4,2,1,70,0,0
129619,-100,4,2,1,80,0,0
130000,-133.333333333333,4,2,1,65,0,0
131333,-133.333333333333,4,2,1,70,0,0
131429,-133.333333333333,4,2,1,65,0,0
132000,-133.333333333333,4,2,1,80,0,0
132667,-133.333333333333,4,2,1,70,0,0
132762,-133.333333333333,4,2,1,80,0,0
133381,-133.333333333333,4,2,1,70,0,0
133429,-133.333333333333,4,2,1,80,0,0
133524,-133.333333333333,4,2,1,70,0,0
133619,-133.333333333333,4,2,1,80,0,0
134333,-133.333333333333,4,2,1,70,0,0
134381,-133.333333333333,4,2,1,80,0,0
134428,-133.333333333333,4,2,1,70,0,0
134476,-133.333333333333,4,2,1,80,0,0
134523,-133.333333333333,4,2,1,70,0,0
134572,-133.333333333333,4,2,1,90,0,0

[Colours]
Combo1 : 255,128,255
Combo2 : 191,0,96
Combo3 : 255,0,128
Combo4 : 255,0,255

[HitObjects]
47,106,857,6,0,P|105:113|158:89,1,100,6|0,3:2|2:0,2:0:0:0:
174,59,1143,1,10,1:2:0:0:
250,124,1334,2,0,B|313:118|313:118|349:98|349:98|420:85,1,150,2|0,1:0|1:0,2:0:0:0:
438,112,1715,2,0,P|423:165|425:219,1,100,10|2,2:0|2:0,2:0:0:0:
376,226,2000,6,0,P|391:279|389:333,1,100,2|2,1:2|2:0,2:0:0:0:
358,362,2286,1,8,2:0:0:0:
261,336,2476,2,0,B|180:311|216:381|85:355,1,150,2|0,1:0|1:0,2:0:0:0:
80,327,2857,1,8,2:0:0:0:
11,193,3143,5,2,1:0:0:0:
59,107,3334,1,2,2:0:0:0:
59,107,3429,2,0,B|107:88|107:88|157:112,1,100,10|0,2:0|1:0,2:0:0:0:
195,135,3715,2,0,L|200:14,1,100,2|2,2:0|1:0,2:0:0:0:
242,10,4000,1,10,2:0:0:0:
329,59,4191,1,2,2:0:0:0:
329,59,4286,6,0,L|333:158,1,100,6|2,1:2|2:0,2:0:0:0:
296,193,4572,1,10,2:0:0:0:
241,276,4762,2,0,P|300:292|382:240,1,150,2|0,1:0|1:0,2:0:0:0:
406,212,5143,1,10,2:0:0:0:
505,245,5334,1,2,2:0:0:0:
505,245,5429,6,0,P|510:189|490:148,1,100,6|0,2:0|2:0,2:0:0:0:
458,112,5715,1,8,2:0:0:0:
383,45,5905,2,0,B|302:70|338:0|207:26,1,150,2|0,1:0|1:0,2:0:0:0:
195,44,6286,2,0,P|188:93|208:138,1,100,10|2,2:0|2:0,2:0:0:0:
248,168,6572,6,0,L|113:157,1,100,2|2,1:0|2:0,2:0:0:0:
98,154,6857,1,8,2:0:0:0:
36,233,7048,2,0,B|71:263|71:263|183:253,1,150,2|0,1:0|1:0,2:0:0:0:
220,274,7429,1,8,2:0:0:0:
356,337,7715,6,0,P|376:291|368:243,1,100,2|2,1:0|2:0,2:0:0:0:
340,201,8000,2,0,P|332:152|352:107,1,100,10|2,2:0|1:0,2:0:0:0:
380,65,8286,1,2,2:0:0:0:
482,81,8476,1,0,1:0:0:0:
482,81,8572,1,10,2:0:0:0:
452,179,8762,1,2,1:0:0:0:
452,179,8857,6,0,L|460:292,1,100,8|0,2:0|1:0,2:0:0:0:
461,329,9143,1,10,2:0:0:0:
361,316,9334,1,2,2:0:0:0:
361,316,9429,2,0,L|283:324,5,50,8|8|8|8|8|8,2:3|2:3|2:3|2:3|2:3|2:3,2:0:0:0:
262,308,10000,6,0,P|171:322|114:305,1,120,6|0,1:2|1:0,2:0:0:0:
63,227,10572,2,0,L|60:91,1,120,0|0,1:0|1:0,2:0:0:0:
154,31,11143,1,8,2:0:0:0:
264,77,11429,2,0,L|268:175,1,80,8|0,1:2|1:0,2:0:0:0:
366,227,11905,1,10,2:0:0:0:
366,227,12000,2,0,L|369:147,1,80,10|0,2:0|2:0,2:0:0:0:
400,121,12286,5,6,1:2:0:0:
342,69,19143,6,0,L|470:64,1,120,6|0,1:0|1:0,2:0:0:0:
472,184,19715,2,0,L|352:188,1,120,2|0,1:0|1:0,2:0:0:0:
256,116,20286,6,0,P|243:66|261:16,1,80,8|0,1:2|1:0,2:0:0:0:
131,11,20762,1,8,1:2:0:0:
63,110,21048,1,10,2:0:0:0:
63,110,21143,2,0,P|75:147|70:186,1,80,10|0,2:0|2:0,2:0:0:0:
39,220,21429,6,0,L|180:209,1,135,6|8,1:2|2:0,2:0:0:0:
233,277,21905,1,0,2:0:0:0:
233,277,22000,2,0,L|323:282,1,90.0000000000001,2|2,1:0|2:0,2:0:0:0:
357,311,22286,2,0,L|447:306,1,90.0000000000001,10|0,2:0|2:0,2:0:0:0:
482,277,22572,6,0,P|472:226|487:173,1,90.0000000000001,2|2,1:0|2:0,2:0:0:0:
456,150,22857,1,10,2:0:0:0:
385,93,23048,2,0,B|351:106|327:129|327:129|305:106|271:94,1,135,0|0,1:0|2:0,2:0:0:0:
228,79,23429,2,0,L|228:186,1,90.0000000000001,10|2,2:0|2:0,2:0:0:0:
190,194,23715,6,0,P|135:204|96:190,1,90.0000000000001,2|0,1:0|2:0,2:0:0:0:
59,187,24000,2,0,P|69:241|55:281,1,90.0000000000001,10|2,2:0|2:0,2:0:0:0:
26,305,24286,2,0,P|69:294|112:305,1,90.0000000000001,2|0,1:0|2:0,2:0:0:0:
148,332,24572,1,10,2:0:0:0:
235,313,24762,1,0,2:0:0:0:
235,313,24857,6,0,B|257:269|257:269|234:210,1,90.0000000000001,2|2,1:0|2:0,2:0:0:0:
213,195,25143,1,10,2:0:0:0:
144,136,25334,2,0,P|182:111|274:130,1,135,2|0,1:0|1:0,2:0:0:0:
300,153,25715,1,8,2:0:0:0:
369,95,25905,1,0,2:0:0:0:
369,95,26000,6,0,L|461:104,1,90.0000000000001,6|0,1:2|2:0,2:0:0:0:
499,83,26286,2,0,L|490:175,1,90.0000000000001,10|0,2:0|2:0,2:0:0:0:
506,215,26572,2,0,L|416:206,1,90.0000000000001,2|0,1:0|1:0,2:0:0:0:
381,177,26857,2,0,L|372:269,1,90.0000000000001,10|0,2:0|2:0,2:0:0:0:
395,305,27143,5,6,1:2:0:0:
313,343,27334,1,0,2:0:0:0:
313,343,27429,2,0,P|243:341|214:323,1,90.0000000000001,10|0,2:0|2:0,2:0:0:0:
200,295,27715,1,2,1:0:0:0:
131,245,27905,1,0,1:0:0:0:
131,245,28000,2,0,P|192:211|226:212,1,90.0000000000001,8|0,2:0|1:0,2:0:0:0:
256,208,28286,6,0,L|266:100,1,90.0000000000001,12|0,2:0|1:0,2:0:0:0:
268,73,28572,1,8,2:0:0:0:
181,95,28762,1,2,2:0:0:0:
181,95,28857,2,0,P|127:105|72:94,1,90.0000000000001,8|0,1:2|1:0,2:0:0:0:
53,76,29143,2,0,B|72:118|72:118|49:173,1,90.0000000000001,8|0,1:2|1:0,2:0:0:0:
28,194,29429,6,0,L|41:296,1,90.0000000000001,8|0,2:0|1:0,2:0:0:0:
154,353,29905,2,0,B|236:329|208:391|311:369,1,135,4|10,1:2|2:0,2:0:0:0:
321,349,30286,1,10,1:2:0:0:
408,369,30476,1,2,2:0:0:0:
408,369,30572,5,6,1:2:0:0:
447,87,32476,6,0,B|409:94|392:110|392:110|338:89|338:89|312:108|266:108,1,180,8|4,2:0|1:2,2:0:0:0:
39,211,34762,6,0,P|37:155|117:174,1,135,8|0,2:0|2:0,2:0:0:0:
132,172,35143,6,0,L|136:307,1,112.5,6|0,2:0|2:0,2:0:0:0:
225,370,35715,1,0,2:0:0:0:
420,243,36286,2,0,L|416:108,1,112.5,6|0,2:0|2:0,2:0:0:0:
325,50,36857,1,8,1:2:0:0:
254,122,37048,1,2,1:2:0:0:
254,122,37143,2,0,L|176:130,1,75.0000000000002,0|8,1:0|1:2,2:0:0:0:
150,105,37429,6,0,B|188:229|122:207|144:344,1,225.000000000001,6|8,1:2|2:0,2:0:0:0:
365,306,38572,2,0,P|379:255|374:220,1,75.0000000000002,0|8,3:0|2:0,2:0:0:0:
74,79,39715,6,0,B|121:109|121:109|216:94,1,105,6|0,1:2|2:0,2:0:0:0:
220,88,40000,1,10,2:0:0:0:
298,17,40191,2,0,P|325:70|304:169,1,157.5,2|2,1:0|1:0,2:0:0:0:
269,199,40572,1,8,2:0:0:0:
176,244,40762,1,2,1:2:0:0:
176,244,40857,6,0,B|120:229|120:229|65:255,1,105,0|0,1:0|2:0,2:0:0:0:
37,283,41143,1,10,2:0:0:0:
118,349,41334,2,0,B|199:328|182:385|278:370,1,157.5,2|2,1:0|1:0,2:0:0:0:
311,338,41715,1,8,2:0:0:0:
413,358,41905,1,2,2:0:0:0:
413,358,42000,6,0,P|406:287|408:249,1,105,0|0,1:0|2:0,2:0:0:0:
431,206,42286,1,10,2:0:0:0:
374,124,42476,1,2,1:0:0:0:
374,124,42572,1,0,2:0:0:0:
430,37,42762,1,2,1:0:0:0:
430,37,42857,2,0,P|369:19|312:36,1,105,8|2,2:0|2:0,2:0:0:0:
289,62,43143,6,0,P|228:80|171:63,1,105,4|0,1:2|2:0,2:0:0:0:
145,40,43429,2,0,L|156:165,1,105,10|0,2:0|2:0,2:0:0:0:
162,196,43715,1,2,1:0:0:0:
69,159,43905,1,2,1:0:0:0:
69,159,44000,2,0,P|5:177|11:231,1,104.999996795654,8|0,2:0|2:0,2:0:0:0:
22,255,44286,6,0,L|30:364,1,105,6|0,3:0|2:0,2:0:0:0:
82,352,44572,1,10,2:3:0:0:
185,336,44762,2,0,P|248:344|295:268,1,157.5,2|2,3:0|3:0,2:0:0:0:
288,220,45143,1,8,2:0:0:0:
204,156,45334,1,2,2:3:0:0:
204,156,45429,6,0,L|199:34,1,105,0|0,1:0|2:0,2:0:0:0:
238,15,45715,1,10,3:0:0:0:
298,100,45905,2,0,L|464:83,1,157.5,2|2,3:0|3:0,2:0:0:0:
501,109,46286,1,8,2:0:0:0:
511,217,46476,1,2,2:3:0:0:
511,217,46572,6,0,P|498:275|452:303,1,104.999996795654,0|0,1:0|2:0,2:0:0:0:
410,295,46857,1,10,2:3:0:0:
311,331,47048,2,0,B|300:282|300:282|310:234|310:234|292:166,1,157.499995193482,2|0,1:3|1:0,2:0:0:0:
251,148,47429,1,8,2:0:0:0:
176,222,47619,1,0,1:0:0:0:
176,222,47715,6,0,L|60:215,1,105,8|0,2:0|1:0,2:0:0:0:
35,177,48000,1,10,2:0:0:0:
77,85,48191,1,0,2:0:0:0:
77,85,48286,2,0,L|155:71,5,52.5,2|8|8|2|8|8,1:0|2:0|2:0|1:0|2:0|2:0,2:0:0:0:
151,28,48857,6,0,P|220:43|294:17,1,105,6|0,1:2|2:0,2:0:0:0:
302,18,49143,1,10,2:0:0:0:
341,115,49334,2,0,B|281:119|281:119|245:143|245:143|185:149,1,157.5,2|2,1:0|1:0,2:0:0:0:
149,180,49715,1,8,2:0:0:0:
98,273,49905,1,2,2:0:0:0:
98,273,50000,6,0,P|150:286|202:272,1,105,0|0,1:0|2:0,2:0:0:0:
241,241,50286,1,10,2:0:0:0:
301,326,50476,1,0,1:0:0:0:
301,326,50572,2,0,B|362:314|362:314|448:338,1,105,2|0,2:0|1:0,2:0:0:0:
452,308,50857,2,0,P|438:246|451:184,1,105,10|0,2:0|2:0,2:0:0:0:
480,167,51143,6,0,L|352:174,1,105,6|0,1:2|2:0,2:0:0:0:
327,149,51429,1,10,2:0:0:0:
256,78,51619,1,0,2:0:0:0:
256,78,51715,2,0,P|228:131|234:188,1,105,2|2,1:0|1:0,2:0:0:0:
269,208,52000,1,8,2:0:0:0:
327,295,52191,6,0,P|269:313|179:259,1,157.5,6|0,1:2|1:0,2:0:0:0:
143,240,52572,2,0,P|94:260|11:252,1,105,8|0,2:0|2:0,2:0:0:0:
11,218,52857,1,0,1:0:0:0:
73,134,53048,1,0,1:0:0:0:
73,134,53143,2,0,P|54:95|61:34,1,104.999996795654,10|0,2:0|2:0,2:0:0:0:
105,7,53429,6,0,L|223:19,1,105,6|0,1:2|2:0,2:0:0:0:
262,21,53715,1,10,2:0:0:0:
259,126,53905,2,0,B|284:176|284:176|271:233,1,105,0|0,1:0|2:0,2:0:0:0:
225,247,54191,2,0,B|230:353,1,105,2|0,1:0|2:0,2:0:0:0:
280,366,54476,6,0,P|358:376|450:317,1,157.5,2|0,2:0|2:0,2:0:0:0:
461,302,54857,2,0,L|450:187,1,105,10|0,2:0|1:0,2:0:0:0:
443,145,55143,1,2,2:0:0:0:
466,42,55334,1,0,1:0:0:0:
466,42,55429,1,10,2:0:0:0:
369,83,55619,1,2,1:0:0:0:
369,83,55715,6,0,P|315:89|262:71,1,105,14|0,2:0|1:0,2:0:0:0:
227,40,56000,1,10,2:0:0:0:
153,114,56191,1,2,1:0:0:0:
153,114,56286,2,0,P|168:163|161:215,1,105,8|0,2:0|1:0,2:0:0:0:
121,251,56572,1,8,2:0:0:0:
256,336,56857,5,8,2:0:0:0:
336,268,57048,1,0,1:0:0:0:
336,268,57143,1,8,1:3:0:0:
279,179,57334,1,4,1:2:0:0:
392,70,57619,5,10,2:0:0:0:
392,70,57715,1,10,2:0:0:0:
472,138,57905,1,2,2:0:0:0:
472,138,58000,6,0,P|451:189|457:254,1,105,4|0,1:2|2:0,2:0:0:0:
483,280,58286,1,10,2:0:0:0:
406,351,58476,2,0,B|333:364|287:342|287:342|318:294,1,157.5,2|2,1:0|1:0,2:0:0:0:
338,269,58857,1,8,2:0:0:0:
277,183,59048,1,2,2:0:0:0:
277,183,59143,6,0,L|168:172,1,105,0|0,1:0|2:0,2:0:0:0:
120,183,59429,1,10,2:0:0:0:
74,88,59619,2,0,B|155:109|138:52|234:67,1,157.5,2|2,1:0|1:0,2:0:0:0:
267,99,60000,1,8,2:0:0:0:
357,43,60191,1,0,2:0:0:0:
357,43,60286,6,0,P|372:102|348:171,1,105,0|0,1:0|2:0,2:0:0:0:
338,190,60572,1,10,2:0:0:0:
288,283,60762,1,2,1:0:0:0:
288,283,60857,1,0,2:0:0:0:
363,364,61048,1,2,1:0:0:0:
363,364,61143,2,0,L|470:363,1,105,8|2,2:0|2:0,2:0:0:0:
494,317,61429,6,0,P|502:265|487:215,1,105,4|0,1:2|2:0,2:0:0:0:
451,177,61715,2,0,P|442:125|457:75,1,105,10|0,2:0|2:0,2:0:0:0:
493,37,62000,1,2,1:2:0:0:
388,26,62191,1,0,1:0:0:0:
388,26,62286,2,0,B|339:50|339:50|281:19,1,105,10|0,2:0|2:0,2:0:0:0:
246,4,62572,6,0,L|264:121,1,105,6|0,3:0|2:0,2:0:0:0:
273,158,62857,1,10,2:3:0:0:
200,234,63048,2,0,B|113:254|113:254|58:182,1,157.5,2|2,3:0|3:0,2:0:0:0:
53,150,63429,1,8,2:0:0:0:
112,64,63619,1,2,2:3:0:0:
112,64,63715,6,0,L|234:59,1,105,0|0,1:0|2:0,2:0:0:0:
253,98,64000,1,10,3:0:0:0:
319,16,64191,2,0,B|362:56|362:56|336:182,1,157.5,2|2,3:0|3:0,2:0:0:0:
326,203,64572,1,8,2:0:0:0:
226,188,64762,1,2,2:3:0:0:
226,188,64857,6,0,P|170:195|123:164,1,104.999996795654,0|0,1:0|2:0,2:0:0:0:
100,127,65143,1,10,2:3:0:0:
4,172,65334,2,0,B|2:223|2:223|18:272|18:272|14:334,1,157.499995193482,2|0,3:0|1:0,2:0:0:0:
37,374,65715,1,8,2:0:0:0:
141,347,65905,1,0,1:0:0:0:
141,347,66000,6,0,P|219:339|267:361,1,105,8|0,2:0|1:0,2:0:0:0:
281,384,66286,2,0,L|270:275,1,105,10|0,2:0|2:0,2:0:0:0:
242,234,66572,2,0,L|246:178,5,52.5,10|0|0|2|0|0,1:2|1:3|1:3|1:2|1:3|1:3,2:0:0:0:
226,132,67143,6,0,B|162:127|181:162|93:164,1,105,6|0,1:2|2:0,2:0:0:0:
74,153,67429,1,10,2:0:0:0:
2,228,67619,2,0,P|-27:156|-1:84,1,157.5,0|2,1:0|1:0,2:0:0:0:
40,52,68000,1,8,2:0:0:0:
140,21,68191,1,2,2:0:0:0:
140,21,68286,6,0,P|182:61|185:110,1,105,0|0,1:0|1:0,2:0:0:0:
226,132,68572,2,0,P|184:172|181:221,1,105,10|0,2:0|2:0,2:0:0:0:
211,258,68857,1,2,1:0:0:0:
287,330,69048,1,8,2:0:0:0:
287,330,69143,2,0,L|357:332,2,52.5,10|8|8,2:0|2:0|2:0,2:0:0:0:
239,353,69429,6,0,L|116:346,1,105,6|0,1:2|2:0,2:0:0:0:
84,328,69715,2,0,P|99:272|92:216,1,105,10|0,2:0|2:0,2:0:0:0:
61,184,70000,1,2,1:0:0:0:
93,86,70191,1,2,1:0:0:0:
93,86,70286,1,0,1:0:0:0:
171,155,70476,6,0,B|236:148|236:148|280:108|280:108|362:101,1,157.5,6|0,1:2|1:0,2:0:0:0:
365,101,70857,1,8,2:0:0:0:
330,200,71048,1,2,2:0:0:0:
330,200,71143,2,0,L|339:308,1,105,0|0,1:0|1:0,2:0:0:0:
375,342,71429,2,0,P|428:352|490:318,1,105,0|0,1:0|2:0,2:0:0:0:
500,287,71715,6,0,L|487:144,1,135,6|0,1:2|2:0,2:0:0:0:
365,101,72286,2,0,B|329:150|329:150|352:235,1,135,0|2,2:0|2:0,2:0:0:0:
241,303,72857,2,0,P|182:329|119:288,2,135,6|2|2,1:2|2:0|1:0,2:0:0:0:
348,221,73715,1,2,2:0:0:0:
271,173,73905,1,0,2:0:0:0:
271,173,74000,6,0,L|161:179,1,90.0000000000001,12|8,2:0|2:0,2:0:0:0:
395,46,75905,1,8,2:0:0:0:
395,46,76000,1,8,1:3:0:0:
443,121,76191,1,0,2:0:0:0:
443,121,76286,6,0,L|435:234,1,105,6|0,2:0|2:0,2:0:0:0:
430,278,76572,1,8,2:0:0:0:
341,334,76762,2,0,B|256:359|270:302|186:325,1,157.5,2|0,1:2|2:0,2:0:0:0:
146,356,77143,1,10,2:0:0:0:
54,303,77334,1,2,2:0:0:0:
54,303,77429,6,0,P|36:260|44:197,1,105,2|0,1:2|2:0,2:0:0:0:
73,160,77715,1,10,2:0:0:0:
172,193,77905,2,0,B|226:198|226:198|277:183|277:183|330:190,1,157.5,2|2,1:0|1:2,2:0:0:0:
378,198,78286,1,10,2:0:0:0:
473,155,78476,6,0,P|492:107|451:16,1,157.5,2|0,2:0|2:0,2:0:0:0:
398,5,78857,1,10,2:0:0:0:
334,88,79048,2,0,B|279:106|279:106|174:91,1,157.5,2|2,1:2|1:2,2:0:0:0:
128,83,79429,1,10,2:0:0:0:
45,147,79619,1,2,2:0:0:0:
45,147,79715,6,0,P|56:195|61:256,1,105,2|2,1:2|2:0,2:0:0:0:
36,296,80000,2,0,P|83:280|138:304,1,105,10|2,2:0|2:0,2:0:0:0:
167,339,80286,2,0,P|214:357|263:341,1,105,2|2,1:0|1:0,2:0:0:0:
297,301,80572,1,10,2:0:0:0:
389,251,80762,1,0,2:0:0:0:
389,251,80857,6,0,L|443:261,2,52.5,6|2|2,2:0|2:0|2:0,2:0:0:0:
360,206,81143,2,0,P|350:153|372:106,1,105,10|2,2:0|1:2,2:0:0:0:
398,62,81429,2,0,P|345:72|298:50,1,105,10|2,2:0|1:2,2:0:0:0:
256,21,81715,1,10,2:0:0:0:
171,82,81905,1,2,1:2:0:0:
171,82,82000,6,0,L|102:71,2,52.5,10|2|2,2:0|2:0|1:2,2:0:0:0:
198,127,82286,2,0,B|208:177|208:177|183:228,1,105,10|2,2:0|1:2,2:0:0:0:
155,270,82572,2,0,B|205:260|205:260|256:285,1,105,10|2,2:0|1:2,2:0:0:0:
299,308,82857,2,0,B|289:258|289:258|314:207,1,105,10|2,2:0|2:0,2:0:0:0:
345,168,83143,6,0,L|335:114,3,52.5,2|2|10|2,1:2|2:0|2:0|1:2,2:0:0:0:
254,48,83619,1,2,2:0:0:0:
254,48,83715,2,0,P|227:56|195:53,2,52.5,2|10|10,1:2|1:2|1:2,2:0:0:0:
295,16,84000,2,0,P|322:8|354:11,2,52.5,2|2|2,1:2|1:2|1:2,2:0:0:0:
300,68,84286,5,6,1:2:0:0:
256,192,84381,12,0,87715,2:0:0:0:
199,130,88476,5,0,2:0:0:0:
199,130,88572,1,2,2:0:0:0:
266,209,88762,1,2,2:0:0:0:
266,209,88857,6,0,P|317:200|405:193,1,120,6|0,2:0|2:0,2:0:0:0:
384,193,89715,1,0,2:0:0:0:
458,319,90000,6,0,P|407:310|319:303,1,120,4|0,1:2|2:0,2:0:0:0:
339,303,90857,1,0,2:0:0:0:
231,184,91143,6,0,P|180:193|92:200,1,120,4|2,1:2|2:0,2:0:0:0:
112,199,91715,6,0,B|93:167|93:167|105:77,2,118.125,8|10|10,1:2|1:2|1:2,2:0:0:0:
112,199,92572,5,2,2:0:0:0:
202,184,92857,5,2,2:0:0:0:
292,169,93143,5,2,2:0:0:0:
382,154,93429,6,0,P|403:206|381:272,1,105,6|0,3:0|2:0,2:0:0:0:
367,298,93715,1,10,2:3:0:0:
275,348,93905,2,0,B|190:362|215:299|113:320,1,157.5,2|2,3:0|3:0,2:0:0:0:
76,338,94286,1,8,2:0:0:0:
25,246,94476,1,2,3:0:0:0:
25,246,94572,6,0,P|30:186|40:136,1,105,0|0,1:0|2:0,2:0:0:0:
64,96,94857,1,10,3:0:0:0:
162,134,95048,2,0,P|215:145|298:70,1,157.5,2|2,3:0|3:0,2:0:0:0:
299,34,95429,1,8,2:0:0:0:
401,12,95619,1,2,2:3:0:0:
401,12,95715,6,0,L|392:121,1,105,0|0,1:0|2:0,2:0:0:0:
416,163,96000,1,10,2:3:0:0:
492,235,96191,2,0,P|510:288|454:365,1,157.5,2|0,3:0|1:0,2:0:0:0:
402,358,96572,1,8,2:0:0:0:
323,296,96762,1,0,2:0:0:0:
323,296,96857,5,0,1:0:0:0:
237,355,97048,1,0,1:0:0:0:
237,355,97143,2,0,L|223:244,1,105,10|0,2:0|2:0,2:0:0:0:
243,201,97429,1,2,1:0:0:0:
143,186,97619,1,8,2:0:0:0:
143,186,97715,2,0,L|135:245,2,52.5,2|8|8,1:0|2:0|2:0,2:0:0:0:
128,135,98000,6,0,L|138:29,1,105,6|0,1:2|2:0,2:0:0:0:
182,2,98286,1,10,2:0:0:0:
255,77,98476,2,0,P|296:102|397:71,1,157.5,2|0,1:0|2:0,2:0:0:0:
421,27,98857,1,8,2:0:0:0:
491,104,99048,1,2,2:0:0:0:
491,104,99143,6,0,P|481:157|477:215,1,105,0|0,1:0|2:0,2:0:0:0:
489,259,99429,2,0,P|438:229|387:241,1,105,10|0,2:0|1:0,2:0:0:0:
361,277,99715,2,0,P|310:307|259:295,1,105,2|0,2:0|1:0,2:0:0:0:
223,271,100000,1,10,2:0:0:0:
203,167,100191,1,0,1:0:0:0:
203,167,100286,6,0,B|241:124|241:124|207:79,1,105,6|0,2:0|2:0,2:0:0:0:
177,46,100572,2,0,L|67:58,1,105,10|0,2:0|2:0,2:0:0:0:
21,68,100857,1,10,1:2:0:0:
65,163,101048,1,0,1:0:0:0:
65,163,101143,1,2,2:0:0:0:
17,257,101334,1,6,1:2:0:0:
17,257,101429,6,0,P|72:259|108:297,1,105,0|0,2:0|2:0,2:0:0:0:
92,343,101715,2,0,L|208:326,1,105,8|0,2:0|2:0,2:0:0:0:
236,294,102000,2,0,L|294:304,5,52.5,0|0|0|2|0|0,1:0|1:0|1:0|1:0|1:0|1:0,2:0:0:0:
338,318,102572,6,0,L|328:206,1,105,6|0,2:0|2:0,2:0:0:0:
323,161,102857,1,10,2:0:0:0:
408,99,103048,1,2,1:0:0:0:
408,99,103143,1,8,2:0:0:0:
346,13,103334,1,2,2:0:0:0:
346,13,103429,1,8,2:0:0:0:
261,74,103619,1,2,1:0:0:0:
261,74,103715,6,0,P|208:91|148:73,1,105,8|0,2:0|1:0,2:0:0:0:
111,62,104000,2,0,P|128:115|110:175,1,105,10|0,2:0|1:0,2:0:0:0:
94,209,104286,2,0,P|147:192|207:210,1,105,10|0,2:0|1:0,2:0:0:0:
232,237,104572,2,0,P|221:287|238:337,1,105,10|0,2:0|2:0,2:0:0:0:
284,362,104857,5,6,1:2:0:0:
388,374,105048,1,2,1:0:0:0:
388,374,105143,1,8,1:3:0:0:
429,279,105334,1,10,2:0:0:0:
429,279,105429,2,0,L|421:168,1,105,8|0,2:0|1:0,2:0:0:0:
460,138,105715,2,0,L|515:148,2,52.5,0|8|0,1:0|2:0|1:0,2:0:0:0:
439,89,106000,6,0,P|385:74|327:100,1,105,4|0,1:2|2:0,2:0:0:0:
308,131,106286,1,8,2:0:0:0:
226,196,106476,2,0,B|144:215|156:155|64:181,1,157.5,4|10,1:2|2:0,2:0:0:0:
42,221,106857,1,10,2:0:0:0:
53,329,107048,1,2,1:0:0:0:
53,329,107143,6,0,P|95:369|155:369,1,105,6|0,1:2|2:0,2:0:0:0:
188,351,107429,1,10,2:0:0:0:
265,280,107619,2,0,B|303:246|348:255|348:255|369:286|412:290,1,157.5,2|2,1:0|1:0,2:0:0:0:
455,279,108000,1,8,2:0:0:0:
505,186,108191,1,2,2:0:0:0:
505,186,108286,6,0,L|494:70,1,105,0|0,1:0|2:0,2:0:0:0:
489,28,108572,1,10,2:0:0:0:
392,69,108762,2,0,B|312:83|327:27|240:41,1,157.5,2|2,1:0|1:0,2:0:0:0:
195,66,109143,1,8,2:0:0:0:
252,154,109334,1,2,2:0:0:0:
252,154,109429,6,0,P|263:211|243:257,1,105,4|0,1:2|2:0,2:0:0:0:
208,291,109715,1,10,2:0:0:0:
104,278,109905,2,0,B|69:237|69:237|92:124,1,157.5,2|2,1:0|1:0,2:0:0:0:
102,84,110286,1,8,2:0:0:0:
181,15,110476,1,2,2:0:0:0:
181,15,110572,6,0,P|229:2|282:28,1,105,4|0,1:2|2:0,2:0:0:0:
311,63,110857,2,0,L|427:52,1,105,10|0,2:0|2:0,2:0:0:0:
468,47,111143,2,0,P|452:97|475:155,1,105,2|0,1:0|1:0,2:0:0:0:
494,191,111429,2,0,P|510:241|487:299,1,105,10|0,2:0|2:0,2:0:0:0:
451,320,111715,5,6,3:0:0:0:
370,253,111905,1,0,2:0:0:0:
370,253,112000,1,10,2:3:0:0:
302,334,112191,2,0,B|252:351|252:351|147:333,1,157.5,2|2,3:0|3:0,2:0:0:0:
105,302,112572,1,8,2:0:0:0:
72,202,112762,1,2,3:0:0:0:
72,202,112857,6,0,P|67:148|103:105,1,105,0|0,1:0|2:0,2:0:0:0:
147,97,113143,1,10,3:0:0:0:
238,149,113334,2,0,B|282:167|282:167|394:150,1,157.5,2|2,3:0|3:0,2:0:0:0:
442,139,113715,1,8,2:0:0:0:
504,229,113905,1,2,2:3:0:0:
504,229,114000,6,0,P|512:284|483:340,1,105,0|0,1:0|2:0,2:0:0:0:
451,360,114286,1,10,2:3:0:0:
359,309,114476,2,0,B|288:288|284:345|204:324,1,157.5,2|0,3:0|1:0,2:0:0:0:
161,296,114857,1,8,2:0:0:0:
68,345,115048,1,0,1:0:0:0:
68,345,115143,6,0,L|58:239,1,105,8|0,2:0|1:0,2:0:0:0:
28,196,115429,1,10,2:0:0:0:
121,148,115619,1,0,2:0:0:0:
121,148,115715,2,0,L|124:93,5,52.5,10|0|0|0|0|0,2:0|1:0|1:0|1:0|1:0|1:0,2:0:0:0:
106,46,116286,6,0,P|157:67|214:53,1,105,6|0,1:2|2:0,2:0:0:0:
243,21,116572,1,10,2:0:0:0:
299,109,116762,2,0,B|276:152|276:152|287:265,1,157.5,2|2,1:0|1:0,2:0:0:0:
294,312,117143,1,8,2:0:0:0:
393,359,117334,1,2,2:0:0:0:
393,359,117429,6,0,P|446:342|468:292,1,105,0|0,1:0|1:0,2:0:0:0:
465,247,117715,2,0,L|456:138,1,105,10|0,2:0|1:0,2:0:0:0:
483,97,118000,1,2,1:0:0:0:
397,35,118191,1,8,2:0:0:0:
397,35,118286,1,10,2:0:0:0:
356,131,118476,1,8,1:2:0:0:
356,131,118572,6,0,B|301:145|301:145|242:134,1,105,6|0,1:2|2:0,2:0:0:0:
202,123,118857,2,0,P|214:180|219:237,1,105,2|0,1:0|2:0,2:0:0:0:
206,277,119143,1,10,2:0:0:0:
119,337,119334,1,0,1:0:0:0:
119,337,119429,1,2,1:0:0:0:
40,267,119619,6,0,B|32:205|32:205|46:168|46:168|39:101,1,157.5,6|0,1:2|1:0,2:0:0:0:
19,64,120000,2,0,P|65:86|119:75,1,105,8|0,1:2|2:0,2:0:0:0:
164,55,120286,2,0,L|160:2,2,52.5,0|0|0,1:0|1:0|1:0,2:0:0:0:
207,85,120572,2,0,L|203:138,2,52.5,2|0|0,1:0|1:0|1:0,2:0:0:0:
249,54,120857,6,0,L|379:60,1,120,6|0,1:2|2:0,2:0:0:0:
368,59,121715,1,2,2:0:0:0:
438,177,122000,6,0,L|308:183,1,120,6|2,1:2|2:0,2:0:0:0:
318,182,122857,1,2,2:0:0:0:
288,296,123143,6,0,L|375:290,1,80,12|8,2:0|2:0,2:0:0:0:
367,290,124762,6,0,B|291:275|302:331|203:302,1,150,4|10,2:1|2:0,2:0:0:0:
182,273,125143,1,10,2:0:0:0:
136,189,125334,1,0,2:0:0:0:
136,189,125429,6,0,L|143:89,1,100,6|0,2:0|2:0,2:0:0:0:
146,38,125715,1,8,2:0:0:0:
241,7,125905,2,0,P|312:7|363:67,1,150,2|0,1:0|1:0,2:0:0:0:
350,114,126286,1,10,2:0:0:0:
267,167,126476,1,0,2:0:0:0:
267,167,126572,6,0,B|248:205|248:205|260:271,1,100,2|0,1:0|2:0,2:0:0:0:
271,309,126857,1,8,2:0:0:0:
194,374,127048,2,0,B|141:377|141:377|99:351|99:351|36:356,1,150,2|0,1:0|1:0,2:0:0:0:
1,357,127429,1,8,2:0:0:0:
34,263,127619,1,0,2:0:0:0:
34,263,127715,6,0,L|49:156,1,100,2|8,1:0|1:3,2:0:0:0:
81,126,128000,2,0,L|72:69,2,50,2|0|10,1:0|1:0|2:0,2:0:0:0:
127,145,128286,1,2,1:0:0:0:
201,78,128476,1,10,2:0:0:0:
201,78,128572,2,0,L|211:26,2,50,2|8|8,1:0|2:0|1:3,2:0:0:0:
232,116,128857,6,0,L|246:230,1,100,6|2,1:2|2:0,2:0:0:0:
220,259,129143,1,10,2:0:0:0:
293,327,129334,2,0,B|381:306|360:369|450:348,1,150,6|8,1:2|2:0,2:0:0:0:
483,332,129715,2,0,P|475:281|479:221,1,100,8|0,2:0|2:0,2:0:0:0:
501,189,130000,6,0,B|523:134|523:134|466:160,1,112.5,6|2,1:2|2:3,2:0:0:0:
341,93,130572,2,0,B|319:38|319:38|376:64,1,112.5,2|2,2:3|2:3,2:0:0:0:
297,186,131143,2,0,L|212:174,1,75.0000000000002,2|0,2:3|2:0,2:0:0:0:
185,170,131429,1,2,2:3:0:0:
111,244,131619,1,2,2:3:0:0:
341,362,132000,5,4,1:2:0:0:
256,192,132095,12,6,134572,2:0:0:0:
