osu file format v14

[General]
AudioFilename: audio.ogg
AudioLeadIn: 0
PreviewTime: 49265
Countdown: 0
SampleSet: Soft
StackLeniency: 0.4
Mode: 0
LetterboxInBreaks: 0
WidescreenStoryboard: 1

[Editor]
DistanceSpacing: 1.1
BeatDivisor: 4
GridSize: 8
TimelineZoom: 1.7

[Metadata]
Title:Melody in the Dark
TitleUnicode:Melody in the Dark
Artist:UNDEAD
ArtistUnicode:UNDEAD
Creator:kakifly
Version:aika's Extra
Source:あんさんぶるスターズ!!
Tags:enstars es ensemble stars あんさんぶるスターズ! あんさんぶるスターズ あんスタ jpop j-pop male vocal rock idol rei sakuma 朔間 零 kaoru hakaze 羽風 薫 koga oogami 大神 晃牙 adonis otogari 乙狩 アドニス toshiki masuda 増田 俊樹 kei hosogai 細貝 圭 yuki ono 小野 友樹 wataru hatano 羽多野 渉 japanese video game videogame a mystery amystery setz setz206 shikibe mayu ryuusei aika ryuuseiaika shizuku kazato asa kowari arte refact mel jrock j-rock poprock pop-rock
BeatmapID:3346402
BeatmapSetID:1620141

[Difficulty]
HPDrainRate:5.5
CircleSize:4
OverallDifficulty:8.5
ApproachRate:9.2
SliderMultiplier:1.8
SliderTickRate:1

[Events]
//Background and Video events
0,0,"rei.png",0,0
//Break Periods
//Storyboard Layer 0 (Background)
//Storyboard Layer 1 (Fail)
//Storyboard Layer 2 (Pass)
//Storyboard Layer 3 (Foreground)
//Storyboard Layer 4 (Overlay)
//Storyboard Sound Samples

[TimingPoints]
1125,300,4,2,1,60,1,0
1125,-133.333333333333,4,2,1,60,0,0
1725,-133.333333333333,4,2,1,60,0,0
5625,-133.333333333333,4,2,1,60,0,0
5915,300,4,2,1,80,1,0
15215,-66.6666666666667,4,2,1,60,0,0
15515,-133.333333333333,4,2,1,60,0,0
17915,-200,4,2,1,60,0,0
21815,-133.333333333333,4,2,1,60,0,0
22565,-100,4,2,1,60,0,0
27515,-133.333333333333,4,2,1,60,0,0
32165,-100,4,2,1,60,0,0
37115,-133.333333333333,4,2,1,60,0,0
44165,-100,4,2,1,75,0,0
47765,-100,4,2,1,75,0,0
49415,-133.333333333333,4,2,1,75,0,0
50165,-83.3333333333333,4,2,1,85,0,1
55340,-83.3333333333333,4,2,1,5,0,1
55415,-66.6666666666667,4,2,1,85,0,1
56165,-83.3333333333333,4,2,1,85,0,1
59165,-66.6666666666667,4,2,1,85,0,1
59765,-83.3333333333333,4,2,1,85,0,1
64940,-83.3333333333333,4,2,1,5,0,1
65015,-66.6666666666667,4,2,1,85,0,1
65765,-83.3333333333333,4,2,1,85,0,1
69515,-83.3333333333333,4,2,1,85,0,0
75215,-66.6666666666667,4,2,1,85,0,0
75665,-83.3333333333333,4,2,1,85,0,0
76115,-55.5555555555556,4,2,1,85,0,1
76715,-100,4,2,1,85,0,0
76865,-133.333333333333,4,2,1,85,0,0
78965,-100,4,2,1,85,0,0
79565,-100,4,2,1,10,0,0
80315,-83.3333333333333,4,2,1,80,0,0
83915,-133.333333333333,4,2,1,80,0,0
91115,-100,4,2,1,80,0,0
93365,-83.3333333333333,4,2,1,80,0,1
95915,-66.6666666666667,4,2,1,80,0,1
96215,-71.4285714285714,4,2,1,80,0,1
96515,-76.9230769230769,4,2,1,80,0,1
96815,-83.3333333333333,4,2,1,80,0,1
98615,-133.333333333333,4,2,1,80,0,0
99365,-83.3333333333333,4,2,1,80,0,1
104615,-66.6666666666667,4,2,1,80,0,1
105065,-83.3333333333333,4,2,1,80,0,1
108365,-66.6666666666667,4,2,1,80,0,1
108815,-83.3333333333333,4,2,1,80,0,1
114215,-66.6666666666667,4,2,1,80,0,1
114665,-83.3333333333333,4,2,1,80,0,1
118715,-83.3333333333333,4,2,1,80,0,0
124415,-66.6666666666667,4,2,1,80,0,0
124865,-83.3333333333333,4,2,1,80,0,0
125315,-55.5555555555556,4,2,1,80,0,1
125915,-100,4,2,1,80,0,0
126065,-133.333333333333,4,2,1,80,0,0
128165,-133.333333333333,4,2,1,80,0,0
129515,-83.3333333333333,4,2,1,80,0,0
142415,-66.6666666666667,4,2,1,80,0,0
142715,-133.333333333333,4,2,1,80,0,0
142865,-133.333333333333,4,2,1,60,0,0
144515,-133.333333333333,4,2,1,5,0,0

[Colours]
Combo1 : 159,0,80
Combo2 : 96,0,191
Combo3 : 191,0,191
Combo4 : 170,85,85

[HitObjects]
11,44,1125,5,0,3:0:0:0:
83,20,1275,1,0,0:0:0:0:
107,132,1425,1,0,3:0:0:0:
35,116,1575,1,0,0:0:0:0:
171,84,1725,1,2,3:0:0:0:
188,80,1800,1,0,3:0:0:0:
205,76,1875,1,0,3:0:0:0:
277,92,2025,1,0,3:0:0:0:
171,84,2175,2,0,L|147:234,2,135.000005149842,2|0|0,3:0|3:0|3:0,0:0:0:0:
62,356,3075,1,0,0:0:0:0:
106,297,3225,2,0,L|180:288,1,67.5000025749208,0|0,3:0|3:0,0:0:0:0:
94,283,3525,5,0,3:0:0:0:
488,364,3825,1,0,3:0:0:0:
220,374,4125,1,2,3:0:0:0:
224,358,4200,1,0,3:0:0:0:
228,342,4275,1,0,3:0:0:0:
414,343,4425,2,0,L|338:359,1,67.5000025749208,0|0,3:0|3:0,0:0:0:0:
331,349,4875,5,2,3:0:0:0:
342,277,5175,5,0,3:0:0:0:
342,277,5325,1,0,3:0:0:0:
353,205,5475,5,0,3:0:0:0:
375,61,5625,2,0,L|485:45,1,101.250003862381,2|0,3:0|0:0,0:0:0:0:
478,60,5915,6,0,L|293:86,1,180,4|10,1:2|0:0,0:0:0:0:
246,93,6365,1,2,0:0:0:0:
411,153,6515,2,0,P|447:150|415:174,1,90,2|4,1:2|1:3,0:0:0:0:
283,171,6815,2,0,L|133:153,1,135,8|0,0:0|0:0,0:0:0:0:
127,151,7115,1,0,1:0:0:0:
54,137,7265,1,4,0:3:0:0:
137,0,7415,6,0,L|169:84,1,90,10|2,0:0|0:0,0:0:0:0:
114,236,7715,2,0,L|82:385,1,135,0|0,1:3|0:0,0:0:0:0:
76,379,8015,1,8,0:0:0:0:
210,263,8165,2,0,B|297:245|297:245|252:274,1,135,4|0,1:2|0:0,0:0:0:0:
242,276,8465,6,0,L|229:377,1,90,0|10,1:0|0:0,0:0:0:0:
230,365,8690,1,2,0:0:0:0:
230,365,8765,1,2,0:0:0:0:
157,376,8915,1,2,1:2:0:0:
312,325,9065,1,4,1:3:0:0:
467,274,9215,1,8,0:0:0:0:
376,375,9365,1,0,0:0:0:0:
450,352,9515,5,0,1:0:0:0:
393,299,9665,1,4,1:3:0:0:
336,246,9815,2,0,L|352:152,1,90,10|2,0:0|0:0,0:0:0:0:
142,113,10115,2,0,L|174:259,1,135,2|8,1:2|0:0,0:0:0:0:
176,262,10415,2,0,P|203:260|221:245,1,45,8|8,0:0|0:0,0:0:0:0:
354,140,10565,6,0,B|317:129|317:129|226:179|226:179|189:168,1,180,4|0,1:2|0:0,0:0:0:0:
322,56,11015,1,10,0:0:0:0:
413,35,11165,1,0,0:0:0:0:
224,17,11315,2,0,B|156:25|156:25|221:49,1,135,2|0,1:2|0:0,0:0:0:0:
235,52,11615,2,0,B|303:40|362:48|362:48|422:32,1,180,10|0,0:0|1:0,0:0:0:0:
476,72,12065,1,4,1:3:0:0:
324,182,12215,5,14,0:0:0:0:
159,134,12365,1,0,0:0:0:0:
422,143,12515,2,0,B|490:151|490:151|425:175,1,135,2|0,1:2|0:0,0:0:0:0:
407,176,12815,1,10,0:0:0:0:
230,159,12965,2,0,B|280:172|280:172|339:165|407:176,1,180,6|0,1:2|1:0,0:0:0:0:
258,255,13415,6,0,L|156:228,1,90,10|0,0:0|1:0,0:0:0:0:
151,226,13640,1,0,1:0:0:0:
132,221,13715,1,10,0:0:0:0:
307,190,13865,1,0,1:0:0:0:
324,369,14015,1,8,0:0:0:0:
490,306,14165,6,0,L|403:282,1,90,6|0,1:2|0:0,0:0:0:0:
316,306,14465,2,0,L|403:282,1,90,10|4,0:0|0:3,0:0:0:0:
403,255,14690,1,4,1:3:0:0:
413,229,14765,1,4,1:3:0:0:
436,216,14840,1,4,1:3:0:0:
462,220,14915,1,10,0:0:0:0:
483,269,14990,1,8,2:0:0:0:
469,318,15065,1,8,0:0:0:0:
429,353,15140,1,8,2:0:0:0:
379,354,15215,2,0,L|246:390,1,135.000005149842,14|0,1:2|0:0,0:0:0:0:
31,376,15515,5,0,3:0:0:0:
31,376,15665,1,0,3:0:0:0:
87,328,15815,1,0,3:0:0:0:
87,328,15965,1,0,3:0:0:0:
87,328,16115,2,0,L|186:320,1,67.5000025749208,2|0,3:0|0:0,0:0:0:0:
8,285,16565,5,0,3:0:0:0:
8,285,16715,1,0,3:0:0:0:
8,285,16865,1,0,3:0:0:0:
64,237,17015,1,2,3:0:0:0:
64,237,17165,2,0,L|153:229,1,67.5000025749208,2|2,1:3|1:3,0:0:0:0:
220,362,17465,5,8,0:0:0:0:
231,327,17540,1,8,0:0:0:0:
242,292,17615,1,8,0:0:0:0:
286,152,17765,1,8,0:0:0:0:
264,222,17915,5,4,1:2:0:0:
312,318,18065,2,0,L|407:353,1,90,0|0,1:0|1:0,0:0:0:0:
340,242,18515,2,0,B|382:221|382:221|408:163,1,90,10|2,0:0|1:2,0:0:0:0:
242,292,18965,2,0,L|146:256,1,90,2|0,1:2|1:0,0:0:0:0:
167,123,19415,2,0,B|135:138|135:138|116:182,1,67.5,10|0,0:0|0:0,0:0:0:0:
116,182,19715,1,2,1:2:0:0:
88,9,19865,1,2,1:2:0:0:
237,30,20015,2,0,L|140:51,1,90,8|2,0:0|1:2,0:0:0:0:
362,49,20465,6,0,L|275:30,1,90,0|0,1:0|1:0,0:0:0:0:
231,177,20915,2,0,B|248:137|248:137|290:116,1,90,10|2,0:0|1:2,0:0:0:0:
167,224,21365,2,0,L|187:327,1,90,2|0,1:2|1:0,0:0:0:0:
192,320,21740,1,0,1:0:0:0:
192,320,21815,2,0,L|239:303,1,33.7500012874604,2|0,1:2|0:0,0:0:0:0:
294,351,21965,1,2,1:2:0:0:
295,338,22040,1,0,1:0:0:0:
297,324,22115,2,0,L|118:371,1,168.750006437302,12|0,0:0|0:0,0:0:0:0:
109,373,22565,6,0,B|72:383|72:383|105:294|105:294|60:304,1,180,6|0,1:2|0:0,0:0:0:0:
107,194,23015,2,0,L|204:217,1,90,2|0,1:2|0:0,0:0:0:0:
317,214,23315,2,0,L|405:194,1,90,10|0,0:0|0:0,0:0:0:0:
241,335,23615,1,2,1:2:0:0:
257,263,23765,2,0,L|308:63,1,180,6|0,1:2|0:0,0:0:0:0:
317,16,24215,1,8,0:3:0:0:
241,335,24515,2,0,L|354:325,1,90,8|8,0:0|0:3,0:0:0:0:
170,376,24815,2,0,L|57:366,1,90,0|4,3:0|0:3,0:0:0:0:
78,204,25115,6,0,P|89:246|66:284,1,90,2|0,1:2|0:0,0:0:0:0:
153,294,25415,2,0,L|362:333,2,180,2|10|4,1:2|0:0|0:3,0:0:0:0:
193,224,26165,1,4,1:2:0:0:
472,384,26465,1,0,1:2:0:0:
410,291,26615,2,0,L|394:391,1,90,12|0,0:0|0:0,0:0:0:0:
368,221,26915,2,0,L|399:178,1,45,8|0,0:3|0:0,0:0:0:0:
368,70,27065,2,0,L|399:113,1,45,8|0,0:3|0:0,0:0:0:0:
463,136,27215,2,0,L|418:140,1,45,4|0,0:3|0:0,0:0:0:0:
328,148,27365,2,0,L|283:152,1,45,4|0,1:3|0:0,0:0:0:0:
209,160,27515,5,4,1:2:0:0:
256,24,27665,2,0,L|241:113,2,67.5000025749208,0|10|2,0:0|0:0|0:0,0:0:0:0:
79,204,28115,1,2,1:2:0:0:
153,216,28265,2,0,L|162:293,1,67.5000025749208,4|10,1:3|0:0,0:0:0:0:
349,316,28565,2,0,B|288:341|288:341|314:286,1,101.250003862381,2|0,1:2|0:0,0:0:0:0:
310,298,28865,1,0,1:0:0:0:
214,341,29015,2,0,L|128:374,1,67.5000025749208,10|0,0:0|0:0,0:0:0:0:
378,350,29315,1,2,1:2:0:0:
452,338,29465,2,0,P|480:259|471:188,1,135.000005149842,4|0,1:3|1:0,0:0:0:0:
432,175,29840,1,0,1:0:0:0:
432,175,29915,6,0,P|375:210|410:268,1,135.000005149842,4|10,1:2|0:0,0:0:0:0:
303,190,30365,1,2,0:0:0:0:
236,224,30515,2,0,L|98:256,1,135.000005149842,2|10,1:2|0:0,0:0:0:0:
291,116,30965,2,0,L|153:84,1,135.000005149842,6|2,1:2|1:2,0:0:0:0:
32,61,31415,2,0,P|70:57|115:31,1,67.5000025749208,10|2,0:0|1:2,0:0:0:0:
99,38,31640,2,0,L|108:-2,1,33.7500012874604,0|8,1:0|0:0,0:0:0:0:
58,135,31865,2,0,L|31:242,1,101.250003862381,4|0,1:2|0:0,0:0:0:0:
53,237,32165,6,0,B|98:248|98:248|162:304|162:304|213:316,1,180,2|0,1:2|1:0,0:0:0:0:
440,362,32615,2,0,B|458:330|458:330|362:353,1,135,10|0,0:0|0:0,0:0:0:0:
367,363,32915,2,0,L|379:271,1,90,2|4,1:2|1:3,0:0:0:0:
193,217,33215,1,10,0:0:0:0:
264,185,33365,2,0,L|287:363,1,180,6|2,1:2|1:2,0:0:0:0:
340,196,33815,2,0,L|448:207,1,90,8|0,0:0|1:0,0:0:0:0:
503,213,34115,1,8,0:3:0:0:
422,47,34265,1,4,0:3:0:0:
279,107,34415,2,0,L|116:123,1,135,10|0,0:0|0:0,0:0:0:0:
149,141,34715,6,0,P|213:107|168:16,1,180,2|14,1:2|0:0,0:0:0:0:
112,4,35165,1,0,0:0:0:0:
59,191,35315,2,0,L|72:102,1,90,8|4,1:3|1:3,0:0:0:0:
25,348,35615,1,10,0:0:0:0:
11,259,35765,2,0,L|24:347,1,90,6|0,1:2|0:0,0:0:0:0:
129,235,36065,1,2,1:2:0:0:
203,319,36215,1,8,0:0:0:0:
320,265,36365,2,0,L|460:292,1,135,2|0,1:2|0:0,0:0:0:0:
449,320,36665,2,0,P|421:356|355:354,1,90,4|8,1:3|0:3,0:0:0:0:
339,359,36890,1,8,0:3:0:0:
304,338,36965,1,4,0:3:0:0:
288,300,37040,1,4,0:3:0:0:
296,261,37115,6,0,L|311:170,1,67.5000025749208,4|4,1:3|1:3,0:0:0:0:
95,28,37565,1,4,1:3:0:0:
107,101,37715,2,0,L|129:235,1,135.000005149842,8|8,0:0|1:3,0:0:0:0:
41,156,38165,1,4,1:2:0:0:
465,53,38465,1,4,1:3:0:0:
316,372,38765,1,0,0:0:0:0:
159,301,38915,2,0,B|189:326|189:326|271:311,1,101.250003862381,8|0,3:2|3:3,0:0:0:0:
270,311,39215,2,0,L|280:240,1,67.5000025749208,0|8,1:0|0:0,0:0:0:0:
192,74,39515,5,4,1:3:0:0:
310,116,39665,2,0,P|238:136|239:200,1,135.000005149842,4|4,1:3|1:3,0:0:0:0:
346,281,40115,2,0,L|438:272,1,67.5000025749208,8|8,0:0|0:3,0:0:0:0:
488,267,40415,1,4,0:3:0:0:
389,356,40565,1,0,1:0:0:0:
256,33,40865,5,4,1:3:0:0:
0,249,41165,1,8,0:3:0:0:
154,144,41315,2,0,L|55:154,1,67.5000025749208,12|8,0:2|0:3,0:0:0:0:
49,155,41540,1,8,0:3:0:0:
16,136,41615,1,8,0:3:0:0:
7,99,41690,1,4,0:3:0:0:
19,64,41765,1,4,0:3:0:0:
51,45,41840,1,4,0:3:0:0:
86,54,41915,1,4,1:3:0:0:
231,126,42065,2,0,L|214:287,1,135.000005149842,4|0,1:3|1:0,0:0:0:0:
427,225,42515,6,0,L|278:250,1,135.000005149842,8|0,0:0|1:0,0:0:0:0:
141,273,42965,2,0,B|59:287|59:287|122:308,1,135.000005149842,4|0,1:2|1:0,0:0:0:0:
374,359,43415,2,0,L|279:355,1,67.5000025749208,8|0,0:0|1:0,0:0:0:0:
246,350,43640,1,0,1:0:0:0:
242,340,43715,2,0,L|147:344,1,67.5000025749208,8|6,0:0|0:3,0:0:0:0:
497,216,44165,6,0,P|434:173|335:197,1,180,4|0,1:2|1:0,0:0:0:0:
15,224,44615,2,0,P|78:267|177:243,1,180,10|2,0:0|1:2,0:0:0:0:
258,174,45065,2,0,L|251:264,1,90,4|10,1:3|0:0,0:0:0:0:
90,144,45365,2,0,L|104:333,1,180,2|2,1:2|1:2,0:0:0:0:
336,32,45815,2,0,B|246:78|246:78|262:37,1,135,10|0,0:0|0:0,0:0:0:0:
264,33,46115,2,0,L|283:141,1,90,2|4,1:2|1:3,0:0:0:0:
186,198,46415,2,0,B|234:181|286:199|286:199|334:182,1,135,10|0,0:0|0:0,0:0:0:0:
333,182,46715,5,2,1:2:0:0:
237,270,46865,1,2,3:0:0:0:
404,384,47015,2,0,L|424:286,1,90,10|2,0:0|3:0,0:0:0:0:
242,371,47315,2,0,L|355:357,1,90,2|6,1:2|1:3,0:0:0:0:
480,384,47615,2,0,L|490:335,1,45,10|0,0:2|0:0,0:0:0:0:
453,163,47765,6,0,L|488:339,1,180,6|0,1:2|1:0,0:0:0:0:
389,228,48215,1,12,0:0:0:0:
438,92,48365,1,0,1:0:0:0:
284,175,48515,2,0,L|340:181,1,45,8|0,0:0|0:0,0:0:0:0:
228,175,48665,2,0,L|172:181,1,45,8|8,0:0|0:0,0:0:0:0:
211,301,48815,2,0,L|211:357,1,45,4|0,1:3|0:0,0:0:0:0:
228,355,48965,2,0,L|228:165,1,180,4|0,1:2|0:0,0:0:0:0:
138,353,49415,6,0,L|-8:388,1,135.000005149842,8|0,0:3|3:0,0:0:0:0:
21,306,49865,1,2,3:0:0:0:
21,78,50165,6,0,L|208:45,1,161.999995056153,6|0,1:2|0:0,0:0:0:0:
217,44,50465,1,2,1:2:0:0:
62,152,50615,1,10,0:0:0:0:
224,282,50765,1,2,0:0:0:0:
140,136,50915,1,4,0:3:0:0:
152,212,51065,2,0,L|139:332,1,107.999996704102,0|10,1:0|0:0,0:0:0:0:
360,119,51365,2,0,B|413:118|413:118|359:152,1,107.999996704102,2|0,1:2|0:0,0:0:0:0:
186,384,51665,2,0,L|350:361,1,161.999995056153,2|0,1:2|0:0,0:0:0:0:
400,357,51965,2,0,L|513:374,1,107.999996704102,2|0,1:2|0:0,0:0:0:0:
328,291,52265,1,4,0:3:0:0:
495,198,52415,1,8,0:0:0:0:
233,180,52565,6,0,B|283:167|283:167|367:230|367:230|464:207,1,215.999993408203,6|2,1:2|1:2,0:0:0:0:
328,291,53015,1,10,0:0:0:0:
444,144,53165,1,2,0:0:0:0:
385,31,53315,2,0,L|365:158,1,107.999996704102,4|0,0:3|1:0,0:0:0:0:
136,67,53615,1,10,0:0:0:0:
147,140,53765,2,0,L|180:353,1,215.999993408203,6|0,1:2|0:0,0:0:0:0:
35,357,54215,2,0,B|71:236|71:236|34:263,1,161.999995056153,8|0,0:0|0:0,0:0:0:0:
37,271,54515,2,0,L|151:250,1,107.999996704102,0|6,1:0|0:3,0:0:0:0:
475,271,54815,6,0,L|361:250,1,107.999996704102,10|2,0:0|0:3,0:0:0:0:
249,76,55115,2,0,B|267:188|267:188|304:220,1,161.999995056153,6|0,1:2|0:0,0:0:0:0:
307,295,55415,6,0,L|193:274,1,67.5000025749208,10|0,0:0|0:0,0:0:0:0:
185,191,55565,2,0,B|210:159|210:159|301:139,1,135.000005149842,2|8,0:0|1:3,0:0:0:0:
445,116,55865,1,4,1:3:0:0:
197,12,56015,1,10,0:0:0:0:
382,230,56165,6,0,L|414:16,1,215.999993408203,6|0,1:2|1:0,0:0:0:0:
173,317,56615,2,0,P|87:299|67:219,1,161.999995056153,10|0,0:0|0:0,0:0:0:0:
90,228,56915,2,0,L|73:334,1,107.999996704102,4|0,0:3|0:0,0:0:0:0:
228,373,57215,2,0,L|402:356,1,161.999995056153,10|0,0:0|0:0,0:0:0:0:
448,352,57515,2,0,P|475:320|486:224,1,107.999996704102,6|0,1:2|0:0,0:0:0:0:
214,183,57815,5,10,0:0:0:0:
311,384,57965,1,2,0:3:0:0:
350,164,58115,1,4,0:3:0:0:
190,319,58265,1,2,1:3:0:0:
409,288,58415,1,10,0:0:0:0:
201,59,58565,6,0,L|118:52,1,53.9999983520508,4|0,1:2|0:0,0:0:0:0:
262,99,58715,2,0,L|345:92,1,53.9999983520508
147,54,58865,2,0,P|130:74|105:85,1,53.9999983520508,8|0,0:0|0:0,0:0:0:0:
315,94,59015,2,0,P|331:73|356:62,1,53.9999983520508,8|8,0:0|0:0,0:0:0:0:
105,85,59165,6,0,P|121:113|127:147,1,67.5000025749208,6|0,1:2|0:0,0:0:0:0:
356,62,59315,2,0,P|339:33|333:-1,1,67.5000025749208
240,53,59465,6,0,B|233:99|233:99|262:145|247:188,1,135.000005149842,10|8,0:0|0:3,0:0:0:0:
238,231,59690,1,8,3:0:0:0:
238,231,59765,6,0,B|183:250|134:237|134:237|109:288|41:316,1,215.999993408203,6|2,1:2|1:2,0:0:0:0:
122,225,60215,6,0,P|119:253|142:258,1,53.9999983520508,10|0,0:0|0:0,0:0:0:0:
257,307,60365,1,2,0:0:0:0:
462,267,60515,2,0,L|301:297,1,161.999995056153,4|0,0:3|0:0,0:0:0:0:
249,309,60815,2,0,L|257:201,1,107.999996704102,10|2,0:0|1:2,0:0:0:0:
366,358,61115,1,0,0:0:0:0:
374,261,61265,2,0,L|382:153,1,107.999996704102,2|8,1:2|0:0,0:0:0:0:
258,42,61565,2,0,L|457:89,1,161.999995056153,2|0,0:0|0:0,0:0:0:0:
478,94,61865,2,0,L|348:110,1,107.999996704102,6|8,0:2|0:0,0:0:0:0:
127,53,62165,6,0,P|213:63|221:139,1,161.999995056153,6|0,1:2|0:0,0:0:0:0:
179,162,62465,2,0,P|158:211|165:293,1,107.999996704102,2|10,1:2|0:0,0:0:0:0:
250,384,62765,1,0,0:0:0:0:
74,356,62915,2,0,L|199:339,2,107.999996704102,2|0|10,1:2|1:0|0:2,0:0:0:0:
272,250,63365,2,0,L|486:279,1,215.999993408203,6|0,1:2|0:0,0:0:0:0:
358,337,63815,2,0,B|286:354|286:354|336:309,1,107.999996704102,8|2,0:0|3:0,0:0:0:0:
439,199,64115,1,0,1:0:0:0:
378,72,64265,1,2,1:3:0:0:
199,9,64415,6,0,L|326:25,1,107.999996704102,10|10,0:0|0:3,0:0:0:0:
201,186,64715,2,0,B|163:190|163:190|142:165|142:165|52:177,1,161.999995056153,6|4,1:2|1:3,0:0:0:0:
312,110,65015,6,0,L|244:102,1,67.5000025749208,10|0,0:0|0:0,0:0:0:0:
126,181,65165,2,0,B|157:177|157:177|175:198|175:198|250:188,1,135.000005149842,2|4,0:0|1:3,0:0:0:0:
378,164,65465,1,0,1:3:0:0:
169,93,65615,1,10,0:0:0:0:
449,192,65765,6,0,B|456:123|456:123|390:97|381:7,1,215.999993408203,6|0,1:2|0:0,0:0:0:0:
319,275,66215,2,0,L|123:291,1,161.999995056153,10|0,0:0|0:0,0:0:0:0:
99,278,66515,2,0,B|10:252|10:252|91:246,1,161.999995056153,2|0,1:2|0:0,0:0:0:0:
109,251,66815,2,0,L|316:277,1,161.999995056153,10|0,0:0|0:0,0:0:0:0:
318,302,67115,2,0,L|446:286,1,107.999996704102,2|0,1:2|0:0,0:0:0:0:
470,45,67415,6,0,P|484:67|489:93,1,53.9999983520508,10|0,0:0|0:0,0:0:0:0:
443,217,67565,2,0,P|422:200|370:187,1,53.9999983520508,2|0,0:0|0:0,0:0:0:0:
401,82,67715,2,0,P|375:93|329:104,1,53.9999983520508,4|0,0:3|0:0,0:0:0:0:
320,173,67865,1,2,1:2:0:0:
200,78,68015,1,8,0:0:0:0:
84,164,68165,2,0,L|231:149,1,107.999996704102,2|0,1:2|0:0,0:0:0:0:
245,149,68390,1,0,0:0:0:0:
252,138,68465,2,0,L|288:288,1,107.999996704102,2|8,1:2|0:0,0:0:0:0:
84,82,68765,6,0,L|40:262,1,161.999995056153,6|0,1:2|0:0,0:0:0:0:
34,294,69065,2,0,P|61:304|108:284,1,53.9999983520508,2|0,1:2|0:0,0:0:0:0:
155,272,69215,1,8,0:0:0:0:
204,250,69290,1,8,0:0:0:0:
258,256,69365,1,8,0:0:0:0:
289,299,69440,1,8,0:0:0:0:
293,352,69515,1,4,1:2:0:0:
503,160,69815,6,0,L|309:180,1,161.999995056153,10|0,0:0|1:0,0:0:0:0:
286,182,70115,1,4,0:3:0:0:
359,50,70265,2,0,L|420:138,1,107.999996704102,8|8,0:3|0:0,0:0:0:0:
190,60,70565,2,0,B|143:75|143:75|254:96,1,161.999995056153,2|0,1:2|0:0,0:0:0:0:
306,106,70865,1,2,1:2:0:0:
174,163,71015,2,0,L|62:183,1,107.999996704102,10|0,0:0|0:0,0:0:0:0:
253,285,71315,1,2,1:2:0:0:
325,256,71465,2,0,B|340:268|340:268|254:285,1,107.999996704102,4|8,0:3|0:0,0:0:0:0:
32,318,71765,6,0,P|60:232|126:251,1,161.999995056153,6|0,1:2|0:0,0:0:0:0:
152,287,72065,2,0,P|198:315|261:323,2,107.999996704102,0|8|2,1:0|0:0|0:3,0:0:0:0:
101,350,72515,1,0,1:0:0:0:
224,244,72665,1,2,1:3:0:0:
311,369,72815,2,0,P|389:346|482:365,1,161.999995056153,10|0,0:0|0:0,0:0:0:0:
510,384,73115,2,0,P|492:333|490:271,2,107.999996704102,6|8|8,1:2|0:3|0:0,0:0:0:0:
392,110,73565,6,0,L|531:126,1,107.999996704102,4|0,1:2|0:3,0:0:0:0:
332,162,73865,1,8,0:3:0:0:
230,30,74015,1,8,0:0:0:0:
38,121,74165,2,0,L|214:101,1,161.999995056153,4|0,1:2|0:0,0:0:0:0:
254,97,74465,1,0,1:0:0:0:
84,191,74615,6,0,P|88:244|105:295,1,107.999996704102,10|2,0:0|0:0,0:0:0:0:
154,329,74840,1,0,0:0:0:0:
171,328,74915,2,0,L|295:320,1,107.999996704102,2|0,1:2|1:0,0:0:0:0:
393,315,75215,5,10,0:0:0:0:
41,339,75365,2,0,P|156:306|241:222,1,202.500007724762,4|0,1:2|0:0,0:0:0:0:
222,193,75665,6,0,L|365:228,1,107.999996704102,2|10,1:2|0:0,0:0:0:0:
328,382,75965,1,4,1:3:0:0:
430,154,76115,6,0,P|503:165|495:238,1,161.999995056153,6|8,1:2|0:0,0:0:0:0:
432,244,76340,1,8,2:0:0:0:
412,245,76415,2,0,P|349:196|358:32,1,242.999992584229,10|0,0:0|0:0,0:0:0:0:
423,38,76715,6,0,P|442:62|447:86,1,45,6|0,1:2|0:0,0:0:0:0:
379,309,76865,1,4,1:3:0:0:
383,313,77165,5,0,1:0:0:0:
185,284,77315,2,0,L|319:266,1,135,12|2,0:0|1:2,0:0:0:0:
75,58,77765,2,0,P|42:119|48:182,1,135.000005149842,0|8,0:0|0:0,0:0:0:0:
97,301,78215,2,0,P|114:272|117:238,1,67.5000025749208,2|0,0:0|1:0,0:0:0:0:
52,186,78515,1,10,0:0:0:0:
185,135,78665,2,0,L|93:150,1,67.5000025749208,8|4,0:3|0:3,0:0:0:0:
327,135,78965,6,0,B|405:148|405:148|416:333|416:333|510:349,1,360,6|0,1:2|3:0,0:0:0:0:
55,340,80315,6,0,L|1:348,1,53.9999983520508,6|0,1:2|0:0,0:0:0:0:
5,221,80465,2,0,L|59:230,1,53.9999983520508,2|0,3:2|0:0,0:0:0:0:
133,322,80615,2,0,L|121:386,1,53.9999983520508,0|0,1:0|0:0,0:0:0:0:
136,248,80765,2,0,L|124:184,1,53.9999983520508,2|0,3:2|0:0,0:0:0:0:
201,357,80915,2,0,L|312:338,1,107.999996704102,8|10,0:0|0:2,0:0:0:0:
367,330,81140,1,8,0:0:0:0:
372,270,81215,1,8,0:2:0:0:
327,231,81290,1,4,0:3:0:0:
267,235,81365,6,0,L|482:275,1,215.999993408203,4|0,1:2|0:0,0:0:0:0:
346,67,81815,2,0,L|238:87,1,107.999996704102,8|0,0:0|1:0,0:0:0:0:
183,97,82040,1,0,1:0:0:0:
168,90,82115,2,0,P|137:142|138:191,1,107.999996704102,4|0,1:3|1:0,0:0:0:0:
440,188,82415,1,8,0:0:0:0:
443,174,82490,1,0,1:0:0:0:
446,161,82565,1,4,1:2:0:0:
80,64,82865,5,8,0:0:0:0:
48,94,82940,1,8,0:0:0:0:
28,132,83015,1,8,0:0:0:0:
22,174,83090,1,8,0:0:0:0:
38,213,83165,1,8,0:3:0:0:
79,200,83240,1,8,0:3:0:0:
112,226,83315,1,4,0:3:0:0:
332,192,83465,5,8,0:3:0:0:
289,185,83540,1,8,0:3:0:0:
251,206,83615,1,4,0:3:0:0:
231,245,83690,1,4,0:3:0:0:
211,284,83765,1,8,0:3:0:0:
173,305,83840,1,8,0:3:0:0:
130,298,83915,6,0,L|-5:315,1,135.000005149842,4|8,1:2|0:0,0:0:0:0:
198,144,84515,1,0,1:0:0:0:
256,90,84665,1,4,1:3:0:0:
314,144,84815,1,0,1:0:0:0:
382,298,85115,2,0,L|449:306,1,67.5000025749208,0|0,1:0|0:0,0:0:0:0:
311,260,85415,2,0,L|302:327,1,67.5000025749208,0|4,1:0|0:3,0:0:0:0:
378,223,85715,5,4,1:3:0:0:
378,223,85865,1,0,0:0:0:0:
430,165,86015,1,0,1:0:0:0:
449,74,86165,1,0,0:0:0:0:
365,9,86315,2,0,P|314:11|244:45,1,101.250003862381,0|0,1:0|0:0,0:0:0:0:
257,42,86615,1,12,0:0:0:0:
213,116,86765,2,0,L|305:124,1,67.5000025749208,0|0,1:0|0:0,0:0:0:0:
352,129,87065,1,12,0:0:0:0:
243,265,87215,2,0,L|335:257,1,67.5000025749208,0|0,1:0|0:0,0:0:0:0:
167,274,87515,1,4,1:3:0:0:
171,278,87815,6,0,P|144:301|84:301,1,67.5000025749208,8|4,0:0|0:3,0:0:0:0:
62,282,88040,1,4,0:3:0:0:
57,263,88115,2,0,P|59:227|102:185,1,67.5000025749208,0|4,1:3|0:3,0:0:0:0:
125,189,88340,1,0,0:0:0:0:
145,185,88415,2,0,L|156:88,1,67.5000025749208,4|2,1:3|3:0,0:0:0:0:
110,59,88640,1,2,3:0:0:0:
96,54,88715,2,0,P|50:67|38:166,1,135.000005149842,4|0,1:2|1:0,0:0:0:0:
223,155,89165,2,0,L|314:164,1,67.5000025749208,0|0,0:0|1:0,0:0:0:0:
334,153,89465,6,0,L|267:160,1,67.5000025749208,0|4,0:0|0:3,0:0:0:0:
418,213,89765,2,0,L|401:67,1,135.000005149842,0|4,1:0|0:3,0:0:0:0:
489,172,90215,2,0,L|480:99,1,67.5000025749208,0|4,0:0|0:3,0:0:0:0:
347,254,90515,1,8,0:3:0:0:
471,336,90665,1,8,0:0:0:0:
481,264,90815,1,8,0:0:0:0:
337,326,90965,1,4,0:3:0:0:
408,297,91115,5,8,0:0:0:0:
352,303,91190,1,8,0:0:0:0:
307,308,91265,1,0,1:0:0:0:
273,311,91340,1,0,1:0:0:0:
251,314,91415,1,0,1:0:0:0:
240,315,91490,1,0,1:0:0:0:
206,318,91565,2,0,P|191:306|185:261,1,45,8|8,0:0|0:0,0:0:0:0:
171,211,91715,2,0,P|166:237|140:280,1,45,0|0,1:0|1:0,0:0:0:0:
119,358,91865,2,0,P|120:334|108:308,1,45,0|0,1:0|1:0,0:0:0:0:
47,280,92015,5,8,0:0:0:0:
32,284,92090,1,8,0:0:0:0:
17,288,92165,2,0,L|24:241,1,45,0|0,1:0|1:0,0:0:0:0:
33,167,92315,1,0,1:3:0:0:
18,171,92390,1,0,1:3:0:0:
3,175,92465,2,0,L|10:128,1,45,8|8,0:3|0:3,0:0:0:0:
19,54,92615,5,4,0:3:0:0:
59,34,92690,1,4,0:3:0:0:
102,46,92765,1,4,0:3:0:0:
123,85,92840,1,4,0:3:0:0:
114,129,92915,2,0,L|230:109,1,90,0|4,1:0|1:0,0:0:0:0:
331,25,93290,5,0,0:0:0:0:
337,31,93365,2,0,B|362:67|362:67|344:191,1,161.999995056153,4|0,1:2|0:0,0:0:0:0:
338,225,93665,2,0,B|260:238|260:238|316:183,1,107.999996704102,0|8,1:0|0:0,0:0:0:0:
425,165,93965,1,0,0:0:0:0:
437,162,94040,1,0,0:0:0:0:
450,159,94115,1,0,1:0:0:0:
278,124,94265,1,4,0:3:0:0:
410,241,94415,1,8,0:0:0:0:
275,356,94565,2,0,P|165:361|108:263,1,215.999993408203,0|0,1:0|1:0,0:0:0:0:
364,314,95015,1,8,0:0:0:0:
350,321,95090,2,0,L|342:247,2,53.9999983520508,0|0|0,0:0|1:0|0:0,0:0:0:0:
275,282,95315,2,0,P|212:364|109:356,1,215.999993408203,0|8,1:0|0:0,0:0:0:0:
18,270,95765,5,0,1:0:0:0:
18,270,95840,1,0,1:0:0:0:
17,270,95915,2,0,P|32:239|39:206,1,67.5000025749208,8|0,0:0|3:1,0:0:0:0:
0,25,96065,2,0,P|14:56|21:89,1,67.5000025749208,0|0,1:1|3:1,0:0:0:0:
108,248,96215,2,0,P|138:245|168:235,1,62.9999980773926,8|0,0:0|0:0,0:0:0:0:
93,118,96365,2,0,P|123:120|153:130,1,62.9999980773926,0|0,1:0|1:0,0:0:0:0:
357,171,96515,2,0,L|228:165,1,116.999994644165,8|0,0:0|1:0,0:0:0:0:
184,161,96740,1,0,1:0:0:0:
165,159,96815,2,0,L|173:104,1,53.9999983520508,8|0,1:3|0:0,0:0:0:0:
242,251,96965,6,0,L|444:241,1,161.999995056153,4|0,1:2|0:0,0:0:0:0:
439,243,97265,2,0,L|428:300,1,53.9999983520508,4|4,1:3|1:3,0:0:0:0:
431,164,97415,2,0,P|454:157|440:137,1,53.9999983520508,4|4,1:3|1:3,0:0:0:0:
408,68,97565,2,0,L|461:61,1,53.9999983520508,4|4,1:3|1:3,0:0:0:0:
482,38,97715,5,8,0:3:0:0:
444,14,97790,1,8,0:3:0:0:
401,29,97865,1,8,0:3:0:0:
382,56,97940,1,8,0:3:0:0:
375,79,98015,1,8,0:3:0:0:
345,100,98090,1,8,0:3:0:0:
307,107,98165,2,0,B|203:111|267:30|51:34,1,269.999991760254,4|0,1:2|0:0,0:0:0:0:
56,51,98615,6,0,L|172:20,1,101.250003862381,2|0,0:0|0:0,0:0:0:0:
173,19,98915,1,0,0:0:0:0:
8,196,99065,2,0,L|89:217,1,67.5000025749208
129,112,99290,1,0,0:0:0:0:
129,112,99365,6,0,B|141:180|141:180|200:215|190:279,1,161.999995056153,6|0,1:2|0:0,0:0:0:0:
191,273,99665,2,0,P|159:261|163:252,1,53.9999983520508,2|0,1:2|0:0,0:0:0:0:
349,263,99815,2,0,L|360:316,1,53.9999983520508,10|0,0:0|0:0,0:0:0:0:
262,313,99965,2,0,L|273:261,1,53.9999983520508,2|0,0:0|0:0,0:0:0:0:
481,228,100115,2,0,B|460:333|460:333|426:282,1,161.999995056153,4|0,0:3|0:0,0:0:0:0:
425,277,100415,1,10,0:0:0:0:
225,130,100565,2,0,P|289:111|396:162,1,161.999995056153,2|0,1:2|0:0,0:0:0:0:
395,169,100865,2,0,L|422:42,1,107.999996704102,2|8,1:2|0:0,0:0:0:0:
147,140,101165,2,0,P|226:130|296:168,1,161.999995056153,2|0,1:2|0:0,0:0:0:0:
262,214,101465,2,0,P|207:216|156:191,1,107.999996704102,4|8,0:3|0:0,0:0:0:0:
0,16,101765,6,0,P|64:100|66:206,1,215.999993408203,6|2,1:2|1:2,0:0:0:0:
22,272,102215,1,10,0:0:0:0:
148,162,102365,1,2,0:0:0:0:
181,327,102515,1,4,0:3:0:0:
106,331,102665,2,0,B|96:349|96:349|181:327,1,107.999996704102,0|10,1:0|0:0,0:0:0:0:
475,204,102965,2,0,B|415:205|415:205|380:251|289:268,1,161.999995056153,6|0,1:2|0:0,0:0:0:0:
289,264,103265,1,0,0:0:0:0:
265,87,103415,2,0,B|324:85|324:85|359:39|450:22,1,161.999995056153,8|0,0:0|0:0,0:0:0:0:
464,15,103715,2,0,L|453:82,1,53.9999983520508,0|0,1:0|0:0,0:0:0:0:
404,120,103865,2,0,L|393:187,1,53.9999983520508,6|0,0:3|0:0,0:0:0:0:
323,164,104015,6,0,L|269:171,2,53.9999983520508,10|0|2,0:0|0:0|0:3,0:0:0:0:
109,241,104315,2,0,B|138:286|138:286|265:267,1,161.999995056153,6|0,1:2|0:0,0:0:0:0:
225,48,104615,6,0,L|215:114,1,67.5000025749208,10|0,0:0|0:0,0:0:0:0:
110,215,104765,2,0,B|152:208|152:208|273:359,1,202.500007724762,2|0,0:0|0:0,0:0:0:0:
308,381,105065,2,0,L|391:364,1,53.9999983520508,4|0,1:3|0:0,0:0:0:0:
444,298,105215,2,0,L|391:283,1,53.9999983520508,10|0,0:0|0:0,0:0:0:0:
283,219,105365,6,0,B|231:302|166:321|166:321|72:309,1,215.999993408203,6|0,1:2|1:0,0:0:0:0:
21,111,105815,2,0,P|68:80|142:76,1,107.999996704102,10|0,0:0|0:0,0:0:0:0:
218,265,106115,2,0,P|265:296|339:300,1,107.999996704102,4|0,0:3|0:0,0:0:0:0:
486,66,106415,2,0,P|423:107|324:112,1,161.999995056153,10|0,0:0|0:0,0:0:0:0:
287,80,106715,2,0,L|157:115,1,107.999996704102,6|0,1:2|0:0,0:0:0:0:
50,155,107015,5,10,0:0:0:0:
272,159,107165,1,2,0:3:0:0:
95,25,107315,1,4,0:3:0:0:
160,239,107465,1,2,1:3:0:0:
233,28,107615,1,10,0:0:0:0:
112,271,107765,6,0,L|118:217,1,53.9999983520508,4|0,1:2|0:0,0:0:0:0:
204,120,107915,2,0,L|197:173,1,53.9999983520508
235,295,108065,2,0,L|241:241,1,53.9999983520508,8|0,0:0|0:0,0:0:0:0:
126,163,108215,2,0,L|118:216,1,53.9999983520508,8|0,0:0|0:0,0:0:0:0:
397,210,108365,6,0,B|352:220|317:253|317:253|244:245,1,135.000005149842,10|8,1:2|0:0,0:0:0:0:
271,187,108590,1,8,0:0:0:0:
289,129,108665,1,10,0:0:0:0:
341,97,108740,1,8,0:0:0:0:
401,105,108815,1,8,0:3:0:0:
115,290,108965,6,0,B|243:280|185:355|338:359,1,215.999993408203,6|2,1:2|1:2,0:0:0:0:
225,307,109415,6,0,P|204:316|221:333,1,53.9999983520508,10|0,0:0|0:0,0:0:0:0:
325,370,109565,2,0,L|336:318,1,53.9999983520508,2|0,0:0|0:0,0:0:0:0:
512,341,109715,2,0,L|404:353,1,107.999996704102,4|0,0:3|1:2,0:0:0:0:
501,256,110015,1,10,0:0:0:0:
416,53,110165,2,0,B|401:109|401:109|431:156|413:212,1,161.999995056153,2|0,1:2|0:0,0:0:0:0:
382,257,110465,2,0,B|299:277|299:277|334:226,1,107.999996704102,2|8,1:2|0:0,0:0:0:0:
487,180,110765,1,2,0:0:0:0:
338,72,110915,1,8,0:3:0:0:
252,210,111065,1,6,0:2:0:0:
103,102,111215,1,8,0:0:0:0:
24,246,111365,6,0,L|6:365,1,107.999996704102,6|0,1:2|0:0,0:0:0:0:
205,135,111665,1,2,1:2:0:0:
101,224,111815,2,0,L|211:272,1,107.999996704102,10|0,0:0|0:0,0:0:0:0:
459,324,112115,2,0,B|424:318|424:318|348:366|348:366|293:357,1,161.999995056153,2|0,1:2|0:0,0:0:0:0:
248,360,112415,2,0,L|177:347,1,53.9999983520508,10|0,0:2|0:0,0:0:0:0:
107,301,112565,2,0,B|139:326|139:326|269:348|269:348|327:396,1,215.999993408203,6|0,1:2|0:0,0:0:0:0:
476,199,113015,2,0,B|392:199|406:256|320:249,1,161.999995056153,8|0,0:0|0:0,0:0:0:0:
305,249,113315,6,0,L|317:186,1,53.9999983520508,0|0,1:0|0:0,0:0:0:0:
228,131,113465,2,0,L|240:194,1,53.9999983520508,2|0,1:3|0:0,0:0:0:0:
218,54,113615,2,0,P|234:38|287:37,2,53.9999983520508,10|0|10,0:0|0:0|0:3,0:0:0:0:
57,91,113915,2,0,P|121:113|162:214,1,161.999995056153,6|0,1:2|0:0,0:0:0:0:
234,221,114215,6,0,P|223:253|198:276,1,67.5000025749208,10|0,0:0|0:0,0:0:0:0:
26,158,114365,2,0,P|77:113|213:141,1,202.500007724762,2|0,0:0|0:0,0:0:0:0:
264,319,114665,1,0,1:3:0:0:
252,335,114740,1,0,0:0:0:0:
237,345,114815,2,0,P|213:356|186:355,1,53.9999983520508,10|0,0:0|0:0,0:0:0:0:
67,256,114965,6,0,B|32:228|32:228|94:122|94:122|57:91,1,215.999993408203,6|0,1:2|0:0,0:0:0:0:
31,346,115415,2,0,B|72:326|72:326|87:328|87:328|145:300,1,107.999996704102,10|8,0:0|0:3,0:0:0:0:
184,282,115640,1,4,0:3:0:0:
195,276,115715,2,0,P|217:233|219:170,1,107.999996704102,2|4,1:2|0:3,0:0:0:0:
187,123,115940,1,8,0:3:0:0:
177,111,116015,5,10,0:0:0:0:
199,67,116090,1,0,0:0:0:0:
245,42,116165,1,0,1:0:0:0:
293,54,116240,1,0,1:0:0:0:
325,91,116315,2,0,P|298:166|303:269,1,161.999995056153,2|0,1:2|0:0,0:0:0:0:
343,259,116615,6,0,L|421:275,1,53.9999983520508,10|0,0:0|0:0,0:0:0:0:
392,132,116765,2,0,L|470:116,1,53.9999983520508,2|0,0:0|0:0,0:0:0:0:
453,199,116915,2,0,L|476:256,1,53.9999983520508,4|0,0:3|0:0,0:0:0:0:
452,377,117065,2,0,L|475:320,1,53.9999983520508,2|0,1:2|0:0,0:0:0:0:
490,292,117215,1,8,0:0:0:0:
358,339,117365,6,0,P|304:343|267:388,1,107.999996704102,2|0,1:2|0:0,0:0:0:0:
154,339,117665,2,0,P|208:343|245:388,1,107.999996704102,2|8,1:2|0:0,0:0:0:0:
27,377,117965,1,6,1:2:0:0:
13,379,118040,1,0,1:0:0:0:
0,381,118115,1,0,1:0:0:0:
23,170,118265,1,2,1:2:0:0:
67,190,118340,1,0,1:0:0:0:
98,226,118415,1,8,0:0:0:0:
107,273,118490,1,8,0:0:0:0:
101,321,118565,1,8,0:3:0:0:
67,356,118640,1,4,0:3:0:0:
27,377,118715,5,4,1:2:0:0:
256,96,119015,2,0,L|378:114,1,107.999996704102,10|2,0:0|0:0,0:0:0:0:
182,151,119315,1,2,1:2:0:0:
290,288,119465,2,0,L|168:306,1,107.999996704102,4|8,0:3|0:0,0:0:0:0:
370,350,119765,2,0,L|400:167,1,161.999995056153,2|0,1:2|0:0,0:0:0:0:
401,159,120065,1,2,1:2:0:0:
290,26,120215,1,10,0:0:0:0:
296,376,120515,5,2,1:2:0:0:
370,350,120665,2,0,L|481:342,1,107.999996704102,2|8,1:2|0:0,0:0:0:0:
179,171,120965,2,0,B|159:204|159:204|309:190,1,161.999995056153,6|0,1:2|0:0,0:0:0:0:
336,190,121265,2,0,L|474:233,1,107.999996704102,0|8,1:0|0:0,0:0:0:0:
498,271,121565,1,2,0:3:0:0:
503,113,121715,2,0,L|396:133,2,107.999996704102,0|2|10,1:0|1:3|0:0,0:0:0:0:
291,38,122165,1,2,0:3:0:0:
291,38,122240,1,2,3:0:0:0:
291,38,122315,6,0,P|240:62|181:64,2,107.999996704102,2|2|0,1:2|1:2|0:0,0:0:0:0:
129,175,122765,2,0,L|136:112,1,53.9999983520508,2|0,1:2|0:0,0:0:0:0:
395,310,123065,2,0,L|388:247,1,53.9999983520508,2|0,1:2|0:0,0:0:0:0:
387,238,123215,1,8,0:0:0:0:
41,286,123365,6,0,B|97:278|97:278|133:324|220:329,1,161.999995056153,4|0,1:2|0:0,0:0:0:0:
237,323,123665,1,0,1:0:0:0:
308,162,123815,2,0,P|310:218|279:280,1,107.999996704102,10|8,0:0|0:3,0:0:0:0:
191,149,124040,1,8,0:3:0:0:
178,147,124115,2,0,P|173:231|221:324,1,161.999995056153,4|0,0:3|1:0,0:0:0:0:
255,338,124415,6,0,B|326:251|353:321|410:219,1,202.500007724762,10|0,0:0|0:0,0:0:0:0:
415,190,124715,1,0,0:0:0:0:
394,342,124865,5,2,1:2:0:0:
282,173,125015,1,10,0:0:0:0:
161,352,125165,1,2,1:2:0:0:
27,189,125315,6,0,L|96:16,1,161.999995056153,10|8,0:0|0:0,0:0:0:0:
151,3,125540,1,8,0:0:0:0:
174,4,125615,2,0,B|224:7|224:7|268:42|268:42|351:48,1,161.999995056153,8|4,0:3|0:3,0:0:0:0:
395,53,125840,1,4,0:3:0:0:
467,60,125915,5,4,1:2:0:0:
340,233,126065,1,4,1:3:0:0:
344,237,126365,5,0,1:0:0:0:
288,285,126515,2,0,P|236:276|172:299,1,101.250003862381,8|0,0:0|0:0,0:0:0:0:
170,301,126815,2,0,L|81:282,1,67.5000025749208,2|2,1:2|1:2,0:0:0:0:
162,177,127115,2,0,B|152:186|152:186|227:195,1,67.5000025749208,4|8,1:3|0:0,0:0:0:0:
350,207,127415,2,0,B|360:198|360:198|284:188,1,67.5000025749208,2|0,0:0|1:0,0:0:0:0:
97,223,127715,5,8,0:3:0:0:
256,138,127865,1,8,0:0:0:0:
415,223,128015,1,4,0:3:0:0:
256,384,128165,1,4,1:2:0:0:
256,384,129215,2,0,L|268:312,1,67.5000025749208
256,0,129515,6,0,L|278:133,1,107.999996704102,12|0,0:0|1:0,0:0:0:0:
289,174,129740,1,0,1:0:0:0:
293,195,129815,2,0,P|250:226|181:203,1,107.999996704102,8|0,0:0|1:0,0:0:0:0:
139,179,130040,1,0,1:0:0:0:
125,171,130115,2,0,L|277:196,1,107.999996704102,8|8,0:0|0:3,0:0:0:0:
263,278,130340,2,0,L|339:290,1,53.9999983520508,8|4,0:3|0:3,0:0:0:0:
368,339,130490,1,4,0:3:0:0:
336,359,130565,6,0,P|247:364|154:267,1,215.999993408203,4|0,1:2|1:0,0:0:0:0:
176,25,131015,2,0,P|220:22|267:71,1,107.999996704102,8|0,0:0|1:0,0:0:0:0:
274,119,131240,1,0,1:0:0:0:
264,174,131315,2,0,P|227:212|175:212,1,107.999996704102,8|0,0:0|1:0,0:0:0:0:
405,94,131615,2,0,L|352:105,1,53.9999983520508,8|0,0:0|0:0,0:0:0:0:
198,134,131765,6,0,L|27:166,1,161.999995056153,4|0,1:2|0:0,0:0:0:0:
0,172,132065,2,0,B|20:97|20:97|44:135,1,107.999996704102,0|12,1:0|0:0,0:0:0:0:
112,298,132365,2,0,L|-24:323,2,107.999996704102,0|0|8,1:0|1:0|0:0,0:0:0:0:
170,289,132740,1,8,0:0:0:0:
212,247,132815,1,0,1:0:0:0:
224,188,132890,1,0,1:0:0:0:
198,134,132965,1,8,0:0:0:0:
141,116,133040,1,8,0:0:0:0:
93,151,133115,6,0,L|333:118,1,215.999993408203,4|8,1:2|0:0,0:0:0:0:
469,93,133565,1,0,1:0:0:0:
306,50,133715,1,8,0:0:0:0:
443,187,133865,1,0,1:0:0:0:
400,25,134015,1,8,0:0:0:0:
281,144,134165,1,0,1:0:0:0:
281,144,134240,1,0,1:0:0:0:
281,144,134315,2,0,L|248:275,1,107.999996704102,12|0,0:0|1:0,0:0:0:0:
51,370,134615,6,0,L|25:266,1,107.999996704102,8|0,0:0|1:0,0:0:0:0:
327,321,134915,2,0,L|194:345,1,107.999996704102,8|0,0:0|1:0,0:0:0:0:
350,213,135215,1,8,0:0:0:0:
174,96,135365,2,0,L|151:278,1,161.999995056153,4|0,1:2|0:0,0:0:0:0:
146,316,135665,2,0,B|129:336|129:336|128:235,1,107.999996704102,0|8,1:0|0:0,0:0:0:0:
236,156,135965,5,0,1:0:0:0:
236,156,136040,1,0,1:0:0:0:
236,156,136115,2,0,L|100:188,1,107.999996704102,8|0,0:0|1:0,0:0:0:0:
300,98,136415,5,12,0:0:0:0:
116,53,136565,1,0,0:0:0:0:
313,174,136715,1,8,0:0:0:0:
285,24,136865,1,0,1:0:0:0:
73,120,137015,2,0,L|32:250,1,107.999996704102,8|0,0:0|1:0,0:0:0:0:
190,103,137315,1,8,0:3:0:0:
198,77,137390,1,8,0:3:0:0:
206,51,137465,1,4,0:3:0:0:
214,25,137540,1,4,0:3:0:0:
222,0,137615,1,8,0:0:0:0:
256,269,137765,6,0,B|304:263|304:263|350:306|423:304,1,161.999995056153,4|0,1:2|0:0,0:0:0:0:
466,299,138065,1,0,1:0:0:0:
202,117,138215,1,8,0:0:0:0:
256,283,138365,1,0,1:0:0:0:
310,117,138515,1,8,0:0:0:0:
168,220,138665,1,0,1:0:0:0:
343,220,138815,2,0,L|414:208,1,53.9999983520508,8|0,0:0|0:0,0:0:0:0:
256,49,138965,6,0,B|105:17,1,107.999996704102,0|12,0:0|0:0,0:0:0:0:
389,92,139265,1,0,1:0:0:0:
196,108,139415,1,8,0:0:0:0:
256,293,139565,1,0,1:0:0:0:
315,108,139715,1,8,0:0:0:0:
158,223,139865,1,0,0:0:0:0:
352,223,140015,2,0,L|423:211,1,53.9999983520508,8|0,0:0|0:0,0:0:0:0:
134,154,140165,6,0,B|-17:122,1,107.999996704102,4|0,1:2|0:0,0:0:0:0:
256,376,140465,1,0,1:0:0:0:
190,101,140615,1,8,0:0:0:0:
255,301,140765,1,0,1:0:0:0:
321,101,140915,2,0,L|304:183,1,53.9999983520508,8|0,0:0|0:0,0:0:0:0:
149,225,141065,2,0,L|202:233,1,53.9999983520508,0|0,1:0|0:0,0:0:0:0:
361,225,141215,1,8,0:0:0:0:
86,347,141365,6,0,P|133:312|186:323,1,107.999996704102,4|0,1:2|1:0,0:0:0:0:
234,346,141590,1,0,0:0:0:0:
279,384,141665,2,0,L|412:367,1,107.999996704102,8|0,0:0|1:0,0:0:0:0:
439,365,141890,1,0,0:0:0:0:
476,332,141965,1,0,1:0:0:0:
487,285,142040,1,0,1:0:0:0:
470,233,142115,2,0,L|384:243,1,53.9999983520508,8|0,1:3|0:0,0:0:0:0:
329,251,142265,1,0,1:0:0:0:
256,240,142340,1,0,1:0:0:0:
211,177,142415,2,0,B|216:100|277:44|277:44|334:22,1,202.500007724762,12|0,1:2|0:0,0:0:0:0:
481,8,142715,5,2,0:0:0:0:
481,8,142865,1,0,3:0:0:0:
425,56,143015,1,0,3:0:0:0:
425,56,143165,1,0,3:0:0:0:
425,56,143315,2,0,L|326:64,1,67.5000025749208,0|2,3:0|3:0,0:0:0:0:
504,99,143765,5,0,3:0:0:0:
504,99,143915,1,0,3:0:0:0:
504,99,144065,1,0,3:0:0:0:
448,147,144215,1,2,3:0:0:0:
448,147,144365,2,0,L|359:155,1,67.5000025749208,0|0,3:0|0:0,0:0:0:0:
