osu file format v14

[General]
AudioFilename: audio.ogg
AudioLeadIn: 0
PreviewTime: 49265
Countdown: 0
SampleSet: Soft
StackLeniency: 0.9
Mode: 0
LetterboxInBreaks: 0
WidescreenStoryboard: 0

[Editor]
DistanceSpacing: 2.5
BeatDivisor: 4
GridSize: 4
TimelineZoom: 1.2

[Metadata]
Title:Melody in the Dark
TitleUnicode:Melody in the Dark
Artist:UNDEAD
ArtistUnicode:UNDEAD
Creator:kakifly
Version:Resurgence
Source:あんさんぶるスターズ!!
Tags:enstars es ensemble stars あんさんぶるスターズ! あんさんぶるスターズ あんスタ jpop j-pop male vocal rock idol rei sakuma 朔間 零 kaoru hakaze 羽風 薫 koga oogami 大神 晃牙 adonis otogari 乙狩 アドニス toshiki masuda 増田 俊樹 kei hosogai 細貝 圭 yuki ono 小野 友樹 wataru hatano 羽多野 渉 japanese video game videogame a mystery amystery setz setz206 shikibe mayu ryuusei aika ryuuseiaika shizuku kazato asa kowari arte refact mel jrock j-rock poprock pop-rock
BeatmapID:3307859
BeatmapSetID:1620141

[Difficulty]
HPDrainRate:6
CircleSize:4.2
OverallDifficulty:8.5
ApproachRate:9.6
SliderMultiplier:1.4
SliderTickRate:1

[Events]
//Background and Video events
0,0,"BG.png",0,0
//Break Periods
//Storyboard Layer 0 (Background)
//Storyboard Layer 1 (Fail)
//Storyboard Layer 2 (Pass)
//Storyboard Layer 3 (Foreground)
//Storyboard Layer 4 (Overlay)
//Storyboard Sound Samples

[TimingPoints]
1125,300,4,2,1,60,1,0
1125,-133.333333333333,4,2,1,60,0,0
1725,-133.333333333333,4,2,1,60,0,0
5625,-133.333333333333,4,2,1,60,0,0
5915,300,4,2,1,80,1,0
6815,-71.4285714285714,4,2,1,80,0,0
7115,-100,4,2,1,80,0,0
8015,-71.4285714285714,4,2,1,80,0,0
8315,-100,4,2,1,80,0,0
9215,-71.4285714285714,4,2,1,80,0,0
9515,-100,4,2,1,80,0,0
11615,-71.4285714285714,4,2,1,80,0,0
11915,-100,4,2,1,80,0,0
15215,-100,4,2,1,80,0,0
15515,-100,4,2,1,60,0,0
15665,-100,4,2,1,60,0,0
16115,-133.333333333333,4,2,1,60,0,0
18065,-125,4,2,1,60,0,0
18215,-125,4,2,1,60,0,0
22115,-100,4,2,1,60,0,0
22565,-125,4,2,1,60,0,0
27965,-125,4,2,1,60,0,0
37115,-111.111111111111,4,2,1,60,0,0
44165,-100,4,2,1,75,0,0
48065,-100,4,2,1,75,0,0
49415,-200,4,2,1,75,0,0
50165,-83.3333333333333,4,2,1,85,0,1
55340,-83.3333333333333,4,2,1,5,0,1
55415,-66.6666666666667,4,2,1,85,0,1
56165,-83.3333333333333,4,2,1,85,0,1
59165,-66.6666666666667,4,2,1,85,0,1
59615,-66.6666666666667,4,2,1,85,0,0
59765,-83.3333333333333,4,2,1,85,0,1
60215,-83.3333333333333,4,2,1,85,0,1
64940,-83.3333333333333,4,2,1,5,0,1
65015,-66.6666666666667,4,2,1,85,0,1
65765,-83.3333333333333,4,2,1,85,0,1
68765,-66.6666666666667,4,2,1,85,0,1
69515,-83.3333333333333,4,2,1,85,0,0
76865,-100,4,2,1,85,0,0
79565,-100,4,2,1,10,0,0
80315,-100,4,2,1,80,0,0
84215,-117.647058823529,4,2,1,80,0,0
91115,-66.6666666666667,4,2,1,80,0,0
93365,-83.3333333333333,4,2,1,80,0,0
98165,-133.333333333333,4,2,1,80,0,0
99365,-83.3333333333333,4,2,1,80,0,1
104765,-66.6666666666667,4,2,1,80,0,1
105365,-83.3333333333333,4,2,1,80,0,1
108815,-83.3333333333333,4,2,1,80,0,0
108965,-83.3333333333333,4,2,1,80,0,1
117965,-66.6666666666667,4,2,1,80,0,1
118715,-83.3333333333333,4,2,1,80,0,0
119015,-83.3333333333333,4,2,1,80,0,0
134015,-66.6666666666667,4,2,1,80,0,0
134315,-83.3333333333333,4,2,1,80,0,0
135215,-66.6666666666667,4,2,1,80,0,0
135515,-83.3333333333333,4,2,1,80,0,0
136415,-66.6666666666667,4,2,1,80,0,0
136715,-83.3333333333333,4,2,1,80,0,0
137465,-83.3333333333333,4,2,1,80,0,0
137615,-66.6666666666667,4,2,1,80,0,0
137915,-83.3333333333333,4,2,1,80,0,0
138815,-66.6666666666667,4,2,1,80,0,0
139115,-83.3333333333333,4,2,1,80,0,0
140015,-66.6666666666667,4,2,1,80,0,0
140315,-83.3333333333333,4,2,1,80,0,0
142865,-83.3333333333333,4,2,1,60,0,0
143465,-100,4,2,1,60,0,0

[Colours]
Combo1 : 176,116,205
Combo2 : 105,65,188
Combo3 : 226,190,82
Combo4 : 176,174,164

[HitObjects]
142,91,1125,6,0,P|146:129|153:163,1,52.5000000000001,0|0,3:0|0:0,0:0:0:0:
252,140,1425,1,0,3:0:0:0:
210,245,1575,1,0,0:0:0:0:
318,221,1725,1,2,3:0:0:0:
318,221,1800,1,0,3:0:0:0:
318,221,1875,1,0,3:0:0:0:
200,261,2025,1,0,3:0:0:0:
333,217,2175,6,0,P|340:179|344:152,1,52.5000000000001,2|0,3:0|0:0,0:0:0:0:
229,68,2475,2,0,P|233:100|240:135,1,52.5000000000001,0|0,3:0|0:0,0:0:0:0:
326,205,2775,1,0,3:0:0:0:
160,205,2925,2,0,P|109:194|106:194,2,52.5000000000001,2|0|0,3:0|0:0|3:0,0:0:0:0:
301,292,3375,1,0,3:0:0:0:
301,292,3450,1,0,3:0:0:0:
301,292,3525,6,0,P|341:284|359:282,1,52.5000000000001,0|0,3:0|0:0,0:0:0:0:
466,202,3825,2,0,P|427:194|397:186,1,52.5000000000001,0|0,3:0|0:0,0:0:0:0:
397,37,4125,1,2,3:0:0:0:
413,49,4200,1,0,3:0:0:0:
424,66,4275,1,0,3:0:0:0:
290,132,4425,1,0,3:0:0:0:
190,154,4575,6,0,P|187:132|179:104,1,26.2500000000001,0|0,3:0|3:0,0:0:0:0:
141,259,4725,2,0,P|143:269|146:293,1,26.2500000000001,0|0,3:0|3:0,0:0:0:0:
216,228,4875,2,0,P|241:226|254:223,1,26.2500000000001,2|0,3:0|3:0,0:0:0:0:
111,184,5025,2,0,P|98:183|81:185,1,26.2500000000001,0|0,3:0|3:0,0:0:0:0:
186,128,5175,6,0,P|183:106|175:78,1,26.2500000000001,0|0,3:0|3:0,0:0:0:0:
145,284,5325,2,0,P|147:294|150:318,1,26.2500000000001,0|0,3:0|3:0,0:0:0:0:
242,225,5475,2,0,P|267:223|280:220,1,26.2500000000001,0|0,3:0|3:0,0:0:0:0:
41,195,5625,5,2,3:0:0:0:
41,195,5915,6,0,P|35:122|34:92,1,70,4|0,1:2|0:0,0:0:0:0:
239,45,6215,2,0,P|237:87|231:125,1,70,10|2,0:0|0:0,0:0:0:0:
103,279,6515,1,2,1:2:0:0:
143,86,6665,1,4,1:3:0:0:
319,263,6815,6,0,B|256:238|213:250|213:250|182:221|182:221,1,147,8|0,0:0|0:0,0:0:0:0:
309,179,7115,6,0,P|348:166|384:163,1,70,0|4,1:0|0:3,0:0:0:0:
458,259,7415,1,10,0:0:0:0:
393,153,7565,1,2,0:0:0:0:
494,51,7715,2,0,P|488:103|482:137,1,70,0|4,1:3|1:3,0:0:0:0:
152,211,8015,6,0,P|148:159|230:165,1,147,8|0,0:0|0:0,0:0:0:0:
309,179,8315,6,0,P|303:141|297:97,1,70,2|0,0:0|1:0,0:0:0:0:
486,153,8615,1,10,0:0:0:0:
275,273,8765,1,2,0:0:0:0:
298,109,8915,1,2,1:2:0:0:
458,259,9065,1,4,1:3:0:0:
166,233,9215,6,0,P|106:223|10:210,1,147,8|0,0:0|0:0,0:0:0:0:
104,125,9515,6,0,P|164:110|192:108,1,70,0|4,1:0|1:3,0:0:0:0:
309,179,9815,1,10,0:0:0:0:
199,126,9965,1,2,0:0:0:0:
346,78,10115,1,2,1:2:0:0:
176,138,10265,5,8,0:0:0:0:
141,141,10340,1,8,0:0:0:0:
104,125,10415,1,8,0:0:0:0:
81,98,10490,1,8,0:0:0:0:
46,39,10565,6,0,P|57:136|60:198,1,140,4|0,1:2|0:0,0:0:0:0:
207,364,11015,1,10,0:0:0:0:
78,276,11165,1,0,0:0:0:0:
258,194,11315,1,2,1:2:0:0:
57,294,11465,1,4,1:3:0:0:
190,152,11615,6,0,B|240:102|298:118|298:118|284:90,1,147,10|0,0:0|0:0,0:0:0:0:
234,16,11915,6,0,P|236:64|246:112,1,70,0|4,1:0|1:3,0:0:0:0:
410,220,12215,2,0,P|371:192|345:178,1,70,14|0,0:0|0:0,0:0:0:0:
195,274,12515,1,2,1:2:0:0:
293,346,12665,1,4,1:3:0:0:
332,89,12815,1,10,0:0:0:0:
104,182,12965,6,0,L|122:338,1,140,6|0,1:2|1:0,0:0:0:0:
281,236,13415,1,10,0:0:0:0:
27,139,13565,1,0,1:0:0:0:
27,139,13640,1,0,1:0:0:0:
27,139,13715,1,10,0:0:0:0:
37,257,13865,1,0,1:0:0:0:
50,375,14015,1,8,0:0:0:0:
167,52,14165,6,0,P|158:102|155:134,1,70,6|0,1:2|0:0,0:0:0:0:
292,304,14465,2,0,P|286:269|280:235,1,70,10|4,0:0|0:3,0:0:0:0:
167,52,14765,1,4,1:3:0:0:
167,52,14840,1,4,1:3:0:0:
167,52,14915,1,10,0:0:0:0:
37,257,15065,1,8,0:0:0:0:
432,291,15215,5,14,1:2:0:0:
403,294,15515,5,0,3:0:0:0:
403,294,15590,1,0,3:0:0:0:
403,294,15665,1,0,3:0:0:0:
308,294,15815,1,0,3:0:0:0:
308,199,15965,1,0,3:0:0:0:
402,197,16115,2,0,L|402:122,1,52.5000000000001,2|0,3:0|0:0,0:0:0:0:
308,199,16415,5,0,3:0:0:0:
308,294,16565,1,0,3:0:0:0:
403,294,16715,1,0,3:0:0:0:
404,199,16865,1,0,3:0:0:0:
308,199,17015,2,0,L|309:264,1,52.5000000000001,2|0,3:0|0:0,0:0:0:0:
209,197,17465,6,0,L|209:235,1,26.2500000000001,8|8,0:0|0:0,0:0:0:0:
114,200,17615,1,8,0:0:0:0:
114,200,17765,1,8,0:0:0:0:
202,349,17915,5,4,1:2:0:0:
403,294,18065,2,0,P|371:282|347:274,1,56,0|2,1:0|0:0,0:0:0:0:
300,154,18365,1,0,1:0:0:0:
410,91,18515,2,0,P|406:137|402:165,1,56,10|0,0:0|0:0,0:0:0:0:
208,243,18815,1,2,1:2:0:0:
373,29,18965,6,0,P|413:63|487:81,1,112,2|0,1:2|1:0,0:0:0:0:
300,154,19415,2,0,P|307:96|313:74,1,56,10|0,0:0|0:0,0:0:0:0:
423,194,19715,1,2,1:2:0:0:
423,194,19865,1,2,1:2:0:0:
289,258,20015,2,0,B|251:250|221:242|221:242|228:266,1,84,8|0,0:0|0:0,0:0:0:0:
295,346,20315,5,2,1:2:0:0:
386,338,20465,1,0,1:0:0:0:
272,353,20615,2,0,P|218:342|204:340,1,56,2|0,0:0|1:0,0:0:0:0:
385,248,20915,2,0,P|424:236|450:222,1,56,10|0,0:0|0:0,0:0:0:0:
348,134,21215,1,2,1:2:0:0:
281,268,21365,6,0,B|293:357|293:357|265:351,1,112,2|0,1:2|1:0,0:0:0:0:
133,321,21815,1,2,1:2:0:0:
232,189,21965,1,2,1:2:0:0:
232,189,22040,1,0,1:0:0:0:
232,189,22115,6,0,P|173:185|192:83,1,175,12|0,0:0|0:0,0:0:0:0:
269,88,22565,6,0,P|199:77|145:67,1,112,6|0,1:2|0:0,0:0:0:0:
34,102,23015,2,0,P|16:81|3:57,1,56,2|0,1:2|0:0,0:0:0:0:
228,5,23315,1,10,0:0:0:0:
153,226,23465,2,0,L|144:170,1,56,0|2,0:0|1:2,0:0:0:0:
383,64,23765,6,0,P|388:133|392:193,1,112,6|0,1:2|0:0,0:0:0:0:
255,268,24215,1,8,0:3:0:0:
416,199,24365,1,4,0:3:0:0:
230,292,24515,5,8,0:0:0:0:
445,224,24665,1,8,0:3:0:0:
204,319,24815,5,0,3:0:0:0:
473,250,24965,1,4,0:3:0:0:
76,154,25115,6,0,P|67:127|61:99,1,56,2|0,1:2|0:0,0:0:0:0:
178,168,25415,2,0,P|180:216|184:246,1,56,2|0,1:2|1:0,0:0:0:0:
230,292,25640,1,0,1:0:0:0:
230,292,25715,1,10,0:0:0:0:
320,169,25865,1,8,0:3:0:0:
422,301,26015,1,4,0:3:0:0:
139,364,26165,6,0,P|135:323|132:291,1,56,4|0,1:2|0:0,0:0:0:0:
53,247,26465,1,0,1:2:0:0:
422,301,26615,2,0,P|437:261|448:232,1,56,12|0,0:0|0:0,0:0:0:0:
242,60,26915,5,8,0:3:0:0:
270,162,27065,5,8,0:3:0:0:
301,263,27215,5,4,0:3:0:0:
334,364,27365,5,4,1:3:0:0:
321,182,27515,6,0,P|289:167|259:159,1,56,4|0,1:2|0:0,0:0:0:0:
134,193,27815,2,0,P|109:161|93:136,1,56,10|2,0:0|0:0,0:0:0:0:
191,24,28115,1,2,1:2:0:0:
201,116,28265,1,4,1:3:0:0:
60,53,28415,1,10,0:0:0:0:
234,136,28565,6,0,B|230:177|236:197|236:197|229:227|229:227|239:247|240:271,1,112,2|0,1:2|1:0,0:0:0:0:
178,331,29015,2,0,P|153:299|130:283,1,56,10|0,0:0|0:0,0:0:0:0:
314,229,29315,1,2,1:2:0:0:
376,293,29465,1,4,1:3:0:0:
233,339,29615,2,0,P|194:334|160:325,1,56,8|0,0:0|0:0,0:0:0:0:
44,224,29915,5,4,1:2:0:0:
101,141,30065,1,0,0:0:0:0:
219,189,30215,1,10,0:0:0:0:
330,90,30365,1,2,0:0:0:0:
369,254,30515,2,0,P|352:221|340:191,1,56,2|4,1:2|1:3,0:0:0:0:
464,136,30815,1,10,0:0:0:0:
276,302,30965,6,0,P|218:287|151:273,1,112,6|2,1:2|1:2,0:0:0:0:
72,352,31415,1,10,0:0:0:0:
167,276,31565,1,2,1:2:0:0:
167,276,31640,1,0,1:0:0:0:
167,276,31715,1,8,0:0:0:0:
70,101,31865,1,4,1:2:0:0:
60,119,32165,6,0,P|113:100|191:78,1,112,2|0,1:2|1:0,0:0:0:0:
271,195,32615,2,0,P|229:180|203:164,1,56,10|0,0:0|0:0,0:0:0:0:
306,100,32915,1,2,1:2:0:0:
404,125,33065,1,4,1:3:0:0:
371,224,33215,1,10,0:0:0:0:
214,83,33365,6,0,P|258:72|302:16,1,112,6|2,1:2|1:2,0:0:0:0:
72,105,33815,1,8,0:0:0:0:
160,165,33965,1,0,1:0:0:0:
38,231,34115,5,8,0:3:0:0:
160,181,34265,1,4,0:3:0:0:
104,339,34415,5,10,0:0:0:0:
160,201,34565,1,4,1:3:0:0:
248,355,34715,6,0,P|282:342|308:336,1,56,2|0,1:2|0:0,0:0:0:0:
426,237,35015,2,0,P|389:221|358:205,1,56,14|0,0:0|0:0,0:0:0:0:
436,101,35315,1,8,1:3:0:0:
436,101,35465,1,4,1:3:0:0:
294,264,35615,1,10,0:0:0:0:
139,165,35765,6,0,B|225:139|225:139|223:170,1,112,6|2,1:2|1:2,0:0:0:0:
105,327,36215,2,0,P|87:284|78:258,1,56,8|2,0:0|1:2,0:0:0:0:
294,264,36515,2,0,P|263:296|235:320,1,56,0|4,0:0|1:3,0:0:0:0:
224,162,36815,1,8,0:3:0:0:
204,128,36890,1,8,0:3:0:0:
215,90,36965,1,4,0:3:0:0:
252,78,37040,1,4,0:3:0:0:
312,94,37115,6,0,P|276:85|238:73,1,63.0000000000001,4|4,1:3|1:3,0:0:0:0:
401,153,37565,5,4,1:3:0:0:
130,168,37715,2,0,P|91:149|60:126,1,63.0000000000001,8|0,0:0|0:0,0:0:0:0:
153,77,38015,1,8,1:3:0:0:
303,178,38165,6,0,P|298:280|294:325,1,126,4|4,1:2|1:3,0:0:0:0:
138,323,38615,2,0,P|162:287|184:263,1,63.0000000000001,4|0,1:3|0:0,0:0:0:0:
446,233,38915,2,0,P|409:216|389:210,1,31.5,8|0,3:2|3:0,0:0:0:0:
296,303,39065,2,0,L|338:286,1,31.5,8|0,3:3|3:3,0:0:0:0:
421,336,39215,1,0,1:0:0:0:
279,189,39365,1,8,0:0:0:0:
453,100,39515,5,4,1:3:0:0:
250,200,39665,2,0,P|193:186|171:184,1,63.0000000000001,4|0,1:3|0:0,0:0:0:0:
192,297,39965,1,4,1:3:0:0:
342,163,40115,2,0,P|327:124|315:100,2,63.0000000000001,8|8|4,0:0|0:3|0:3,0:0:0:0:
368,301,40565,6,0,P|404:268|489:239,1,126,0|4,1:0|1:3,0:0:0:0:
470,349,41015,1,0,3:0:0:0:
368,301,41165,1,8,0:3:0:0:
250,354,41315,1,12,0:2:0:0:
157,264,41465,5,8,0:3:0:0:
182,227,41540,1,8,0:3:0:0:
225,234,41615,1,8,0:3:0:0:
249,197,41690,1,4,0:3:0:0:
291,209,41765,1,4,0:3:0:0:
319,175,41840,1,4,0:3:0:0:
362,182,41915,6,0,L|279:177,1,63.0000000000001,4|4,1:3|1:3,0:0:0:0:
435,136,42365,1,0,1:0:0:0:
296,296,42515,2,0,P|249:313|221:328,1,63.0000000000001,8|0,0:0|0:0,0:0:0:0:
130,237,42815,1,0,1:0:0:0:
416,358,42965,6,0,P|398:304|430:237,1,126,4|0,1:2|1:0,0:0:0:0:
499,157,43415,1,8,0:0:0:0:
253,317,43565,2,0,L|259:357,1,31.5,0|0,1:0|1:0,0:0:0:0:
182,275,43715,1,8,0:0:0:0:
282,146,43865,2,0,P|291:214|291:214,1,63.0000000000001,6|0,0:3|0:0,0:0:0:0:
359,109,44165,6,0,P|301:101|209:84,1,140,4|0,1:2|1:0,0:0:0:0:
97,34,44615,2,0,P|136:16|178:9,1,70,10|0,0:0|0:0,0:0:0:0:
258,218,44915,1,2,1:2:0:0:
134,173,45065,1,4,1:3:0:0:
307,53,45215,1,10,0:0:0:0:
239,240,45365,6,0,L|232:323,1,70,2|0,1:2|0:0,0:0:0:0:
352,269,45665,1,2,1:2:0:0:
134,173,45815,2,0,P|84:160|58:142,1,70,10|0,0:0|0:0,0:0:0:0:
144,59,46115,1,2,1:2:0:0:
144,59,46265,1,4,1:3:0:0:
307,119,46415,2,0,L|315:193,1,70,10|0,0:0|0:0,0:0:0:0:
115,246,46715,5,2,1:2:0:0:
320,209,46865,1,2,3:0:0:0:
249,367,47015,5,10,0:0:0:0:
314,188,47165,1,2,3:0:0:0:
469,354,47315,5,2,1:2:0:0:
309,167,47465,1,6,1:3:0:0:
512,152,47615,5,10,0:2:0:0:
302,141,47765,2,0,P|233:128|185:122,1,105,6|0,1:2|0:0,0:0:0:0:
136,162,48065,2,0,P|160:128|174:93,1,70,0|12,1:0|0:0,0:0:0:0:
93,16,48365,1,0,1:0:0:0:
6,193,48515,1,8,0:0:0:0:
221,128,48665,1,8,0:0:0:0:
197,116,48740,1,8,0:0:0:0:
171,102,48815,5,4,1:3:0:0:
425,323,48965,1,4,1:2:0:0:
406,306,49415,6,0,P|440:305|480:294,1,70,8|0,0:3|3:0,0:0:0:0:
304,253,49865,1,2,3:0:0:0:
282,265,50165,6,0,P|280:205|280:159,1,84,6|0,1:2|0:0,0:0:0:0:
369,85,50465,1,2,1:2:0:0:
128,147,50615,2,0,P|172:131|228:123,1,84,10|2,0:0|0:0,0:0:0:0:
394,209,50915,1,4,0:3:0:0:
223,130,51065,1,0,1:0:0:0:
369,85,51215,1,10,0:0:0:0:
162,252,51365,6,0,P|106:232|63:227,1,84,2|0,1:2|0:0,0:0:0:0:
234,341,51665,1,2,1:2:0:0:
100,123,51815,2,0,P|93:67|89:8,1,84,8|2,0:0|1:2,0:0:0:0:
292,175,52115,2,0,P|243:149|212:118,1,84,0|4,0:0|0:3,0:0:0:0:
310,52,52415,1,8,0:0:0:0:
204,273,52565,6,0,B|156:252|137:260|137:260|114:240|114:240|70:249|37:224,1,168,6|2,1:2|1:2,0:0:0:0:
68,69,53015,2,0,P|84:117|90:155,1,84,10|2,0:0|0:0,0:0:0:0:
57,317,53315,1,4,0:3:0:0:
208,150,53465,1,0,1:0:0:0:
37,337,53615,1,10,0:0:0:0:
226,126,53765,6,0,B|354:106|354:106|311:171,1,168,6|0,1:2|0:0,0:0:0:0:
282,245,54215,1,8,0:0:0:0:
152,205,54365,1,2,0:3:0:0:
264,48,54515,1,0,1:0:0:0:
193,305,54665,1,6,0:3:0:0:
54,136,54815,2,0,P|104:118|136:112,1,84,10|2,0:0|0:3,0:0:0:0:
2,235,55115,6,0,P|66:250|133:287,1,126,6|0,1:2|0:0,0:0:0:0:
193,305,55415,6,0,P|165:267|232:213,1,105,10|2,0:0|0:0,0:0:0:0:
324,205,55715,5,8,1:3:0:0:
215,114,55865,1,4,1:3:0:0:
344,67,56015,1,10,0:0:0:0:
119,277,56165,6,0,B|130:246|130:246|80:192|124:104,1,168,6|0,1:2|1:0,0:0:0:0:
204,180,56615,2,0,P|220:224|244:264,1,84,10|0,0:0|0:0,0:0:0:0:
415,178,56915,2,0,P|358:158|313:152,1,84,4|0,0:3|0:0,0:0:0:0:
358,367,57215,2,0,L|349:279,1,84,10|0,0:0|1:0,0:0:0:0:
194,263,57515,6,0,P|204:167|204:151,1,84,6|0,1:2|0:0,0:0:0:0:
118,72,57815,1,10,0:0:0:0:
49,192,57965,1,2,0:3:0:0:
236,92,58115,1,4,0:3:0:0:
35,224,58265,1,2,1:3:0:0:
196,292,58415,1,10,0:0:0:0:
374,189,58565,1,4,1:2:0:0:
188,208,58715,6,0,P|192:256|198:316,1,84,0|8,0:0|0:0,0:0:0:0:
512,290,59015,1,8,0:0:0:0:
512,290,59090,1,8,0:0:0:0:
512,290,59165,6,0,P|443:271|353:263,1,157.5,6|0,1:2|0:0,0:0:0:0:
374,189,59465,2,0,P|414:179|479:163,1,105.000004005432,10|8,0:0|0:3,0:0:0:0:
188,208,59765,6,0,P|177:167|162:125,1,83.9999974365235,6|0,1:2|0:0,0:0:0:0:
37,40,60065,1,2,1:2:0:0:
2,321,60215,2,0,P|42:313|108:305,1,84,10|2,0:0|0:0,0:0:0:0:
258,310,60515,1,4,0:3:0:0:
92,208,60665,1,0,1:2:0:0:
226,75,60815,1,10,0:0:0:0:
79,188,60965,6,0,P|32:167|0:148,1,84,2|0,1:2|0:0,0:0:0:0:
152,28,61265,1,2,1:2:0:0:
378,126,61415,1,8,0:0:0:0:
249,293,61565,2,0,P|266:254|286:217,1,84,2|8,0:0|0:3,0:0:0:0:
470,100,61865,2,0,P|483:151|490:192,1,84,6|8,0:2|0:0,0:0:0:0:
287,218,62165,6,0,B|230:226|176:182|176:182|185:240,1,168,6|2,1:2|1:2,0:0:0:0:
324,363,62615,2,0,P|372:349|418:341,1,84,10|0,0:0|0:0,0:0:0:0:
270,109,62915,1,2,1:2:0:0:
287,218,63065,1,0,1:0:0:0:
298,85,63215,1,10,0:2:0:0:
209,283,63365,6,0,B|89:259|89:259|128:229,1,168,6|0,1:2|0:0,0:0:0:0:
222,117,63815,1,8,0:0:0:0:
254,87,63890,1,8,2:0:0:0:
298,85,63965,1,8,2:0:0:0:
383,198,64115,1,0,1:0:0:0:
209,283,64265,1,2,1:3:0:0:
366,120,64415,1,10,0:0:0:0:
187,367,64565,1,10,0:3:0:0:
287,71,64715,6,0,P|235:111|219:177,1,126,6|0,1:2|0:0,0:0:0:0:
230,237,65015,6,0,P|213:155|201:115,1,105,10|2,0:0|0:0,0:0:0:0:
102,67,65315,5,4,1:3:0:0:
48,171,65465,1,0,1:3:0:0:
216,122,65615,1,10,0:0:0:0:
34,191,65765,6,0,L|51:361,1,168,6|0,1:2|0:0,0:0:0:0:
122,377,66140,1,0,3:0:0:0:
152,305,66215,2,0,P|164:255|184:215,1,84,10|0,0:0|0:0,0:0:0:0:
281,173,66515,2,0,P|230:139|214:119,1,84,2|4,1:2|0:3,0:0:0:0:
226,40,66740,1,0,0:0:0:0:
148,69,66815,2,0,P|106:75|65:76,1,83.9999974365235,10|0,0:0|0:0,0:0:0:0:
32,268,67115,6,0,P|49:226|78:176,1,84,2|0,1:2|0:0,0:0:0:0:
215,121,67415,1,10,0:0:0:0:
358,226,67565,1,2,0:0:0:0:
191,150,67715,1,4,0:3:0:0:
422,184,67865,1,2,1:2:0:0:
166,184,68015,1,8,0:0:0:0:
138,303,68165,6,0,P|70:283|37:277,1,84,2|0,1:2|0:0,0:0:0:0:
259,213,68465,2,0,P|333:207|365:199,1,84,2|8,1:2|0:0,0:0:0:0:
390,135,68690,1,8,0:0:0:0:
390,135,68765,6,0,B|364:245|364:245|390:295,1,157.5,6|0,1:2|0:0,0:0:0:0:
433,349,69065,2,0,P|376:320|318:313,1,105,2|8,1:2|0:0,0:0:0:0:
259,325,69290,1,8,0:0:0:0:
272,279,69365,1,8,0:0:0:0:
260,233,69440,1,8,0:0:0:0:
226,203,69515,6,0,P|304:194|328:189,1,84,4|0,1:2|0:0,0:0:0:0:
398,109,69815,1,10,0:0:0:0:
244,56,69965,1,0,1:0:0:0:
244,56,70040,1,0,1:0:0:0:
244,56,70115,1,4,0:3:0:0:
110,161,70265,1,8,0:3:0:0:
293,130,70415,1,8,0:0:0:0:
88,186,70565,6,0,L|85:271,1,84,2|0,1:2|0:0,0:0:0:0:
172,347,70865,1,2,1:2:0:0:
316,225,71015,2,0,P|252:245|220:269,1,84,10|0,0:0|0:0,0:0:0:0:
431,310,71315,1,2,1:2:0:0:
320,224,71465,1,4,0:3:0:0:
506,252,71615,1,8,0:0:0:0:
293,341,71765,6,0,L|284:160,1,168,6|0,1:2|1:0,0:0:0:0:
380,67,72215,1,8,0:0:0:0:
273,161,72365,1,2,0:3:0:0:
437,233,72515,5,0,1:0:0:0:
273,161,72665,1,2,1:3:0:0:
333,355,72815,5,10,0:0:0:0:
273,161,72965,1,2,0:3:0:0:
146,323,73115,5,6,1:2:0:0:
146,323,73265,1,8,0:3:0:0:
57,235,73415,1,8,0:0:0:0:
229,249,73565,1,4,1:2:0:0:
8,370,73715,2,0,P|40:332|74:304,1,84,0|8,0:3|0:3,0:0:0:0:
337,196,74015,1,8,0:0:0:0:
52,67,74165,6,0,L|57:245,1,168,4|0,1:2|1:0,0:0:0:0:
144,280,74615,1,10,0:0:0:0:
192,186,74765,1,2,0:0:0:0:
104,144,74915,1,2,1:2:0:0:
56,234,75065,1,0,1:0:0:0:
335,265,75215,5,10,0:0:0:0:
224,303,75365,2,0,P|159:283|118:275,1,84,4|0,1:2|0:0,0:0:0:0:
44,345,75665,5,2,1:2:0:0:
232,195,75815,1,10,0:0:0:0:
13,147,75965,1,4,1:3:0:0:
105,255,76115,5,6,1:2:0:0:
326,189,76265,1,8,0:0:0:0:
298,47,76415,1,10,0:0:0:0:
303,331,76565,1,8,0:0:0:0:
512,194,76715,5,6,1:2:0:0:
276,345,76865,2,0,P|222:337|181:333,1,70,4|0,1:3|0:0,0:0:0:0:
69,353,77165,1,0,1:0:0:0:
263,195,77315,2,0,P|310:219|340:233,1,70,12|0,0:0|0:0,0:0:0:0:
381,86,77615,1,2,1:2:0:0:
386,89,77765,1,0,0:0:0:0:
156,127,77915,6,0,P|133:159|101:191,1,70,2|8,1:2|0:0,0:0:0:0:
304,335,78215,2,0,P|272:299|252:271,1,70,2|0,0:0|1:0,0:0:0:0:
263,195,78440,1,8,0:0:0:0:
263,195,78515,1,10,0:0:0:0:
408,250,78665,1,8,0:3:0:0:
156,314,78815,1,4,0:3:0:0:
386,89,78965,6,0,B|412:151|377:229|377:229|412:249|412:249|378:297|416:355,1,280,6|0,1:2|3:0,0:0:0:0:
406,338,80315,5,6,1:2:0:0:
296,373,80465,1,2,3:2:0:0:
338,219,80615,1,0,1:0:0:0:
494,341,80765,1,2,3:2:0:0:
231,321,80915,5,8,0:0:0:0:
203,307,80990,1,8,0:0:0:0:
184,282,81065,1,10,0:2:0:0:
175,251,81140,1,8,0:0:0:0:
182,220,81215,1,8,0:2:0:0:
128,231,81290,1,4,0:3:0:0:
60,245,81365,6,0,L|221:208,1,140,4|0,1:2|0:0,0:0:0:0:
349,28,81815,1,8,0:0:0:0:
200,121,81965,1,0,1:0:0:0:
485,166,82115,5,4,1:3:0:0:
200,121,82265,1,0,1:0:0:0:
309,214,82415,5,8,0:0:0:0:
256,167,82490,1,8,2:0:0:0:
200,121,82565,2,0,P|139:119|105:71,1,105,4|0,1:2|0:0,0:0:0:0:
70,31,82865,5,8,0:0:0:0:
48,82,82940,1,8,0:0:0:0:
84,124,83015,1,8,0:0:0:0:
56,172,83090,1,8,0:0:0:0:
82,221,83165,1,8,0:3:0:0:
47,265,83240,1,8,0:3:0:0:
86,304,83315,6,0,L|122:290,1,35,4|4,0:3|0:3,0:0:0:0:
268,230,83465,2,0,L|227:214,1,35,8|8,0:3|0:3,0:0:0:0:
323,330,83615,2,0,L|362:318,1,35,4|4,0:3|0:3,0:0:0:0:
479,190,83765,2,0,L|455:224,1,35,8|8,0:3|0:3,0:0:0:0:
346,50,83915,5,4,1:2:0:0:
320,73,84215,2,0,P|324:109|328:147,1,59.5000000000002,8|0,0:0|0:0,0:0:0:0:
366,210,84515,1,0,1:0:0:0:
282,247,84665,1,4,1:3:0:0:
213,153,84815,2,0,P|209:123|206:93,1,59.5000000000002,0|0,1:0|0:0,0:0:0:0:
68,57,85115,6,0,P|90:91|108:114,1,59.5000000000002,0|0,1:0|0:0,0:0:0:0:
214,153,85415,1,0,1:0:0:0:
108,127,85565,1,4,0:3:0:0:
150,249,85715,2,0,L|164:319,1,59.5000000000002,4|0,1:3|0:0,0:0:0:0:
272,253,86015,1,0,1:0:0:0:
274,257,86165,1,0,0:0:0:0:
54,320,86315,6,0,L|42:261,1,59.5000000000002,0|0,1:0|0:0,0:0:0:0:
105,128,86615,1,12,0:0:0:0:
181,298,86765,2,0,P|156:263|144:234,1,59.5000000000002,0|0,1:0|0:0,0:0:0:0:
256,148,87065,1,12,0:0:0:0:
363,272,87215,1,0,1:0:0:0:
287,368,87365,1,0,0:0:0:0:
179,185,87515,5,4,1:3:0:0:
406,200,87665,1,8,0:3:0:0:
403,246,87740,1,8,0:3:0:0:
363,272,87815,1,8,0:0:0:0:
115,285,87965,6,0,P|144:269|165:263,1,29.7500000000001,4|4,0:3|0:3,0:0:0:0:
229,290,88115,1,0,1:3:0:0:
37,203,88265,1,4,0:3:0:0:
262,89,88415,1,4,1:3:0:0:
133,357,88565,1,2,3:0:0:0:
124,321,88640,1,2,3:0:0:0:
115,285,88715,6,0,L|223:266,1,89.2500000000003,4|0,1:2|0:0,0:0:0:0:
285,229,89015,1,0,1:0:0:0:
185,139,89165,2,0,P|181:101|179:61,1,59.5000000000002,0|0,0:0|1:0,0:0:0:0:
352,25,89465,1,0,0:0:0:0:
325,127,89615,1,4,0:3:0:0:
319,7,89765,1,0,1:0:0:0:
446,122,89915,5,0,1:0:0:0:
185,135,90065,2,0,P|137:127|105:123,1,59.5000000000002,4|0,0:3|0:0,0:0:0:0:
26,208,90365,5,4,0:3:0:0:
160,235,90515,5,8,0:3:0:0:
292,268,90665,5,8,0:0:0:0:
423,304,90815,5,8,0:0:0:0:
291,281,90965,5,4,0:3:0:0:
152,286,91115,6,0,L|160:231,1,52.5,8|8,0:0|0:0,0:0:0:0:
220,109,91265,2,0,L|227:172,1,52.5,0|0,1:0|1:0,0:0:0:0:
49,173,91415,2,0,P|71:161|98:155,1,52.5,0|0,1:0|1:0,0:0:0:0:
318,291,91565,2,0,P|285:278|270:272,1,52.5,8|8,0:0|0:0,0:0:0:0:
335,137,91715,5,0,1:0:0:0:
371,93,91790,1,0,1:0:0:0:
427,95,91865,1,0,1:0:0:0:
469,131,91940,1,0,1:0:0:0:
489,183,92015,5,8,0:0:0:0:
432,186,92090,1,8,0:0:0:0:
388,222,92165,1,0,1:0:0:0:
391,278,92240,1,0,1:0:0:0:
441,303,92315,5,0,1:3:0:0:
400,293,92390,1,0,1:3:0:0:
358,287,92465,1,8,0:3:0:0:
317,277,92540,1,8,0:3:0:0:
250,257,92615,6,0,P|264:229|275:202,1,52.5,4|4,0:3|0:3,0:0:0:0:
178,54,92765,2,0,P|179:84|183:115,1,52.5,4|4,0:3|0:3,0:0:0:0:
335,137,92915,5,0,1:0:0:0:
70,311,93065,1,4,1:0:0:0:
52,332,93365,6,0,P|62:257|73:151,1,168,4|0,1:2|1:0,0:0:0:0:
185,37,93815,2,0,P|193:94|201:136,1,84,8|0,0:0|0:0,0:0:0:0:
224,254,94115,1,0,1:0:0:0:
369,132,94265,1,4,0:3:0:0:
191,240,94415,1,8,0:0:0:0:
381,343,94565,6,0,P|369:287|359:235,1,84,0|0,1:0|0:0,0:0:0:0:
261,126,94865,2,0,P|304:113|352:85,1,84,0|8,1:0|0:0,0:0:0:0:
238,17,95165,1,0,1:0:0:0:
92,161,95315,2,0,B|85:210|102:253|102:253|93:284|93:284|106:302|103:342,1,168,0|8,1:0|0:0,0:0:0:0:
310,274,95765,1,0,1:0:0:0:
272,252,95840,1,0,1:0:0:0:
230,256,95915,6,0,P|255:244|276:238,1,42,8|0,0:0|3:1,0:0:0:0:
446,182,96065,2,0,P|405:158|397:152,1,42,0|0,1:1|3:1,0:0:0:0:
223,55,96215,2,0,P|236:71|251:96,1,42,8|0,0:0|0:0,0:0:0:0:
48,232,96365,5,0,1:0:0:0:
79,194,96440,1,0,1:0:0:0:
126,177,96515,1,8,0:0:0:0:
394,329,96665,5,0,1:0:0:0:
347,312,96740,1,0,1:0:0:0:
316,274,96815,1,8,1:3:0:0:
412,72,96965,6,0,L|400:219,1,126,4|0,1:2|0:0,0:0:0:0:
316,274,97265,1,4,1:3:0:0:
260,254,97340,1,4,1:3:0:0:
226,205,97415,1,4,1:3:0:0:
228,146,97490,1,4,1:3:0:0:
244,89,97565,1,4,1:3:0:0:
226,32,97640,1,4,1:3:0:0:
172,8,97715,5,8,0:3:0:0:
96,17,97790,1,8,0:3:0:0:
48,75,97865,1,8,0:3:0:0:
50,150,97940,1,8,0:3:0:0:
102,203,98015,1,8,0:3:0:0:
177,207,98090,1,8,0:3:0:0:
248,179,98165,6,0,B|287:168|287:168|259:236|312:282,1,157.5,4|2,1:2|0:0,0:0:0:0:
327,291,99365,6,0,P|285:280|226:270,1,84,6|0,1:2|0:0,0:0:0:0:
128,320,99665,1,2,1:2:0:0:
272,80,99815,2,0,L|278:169,1,84,10|2,0:0|0:0,0:0:0:0:
53,237,100115,1,4,0:3:0:0:
73,193,100190,1,0,1:0:0:0:
118,169,100265,1,0,1:0:0:0:
272,80,100415,1,10,0:0:0:0:
106,152,100565,6,0,P|66:128|31:98,1,84,2|0,1:2|0:0,0:0:0:0:
272,80,100865,2,0,L|282:176,1,84,2|8,1:2|0:0,0:0:0:0:
221,264,101165,1,2,1:2:0:0:
412,142,101315,1,0,0:0:0:0:
323,342,101465,1,4,0:3:0:0:
169,163,101615,1,8,0:0:0:0:
399,243,101765,6,0,L|402:328,1,84,6|0,1:2|0:0,0:0:0:0:
247,146,102065,1,2,1:2:0:0:
473,201,102215,1,10,0:0:0:0:
272,80,102365,1,2,0:0:0:0:
298,275,102515,2,0,L|300:358,1,84,4|0,0:3|1:0,0:0:0:0:
421,113,102815,1,10,0:0:0:0:
185,259,102965,6,0,B|175:221|175:221|182:192|182:192|165:147|168:90,1,168,6|0,1:2|0:0,0:0:0:0:
269,58,103415,1,8,0:0:0:0:
164,76,103565,1,2,0:3:0:0:
66,20,103715,1,0,1:0:0:0:
164,76,103865,1,6,0:3:0:0:
98,168,104015,2,0,P|44:197|16:210,1,84,10|2,0:0|0:3,0:0:0:0:
146,264,104315,2,0,P|198:269|254:279,1,84,6|0,1:2|0:0,0:0:0:0:
471,315,104615,5,10,0:0:0:0:
359,189,104765,2,0,P|352:141|336:55,1,105.000004005432,2|8,0:0|1:3,0:0:0:0:
400,27,104990,1,4,3:0:0:0:
400,27,105065,1,4,1:3:0:0:
223,139,105215,1,10,0:0:0:0:
475,61,105365,6,0,L|486:239,1,168,6|0,1:2|1:0,0:0:0:0:
249,327,105815,2,0,P|274:280|294:245,1,84,10|0,0:0|0:0,0:0:0:0:
144,213,106115,2,0,P|135:152|133:111,1,84,4|0,0:3|0:0,0:0:0:0:
333,63,106415,1,10,0:0:0:0:
361,98,106490,1,0,1:0:0:0:
355,147,106565,1,0,1:0:0:0:
419,322,106715,6,0,P|442:270|466:228,1,84,6|0,1:2|0:0,0:0:0:0:
307,243,107015,1,10,0:0:0:0:
272,229,107090,1,8,2:0:0:0:
234,231,107165,1,8,2:0:0:0:
85,285,107315,1,4,0:3:0:0:
355,147,107465,1,2,1:3:0:0:
270,365,107615,1,10,0:0:0:0:
111,256,107765,6,0,L|118:158,1,84,4|0,1:2|0:0,0:0:0:0:
266,64,108065,2,0,P|206:32|183:14,1,84,8|8,0:0|0:0,0:0:0:0:
391,19,108365,1,10,1:2:0:0:
421,239,108515,6,0,L|377:217,1,42,8|8,0:0|0:0,0:0:0:0:
215,135,108665,2,0,L|233:184,1,42,10|8,0:0|0:0,0:0:0:0:
78,321,108815,2,0,L|93:263,1,42,8|4,0:3|0:3,0:0:0:0:
193,22,108965,6,0,P|195:110|199:140,1,84,6|0,1:2|0:0,0:0:0:0:
284,269,109265,1,2,1:2:0:0:
360,147,109415,1,10,0:0:0:0:
176,247,109565,1,2,0:0:0:0:
378,349,109715,2,0,P|369:307|357:251,1,84,4|0,0:3|1:2,0:0:0:0:
221,341,110015,1,10,0:0:0:0:
455,251,110165,6,0,P|458:165|459:147,2,84,2|0|2,1:2|0:0|1:2,0:0:0:0:
215,193,110615,1,8,0:0:0:0:
294,101,110765,1,2,0:0:0:0:
273,307,110915,2,0,P|225:285|191:275,1,84,8|6,0:3|0:2,0:0:0:0:
60,313,111215,1,8,0:0:0:0:
332,191,111365,6,0,P|382:179|420:161,1,84,6|0,1:2|0:0,0:0:0:0:
464,61,111665,1,2,1:2:0:0:
421,160,111815,1,10,0:0:0:0:
498,261,111965,1,0,0:0:0:0:
373,341,112115,5,2,1:2:0:0:
396,245,112265,1,0,1:0:0:0:
498,261,112415,1,10,0:2:0:0:
272,291,112565,2,0,B|227:259|227:259|160:285|108:247,1,168,6|0,1:2|0:0,0:0:0:0:
55,153,113015,5,8,0:0:0:0:
40,105,113090,1,0,0:0:0:0:
23,58,113165,1,2,3:0:0:0:
160,111,113315,5,0,1:0:0:0:
95,249,113465,1,2,1:3:0:0:
278,185,113615,5,10,0:0:0:0:
95,249,113765,1,10,0:3:0:0:
346,284,113915,6,0,B|388:269|448:285|448:285|421:318,1,126,6|0,1:2|0:0,0:0:0:0:
373,364,114215,1,10,0:0:0:0:
95,249,114365,2,0,L|107:159,1,84,2|4,0:0|1:3,0:0:0:0:
278,185,114665,1,0,1:3:0:0:
76,145,114815,1,10,0:0:0:0:
390,42,114965,6,0,L|374:218,1,168,6|0,1:2|0:0,0:0:0:0:
418,334,115415,1,10,0:0:0:0:
506,164,115565,1,8,0:3:0:0:
487,148,115640,1,4,0:3:0:0:
460,144,115715,1,2,1:2:0:0:
195,290,115865,5,4,0:3:0:0:
225,282,115940,1,8,0:3:0:0:
249,258,116015,1,10,0:0:0:0:
85,98,116165,5,0,1:0:0:0:
85,98,116240,1,0,1:0:0:0:
85,98,116315,6,0,L|90:214,1,84,2|0,1:2|0:0,0:0:0:0:
140,290,116615,1,10,0:0:0:0:
249,258,116765,1,2,0:0:0:0:
217,158,116915,1,4,0:3:0:0:
108,185,117065,1,2,1:2:0:0:
269,277,117215,2,0,P|332:266|362:264,1,84,8|2,0:0|1:2,0:0:0:0:
484,149,117515,6,0,P|423:135|387:127,1,84,0|2,0:0|1:2,0:0:0:0:
458,35,117815,1,8,0:0:0:0:
269,277,117965,6,0,P|257:201|248:133,1,105,6|0,1:2|0:0,0:0:0:0:
266,81,118265,1,2,1:2:0:0:
322,91,118340,1,0,1:0:0:0:
366,127,118415,1,8,0:0:0:0:
385,181,118490,1,8,0:0:0:0:
371,237,118565,1,8,0:3:0:0:
323,269,118640,1,4,0:3:0:0:
269,277,118715,6,0,P|347:267|431:259,1,126,4|0,1:2|0:0,0:0:0:0:
480,301,119015,2,0,P|419:283|383:277,1,84,10|2,0:0|0:0,0:0:0:0:
297,141,119315,2,0,P|358:125|392:121,1,84,2|4,1:2|0:3,0:0:0:0:
464,175,119615,1,8,0:0:0:0:
199,217,119765,6,0,L|186:129,1,84,2|0,1:2|0:0,0:0:0:0:
260,37,120065,1,2,1:2:0:0:
38,155,120215,2,0,P|68:119|100:89,1,84,10|0,0:0|0:0,0:0:0:0:
322,161,120515,1,2,1:2:0:0:
112,245,120665,1,2,1:2:0:0:
260,37,120815,1,8,0:0:0:0:
263,269,120965,6,0,P|243:213|323:161,1,168,6|0,1:2|1:0,0:0:0:0:
444,189,121415,1,8,0:0:0:0:
406,101,121565,1,2,0:3:0:0:
376,247,121715,5,0,1:0:0:0:
300,165,121865,1,2,1:3:0:0:
322,327,122015,5,10,0:0:0:0:
224,307,122165,1,2,0:3:0:0:
96,157,122315,6,0,P|134:103|162:75,2,84,2|2|0,1:2|1:2|0:0,0:0:0:0:
218,187,122765,1,2,1:2:0:0:
85,301,122915,2,0,P|27:281|-8:275,1,84,0|2,0:0|1:2,0:0:0:0:
224,307,123215,1,8,0:0:0:0:
96,157,123365,6,0,P|90:99|182:43,1,168,4|0,1:2|1:0,0:0:0:0:
344,69,123815,1,10,0:0:0:0:
224,307,123965,2,0,L|203:255,1,42,8|8,0:3|0:3,0:0:0:0:
265,193,124115,1,4,0:3:0:0:
67,299,124265,1,0,1:0:0:0:
67,299,124340,1,0,1:0:0:0:
67,299,124415,1,10,0:0:0:0:
303,337,124565,6,0,P|358:321|393:313,1,84,4|0,1:2|0:0,0:0:0:0:
485,291,124865,1,2,1:2:0:0:
339,223,125015,1,10,0:0:0:0:
225,142,125165,5,2,1:2:0:0:
262,122,125240,1,0,1:0:0:0:
302,134,125315,1,10,0:0:0:0:
331,163,125390,1,8,0:0:0:0:
338,204,125465,1,8,0:0:0:0:
318,241,125540,1,8,0:0:0:0:
290,275,125615,5,8,0:3:0:0:
339,223,125690,1,8,0:3:0:0:
387,171,125765,1,4,0:3:0:0:
436,119,125840,1,4,0:3:0:0:
497,62,125915,6,0,L|489:180,1,84,4|4,1:2|1:3,0:0:0:0:
499,171,126365,5,0,1:0:0:0:
409,139,126515,2,0,P|353:127|319:121,1,84,8|0,0:0|0:0,0:0:0:0:
153,288,126815,1,2,1:2:0:0:
248,260,126965,1,2,1:2:0:0:
342,222,127115,5,4,1:3:0:0:
139,301,127265,2,0,L|135:209,1,84,8|2,0:0|0:0,0:0:0:0:
258,99,127565,1,0,1:0:0:0:
342,222,127715,2,0,L|333:275,1,42,8|8,0:3|0:3,0:0:0:0:
479,334,127865,2,0,L|469:285,1,42,8|8,0:0|0:0,0:0:0:0:
482,77,128015,2,0,L|433:89,1,42,4|4,0:3|0:3,0:0:0:0:
193,202,128165,5,4,1:2:0:0:
193,202,129515,6,0,L|90:188,1,84,12|0,0:0|1:0,0:0:0:0:
42,146,129740,1,0,1:0:0:0:
63,116,129815,2,0,P|94:108|111:108,1,42,8|0,0:0|1:0,0:0:0:0:
235,64,129965,2,0,P|205:50|186:47,1,42,0|0,1:0|1:0,0:0:0:0:
325,167,130115,5,8,0:0:0:0:
356,195,130190,1,8,0:0:0:0:
398,195,130265,1,8,0:3:0:0:
431,169,130340,1,8,0:3:0:0:
427,127,130415,1,4,0:3:0:0:
394,100,130490,1,4,0:3:0:0:
355,84,130565,6,0,L|375:280,1,168,4|0,1:2|1:0,0:0:0:0:
202,309,131015,1,8,0:0:0:0:
378,267,131165,1,0,1:0:0:0:
102,218,131315,5,8,0:0:0:0:
378,267,131465,1,0,1:0:0:0:
115,71,131615,5,8,0:0:0:0:
378,267,131765,2,0,L|365:121,1,126,4|0,1:2|0:0,0:0:0:0:
321,69,132065,1,0,1:0:0:0:
245,141,132215,1,12,0:0:0:0:
378,267,132365,1,0,1:0:0:0:
127,335,132515,1,0,1:0:0:0:
169,87,132665,5,8,0:0:0:0:
199,58,132740,1,8,0:0:0:0:
239,45,132815,1,0,1:0:0:0:
280,49,132890,1,0,1:0:0:0:
321,69,132965,1,8,0:0:0:0:
338,107,133040,1,8,0:0:0:0:
340,148,133115,6,0,L|296:248,1,84,4|0,1:2|0:0,0:0:0:0:
195,373,133415,1,8,0:0:0:0:
57,243,133565,1,0,1:0:0:0:
245,141,133715,1,8,0:0:0:0:
347,360,133865,1,0,1:0:0:0:
85,139,134015,6,0,P|102:83|192:97,1,157.5,8|0,0:0|0:0,0:0:0:0:
245,141,134315,6,0,P|231:79|226:38,1,84,12|0,0:0|1:0,0:0:0:0:
386,128,134615,1,8,0:0:0:0:
284,295,134765,1,0,1:0:0:0:
166,157,134915,2,0,P|129:148|80:138,1,84,8|0,0:0|1:0,0:0:0:0:
386,128,135215,6,0,B|406:112|416:96|416:96|402:239,1,157.5,8|0,0:0|0:0,0:0:0:0:
359,272,135515,6,0,P|322:229|287:221,1,84,2|0,0:0|1:0,0:0:0:0:
152,341,135815,1,8,0:0:0:0:
238,93,135965,1,0,1:0:0:0:
246,119,136040,1,0,1:0:0:0:
254,147,136115,1,8,0:0:0:0:
96,212,136265,1,0,1:0:0:0:
419,67,136415,6,0,L|429:237,1,157.5,12|0,0:0|0:0,0:0:0:0:
321,181,136715,6,0,L|327:68,1,84,8|0,0:0|1:0,0:0:0:0:
198,16,137015,2,0,L|204:104,1,84,8|0,0:0|1:0,0:0:0:0:
238,269,137315,1,8,0:3:0:0:
201,258,137390,1,8,0:3:0:0:
165,245,137465,1,4,0:3:0:0:
129,233,137540,1,4,0:3:0:0:
59,201,137615,6,0,P|122:207|201:211,1,105,8|4,0:0|1:2,0:0:0:0:
443,186,137915,6,0,P|383:165|331:149,1,84,0|0,0:0|1:0,0:0:0:0:
165,80,138215,2,0,P|230:61|275:41,1,84,8|0,0:0|1:0,0:0:0:0:
78,15,138515,1,8,0:0:0:0:
0,151,138665,1,0,1:0:0:0:
286,171,138815,6,0,B|313:124|313:124|330:180|398:191,1,157.5,8|0,0:0|0:0,0:0:0:0:
476,281,139115,6,0,P|436:275|357:275,1,83.9999974365235,12|0,0:0|1:0,0:0:0:0:
272,361,139415,1,8,0:0:0:0:
121,200,139565,1,0,1:0:0:0:
55,361,139715,2,0,P|108:356|148:341,1,84,8|0,0:0|0:0,0:0:0:0:
313,70,140015,6,0,P|291:138|285:180,1,105,8|4,0:0|1:2,0:0:0:0:
426,321,140315,6,0,P|391:281|359:255,1,84,0|0,0:0|1:0,0:0:0:0:
152,104,140615,1,8,0:0:0:0:
233,352,140765,1,0,1:0:0:0:
272,334,140840,1,0,1:0:0:0:
294,295,140915,1,8,0:0:0:0:
152,104,141065,1,0,1:0:0:0:
46,364,141215,1,8,0:0:0:0:
426,321,141365,5,4,1:2:0:0:
10,190,141515,1,0,1:0:0:0:
233,352,141665,1,8,0:0:0:0:
286,32,141815,1,0,1:0:0:0:
218,300,141965,1,0,1:0:0:0:
225,328,142040,1,0,1:0:0:0:
233,352,142115,1,8,1:3:0:0:
496,139,142265,5,0,1:0:0:0:
40,24,142415,1,12,1:2:0:0:
36,114,142865,5,0,3:0:0:0:
36,114,142940,1,0,3:0:0:0:
36,114,143015,1,0,3:0:0:0:
132,119,143165,1,0,3:0:0:0:
131,209,143315,1,0,3:0:0:0:
40,209,143465,2,0,L|40:290,1,70,2|0,3:0|0:0,0:0:0:0:
131,209,143765,5,0,3:0:0:0:
132,119,143915,1,0,3:0:0:0:
36,114,144065,1,0,3:0:0:0:
40,209,144215,2,0,L|40:279,1,70,2|0,3:0|3:0,0:0:0:0:
