osu file format v14

[General]
AudioFilename: audio.ogg
AudioLeadIn: 0
PreviewTime: 49265
Countdown: 0
SampleSet: Soft
StackLeniency: 0.9
Mode: 0
LetterboxInBreaks: 0
WidescreenStoryboard: 1

[Editor]
Bookmarks: 18463,37663,50713,60313,70063,79513,89263,99913,109513,119263,131113
DistanceSpacing: 0.5
BeatDivisor: 4
GridSize: 4
TimelineZoom: 1.3

[Metadata]
Title:Melody in the Dark
TitleUnicode:Melody in the Dark
Artist:UNDEAD
ArtistUnicode:UNDEAD
Creator:kakifly
Version:MySetzery's Insane
Source:あんさんぶるスターズ!!
Tags:enstars es ensemble stars あんさんぶるスターズ! あんさんぶるスターズ あんスタ jpop j-pop male vocal rock idol rei sakuma 朔間 零 kaoru hakaze 羽風 薫 koga oogami 大神 晃牙 adonis otogari 乙狩 アドニス toshiki masuda 増田 俊樹 kei hosogai 細貝 圭 yuki ono 小野 友樹 wataru hatano 羽多野 渉 japanese video game videogame a mystery amystery setz setz206 shikibe mayu ryuusei aika ryuuseiaika shizuku kazato asa kowari arte refact mel jrock j-rock poprock pop-rock
BeatmapID:3326113
BeatmapSetID:1620141

[Difficulty]
HPDrainRate:6
CircleSize:4
OverallDifficulty:8
ApproachRate:9
SliderMultiplier:1.6
SliderTickRate:1

[Events]
//Background and Video events
0,0,"kaoru.jpg",0,0
//Break Periods
//Storyboard Layer 0 (Background)
//Storyboard Layer 1 (Fail)
//Storyboard Layer 2 (Pass)
//Storyboard Layer 3 (Foreground)
//Storyboard Layer 4 (Overlay)
//Storyboard Sound Samples

[TimingPoints]
1125,300,4,2,1,60,1,0
1125,-133.333333333333,4,2,1,60,0,0
1725,-133.333333333333,4,2,1,60,0,0
5625,-133.333333333333,4,2,1,60,0,0
5915,300,4,2,1,80,1,0
15215,-100,4,2,1,60,0,0
15665,-100,4,2,1,60,0,0
18215,-125,4,2,1,60,0,0
22115,-90.9090909090908,4,2,1,60,0,0
22565,-111.111111111111,4,2,1,60,0,0
27965,-111.111111111111,4,2,1,60,0,0
37115,-111.111111111111,4,2,1,60,0,0
37265,-133.333333333333,4,2,1,60,0,0
44165,-100,4,2,1,75,0,0
48065,-100,4,2,1,75,0,0
49415,-133.333333333333,4,2,1,75,0,0
50165,-83.3333333333333,4,2,1,85,0,1
50915,-90.9090909090909,4,2,1,85,0,1
52565,-83.3333333333333,4,2,1,85,0,1
53315,-90.9090909090909,4,2,1,85,0,1
55340,-90.9090909090909,4,2,1,5,0,1
55415,-90.9090909090909,4,2,1,85,0,1
55490,-90.9090909090909,4,2,1,5,0,1
55565,-90.9090909090909,4,2,1,85,0,1
55640,-90.9090909090909,4,2,1,5,0,1
55715,-90.9090909090909,4,2,1,85,0,1
59165,-83.3333333333333,4,2,1,85,0,1
59615,-83.3333333333333,4,2,1,85,0,0
59765,-90.9090909090909,4,2,1,85,0,1
64940,-90.9090909090909,4,2,1,5,0,1
65015,-90.9090909090909,4,2,1,85,0,1
65090,-90.9090909090909,4,2,1,5,0,1
65165,-90.9090909090909,4,2,1,85,0,1
65240,-90.9090909090909,4,2,1,5,0,1
65315,-90.9090909090909,4,2,1,85,0,1
68765,-83.3333333333333,4,2,1,85,0,1
69515,-83.3333333333333,4,2,1,85,0,0
70265,-100,4,2,1,85,0,0
75215,-90.9090909090909,4,2,1,85,0,0
75290,-90.9090909090909,4,2,1,5,0,0
75365,-90.9090909090909,4,2,1,85,0,0
76865,-125,4,2,1,85,0,0
79565,-125,4,2,1,10,0,0
80315,-100,4,2,1,80,0,0
83915,-133.333333333333,4,2,1,80,0,0
86540,-133.333333333333,4,2,1,5,0,0
86615,-133.333333333333,4,2,1,80,0,0
88715,-117.647058823529,4,2,1,80,0,0
93365,-100,4,2,1,80,0,0
99365,-90.9090909090909,4,2,1,80,0,1
104690,-90.9090909090909,4,2,1,5,0,1
104765,-100,4,2,1,80,0,1
104840,-100,4,2,1,5,0,1
104915,-90.9090909090909,4,2,1,80,0,1
108365,-83.3333333333333,4,2,1,80,0,1
108815,-90.9090909090909,4,2,1,80,0,0
108965,-83.3333333333333,4,2,1,80,0,1
109715,-90.9090909090909,4,2,1,80,0,1
111365,-83.3333333333333,4,2,1,80,0,1
112115,-90.9090909090909,4,2,1,80,0,1
114290,-90.9090909090909,4,2,1,5,0,1
114365,-90.9090909090909,4,2,1,80,0,1
114440,-90.9090909090909,4,2,1,5,0,1
114515,-90.9090909090909,4,2,1,80,0,1
117965,-83.3333333333333,4,2,1,80,0,1
118715,-83.3333333333333,4,2,1,80,0,0
119015,-83.3333333333333,4,2,1,80,0,0
119465,-100,4,2,1,80,0,0
124415,-90.9090909090909,4,2,1,80,0,0
124490,-90.9090909090909,4,2,1,5,0,0
124565,-90.9090909090909,4,2,1,80,0,0
125165,-100,4,2,1,80,0,0
126065,-125,4,2,1,80,0,0
128765,-125,4,2,1,5,0,0
129515,-125,4,2,1,80,0,0
129665,-100,4,2,1,80,0,0
134015,-83.3333333333333,4,2,1,80,0,0
134915,-100,4,2,1,80,0,0
135215,-83.3333333333333,4,2,1,80,0,0
135365,-100,4,2,1,80,0,0
136415,-83.3333333333333,4,2,1,80,0,0
137315,-100,4,2,1,80,0,0
137465,-100,4,2,1,80,0,0
137615,-83.3333333333333,4,2,1,80,0,0
137765,-100,4,2,1,80,0,0
138815,-83.3333333333333,4,2,1,80,0,0
139715,-100,4,2,1,80,0,0
140015,-83.3333333333333,4,2,1,80,0,0
140165,-100,4,2,1,80,0,0
142415,-83.3333333333333,4,2,1,80,0,0
142865,-83.3333333333333,4,2,1,60,0,0

[Colours]
Combo1 : 176,116,205
Combo2 : 105,65,188
Combo3 : 226,190,82
Combo4 : 176,174,164

[HitObjects]
139,323,1125,6,0,P|172:317|220:313,1,60.0000000000002,0|0,3:0|0:0,0:0:0:0:
284,239,1425,2,0,P|257:236|224:230,1,60.0000000000002,0|0,3:0|0:0,0:0:0:0:
171,155,1725,1,2,3:0:0:0:
171,155,1800,1,0,3:0:0:0:
171,155,1875,1,0,3:0:0:0:
129,240,2025,1,0,3:0:0:0:
89,113,2175,6,0,P|135:70|208:75,1,120,2|0,3:0|3:0,0:0:0:0:
264,127,2625,1,0,0:0:0:0:
327,17,2775,2,0,L|337:85,1,60.0000000000002,0|2,3:0|3:0,0:0:0:0:
249,143,3075,1,0,0:0:0:0:
241,48,3225,1,0,3:0:0:0:
335,172,3375,1,0,3:0:0:0:
165,143,3525,6,0,P|159:175|154:214,1,60.0000000000002,0|0,3:0|0:0,0:0:0:0:
218,291,3825,2,0,P|228:263|242:237,1,60.0000000000002,0|0,3:0|0:0,0:0:0:0:
258,144,4125,1,2,3:0:0:0:
258,144,4200,1,0,3:0:0:0:
258,144,4275,1,0,3:0:0:0:
189,56,4425,1,0,3:0:0:0:
343,9,4575,6,0,L|330:131,1,120,0|2,3:0|3:0,0:0:0:0:
383,206,5025,1,0,3:0:0:0:
258,144,5175,2,0,P|230:147|198:153,1,60.0000000000002,0|0,3:0|3:0,0:0:0:0:
116,202,5475,1,0,3:0:0:0:
62,19,5625,2,0,L|53:116,1,90.0000000000002,2|0,3:0|0:0,0:0:0:0:
27,201,5915,6,0,P|61:183|116:191,1,80,4|0,1:2|0:0,0:0:0:0:
215,271,6215,1,10,0:0:0:0:
188,188,6365,1,2,0:0:0:0:
296,105,6515,2,0,P|259:109|213:90,1,80,2|4,1:2|1:3,0:0:0:0:
123,33,6815,1,8,0:0:0:0:
105,227,6965,6,0,B|142:105|142:105|161:151,1,160,0|4,0:0|0:3,0:0:0:0:
198,249,7415,1,10,0:0:0:0:
251,171,7565,1,2,0:0:0:0:
311,314,7715,2,0,P|298:275|314:235,1,80,0|4,1:3|1:3,0:0:0:0:
352,157,8015,1,8,0:0:0:0:
239,352,8165,6,0,P|319:343|399:336,1,160,4|0,1:2|1:0,0:0:0:0:
438,204,8615,1,10,0:0:0:0:
470,293,8765,1,2,0:0:0:0:
381,155,8915,2,0,P|413:131|472:135,1,80,2|4,1:2|1:3,0:0:0:0:
512,227,9215,1,8,0:0:0:0:
352,279,9365,6,0,B|302:276|268:295|268:295|252:314|252:314|196:324,1,160,0|4,0:0|1:3,0:0:0:0:
92,261,9815,2,0,P|134:254|159:222,1,80,10|2,0:0|0:0,0:0:0:0:
187,128,10115,1,2,1:2:0:0:
56,139,10265,1,8,0:0:0:0:
84,282,10415,1,8,0:0:0:0:
234,210,10565,6,0,L|208:48,1,160,4|0,1:2|0:0,0:0:0:0:
335,4,11015,2,0,P|325:40|314:91,1,80,10|0,0:0|0:0,0:0:0:0:
328,192,11315,2,0,P|364:172|425:187,1,80,2|4,1:2|1:3,0:0:0:0:
384,254,11615,1,10,0:0:0:0:
470,98,11765,6,0,P|504:181|459:249,1,160,0|4,0:0|1:3,0:0:0:0:
381,294,12215,1,14,0:0:0:0:
394,160,12365,1,0,0:0:0:0:
396,316,12515,2,0,B|346:309|346:309|321:286,1,80,2|4,1:2|1:3,0:0:0:0:
252,180,12815,1,10,0:0:0:0:
301,78,12965,6,0,B|266:205|266:205|242:162,1,160,6|0,1:2|1:0,0:0:0:0:
96,79,13415,2,0,P|134:59|185:66,1,80,10|0,0:0|1:0,0:0:0:0:
326,161,13715,2,0,P|291:180|251:179,1,80,10|0,0:0|1:0,0:0:0:0:
406,216,14015,1,8,0:0:0:0:
273,101,14165,6,0,L|302:285,1,160,6|10,1:2|0:0,0:0:0:0:
359,348,14615,1,4,0:3:0:0:
222,297,14765,2,0,L|236:355,2,40,4|4|10,1:3|1:3|0:0,0:0:0:0:
140,213,14990,1,8,2:0:0:0:
140,213,15065,1,8,0:0:0:0:
140,213,15140,1,8,2:0:0:0:
140,213,15215,2,0,B|180:174|217:203|217:203|208:158|233:129,1,160,14|0,1:2|3:0,0:0:0:0:
352,173,15665,6,0,P|354:212|379:257,1,80,0|0,3:0|3:0,0:0:0:0:
460,302,15965,1,0,3:0:0:0:
377,365,16115,1,2,3:0:0:0:
299,271,16265,2,0,L|220:280,1,80,0|0,0:0|3:0,0:0:0:0:
349,151,16565,6,0,P|351:190|376:235,1,80,0|0,3:0|3:0,0:0:0:0:
457,280,16865,1,0,3:0:0:0:
374,343,17015,1,2,3:0:0:0:
296,249,17165,2,0,L|216:257,1,80
142,185,17465,1,8,0:0:0:0:
142,185,17540,1,8,0:0:0:0:
142,185,17615,1,8,0:0:0:0:
107,294,17765,1,8,0:0:0:0:
242,160,17915,5,4,1:2:0:0:
242,160,18065,1,0,1:0:0:0:
284,96,18215,2,0,P|244:82|203:92,1,64,2|0,0:0|1:0,0:0:0:0:
316,159,18515,2,0,P|353:120|338:46,1,128,10|2,0:0|1:2,0:0:0:0:
242,160,18965,2,0,B|233:208|233:208|260:295,1,128,2|0,1:2|1:0,0:0:0:0:
321,228,19415,1,10,0:0:0:0:
200,335,19715,1,2,1:2:0:0:
264,295,19865,2,0,L|343:310,2,64,2|8|0,1:2|0:0|0:0,0:0:0:0:
155,183,20315,5,2,1:2:0:0:
155,183,20465,1,0,1:0:0:0:
202,242,20615,2,0,P|195:276|164:308,1,64,2|0,0:0|1:0,0:0:0:0:
73,325,20915,2,0,L|211:342,1,128,10|2,0:0|1:2,0:0:0:0:
272,224,21365,2,0,P|230:175|170:176,1,128,2|0,1:2|1:0,0:0:0:0:
202,242,21815,1,2,1:2:0:0:
354,150,21965,1,2,1:2:0:0:
354,150,22040,1,0,1:0:0:0:
353,149,22115,2,0,B|336:189|336:189|349:229|349:229|324:269|346:342,1,176,12|0,0:0|0:0,0:0:0:0:
512,257,22565,6,0,P|412:254|388:210,1,144,6|0,1:2|0:0,0:0:0:0:
453,125,23015,2,0,P|460:162|464:211,1,72.0000000000001,2|0,1:2|0:0,0:0:0:0:
412,313,23315,1,10,0:0:0:0:
427,309,23615,1,2,1:2:0:0:
320,202,23765,6,0,P|311:276|307:364,1,144,6|0,1:2|0:0,0:0:0:0:
264,269,24215,2,0,P|209:268|181:286,1,72.0000000000001,8|4,0:3|0:3,0:0:0:0:
129,332,24515,2,0,P|75:320|48:293,2,72.0000000000001,8|8|0,0:0|0:3|3:0,0:0:0:0:
187,238,24965,1,4,0:3:0:0:
259,366,25115,6,0,P|263:326|274:275,1,72.0000000000001,2|0,1:2|0:0,0:0:0:0:
349,193,25415,2,0,P|355:233|360:285,1,72.0000000000001,2|0,1:2|1:0,0:0:0:0:
298,362,25715,1,10,0:0:0:0:
356,298,25865,1,8,0:3:0:0:
382,380,26015,1,4,0:3:0:0:
269,271,26165,6,0,P|213:276|153:286,1,108,4|0,1:2|0:0,0:0:0:0:
119,296,26465,1,0,1:2:0:0:
193,157,26615,1,12,0:0:0:0:
229,235,26765,1,0,0:0:0:0:
289,127,26915,1,8,0:3:0:0:
258,207,27065,1,8,0:3:0:0:
382,167,27215,1,4,0:3:0:0:
382,167,27365,1,4,1:3:0:0:
243,55,27515,5,4,1:2:0:0:
247,70,27815,1,10,0:0:0:0:
164,60,27965,1,2,0:0:0:0:
126,189,28115,2,0,P|108:158|104:123,1,72.0000000000001,2|4,1:2|1:3,0:0:0:0:
172,46,28415,1,10,0:0:0:0:
224,195,28565,6,0,P|274:140|260:68,1,144,2|0,1:2|1:0,0:0:0:0:
315,146,29015,2,0,P|369:142|401:129,1,72.0000000000001,10|0,0:0|0:0,0:0:0:0:
435,66,29315,1,2,1:2:0:0:
374,3,29465,2,0,P|350:52|353:93,2,72.0000000000001,4|8|0,1:3|0:0|0:0,0:0:0:0:
469,155,29915,5,4,1:2:0:0:
469,155,30065,1,0,0:0:0:0:
355,245,30215,1,10,0:0:0:0:
440,231,30365,1,2,0:0:0:0:
335,156,30515,1,2,1:2:0:0:
291,295,30665,2,0,P|277:260|281:212,1,72.0000000000001,4|10,1:3|0:0,0:0:0:0:
343,107,30965,6,0,P|271:111|196:99,1,144,6|2,1:2|1:2,0:0:0:0:
132,46,31415,1,10,0:0:0:0:
213,18,31565,1,2,1:2:0:0:
127,139,31715,1,8,0:0:0:0:
213,18,31865,1,4,1:2:0:0:
310,321,32165,6,0,B|298:279|297:246|297:246|318:213|352:177,1,144,2|0,1:2|1:0,0:0:0:0:
444,266,32615,2,0,P|396:273|366:264,1,72.0000000000001,10|0,0:0|0:0,0:0:0:0:
265,220,32915,2,0,P|212:227|182:254,1,72.0000000000001,2|4,1:2|1:3,0:0:0:0:
185,322,33215,1,10,0:0:0:0:
331,263,33365,6,0,P|344:212|278:143,1,144,6|2,1:2|1:2,0:0:0:0:
195,225,33815,2,0,L|110:211,1,72.0000000000001,8|0,0:0|1:0,0:0:0:0:
59,164,34115,1,8,0:3:0:0:
59,164,34265,1,4,0:3:0:0:
169,82,34415,2,0,P|134:77|100:88,1,72.0000000000001,10|4,0:0|1:3,0:0:0:0:
176,216,34715,6,0,P|214:213|264:211,1,72.0000000000001,2|0,1:2|0:0,0:0:0:0:
341,124,35015,2,0,P|303:121|253:119,1,72.0000000000001,14|0,0:0|0:0,0:0:0:0:
344,211,35315,2,0,P|341:240|312:282,1,72.0000000000001,8|4,1:3|1:3,0:0:0:0:
257,215,35615,1,10,0:0:0:0:
382,125,35765,6,0,P|438:196|415:270,1,144,6|2,1:2|1:2,0:0:0:0:
337,294,36215,1,8,0:0:0:0:
249,190,36365,2,0,B|288:201|288:201|348:190,1,72.0000000000001,2|0,1:2|0:0,0:0:0:0:
397,113,36665,1,4,1:3:0:0:
254,55,36815,1,8,0:3:0:0:
233,61,36890,1,8,0:3:0:0:
212,62,36965,1,4,0:3:0:0:
191,55,37040,1,4,0:3:0:0:
174,43,37115,5,4,1:3:0:0:
88,77,37265,2,0,L|66:140,1,60.0000000000002,4|0,1:3|0:0,0:0:0:0:
110,215,37565,1,4,1:3:0:0:
189,189,37715,2,0,P|223:193|265:203,1,60.0000000000002,8|0,0:0|0:0,0:0:0:0:
319,241,38015,1,8,1:3:0:0:
428,137,38165,6,0,P|368:123|315:171,1,120,4|4,1:2|1:3,0:0:0:0:
236,223,38615,2,0,L|224:147,1,60.0000000000002,4|0,1:3|0:0,0:0:0:0:
167,65,38915,1,8,3:2:0:0:
146,59,38990,1,0,3:0:0:0:
125,58,39065,1,8,3:3:0:0:
104,65,39140,1,8,3:3:0:0:
84,72,39215,2,0,P|54:69|18:60,1,60.0000000000002,0|8,1:0|0:0,0:0:0:0:
122,171,39515,5,4,1:3:0:0:
122,171,39665,2,0,P|124:205|133:244,1,60.0000000000002,4|0,1:3|0:0,0:0:0:0:
224,239,39965,1,4,1:3:0:0:
230,151,40115,2,0,P|254:139|296:140,1,60.0000000000002,8|8,0:0|0:3,0:0:0:0:
343,75,40415,1,4,0:3:0:0:
425,209,40565,6,0,P|363:220|306:226,1,120,0|4,1:0|1:3,0:0:0:0:
252,337,41015,2,0,P|279:326|312:308,1,60.0000000000002,0|8,3:0|0:3,0:0:0:0:
211,185,41315,2,0,P|206:216|191:261,1,60.0000000000002,12|8,0:2|0:3,0:0:0:0:
186,261,41540,1,8,0:3:0:0:
170,275,41615,1,8,0:3:0:0:
150,283,41690,1,4,0:3:0:0:
129,285,41765,1,4,0:3:0:0:
108,279,41840,1,4,0:3:0:0:
90,267,41915,6,0,P|78:297|69:329,2,60.0000000000002,4|4|0,1:3|1:3|0:0,0:0:0:0:
52,192,42365,1,0,1:0:0:0:
99,122,42515,2,0,P|136:114|177:111,1,60.0000000000002,8|0,0:0|0:0,0:0:0:0:
233,149,42815,1,0,1:0:0:0:
325,47,42965,6,0,P|296:99|350:153,1,120,4|0,1:2|1:0,0:0:0:0:
282,220,43415,1,8,0:0:0:0:
366,260,43565,1,0,1:0:0:0:
366,260,43640,1,0,1:0:0:0:
366,260,43715,1,8,0:0:0:0:
214,321,43865,1,6,0:3:0:0:
194,337,44165,6,0,B|256:331|256:331|282:353|282:353|366:344,1,160,4|0,1:2|1:0,0:0:0:0:
290,191,44615,2,0,P|296:229|317:286,1,80,10|0,0:0|0:0,0:0:0:0:
424,302,44915,1,2,1:2:0:0:
347,368,45065,1,4,1:3:0:0:
377,235,45215,1,10,0:0:0:0:
210,181,45365,6,0,P|273:116|340:129,1,160,2|2,1:2|1:2,0:0:0:0:
278,239,45815,2,0,B|283:280|283:280|262:328,1,80,10|0,0:0|0:0,0:0:0:0:
180,349,46115,1,2,1:2:0:0:
322,375,46265,1,4,1:3:0:0:
360,256,46415,1,10,0:0:0:0:
206,267,46565,1,0,0:0:0:0:
289,139,46715,6,0,P|288:179|276:236,1,80,2|2,1:2|3:0,0:0:0:0:
328,325,47015,2,0,B|370:345|370:345|407:331,1,80,10|2,0:0|3:0,0:0:0:0:
512,231,47315,2,0,P|480:207|435:223,1,80,2|6,1:2|1:3,0:0:0:0:
360,256,47615,1,10,0:2:0:0:
226,135,47765,6,0,P|283:128|354:118,1,120,6|0,1:2|0:0,0:0:0:0:
386,135,48065,1,0,1:0:0:0:
451,44,48215,1,12,0:0:0:0:
460,182,48365,1,0,1:0:0:0:
460,182,48440,1,0,1:0:0:0:
460,182,48515,2,0,B|471:221|471:221|442:265,1,80,8|8,0:0|0:0,0:0:0:0:
308,313,48815,1,4,1:3:0:0:
512,357,48965,1,4,1:2:0:0:
306,145,49415,6,0,B|276:143|255:158|255:158|222:138|169:163,1,120,8|0,0:3|3:0,0:0:0:0:
300,222,49865,2,0,P|349:209|377:173,1,90.0000000000002,2|0,3:0|0:0,0:0:0:0:
394,82,50165,6,0,P|407:162|413:288,1,192,6|2,1:2|1:2,0:0:0:0:
508,140,50615,1,10,0:0:0:0:
362,192,50765,1,2,0:0:0:0:
482,44,50915,2,0,P|449:6|323:19,1,176,4|10,0:3|0:0,0:0:0:0:
238,206,51365,6,0,P|225:142|230:112,1,88,2|0,1:2|0:0,0:0:0:0:
148,4,51665,2,0,P|150:47|137:89,1,88,2|8,1:2|0:0,0:0:0:0:
42,203,51965,2,0,P|106:190|136:195,1,88,2|0,1:2|0:0,0:0:0:0:
183,337,52265,1,4,0:3:0:0:
74,299,52415,1,8,0:0:0:0:
312,203,52565,6,0,P|286:130|179:142,1,192,6|2,1:2|1:2,0:0:0:0:
185,312,53015,1,10,0:0:0:0:
238,189,53165,1,2,0:0:0:0:
302,371,53315,2,0,P|298:325|288:275,1,88,4|0,0:3|1:0,0:0:0:0:
175,232,53615,1,10,0:0:0:0:
396,141,53765,6,0,P|314:103|225:84,1,176,6|0,1:2|0:0,0:0:0:0:
131,121,54215,2,0,P|129:51|152:15,1,88,8|2,0:0|0:3,0:0:0:0:
238,0,54515,1,0,1:0:0:0:
238,0,54665,1,6,0:3:0:0:
277,140,54815,2,0,P|336:103|379:105,1,88,10|2,0:0|0:3,0:0:0:0:
473,285,55115,6,0,P|402:304|354:243,1,132,6|0,1:2|0:0,0:0:0:0:
368,226,55415,2,0,L|360:278,1,44,10|0,0:0|0:0,0:0:0:0:
277,140,55565,2,0,L|285:192,1,44,2|0,0:0|0:0,0:0:0:0:
368,54,55715,1,8,1:3:0:0:
368,54,55865,1,4,1:3:0:0:
279,187,56015,1,10,0:0:0:0:
162,1,56165,6,0,B|191:59|191:59|166:187,1,176,6|0,1:2|1:0,0:0:0:0:
0,227,56615,2,0,B|32:186|87:176,1,88,10|0,0:0|0:0,0:0:0:0:
167,322,56915,2,0,B|116:313|79:271,1,88,4|0,0:3|0:0,0:0:0:0:
166,131,57215,2,0,B|183:178|164:231,1,88,10|0,0:0|1:0,0:0:0:0:
243,28,57515,6,0,P|305:1|374:20,1,132,6|0,1:2|0:0,0:0:0:0:
410,50,57815,1,10,0:0:0:0:
355,150,57965,1,2,0:3:0:0:
500,254,58115,1,4,0:3:0:0:
435,159,58265,2,0,P|390:159|336:169,1,88,2|10,1:3|0:0,0:0:0:0:
182,282,58565,6,0,L|285:300,1,88,4|0,1:2|0:0,0:0:0:0:
441,260,58865,2,0,L|341:296,1,88,8|8,0:0|0:0,0:0:0:0:
148,329,59165,2,0,L|241:346,1,96,6|0,1:2|0:0,0:0:0:0:
481,299,59465,2,0,L|390:332,1,96,10|8,0:0|0:3,0:0:0:0:
214,187,59765,6,0,P|242:261|307:220,1,176,6|2,1:2|1:2,0:0:0:0:
278,46,60215,1,10,0:0:0:0:
368,135,60365,1,2,0:0:0:0:
163,109,60515,2,0,B|112:143|112:143|146:203|98:278,1,176,4|10,0:3|0:0,0:0:0:0:
225,374,60965,6,0,P|236:333|239:284,1,88,2|0,1:2|0:0,0:0:0:0:
322,133,61265,2,0,P|333:174|336:222,1,88,2|8,1:2|0:0,0:0:0:0:
198,94,61565,1,2,0:0:0:0:
254,214,61715,1,8,0:3:0:0:
322,133,61865,1,6,0:2:0:0:
176,275,62015,1,8,0:0:0:0:
176,275,62090,1,8,0:0:0:0:
176,275,62165,6,0,P|235:314|338:266,1,176,6|2,1:2|1:2,0:0:0:0:
301,114,62615,1,10,0:0:0:0:
254,214,62765,1,0,0:0:0:0:
99,129,62915,2,0,P|140:123|194:110,1,88,2|0,1:2|1:0,0:0:0:0:
126,25,63215,1,10,0:2:0:0:
55,221,63365,6,0,P|145:208|253:187,1,176,6|0,1:2|0:0,0:0:0:0:
321,330,63815,2,0,P|277:316|232:298,1,88,8|2,0:0|3:0,0:0:0:0:
129,177,64115,2,0,P|123:132|150:87,1,88,0|2,1:0|1:3,0:0:0:0:
263,24,64415,1,10,0:0:0:0:
354,205,64565,1,10,0:3:0:0:
354,205,64640,1,8,3:0:0:0:
354,205,64715,6,0,P|310:161|236:187,1,132,6|0,1:2|0:0,0:0:0:0:
184,234,65015,2,0,L|125:248,1,44,10|0,0:0|0:0,0:0:0:0:
65,130,65165,2,0,L|119:143,1,44,2|0,0:0|0:0,0:0:0:0:
178,23,65315,2,0,P|190:69|194:116,1,88,4|0,1:3|1:3,0:0:0:0:
163,240,65615,1,10,0:0:0:0:
339,143,65765,6,0,P|311:214|246:173,1,176,6|0,1:2|0:0,0:0:0:0:
286,28,66215,1,10,0:0:0:0:
193,109,66365,1,0,0:0:0:0:
317,231,66515,1,2,1:2:0:0:
301,122,66665,1,4,0:3:0:0:
136,201,66815,1,10,0:0:0:0:
219,335,66965,1,0,0:0:0:0:
219,335,67040,1,0,0:0:0:0:
219,335,67115,6,0,B|206:286|236:257|236:257|232:208,1,132,2|0,1:2|0:0,0:0:0:0:
210,169,67415,1,10,0:0:0:0:
295,4,67565,1,2,0:0:0:0:
336,122,67715,1,4,0:3:0:0:
150,89,67865,2,0,L|253:72,1,88,2|8,1:2|0:0,0:0:0:0:
392,32,68165,6,0,B|421:69|421:69|413:127,1,88,2|0,1:2|0:0,0:0:0:0:
367,274,68465,2,0,B|338:237|338:237|346:179,1,88,2|8,1:2|0:0,0:0:0:0:
437,46,68765,2,0,B|466:83|466:83|458:149,1,96,6|0,1:2|0:0,0:0:0:0:
322,301,69065,2,0,B|293:264|293:264|301:198,1,96,2|8,1:2|0:0,0:0:0:0:
248,53,69365,1,8,0:0:0:0:
249,70,69440,1,8,0:0:0:0:
250,87,69515,5,4,1:2:0:0:
80,337,69815,1,10,0:0:0:0:
106,222,69965,1,0,1:0:0:0:
33,346,70115,1,4,0:3:0:0:
167,266,70265,2,0,P|216:275|264:314,1,80,8|8,0:3|0:0,0:0:0:0:
354,154,70565,6,0,P|274:108|192:102,1,160,2|2,1:2|1:2,0:0:0:0:
124,180,71015,2,0,P|170:211|216:213,1,80,10|0,0:0|0:0,0:0:0:0:
122,93,71315,1,2,1:2:0:0:
170,242,71465,2,0,P|225:245|266:224,1,80,4|8,0:3|0:0,0:0:0:0:
401,91,71765,6,0,B|388:139|388:139|399:210|399:210|381:267,1,160,6|0,1:2|1:0,0:0:0:0:
323,318,72215,2,0,L|221:305,1,80,8|2,0:0|0:3,0:0:0:0:
152,299,72515,1,0,1:0:0:0:
152,299,72665,1,2,1:3:0:0:
196,152,72815,2,0,P|212:205|201:247,1,80,10|2,0:0|0:3,0:0:0:0:
71,284,73115,5,6,1:2:0:0:
12,207,73265,2,0,P|67:186|117:198,1,80,8|8,0:3|0:0,0:0:0:0:
152,299,73565,2,0,P|187:317|227:318,1,80,4|0,1:2|0:3,0:0:0:0:
307,213,73865,1,8,0:3:0:0:
328,340,74015,1,8,0:0:0:0:
214,182,74165,6,0,P|264:127|362:133,1,160,4|0,1:2|1:0,0:0:0:0:
403,261,74615,1,10,0:0:0:0:
429,168,74765,1,2,0:0:0:0:
317,260,74915,2,0,P|327:330|326:372,1,80,2|0,1:2|1:0,0:0:0:0:
202,318,75215,2,0,P|203:297|208:275,1,44,10|0,0:0|0:0,0:0:0:0:
276,145,75365,5,4,1:2:0:0:
280,127,75665,1,2,1:2:0:0:
398,80,75815,1,10,0:0:0:0:
310,43,75965,1,4,1:3:0:0:
372,181,76115,1,6,1:2:0:0:
398,80,76265,1,8,0:0:0:0:
274,166,76415,1,10,0:0:0:0:
340,268,76565,1,8,0:0:0:0:
469,126,76715,5,6,1:2:0:0:
469,126,76865,2,0,L|312:110,1,128,4|0,1:3|1:0,0:0:0:0:
287,199,77315,2,0,L|368:189,1,64,12|0,0:0|0:0,0:0:0:0:
388,48,77615,2,0,P|364:37|312:39,1,64,2|0,1:2|0:0,0:0:0:0:
228,132,77915,6,0,P|181:144|138:139,2,64,2|8|2,1:2|0:0|0:0,0:0:0:0:
253,1,78365,1,0,1:0:0:0:
253,1,78440,1,8,0:0:0:0:
253,1,78515,1,10,0:0:0:0:
165,143,78665,2,0,P|158:106|146:66,1,64,8|4,0:3|0:3,0:0:0:0:
237,213,78965,6,0,B|292:229|331:205|331:205|371:228|371:228|415:193|499:209,1,256,6|0,1:2|3:0,0:0:0:0:
150,83,80315,6,0,B|134:119|134:119|136:174,1,80,6|2,1:2|3:2,0:0:0:0:
221,233,80615,1,0,1:0:0:0:
63,267,80765,2,0,P|44:262|23:257,3,40,10|8|8|8,3:2|0:0|0:0|0:0,0:0:0:0:
180,346,81065,1,10,0:2:0:0:
205,356,81140,1,8,0:0:0:0:
232,352,81215,1,8,0:2:0:0:
257,341,81290,1,4,0:3:0:0:
281,327,81365,6,0,P|206:319|105:313,1,160,4|0,1:2|0:0,0:0:0:0:
81,173,81815,1,8,0:0:0:0:
44,267,81965,1,0,1:0:0:0:
230,214,82115,1,4,1:3:0:0:
230,214,82190,1,0,0:0:0:0:
230,214,82265,1,0,1:0:0:0:
128,240,82415,1,8,0:0:0:0:
99,72,82565,6,0,P|140:126|217:94,1,160,4|8,1:2|0:0,0:0:0:0:
243,77,82940,1,8,0:0:0:0:
243,77,83015,1,8,0:0:0:0:
337,213,83165,1,8,0:3:0:0:
337,213,83240,1,8,0:3:0:0:
337,213,83315,1,4,0:3:0:0:
401,103,83465,1,8,0:3:0:0:
227,185,83615,1,4,0:3:0:0:
329,11,83765,1,8,0:3:0:0:
329,11,83840,1,8,0:3:0:0:
329,11,83915,6,0,L|305:141,1,120,4|8,1:2|0:0,0:0:0:0:
198,271,84515,2,0,P|226:260|269:271,1,60.0000000000002,0|4,1:0|1:3,0:0:0:0:
325,311,84815,2,0,L|393:321,1,60.0000000000002,0|0,1:0|0:0,0:0:0:0:
490,219,85115,6,0,L|423:227,1,60.0000000000002,0|0,1:0|0:0,0:0:0:0:
360,179,85415,2,0,B|381:157|381:157|427:151,1,60.0000000000002,0|4,1:0|0:3,0:0:0:0:
492,112,85715,1,4,1:3:0:0:
430,226,85865,1,0,0:0:0:0:
386,83,86015,1,0,1:0:0:0:
350,255,86165,1,0,0:0:0:0:
202,161,86315,6,0,P|239:130|299:140,1,90.0000000000002,0|0,1:0|0:0,0:0:0:0:
317,142,86615,1,12,0:0:0:0:
155,125,86765,2,0,L|183:225,1,90.0000000000002,0|0,1:0|0:0,0:0:0:0:
169,251,87065,2,0,P|130:260|102:275,1,60.0000000000002,12|0,0:0|1:0,0:0:0:0:
160,337,87365,1,0,0:0:0:0:
234,298,87515,6,0,P|298:290|356:280,1,120,4|8,1:3|0:0,0:0:0:0:
464,315,87965,1,4,0:3:0:0:
464,315,88040,1,4,0:3:0:0:
464,315,88115,1,0,1:3:0:0:
373,182,88265,2,0,P|377:163|380:152,2,30.0000000000001,4|0|4,0:3|0:0|1:3,0:0:0:0:
337,363,88565,1,2,3:0:0:0:
337,363,88640,1,2,3:0:0:0:
337,363,88715,6,0,P|249:341|217:342,1,102,4|0,1:2|0:0,0:0:0:0:
205,312,89015,2,0,P|159:322|135:319,1,68.0000000000002,0|0,1:0|0:0,0:0:0:0:
93,218,89315,1,0,1:0:0:0:
160,172,89465,1,0,0:0:0:0:
117,301,89615,1,4,0:3:0:0:
33,177,89765,6,0,L|27:130,2,34.0000000000001,0|0|0,1:0|0:0|1:0,0:0:0:0:
117,301,90065,1,4,0:3:0:0:
234,252,90215,2,0,L|148:238,1,68.0000000000002,0|4,0:0|0:3,0:0:0:0:
107,317,90515,1,8,0:3:0:0:
76,219,90665,1,8,0:0:0:0:
197,154,90815,1,8,0:0:0:0:
160,230,90965,1,4,0:3:0:0:
136,95,91115,5,8,0:0:0:0:
136,95,91190,1,8,0:0:0:0:
136,95,91265,2,0,L|126:153,3,34.0000000000001,0|0|0|0,1:0|1:0|1:0|1:0,0:0:0:0:
79,224,91565,1,8,0:0:0:0:
79,224,91640,1,8,0:0:0:0:
79,224,91715,2,0,L|86:285,3,34.0000000000001,0|0|0|0,1:0|1:0|1:0|1:0,0:0:0:0:
152,353,92015,5,8,0:0:0:0:
152,353,92090,1,8,0:0:0:0:
152,353,92165,2,0,L|159:292,3,34.0000000000001,0|0|0|0,1:0|1:0|1:3|1:3,0:0:0:0:
204,222,92465,1,8,0:3:0:0:
226,215,92540,1,8,0:3:0:0:
250,216,92615,1,4,0:3:0:0:
272,224,92690,1,4,0:3:0:0:
291,239,92765,1,4,0:3:0:0:
304,258,92840,1,4,0:3:0:0:
311,281,92915,1,0,1:0:0:0:
155,319,93065,1,4,1:0:0:0:
484,70,93365,6,0,B|406:36|396:95|318:62,1,160,4|0,1:2|1:0,0:0:0:0:
180,148,93815,2,0,P|231:131|273:131,1,80,8|0,0:0|0:0,0:0:0:0:
329,262,94115,1,0,1:0:0:0:
237,212,94265,1,4,0:3:0:0:
328,162,94415,1,8,0:0:0:0:
237,324,94565,6,0,B|213:326|194:326|194:326|164:315|130:314|130:314|105:331|79:338,1,160,0|0,1:0|1:0,0:0:0:0:
2,286,95015,1,8,0:0:0:0:
101,185,95165,2,0,B|111:149|111:149|103:135|103:135|102:80,2,80,0|0|0,1:0|1:0|0:0,0:0:0:0:
26,261,95615,1,8,0:0:0:0:
128,277,95765,2,0,P|150:274|188:261,1,40,0|0,1:0|1:0,0:0:0:0:
257,186,95915,5,8,0:0:0:0:
275,179,95990,1,0,3:1:0:0:
295,178,96065,1,0,1:1:0:0:
314,183,96140,1,0,3:1:0:0:
332,192,96215,1,8,0:0:0:0:
351,200,96290,1,0,0:0:0:0:
371,201,96365,1,0,1:0:0:0:
390,196,96440,1,0,1:0:0:0:
408,187,96515,1,8,0:0:0:0:
443,30,96665,2,0,P|421:38|401:50,1,40,0|0,1:0|1:0,0:0:0:0:
364,121,96815,1,8,1:3:0:0:
464,289,96965,6,0,P|423:250|340:263,1,120,4|0,1:2|0:0,0:0:0:0:
303,308,97265,1,4,1:3:0:0:
303,308,97340,1,4,1:3:0:0:
303,308,97415,2,0,P|261:302|242:289,3,40,4|4|4|4,1:3|1:3|1:3|1:3,0:0:0:0:
202,226,97715,2,0,P|182:225|162:230,3,40,8|8|8|8,0:3|0:3|0:3|0:3,0:0:0:0:
86,154,98015,1,8,0:3:0:0:
90,121,98090,1,8,0:3:0:0:
94,88,98165,6,0,B|160:40|177:117|259:69|259:69|272:105|240:138,1,240,4|2,1:2|0:0,0:0:0:0:
250,321,99365,6,0,B|240:277|253:247|253:247|235:218|235:218|249:180|207:139,1,176,6|2,1:2|1:2,0:0:0:0:
393,94,99815,1,10,0:0:0:0:
264,25,99965,1,2,0:0:0:0:
324,197,100115,2,0,B|374:231|434:197|434:197|468:248,1,176,4|10,0:3|0:0,0:0:0:0:
303,375,100565,6,0,L|324:286,1,88,2|0,1:2|0:0,0:0:0:0:
257,143,100865,2,0,P|290:115|333:112,1,88,2|8,1:2|0:0,0:0:0:0:
250,253,101165,1,2,1:2:0:0:
413,180,101315,1,0,0:0:0:0:
257,143,101465,1,4,0:3:0:0:
411,14,101615,1,8,0:0:0:0:
411,14,101690,1,0,0:0:0:0:
411,14,101765,6,0,L|441:202,1,176,6|2,1:2|1:2,0:0:0:0:
322,330,102215,1,10,0:0:0:0:
354,217,102365,1,2,0:0:0:0:
201,133,102515,2,0,P|217:176|191:225,1,88,4|0,0:3|1:0,0:0:0:0:
118,294,102815,1,10,0:0:0:0:
95,66,102965,6,0,B|150:70|202:47|202:47|269:67,1,176,6|0,1:2|0:0,0:0:0:0:
432,158,103415,2,0,P|390:156|358:192,1,88,8|2,0:0|0:3,0:0:0:0:
298,352,103715,2,0,L|278:257,1,88,0|6,1:0|0:3,0:0:0:0:
313,121,104015,1,10,0:0:0:0:
139,198,104165,1,2,0:3:0:0:
139,198,104240,1,2,3:0:0:0:
139,198,104315,6,0,P|123:263|173:306,1,132,6|0,1:2|0:0,0:0:0:0:
266,330,104615,2,0,P|286:325|323:322,1,44,10|0,0:0|0:0,0:0:0:0:
374,212,104765,2,0,L|311:198,1,40,2|0,0:0|0:0,0:0:0:0:
222,143,104915,6,0,B|211:98|211:98|229:43,1,88,8|4,1:3|1:3,0:0:0:0:
139,198,105215,1,10,0:0:0:0:
298,99,105365,6,0,P|386:90|475:79,1,176,6|0,1:2|1:0,0:0:0:0:
512,211,105815,2,0,P|473:200|415:181,1,88,10|0,0:0|0:0,0:0:0:0:
295,15,106115,2,0,B|282:77|282:77|262:105|262:105|246:188,1,176,4|10,0:3|0:0,0:0:0:0:
163,310,106565,1,0,1:0:0:0:
163,310,106640,1,0,1:0:0:0:
163,310,106715,6,0,P|205:271|279:303,1,132,6|0,1:2|0:0,0:0:0:0:
298,313,107015,1,10,0:0:0:0:
358,154,107165,1,2,0:3:0:0:
405,261,107315,1,4,0:3:0:0:
198,185,107465,2,0,B|241:192|241:192|291:175,1,88,2|10,1:3|0:0,0:0:0:0:
234,19,107765,6,0,P|234:62|221:110,1,88,4|0,1:2|0:0,0:0:0:0:
118,243,108065,2,0,P|118:200|131:149,1,88,8|8,0:0|0:0,0:0:0:0:
280,16,108365,2,0,P|280:59|259:107,1,96,10|8,1:2|0:0,0:0:0:0:
275,130,108590,1,8,0:0:0:0:
299,144,108665,1,10,0:0:0:0:
326,144,108740,1,8,0:0:0:0:
353,137,108815,2,0,P|370:141|402:144,1,44,8|4,0:3|0:3,0:0:0:0:
491,240,108965,6,0,P|427:308|334:271,1,192,6|2,1:2|1:2,0:0:0:0:
421,144,109415,1,10,0:0:0:0:
512,279,109565,1,2,0:0:0:0:
341,189,109715,2,0,P|323:110|325:13,1,176,4|10,0:3|0:0,0:0:0:0:
210,189,110165,6,0,P|147:203|117:196,1,88,2|0,1:2|0:0,0:0:0:0:
19,298,110465,2,0,P|62:295|104:309,1,88,2|8,1:2|0:0,0:0:0:0:
226,384,110765,2,0,P|214:322|225:290,1,88,2|8,0:0|0:3,0:0:0:0:
373,239,111065,1,6,0:2:0:0:
312,336,111215,1,8,0:0:0:0:
509,195,111365,6,0,P|508:117|489:-5,1,192,6|2,1:2|1:2,0:0:0:0:
347,92,111815,1,10,0:0:0:0:
482,169,111965,1,0,0:0:0:0:
306,220,112115,2,0,P|350:211|383:183,1,88,2|0,1:2|1:0,0:0:0:0:
365,50,112415,1,10,0:2:0:0:
178,159,112565,6,0,P|268:163|298:252,1,176,6|0,1:2|0:0,0:0:0:0:
228,360,113015,2,0,L|139:347,1,88,8|2,0:0|3:0,0:0:0:0:
104,243,113315,1,0,1:0:0:0:
104,243,113465,1,2,1:3:0:0:
267,150,113615,2,0,P|227:130|175:136,1,88,10|10,0:0|0:3,0:0:0:0:
262,313,113915,6,0,P|324:318|410:262,1,132,6|0,1:2|0:0,0:0:0:0:
381,245,114215,2,0,P|382:269|389:305,1,44,10|0,0:0|0:0,0:0:0:0:
468,149,114365,2,0,P|467:173|460:209,1,44,2|0,0:0|0:0,0:0:0:0:
377,63,114515,1,4,1:3:0:0:
377,63,114665,1,0,1:3:0:0:
468,196,114815,1,10,0:0:0:0:
279,58,114965,6,0,B|238:41|193:39|193:39|153:63|112:105,1,176,6|0,1:2|0:0,0:0:0:0:
169,274,115415,2,0,B|200:232|195:176,1,88,10|8,0:0|0:3,0:0:0:0:
34,136,115715,2,0,B|55:182|106:207,1,88,2|4,1:2|0:3,0:0:0:0:
219,87,116015,2,0,B|169:82|122:114,1,88,10|0,0:0|1:0,0:0:0:0:
221,290,116315,6,0,P|289:300|349:258,1,132,2|0,1:2|0:0,0:0:0:0:
374,222,116615,1,10,0:0:0:0:
295,143,116765,1,2,0:0:0:0:
457,56,116915,1,4,0:3:0:0:
381,141,117065,2,0,P|337:138|287:123,1,88,2|8,1:2|0:0,0:0:0:0:
84,82,117365,6,0,L|187:64,1,88,2|0,1:2|0:0,0:0:0:0:
341,104,117665,2,0,L|241:68,1,88,2|8,1:2|0:0,0:0:0:0:
48,35,117965,2,0,L|141:18,1,96,6|0,1:2|0:0,0:0:0:0:
304,167,118265,1,2,1:2:0:0:
308,190,118340,1,0,1:0:0:0:
306,214,118415,1,8,0:0:0:0:
295,235,118490,1,8,0:0:0:0:
283,255,118565,1,8,0:3:0:0:
279,279,118640,1,4,0:3:0:0:
284,302,118715,5,4,1:2:0:0:
84,134,119015,1,10,0:0:0:0:
220,37,119165,1,2,0:0:0:0:
70,111,119315,1,2,1:2:0:0:
185,236,119465,2,0,L|168:149,1,80,4|8,0:3|0:0,0:0:0:0:
372,73,119765,6,0,P|319:120|302:44,1,160,2|2,1:2|1:2,0:0:0:0:
245,173,120215,1,10,0:0:0:0:
186,50,120365,1,0,0:0:0:0:
170,200,120515,1,2,1:2:0:0:
27,142,120665,2,0,P|68:137|117:126,1,80,2|8,1:2|0:0,0:0:0:0:
301,224,120965,6,0,P|260:181|159:213,1,160,6|0,1:2|1:0,0:0:0:0:
79,266,121415,1,8,0:0:0:0:
71,103,121565,1,2,0:3:0:0:
71,103,121640,1,2,3:0:0:0:
71,103,121715,2,0,L|51:195,1,80,0|2,1:0|1:3,0:0:0:0:
155,278,122015,2,0,B|186:307|186:307|209:298|239:305,1,80,10|2,0:0|0:3,0:0:0:0:
106,350,122315,5,2,1:2:0:0:
221,215,122465,2,0,L|196:117,1,80,2|0,1:2|0:0,0:0:0:0:
329,222,122765,1,2,1:2:0:0:
298,86,122915,1,0,0:0:0:0:
221,215,123065,2,0,P|183:225|143:197,1,80,2|8,1:2|0:0,0:0:0:0:
0,98,123365,6,0,L|158:78,1,160,4|0,1:2|1:0,0:0:0:0:
252,17,123815,1,10,0:0:0:0:
330,111,123965,1,8,0:3:0:0:
330,111,124040,1,8,0:3:0:0:
330,111,124115,2,0,P|363:90|416:108,1,80,4|0,0:3|1:0,0:0:0:0:
469,187,124415,2,0,L|466:244,1,44,10|0,0:0|0:0,0:0:0:0:
401,364,124565,5,4,1:2:0:0:
416,346,124865,1,2,1:2:0:0:
360,186,125015,1,10,0:0:0:0:
276,336,125165,2,0,L|265:379,3,40,10|8|10|8,1:2|1:2|0:0|0:0,0:0:0:0:
223,251,125465,1,8,0:0:0:0:
207,238,125540,1,8,0:0:0:0:
188,231,125615,1,8,0:3:0:0:
168,227,125690,1,8,0:3:0:0:
147,228,125765,1,4,0:3:0:0:
128,233,125840,1,4,0:3:0:0:
112,241,125915,5,4,1:2:0:0:
35,177,126065,2,0,L|55:49,1,128,4|0,1:3|1:0,0:0:0:0:
168,108,126515,2,0,P|199:105|254:91,1,64,8|0,0:0|0:0,0:0:0:0:
304,40,126815,1,2,1:2:0:0:
349,132,126965,1,2,1:2:0:0:
197,64,127115,6,0,L|210:127,1,64,4|8,1:3|0:0,0:0:0:0:
252,231,127415,2,0,B|275:251|275:251|297:242|335:242,1,64,2|0,0:0|1:0,0:0:0:0:
324,126,127715,1,8,0:3:0:0:
382,267,127865,1,8,0:0:0:0:
420,99,128015,1,4,0:3:0:0:
280,247,128165,6,0,B|225:263|186:239|186:239|146:262|146:262|102:227|18:243,1,256,4|0,1:2|0:0,0:0:0:0:
105,132,129515,5,12,0:0:0:0:
214,242,129665,2,0,P|217:259|220:282,2,40,0|0|8,1:0|1:0|0:0,0:0:0:0:
250,93,129965,2,0,P|253:75|256:53,2,40,0|0|8,1:0|1:0|0:0,0:0:0:0:
333,196,130265,1,8,0:3:0:0:
354,201,130340,1,8,0:3:0:0:
375,198,130415,1,4,0:3:0:0:
394,188,130490,1,4,0:3:0:0:
408,171,130565,6,0,P|393:250|460:298,1,160,4|0,1:2|1:0,0:0:0:0:
335,350,131015,2,0,P|295:348|259:331,1,80,8|0,0:0|1:0,0:0:0:0:
221,174,131315,1,8,0:0:0:0:
177,295,131465,1,0,1:0:0:0:
303,219,131615,1,8,0:0:0:0:
92,266,131765,6,0,P|66:164|78:81,1,160,4|0,1:2|1:0,0:0:0:0:
206,27,132215,2,0,P|207:86|192:118,1,80,12|0,0:0|1:0,0:0:0:0:
119,194,132515,1,0,1:0:0:0:
268,147,132665,1,8,0:0:0:0:
295,153,132740,1,8,0:0:0:0:
321,159,132815,1,0,1:0:0:0:
416,280,132965,1,8,0:0:0:0:
389,286,133040,1,8,0:0:0:0:
361,292,133115,6,0,L|274:273,1,80,4|0,1:2|0:0,0:0:0:0:
116,243,133415,1,8,0:0:0:0:
210,169,133565,1,0,1:0:0:0:
84,270,133715,2,0,P|89:313|98:352,1,80,8|0,0:0|1:0,0:0:0:0:
28,136,134015,2,0,P|15:186|10:234,1,96,8|0,0:0|0:0,0:0:0:0:
170,300,134315,5,12,0:0:0:0:
170,300,134465,1,0,1:0:0:0:
319,231,134615,1,8,0:0:0:0:
206,190,134765,1,0,1:0:0:0:
361,245,134915,2,0,P|390:213|414:181,1,80,8|0,0:0|1:0,0:0:0:0:
330,32,135215,2,0,P|326:55|323:79,1,48,8|0,0:0|0:0,0:0:0:0:
248,206,135365,6,0,P|235:120|213:47,1,160,4|0,1:2|1:0,0:0:0:0:
112,192,135815,1,8,0:0:0:0:
203,269,135965,1,0,1:0:0:0:
78,163,136115,2,0,P|35:168|-4:177,1,80,8|0,0:0|1:0,0:0:0:0:
190,63,136415,2,0,P|124:47|78:46,1,96,12|0,0:0|0:0,0:0:0:0:
216,153,136715,5,8,0:0:0:0:
216,153,136865,1,0,1:0:0:0:
379,139,137015,1,8,0:0:0:0:
283,66,137165,1,0,1:0:0:0:
411,166,137315,2,0,P|406:209|397:248,1,80,8|4,0:3|0:3,0:0:0:0:
254,384,137615,2,0,P|248:360|247:336,1,48,8|0,0:0|0:0,0:0:0:0:
318,216,137765,6,0,P|259:284|171:262,1,160,4|0,1:2|1:0,0:0:0:0:
133,126,138215,1,8,0:0:0:0:
230,195,138365,1,0,1:0:0:0:
96,99,138515,2,0,P|53:109|16:126,1,80,8|0,0:0|1:0,0:0:0:0:
216,28,138815,2,0,P|165:12|110:10,1,96,8|0,0:0|0:0,0:0:0:0:
195,155,139115,5,12,0:0:0:0:
195,155,139265,1,0,1:0:0:0:
347,204,139415,1,8,0:0:0:0:
254,280,139565,1,0,1:0:0:0:
384,173,139715,2,0,P|424:184|462:200,1,80,8|0,0:0|0:0,0:0:0:0:
492,369,140015,2,0,P|468:368|441:365,1,48,8|0,0:0|0:0,0:0:0:0:
308,327,140165,6,0,P|358:263|326:182,1,160,4|0,1:2|1:0,0:0:0:0:
178,183,140615,1,8,0:0:0:0:
279,249,140765,1,0,1:0:0:0:
135,156,140915,2,0,P|95:160|47:173,1,80,8|0,0:0|1:0,0:0:0:0:
116,274,141215,1,8,0:0:0:0:
244,112,141365,6,0,P|236:157|233:205,1,80,4|0,1:2|1:0,0:0:0:0:
187,359,141665,2,0,P|175:315|167:268,1,80,8|0,0:0|1:0,0:0:0:0:
104,136,141965,1,0,1:0:0:0:
104,136,142040,1,0,1:0:0:0:
104,136,142115,2,0,P|123:138|144:144,3,40,8|0|0|0,1:3|0:0|1:0|1:0,0:0:0:0:
218,227,142415,2,0,P|142:207|168:281,1,192,12|2,1:2|0:0,0:0:0:0:
247,303,142865,5,0,3:0:0:0:
190,360,143015,1,0,3:0:0:0:
112,341,143165,1,0,3:0:0:0:
247,303,143315,1,0,3:0:0:0:
190,360,143465,1,2,3:0:0:0:
382,265,143765,5,0,3:0:0:0:
325,322,143915,1,0,3:0:0:0:
247,303,144065,1,0,3:0:0:0:
382,265,144215,1,2,3:0:0:0:
325,322,144365,1,0,3:0:0:0:
