osu file format v14

[General]
AudioFilename: audio.ogg
AudioLeadIn: 0
PreviewTime: 49265
Countdown: 0
SampleSet: Soft
StackLeniency: 0.9
Mode: 0
LetterboxInBreaks: 0
WidescreenStoryboard: 1

[Editor]
Bookmarks: 15515
DistanceSpacing: 1
BeatDivisor: 2
GridSize: 32
TimelineZoom: 1.2

[Metadata]
Title:Melody in the Dark
TitleUnicode:Melody in the Dark
Artist:UNDEAD
ArtistUnicode:UNDEAD
Creator:kakifly
Version:Mayu's Normal
Source:あんさんぶるスターズ!!
Tags:enstars es ensemble stars あんさんぶるスターズ! あんさんぶるスターズ あんスタ jpop j-pop male vocal rock idol rei sakuma 朔間 零 kaoru hakaze 羽風 薫 koga oogami 大神 晃牙 adonis otogari 乙狩 アドニス toshiki masuda 増田 俊樹 kei hosogai 細貝 圭 yuki ono 小野 友樹 wataru hatano 羽多野 渉 japanese video game videogame a mystery amystery setz setz206 shikibe mayu ryuusei aika ryuuseiaika shizuku kazato asa kowari arte refact mel jrock j-rock poprock pop-rock
BeatmapID:3386914
BeatmapSetID:1620141

[Difficulty]
HPDrainRate:3
CircleSize:3.2
OverallDifficulty:4
ApproachRate:5
SliderMultiplier:1
SliderTickRate:1

[Events]
//Background and Video events
0,0,"adonis.jpg",0,0
//Break Periods
2,15415,16145
2,84115,91595
//Storyboard Layer 0 (Background)
//Storyboard Layer 1 (Fail)
//Storyboard Layer 2 (Pass)
//Storyboard Layer 3 (Foreground)
//Storyboard Layer 4 (Overlay)
//Storyboard Sound Samples

[TimingPoints]
1125,300,4,2,1,60,1,0
1125,-111.111111111111,4,2,1,60,0,0
1725,-111.111111111111,4,2,1,60,0,0
5625,-111.111111111111,4,2,1,60,0,0
5915,300,4,2,1,80,1,0
15215,-100,4,2,1,60,0,0
17465,-100,4,2,1,60,0,0
18515,-100,4,2,1,60,0,0
22115,-100,4,2,1,60,0,0
27965,-100,4,2,1,60,0,0
37115,-100,4,2,1,60,0,0
37265,-111.111111111111,4,2,1,60,0,0
44165,-100,4,2,1,75,0,0
48515,-100,4,2,1,75,0,0
50165,-90.9090909090909,4,2,1,85,0,1
59615,-90.9090909090909,4,2,1,85,0,0
59765,-90.9090909090909,4,2,1,85,0,1
69515,-90.9090909090909,4,2,1,85,0,0
69815,-100,4,2,1,85,0,0
83915,-100,4,2,1,80,0,0
99365,-90.9090909090909,4,2,1,80,0,1
108815,-90.9090909090909,4,2,1,80,0,0
108965,-90.9090909090909,4,2,1,80,0,1
118715,-90.9090909090909,4,2,1,80,0,0
119015,-100,4,2,1,80,0,0
130565,-100,4,2,1,80,0,0
137615,-100,4,2,1,80,0,0

[Colours]
Combo1 : 176,116,205
Combo2 : 105,65,188
Combo3 : 226,190,82
Combo4 : 176,174,164

[HitObjects]
380,373,1125,6,0,P|427:374|471:356,2,90.0000000000001,0|0|2,3:0|3:0|3:0,0:0:0:0:
302,338,2025,1,0,3:0:0:0:
302,338,2175,2,0,P|310:291|321:245,1,90.0000000000001,2|0,3:0|3:0,0:0:0:0:
386,189,2775,2,0,P|396:119|341:52,1,135,0|0,3:0|3:0,0:0:0:0:
280,31,3525,6,0,P|232:40|179:49,1,90.0000000000001,0|0,3:0|3:0,0:0:0:0:
104,21,4125,1,2,3:0:0:0:
44,88,4425,1,0,3:0:0:0:
44,88,4575,2,0,P|24:154|38:195,1,90.0000000000001,0|2,3:0|3:0,0:0:0:0:
57,258,5175,2,0,P|122:258|183:293,1,135,0|2,3:0|3:0,0:0:0:0:
250,359,5915,6,0,L|349:339,1,100,4|10,1:2|0:0,0:0:0:0:
397,329,6365,1,2,0:0:0:0:
397,329,6515,1,2,1:2:0:0:
485,283,6815,2,0,P|499:235|492:186,1,100,8|0,0:0|1:0,0:0:0:0:
426,111,7415,2,0,L|378:121,2,50,10|2|0,0:0|0:0|1:3,0:0:0:0:
435,15,8015,5,8,0:0:0:0:
435,15,8165,2,0,L|336:35,1,100,4|0,1:2|1:0,0:0:0:0:
298,3,8615,1,10,0:0:0:0:
258,94,8915,1,2,1:2:0:0:
313,183,9215,1,8,0:0:0:0:
313,183,9365,2,0,P|332:260|320:307,1,100,0|4,0:0|1:3,0:0:0:0:
308,325,9815,1,10,0:0:0:0:
210,303,10115,1,2,1:2:0:0:
133,367,10415,5,8,0:0:0:0:
133,367,10565,2,0,P|68:361|29:305,1,100,4|0,1:2|0:0,0:0:0:0:
27,291,11015,1,10,0:0:0:0:
43,192,11315,2,0,P|63:187|92:182,1,50,2|4,1:2|1:3,0:0:0:0:
132,152,11615,2,0,P|181:163|233:175,1,100,10|0,0:0|1:0,0:0:0:0:
287,255,12215,1,14,0:0:0:0:
375,301,12515,1,2,1:2:0:0:
474,273,12815,5,10,0:0:0:0:
474,273,12965,2,0,P|493:215|480:171,1,100,6|0,1:2|1:0,0:0:0:0:
451,140,13415,1,10,0:0:0:0:
463,40,13715,2,0,P|487:35|514:29,2,50,10|0|8,0:0|1:0|0:0,0:0:0:0:
417,17,14165,1,6,1:2:0:0:
327,60,14465,2,0,P|316:108|308:158,1,100,10|4,0:0|1:3,0:0:0:0:
297,207,14915,2,0,P|265:212|244:217,2,50,10|8|14,0:0|0:0|1:2,0:0:0:0:
41,378,17465,5,8,0:0:0:0:
41,378,17615,2,0,P|37:345|30:317,1,50,8|8,0:0|0:0,0:0:0:0:
16,281,17915,5,4,1:2:0:0:
16,281,18065,2,0,P|68:276|109:253,1,100,0|0,1:0|1:0,0:0:0:0:
135,210,18515,1,10,0:0:0:0:
241,230,18815,1,2,1:2:0:0:
241,230,18965,2,0,P|256:308|266:386,1,150,2|10,1:2|0:0,0:0:0:0:
357,338,19715,2,0,P|361:310|368:282,2,50,2|2|8,1:2|1:2|0:0,0:0:0:0:
452,367,20315,5,2,1:2:0:0:
452,367,20465,2,0,P|467:297|470:219,1,150,0|10,1:0|0:0,0:0:0:0:
502,126,21215,1,2,1:2:0:0:
502,126,21365,2,0,P|444:173|359:138,1,150,2|2,1:2|1:2,0:0:0:0:
342,119,21965,1,2,1:2:0:0:
342,119,22115,1,12,0:0:0:0:
285,257,22565,6,0,P|216:269|137:291,1,150,6|2,1:2|1:2,0:0:0:0:
53,342,23315,1,10,0:0:0:0:
7,259,23615,1,2,1:2:0:0:
7,259,23765,2,0,P|-10:185|7:147,1,100,6|0,1:2|0:0,0:0:0:0:
16,118,24215,2,0,P|9:70|-6:-1,2,100,8|8|0,0:3|0:0|3:0,0:0:0:0:
103,68,25115,5,2,1:2:0:0:
103,68,25265,2,0,B|134:85|134:85|197:73,1,100,0|0,0:0|1:0,0:0:0:0:
247,66,25715,1,10,0:0:0:0:
220,165,26015,1,4,0:3:0:0:
220,165,26165,2,0,P|234:220|242:266,1,100,4|0,1:2|1:2,0:0:0:0:
262,313,26615,1,12,0:0:0:0:
262,313,26765,1,0,0:0:0:0:
340,374,27065,2,0,P|384:344|435:356,1,100,8|4,0:3|1:3,0:0:0:0:
471,375,27515,6,0,P|482:325|494:274,1,100,4|10,1:2|0:0,0:0:0:0:
501,228,27965,1,2,0:0:0:0:
501,228,28115,1,2,1:2:0:0:
441,147,28415,1,10,0:0:0:0:
441,147,28565,2,0,P|390:175|336:167,1,100,2|0,1:2|1:0,0:0:0:0:
307,144,29015,1,10,0:0:0:0:
246,223,29315,2,0,P|251:248|256:278,2,50,2|4|8,1:2|1:3|0:0,0:0:0:0:
153,183,29915,6,0,B|105:206|105:206|54:201,1,100,4|10,1:2|0:0,0:0:0:0:
12,182,30365,1,2,0:0:0:0:
12,182,30515,2,0,P|20:136|31:78,1,100,2|10,1:2|0:0,0:0:0:0:
12,36,30965,2,0,P|85:11|148:65,1,150,6|10,1:2|0:0,0:0:0:0:
233,11,31715,1,8,0:0:0:0:
233,11,31865,1,4,1:2:0:0:
295,88,32165,6,0,P|276:153|257:239,1,150,2|10,1:2|0:0,0:0:0:0:
195,311,32915,1,2,1:2:0:0:
266,380,33215,1,10,0:0:0:0:
266,380,33365,2,0,P|331:345|377:356,1,100,6|2,1:2|1:2,0:0:0:0:
399,368,33815,1,8,0:0:0:0:
459,288,34115,2,0,P|489:282|511:277,2,50,8|4|10,0:3|0:3|0:0,0:0:0:0:
441,189,34715,5,2,1:2:0:0:
356,134,35015,1,14,0:0:0:0:
259,161,35315,1,8,1:3:0:0:
213,250,35615,1,10,0:0:0:0:
213,250,35765,2,0,P|137:270|98:254,1,100,6|2,1:2|1:2,0:0:0:0:
55,186,36365,1,2,1:2:0:0:
97,95,36665,2,0,P|173:75|212:91,1,100,4|4,1:3|0:3,0:0:0:0:
233,52,37115,5,4,1:3:0:0:
233,52,37265,2,0,P|241:115|252:190,1,135,4|8,1:3|0:0,0:0:0:0:
170,240,38015,1,8,1:3:0:0:
170,240,38165,2,0,P|151:278|160:339,1,90.0000000000001,4|4,1:2|1:3,0:0:0:0:
238,384,38765,1,0,0:0:0:0:
238,384,38915,1,8,3:2:0:0:
332,356,39215,1,0,1:0:0:0:
428,379,39515,5,4,1:3:0:0:
428,379,39665,2,0,L|441:290,1,90.0000000000001,4|4,1:3|1:3,0:0:0:0:
473,253,40115,2,0,B|485:212|485:212|465:156,1,90.0000000000001,8|4,0:0|0:3,0:0:0:0:
453,120,40565,1,0,1:0:0:0:
358,150,40865,1,4,1:3:0:0:
358,150,41015,2,0,P|313:141|263:132,2,90.0000000000001,0|12|8,3:0|0:2|0:3,0:0:0:0:
342,248,41915,5,4,1:3:0:0:
342,248,42065,2,0,P|297:252|263:281,1,90.0000000000001,4|0,1:3|1:0,0:0:0:0:
235,320,42515,1,8,0:0:0:0:
140,290,42815,1,0,1:0:0:0:
140,290,42965,2,0,P|129:228|116:155,1,135,4|8,1:2|0:0,0:0:0:0:
184,85,43715,1,8,0:0:0:0:
184,85,43865,1,6,0:3:0:0:
122,6,44165,6,0,P|56:6|16:43,1,100,4|0,1:2|1:0,0:0:0:0:
7,69,44615,1,10,0:0:0:0:
19,168,44915,1,2,1:2:0:0:
115,209,45215,1,10,0:0:0:0:
115,209,45365,2,0,P|186:188|213:182,1,100,2|2,1:2|1:2,0:0:0:0:
259,196,45815,1,10,0:0:0:0:
275,97,46115,2,0,P|327:83|374:68,1,100,2|10,1:2|0:0,0:0:0:0:
454,13,46715,5,2,1:2:0:0:
505,98,47015,1,10,0:0:0:0:
482,195,47315,1,2,1:2:0:0:
409,263,47615,1,10,0:2:0:0:
409,263,47765,2,0,P|348:222|266:240,1,150,6|12,1:2|0:0,0:0:0:0:
233,142,48515,2,0,P|241:111|247:80,1,50,8|8,0:0|0:0,0:0:0:0:
225,52,48815,1,4,1:3:0:0:
225,52,48965,2,0,P|164:64|72:81,1,150,4|8,1:2|0:3,0:0:0:0:
1,344,50165,6,0,P|61:354|117:325,1,110,6|2,1:2|1:2,0:0:0:0:
139,292,50615,2,0,P|133:261|122:217,2,55,10|2|4,0:0|0:0|0:3,0:0:0:0:
226,367,51215,1,10,0:0:0:0:
226,367,51365,2,0,P|290:350|318:288,1,110,2|2,1:2|1:2,0:0:0:0:
329,263,51815,1,8,0:0:0:0:
329,263,51965,1,2,1:2:0:0:
260,177,52265,2,0,P|265:144|269:113,1,55,4|8,0:3|0:0,0:0:0:0:
234,78,52565,6,0,P|288:64|342:51,1,110,6|2,1:2|1:2,0:0:0:0:
395,54,53015,2,0,P|401:24|406:-4,2,55,10|2|4,0:0|0:0|0:3,0:0:0:0:
492,110,53615,1,10,0:0:0:0:
492,110,53765,2,0,P|492:176|425:244,1,165,6|8,1:2|0:0,0:0:0:0:
319,214,54515,2,0,P|287:221|255:230,2,55,0|6|10,1:0|0:3|0:0,0:0:0:0:
381,123,55115,6,0,P|385:67|353:20,1,110,6|10,1:2|0:0,0:0:0:0:
305,1,55565,1,2,0:0:0:0:
205,47,55865,2,0,P|172:41|146:36,1,55,4|10,1:3|0:0,0:0:0:0:
102,10,56165,2,0,P|52:21|13:70,1,110,6|0,1:2|1:0,0:0:0:0:
1,117,56615,1,10,0:0:0:0:
27,223,56915,1,4,0:3:0:0:
133,251,57215,1,10,0:0:0:0:
234,207,57515,6,0,P|245:157|259:99,1,110,6|10,1:2|0:0,0:0:0:0:
250,50,57965,1,2,0:3:0:0:
250,50,58115,2,0,P|280:40|305:33,1,55,4|2,0:3|1:3,0:0:0:0:
409,7,58565,2,0,P|461:20|493:73,1,110,4|8,1:2|0:0,0:0:0:0:
492,119,59015,1,8,0:0:0:0:
492,119,59165,2,0,P|437:127|382:140,1,110,6|10,1:2|0:0,0:0:0:0:
336,168,59615,5,8,0:3:0:0:
336,168,59765,2,0,P|326:221|315:278,1,110,6|2,1:2|1:2,0:0:0:0:
270,309,60215,2,0,P|242:316|216:324,2,55,10|2|4,0:0|0:0|0:3,0:0:0:0:
364,365,60815,1,10,0:0:0:0:
364,365,60965,2,0,P|414:342|470:351,1,110,2|2,1:2|1:2,0:0:0:0:
501,306,61415,1,8,0:0:0:0:
501,306,61565,1,2,0:0:0:0:
454,206,61865,2,0,P|419:215|389:220,1,55,6|8,0:2|0:0,0:0:0:0:
347,203,62165,6,0,P|357:142|336:96,1,110,6|2,1:2|1:2,0:0:0:0:
308,52,62615,2,0,P|314:24|322:-2,2,55,10|0|2,0:0|0:0|1:2,0:0:0:0:
210,97,63215,1,10,0:2:0:0:
210,97,63365,2,0,P|225:149|235:205,1,110,6|0,1:2|0:0,0:0:0:0:
244,258,63815,1,8,0:0:0:0:
338,313,64115,2,0,P|365:304|395:297,2,55,0|2|10,1:0|1:3|0:0,0:0:0:0:
266,383,64715,6,0,P|211:358|157:369,1,110,6|10,1:2|0:0,0:0:0:0:
113,380,65165,1,2,0:0:0:0:
113,380,65315,1,4,1:3:0:0:
23,326,65615,1,10,0:0:0:0:
23,326,65765,2,0,P|28:271|37:214,1,110,6|0,1:2|0:0,0:0:0:0:
17,165,66215,1,10,0:0:0:0:
116,117,66515,1,2,1:2:0:0:
223,138,66815,1,10,0:0:0:0:
277,233,67115,6,0,P|320:262|379:259,1,110,2|10,1:2|0:0,0:0:0:0:
417,296,67565,2,0,P|409:320|403:352,2,55,2|4|2,0:0|0:3|1:2,0:0:0:0:
501,226,68165,2,0,P|518:176|503:113,1,110,2|2,1:2|1:2,0:0:0:0:
465,85,68615,1,8,0:0:0:0:
465,85,68765,2,0,L|357:104,1,110,6|2,1:2|1:2,0:0:0:0:
270,35,69365,1,8,0:0:0:0:
270,35,69515,1,4,1:2:0:0:
210,115,69815,6,0,P|194:175|212:226,1,100,10|4,0:0|0:3,0:0:0:0:
234,249,70265,1,8,0:3:0:0:
189,338,70565,2,0,P|138:350|92:363,1,100,2|2,1:2|1:2,0:0:0:0:
45,381,71015,1,10,0:0:0:0:
6,288,71315,1,2,1:2:0:0:
6,288,71465,2,0,P|12:257|18:223,1,50,4|8,0:3|0:0,0:0:0:0:
9,188,71765,6,0,P|70:222|165:200,1,150,6|8,1:2|0:0,0:0:0:0:
223,147,72515,2,0,P|217:116|207:70,2,50,0|2|10,1:0|1:3|0:0,0:0:0:0:
287,224,73115,1,6,1:2:0:0:
287,224,73265,2,0,P|323:231|344:237,1,50,8|8,0:3|0:0,0:0:0:0:
362,277,73565,2,0,P|420:282|460:262,1,100,4|8,1:2|0:3,0:0:0:0:
498,236,74015,5,8,0:0:0:0:
498,236,74165,2,0,L|479:132,1,100,4|0,1:2|1:0,0:0:0:0:
439,108,74615,2,0,P|410:115|378:123,2,50,10|2|2,0:0|0:0|1:2,0:0:0:0:
508,35,75215,1,10,0:0:0:0:
508,35,75365,2,0,P|464:10|406:20,1,100,4|2,1:2|1:2,0:0:0:0:
367,1,75815,1,10,0:0:0:0:
282,52,76115,1,6,1:2:0:0:
282,52,76265,2,0,P|291:89|295:106,1,50,8|10,0:0|0:0,0:0:0:0:
259,148,76565,5,8,0:0:0:0:
259,148,76715,2,0,P|207:147|162:168,2,100,6|0|12,1:2|0:0|0:0,0:0:0:0:
346,196,77615,1,2,1:2:0:0:
446,172,77915,2,0,P|452:140|460:111,2,50,2|8|2,1:2|0:0|0:0,0:0:0:0:
504,253,78515,1,10,0:0:0:0:
504,253,78665,2,0,P|496:286|489:309,1,50,8|4,0:3|0:3,0:0:0:0:
490,351,78965,6,0,B|418:329|418:377|342:360,1,150,6|0,1:2|0:0,0:0:0:0:
343,360,80315,2,0,P|359:302|344:249,1,100,6|0,1:2|1:0,0:0:0:0:
311,232,80765,2,0,P|261:241|208:252,1,100,2|10,3:2|0:2,0:0:0:0:
131,309,81365,6,0,P|76:314|23:281,1,100,4|0,1:2|0:0,0:0:0:0:
12,251,81815,1,8,0:0:0:0:
30,152,82115,2,0,P|25:125|17:93,2,50,4|0|8,1:3|1:0|0:0,0:0:0:0:
78,163,82565,2,0,B|109:176|109:176|179:162,1,100,4|8,1:2|0:0,0:0:0:0:
214,133,83015,1,8,0:0:0:0:
288,208,83315,1,4,0:3:0:0:
288,208,83465,2,0,P|276:244|258:313,1,100,8|8,0:3|0:3,0:0:0:0:
246,352,83915,1,4,1:2:0:0:
413,36,92915,5,0,1:0:0:0:
413,36,93065,1,4,1:0:0:0:
480,110,93365,6,0,P|432:136|371:122,1,100,4|0,1:2|1:0,0:0:0:0:
348,100,93815,1,8,0:0:0:0:
304,190,94115,2,0,P|311:216|319:253,1,50,0|4,1:0|0:3,0:0:0:0:
350,275,94415,1,8,0:0:0:0:
350,275,94565,2,0,P|337:349|251:360,1,150,0|8,1:0|0:0,0:0:0:0:
175,342,95315,2,0,P|147:348|111:358,2,50,0|0|8,1:0|0:0|0:0,0:0:0:0:
240,265,95915,5,8,0:0:0:0:
281,174,96215,1,8,0:0:0:0:
239,88,96515,1,8,0:0:0:0:
239,88,96665,2,0,P|214:95|188:102,1,50,0|8,1:0|1:3,0:0:0:0:
148,74,96965,6,0,P|110:50|47:60,1,100,4|4,1:2|1:3,0:0:0:0:
15,82,97415,2,0,P|30:132|40:186,1,100,4|8,1:3|0:3,0:0:0:0:
4,273,98015,1,8,0:3:0:0:
4,273,98165,2,0,P|90:229|153:249,1,150,4|2,1:2|0:0,0:0:0:0:
320,34,99365,6,0,P|367:41|431:60,1,110,6|2,1:2|1:2,0:0:0:0:
482,56,99815,2,0,P|492:24|496:-5,2,55,10|2|4,0:0|0:0|0:3,0:0:0:0:
506,163,100415,1,10,0:0:0:0:
506,163,100565,2,0,P|446:166|404:202,1,110,2|2,1:2|1:2,0:0:0:0:
389,247,101015,1,8,0:0:0:0:
389,247,101165,1,2,1:2:0:0:
407,355,101465,2,0,P|380:360|353:369,1,55,4|8,0:3|0:0,0:0:0:0:
301,352,101765,6,0,P|247:363|192:330,1,110,6|2,1:2|1:2,0:0:0:0:
161,300,102215,2,0,P|137:306|99:318,2,55,10|2|4,0:0|0:0|0:3,0:0:0:0:
252,238,102815,1,10,0:0:0:0:
252,238,102965,2,0,P|263:179|276:129,1,110,6|0,1:2|0:0,0:0:0:0:
258,78,103415,2,0,P|206:104|153:97,1,110,8|0,0:0|1:0,0:0:0:0:
113,71,103865,1,6,0:3:0:0:
113,71,104015,1,10,0:0:0:0:
11,113,104315,6,0,P|28:170|39:228,1,110,6|10,1:2|0:0,0:0:0:0:
46,274,104765,1,2,0:0:0:0:
150,309,105065,2,0,P|181:298|203:293,1,55,4|10,1:3|0:0,0:0:0:0:
256,304,105365,2,0,P|262:250|276:192,1,110,6|0,1:2|1:0,0:0:0:0:
248,146,105815,1,10,0:0:0:0:
259,36,106115,1,4,0:3:0:0:
364,4,106415,1,10,0:0:0:0:
464,51,106715,6,0,P|449:106|439:162,1,110,6|10,1:2|0:0,0:0:0:0:
461,208,107165,1,2,0:3:0:0:
461,208,107315,2,0,P|452:235|445:265,1,55,4|2,0:3|1:3,0:0:0:0:
432,370,107765,2,0,P|380:341|324:351,1,110,4|8,1:2|0:0,0:0:0:0:
280,249,108365,2,0,P|291:190|305:125,1,110,10|10,1:2|0:0,0:0:0:0:
346,108,108815,5,8,0:3:0:0:
346,108,108965,2,0,P|341:52|298:13,1,110,6|2,1:2|1:2,0:0:0:0:
251,0,109415,2,0,P|216:7|195:11,2,55,10|2|4,0:0|0:0|0:3,0:0:0:0:
218,107,110015,5,10,0:0:0:0:
218,107,110165,2,0,P|196:173|186:221,1,110,2|2,1:2|1:2,0:0:0:0:
148,250,110615,1,8,0:0:0:0:
148,250,110765,2,0,P|92:244|41:278,1,110,2|6,0:0|0:2,0:0:0:0:
101,366,111365,6,0,P|158:352|212:343,1,110,6|2,1:2|1:2,0:0:0:0:
260,361,111815,2,0,P|266:329|273:300,1,55,10|0,0:0|0:0,0:0:0:0:
302,262,112115,1,2,1:2:0:0:
228,179,112415,1,10,0:2:0:0:
228,179,112565,2,0,P|201:117|213:59,1,110,6|0,1:2|0:0,0:0:0:0:
231,27,113015,2,0,P|287:37|342:47,1,110,8|0,0:0|1:0,0:0:0:0:
392,60,113465,1,2,1:3:0:0:
392,60,113615,1,10,0:0:0:0:
494,20,113915,6,0,P|499:90|468:137,1,110,6|10,1:2|0:0,0:0:0:0:
438,159,114365,1,2,0:0:0:0:
438,159,114515,1,4,1:3:0:0:
332,151,114815,1,10,0:0:0:0:
332,151,114965,2,0,P|343:201|357:268,1,110,6|0,1:2|0:0,0:0:0:0:
344,312,115415,1,10,0:0:0:0:
258,381,115715,1,2,1:2:0:0:
149,361,116015,1,10,0:0:0:0:
119,254,116315,6,0,P|128:203|142:142,1,110,2|10,1:2|0:0,0:0:0:0:
108,109,116765,1,2,0:0:0:0:
108,109,116915,2,0,P|82:117|26:129,1,55,4|2,0:3|1:2,0:0:0:0:
4,26,117365,2,0,P|57:12|114:-1,1,110,2|2,1:2|1:2,0:0:0:0:
167,20,117815,1,8,0:0:0:0:
167,20,117965,2,0,P|221:44|279:30,1,110,6|2,1:2|1:2,0:0:0:0:
374,2,118565,1,8,0:3:0:0:
374,2,118715,1,4,1:2:0:0:
467,60,119015,6,0,P|457:109|444:165,1,100,10|2,0:0|1:2,0:0:0:0:
434,206,119465,1,4,0:3:0:0:
510,270,119765,2,0,P|510:315|475:368,1,100,2|2,1:2|1:2,0:0:0:0:
434,375,120215,1,10,0:0:0:0:
341,353,120515,1,2,1:2:0:0:
341,353,120665,2,0,P|316:357|292:363,1,50,2|8,1:2|0:0,0:0:0:0:
246,383,120965,6,0,P|222:334|238:264,1,100,6|0,1:2|1:0,0:0:0:0:
249,246,121415,1,8,0:0:0:0:
211,153,121715,2,0,P|183:160|160:166,2,50,0|2|10,1:0|1:3|0:0,0:0:0:0:
303,108,122315,1,2,1:2:0:0:
303,108,122465,2,0,P|308:137|312:165,1,50,2|0,1:2|0:0,0:0:0:0:
340,198,122765,2,0,P|383:216|437:211,1,100,2|2,1:2|1:2,0:0:0:0:
479,188,123215,5,8,0:0:0:0:
479,188,123365,2,0,P|501:139|496:88,1,100,4|0,1:2|1:0,0:0:0:0:
482,46,123815,1,10,0:0:0:0:
389,7,124115,1,4,0:3:0:0:
306,63,124415,1,10,0:0:0:0:
306,63,124565,2,0,P|298:113|290:165,1,100,4|2,1:2|1:2,0:0:0:0:
264,205,125015,2,0,P|271:225|278:256,1,50,10|2,0:0|1:2,0:0:0:0:
322,275,125315,1,10,0:0:0:0:
288,369,125615,1,8,0:3:0:0:
189,384,125915,6,0,P|133:372|87:366,1,100,4|0,1:2|0:0,0:0:0:0:
36,282,126515,2,0,P|48:226|54:180,1,100,8|2,0:0|1:2,0:0:0:0:
38,136,126965,1,2,1:2:0:0:
38,136,127115,2,0,P|92:114|152:124,1,100,4|2,1:3|0:0,0:0:0:0:
224,72,127715,1,8,0:3:0:0:
224,72,127865,2,0,P|229:95|233:123,1,50,8|4,0:0|0:3,0:0:0:0:
209,165,128165,2,0,P|184:231|221:320,1,150,4|0,1:2|0:0,0:0:0:0:
498,375,129515,6,0,P|488:325|477:271,1,100,12|8,0:0|0:0,0:0:0:0:
495,229,129965,2,0,B|440:186|440:186|362:213,1,150,0|4,1:0|0:3,0:0:0:0:
316,196,130565,6,0,P|303:243|291:294,1,100,4|0,1:2|1:0,0:0:0:0:
278,341,131015,1,8,0:0:0:0:
179,356,131315,1,8,0:0:0:0:
84,376,131615,1,8,0:0:0:0:
84,376,131765,2,0,P|45:304|58:240,1,150,4|12,1:2|0:0,0:0:0:0:
27,145,132515,1,0,1:0:0:0:
27,145,132665,2,0,P|58:138|81:133,1,50,8|0,0:0|1:0,0:0:0:0:
160,80,133115,6,0,P|179:130|165:183,1,100,4|8,1:2|0:0,0:0:0:0:
202,212,133565,1,0,1:0:0:0:
202,212,133715,2,0,P|253:201|299:192,1,100,8|8,0:0|0:0,0:0:0:0:
367,265,134315,2,0,P|417:283|464:276,1,100,12|8,0:0|0:0,0:0:0:0:
502,246,134765,1,0,1:0:0:0:
502,246,134915,2,0,P|491:191|481:140,1,100,8|8,0:0|0:0,0:0:0:0:
506,104,135365,6,0,P|501:42|423:13,1,150,4|8,1:2|0:0,0:0:0:0:
332,44,136115,2,0,P|297:37|262:27,2,50,8|0|12,0:0|1:0|0:0,0:0:0:0:
290,135,136715,2,0,P|304:188|315:241,1,100,8|8,0:0|0:0,0:0:0:0:
325,280,137165,1,0,1:0:0:0:
325,280,137315,1,8,0:3:0:0:
260,356,137615,5,8,0:0:0:0:
260,356,137765,2,0,B|206:347|206:347|167:363|167:363|99:350,1,150,4|8,1:2|0:0,0:0:0:0:
17,376,138515,1,8,0:0:0:0:
1,277,138815,2,0,P|14:220|26:162,1,100,8|12,0:0|0:0,0:0:0:0:
35,131,139265,1,0,1:0:0:0:
35,131,139415,1,8,0:0:0:0:
114,70,139715,2,0,P|165:100|211:96,1,100,8|8,0:0|0:0,0:0:0:0:
247,72,140165,6,0,P|257:137|266:197,1,100,4|0,1:2|1:0,0:0:0:0:
268,220,140615,1,8,0:0:0:0:
342,287,140915,1,8,0:0:0:0:
433,245,141215,1,8,0:0:0:0:
433,245,141365,2,0,P|440:195|452:138,2,100,4|8|0,1:2|0:0|1:0,0:0:0:0:
455,289,142115,1,8,1:3:0:0:
407,377,142415,2,0,P|361:361|307:354,1,100,12|2,1:2|0:0,0:0:0:0:
256,192,142865,12,0,144365,3:0:0:0:
