osu file format v14

[General]
AudioFilename: audio.ogg
AudioLeadIn: 0
PreviewTime: 49265
Countdown: 0
SampleSet: Soft
StackLeniency: 0.9
Mode: 0
LetterboxInBreaks: 0
WidescreenStoryboard: 1

[Editor]
DistanceSpacing: 2
BeatDivisor: 4
GridSize: 4
TimelineZoom: 1.2

[Metadata]
Title:Melody in the Dark
TitleUnicode:Melody in the Dark
Artist:UNDEAD
ArtistUnicode:UNDEAD
Creator:kakifly
Version:Hard
Source:あんさんぶるスターズ!!
Tags:enstars es ensemble stars あんさんぶるスターズ! あんさんぶるスターズ あんスタ jpop j-pop male vocal rock idol rei sakuma 朔間 零 kaoru hakaze 羽風 薫 koga oogami 大神 晃牙 adonis otogari 乙狩 アドニス toshiki masuda 増田 俊樹 kei hosogai 細貝 圭 yuki ono 小野 友樹 wataru hatano 羽多野 渉 japanese video game videogame a mystery amystery setz setz206 shikibe mayu ryuusei aika ryuuseiaika shizuku kazato asa kowari arte refact mel jrock j-rock poprock pop-rock
BeatmapID:3317381
BeatmapSetID:1620141

[Difficulty]
HPDrainRate:4
CircleSize:4
OverallDifficulty:5
ApproachRate:7.8
SliderMultiplier:1
SliderTickRate:1

[Events]
//Background and Video events
0,0,"koga.jpg",0,0
//Break Periods
2,84115,92570
//Storyboard Layer 0 (Background)
//Storyboard Layer 1 (Fail)
//Storyboard Layer 2 (Pass)
//Storyboard Layer 3 (Foreground)
//Storyboard Layer 4 (Overlay)
//Storyboard Sound Samples

[TimingPoints]
1125,300,4,2,1,60,1,0
1125,-125,4,2,1,60,0,0
1725,-125,4,2,1,60,0,0
5625,-125,4,2,1,60,0,0
5915,300,4,2,1,80,1,0
6815,-83.3333333333333,4,2,1,80,0,0
7415,-100,4,2,1,80,0,0
8165,-83.3333333333333,4,2,1,80,0,0
8615,-100,4,2,1,80,0,0
9215,-83.3333333333333,4,2,1,80,0,0
9815,-100,4,2,1,80,0,0
11615,-83.3333333333333,4,2,1,80,0,0
12215,-100,4,2,1,80,0,0
12965,-83.3333333333333,4,2,1,80,0,0
13265,-100,4,2,1,80,0,0
15215,-100,4,2,1,60,0,0
15665,-125,4,2,1,60,0,0
18065,-111.111111111111,4,2,1,60,0,0
18515,-111.111111111111,4,2,1,60,0,0
22115,-100,4,2,1,60,0,0
22565,-125,4,2,1,60,0,0
27515,-111.111111111111,4,2,1,60,0,0
27965,-111.111111111111,4,2,1,60,0,0
37115,-111.111111111111,4,2,1,60,0,0
44165,-100,4,2,1,75,0,0
48065,-100,4,2,1,75,0,0
49415,-100,4,2,1,10,0,0
50165,-90.9090909090909,4,2,1,85,0,1
55415,-80,4,2,1,85,0,1
56165,-90.9090909090909,4,2,1,85,0,1
59165,-80,4,2,1,85,0,1
59615,-80,4,2,1,85,0,0
59765,-80,4,2,1,85,0,1
60215,-90.9090909090909,4,2,1,85,0,1
65165,-80,4,2,1,85,0,1
65465,-90.9090909090909,4,2,1,85,0,1
68765,-80,4,2,1,85,0,1
69515,-90.9090909090909,4,2,1,85,0,0
77315,-100,4,2,1,85,0,0
79565,-100,4,2,1,10,0,0
83915,-100,4,2,1,50,0,0
93365,-100,4,2,1,60,0,0
98465,-100,4,2,1,10,0,0
99365,-90.9090909090909,4,2,1,80,0,1
104615,-80,4,2,1,80,0,1
105365,-90.9090909090909,4,2,1,80,0,1
108365,-80,4,2,1,80,0,1
108815,-80,4,2,1,80,0,0
108965,-90.9090909090909,4,2,1,80,0,1
114215,-80,4,2,1,80,0,1
114965,-90.9090909090909,4,2,1,80,0,1
117965,-80,4,2,1,80,0,1
118415,-90.9090909090909,4,2,1,80,0,1
118715,-100,4,2,1,80,0,0
119015,-100,4,2,1,80,0,0
129515,-90.9090909090909,4,2,1,80,0,0
129665,-90.9090909090909,4,2,1,10,0,0
130415,-90.9090909090909,4,2,1,60,0,0
130565,-100,4,2,1,60,0,0
134015,-83.3333333333333,4,2,1,60,0,0
134615,-100,4,2,1,60,0,0
135215,-83.3333333333333,4,2,1,60,0,0
135815,-100,4,2,1,60,0,0
136415,-83.3333333333333,4,2,1,60,0,0
137015,-100,4,2,1,60,0,0
137465,-100,4,2,1,60,0,0
137765,-83.3333333333333,4,2,1,60,0,0
138215,-100,4,2,1,60,0,0
138815,-83.3333333333333,4,2,1,60,0,0
139415,-100,4,2,1,60,0,0
140015,-83.3333333333333,4,2,1,60,0,0
140615,-100,4,2,1,60,0,0
142865,-117.647058823529,4,2,1,45,0,0

[Colours]
Combo1 : 176,116,205
Combo2 : 105,65,188
Combo3 : 226,190,82
Combo4 : 176,174,164

[HitObjects]
134,110,1125,6,0,L|125:208,1,80,0|0,3:0|3:0,0:0:0:0:
234,308,1725,2,0,B|265:300|265:300|315:312,1,80,2|0,3:0|3:0,0:0:0:0:
349,240,2175,6,0,L|263:218,2,80,2|0|0,3:0|3:0|3:0,0:0:0:0:
428,100,3075,1,0,0:0:0:0:
358,60,3225,2,0,L|357:16,1,40,0|0,3:0|3:0,0:0:0:0:
276,23,3525,6,0,P|272:57|264:105,1,80,0|0,3:0|3:0,0:0:0:0:
201,249,4125,2,0,P|175:242|148:237,2,40,2|0|0,3:0|3:0|3:0,0:0:0:0:
255,308,4575,6,0,L|350:306,1,80,0|2,3:0|3:0,0:0:0:0:
398,159,5175,2,0,L|311:145,1,80,0|0,3:0|3:0,0:0:0:0:
255,194,5625,5,2,3:0:0:0:
255,194,5915,6,0,B|183:178|183:178|159:152,1,100,4|10,1:2|0:0,0:0:0:0:
152,58,6365,1,2,0:0:0:0:
243,16,6515,2,0,P|260:56|266:82,1,50,2|4,1:2|1:3,0:0:0:0:
356,135,6815,6,0,L|480:123,1,120,8|0,0:0|1:0,0:0:0:0:
330,260,7415,6,0,P|304:281|278:311,1,50,10|2,0:0|0:0,0:0:0:0:
204,244,7715,2,0,P|189:217|170:194,1,50,0|4,1:3|1:3,0:0:0:0:
90,162,8015,5,8,0:0:0:0:
140,287,8165,2,0,L|273:269,1,120,4|0,1:2|1:0,0:0:0:0:
354,299,8615,6,0,P|379:269|392:247,1,50,10|2,0:0|0:0,0:0:0:0:
485,264,8915,2,0,L|486:214,1,50,2|4,1:2|1:3,0:0:0:0:
446,127,9215,6,0,B|437:95|437:95|446:71|446:71|437:49|446:-3,1,120,8|0,0:0|1:0,0:0:0:0:
205,147,9815,6,0,P|239:156|266:167,2,50,10|2|2,0:0|0:0|1:2,0:0:0:0:
107,122,10265,1,8,0:0:0:0:
107,122,10340,1,8,0:0:0:0:
107,122,10415,5,8,0:0:0:0:
62,211,10565,2,0,B|-12:194|-12:194|-3:227,1,100,4|0,1:2|0:0,0:0:0:0:
99,306,11015,6,0,P|128:286|150:276,1,50,10|0,0:0|0:0,0:0:0:0:
240,266,11315,2,0,P|226:240|216:212,1,50,2|4,1:2|1:3,0:0:0:0:
330,160,11615,6,0,B|327:221|327:221|333:246|333:246|324:267|328:299,1,120,10|0,0:0|1:0,0:0:0:0:
156,130,12215,6,0,L|101:121,1,50,14|0,0:0|0:0,0:0:0:0:
172,46,12515,2,0,L|232:38,1,50,2|4,1:2|1:3,0:0:0:0:
307,90,12815,5,10,0:0:0:0:
279,206,12965,2,0,B|202:221|202:221|155:252,1,119.999996337891,6|0,1:2|1:0,0:0:0:0:
74,283,13415,5,10,0:0:0:0:
113,374,13565,1,0,1:0:0:0:
210,339,13715,2,0,P|241:355|263:376,2,50,10|0|8,0:0|1:0|0:0,0:0:0:0:
167,243,14165,6,0,L|273:229,1,100,6|10,1:2|0:0,0:0:0:0:
365,210,14615,1,4,0:3:0:0:
321,119,14765,2,0,L|312:80,2,25,4|4|10,1:3|1:3|0:0,0:0:0:0:
225,140,15065,1,8,0:0:0:0:
132,161,15215,5,14,1:2:0:0:
132,161,15665,6,0,P|112:190|105:204,2,40,0|0|0,3:0|3:0|3:0,0:0:0:0:
169,89,16115,1,2,3:0:0:0:
248,82,16265,2,0,P|274:96|298:104,1,40,0|0,0:0|3:0,0:0:0:0:
388,38,16565,6,0,P|355:41|336:45,2,40,0|0|0,3:0|3:0|3:0,0:0:0:0:
453,83,17015,1,2,3:0:0:0:
419,155,17165,1,0,0:0:0:0:
419,155,17465,6,0,L|449:169,2,20,8|8|8,0:0|0:0|0:0,0:0:0:0:
346,190,17765,1,8,0:0:0:0:
293,129,17915,5,4,1:2:0:0:
221,163,18065,2,0,L|127:155,1,90.0000000000001,0|0,1:0|1:0,0:0:0:0:
80,230,18515,2,0,P|116:233|168:255,1,90.0000000000001,10|2,0:0|1:2,0:0:0:0:
247,291,18965,6,0,B|310:284|310:284|350:295,1,90.0000000000001,2|0,1:2|1:0,0:0:0:0:
412,337,19415,1,10,0:0:0:0:
412,337,19715,2,0,P|452:328|470:323,1,45,2|2,1:2|1:2,0:0:0:0:
483,241,20015,2,0,P|444:229|426:221,1,45,8|0,0:0|0:0,0:0:0:0:
379,159,20315,5,2,1:2:0:0:
303,208,20465,2,0,B|243:189|243:189|205:204,1,90.0000000000001,0|0,1:0|1:0,0:0:0:0:
136,237,20915,2,0,P|117:214|53:187,1,90.0000000000001,10|2,0:0|1:2,0:0:0:0:
106,109,21365,6,0,L|192:76,1,90.0000000000001,2|0,1:2|1:0,0:0:0:0:
271,114,21815,2,0,L|263:145,2,22.5,2|0|2,1:2|0:0|1:2,0:0:0:0:
370,108,22115,6,0,P|402:129|459:70,1,125,12|0,0:0|0:0,0:0:0:0:
476,44,22565,6,0,L|460:178,1,120,6|2,1:2|1:2,0:0:0:0:
327,250,23315,2,0,P|321:217|315:200,2,40,10|0|2,0:0|0:0|1:2,0:0:0:0:
259,293,23765,6,0,L|177:281,1,80,6|0,1:2|0:0,0:0:0:0:
161,203,24215,2,0,L|243:191,2,80,8|8|0,0:3|0:0|3:0,0:0:0:0:
101,149,24965,1,4,0:3:0:0:
63,219,25115,6,0,B|45:257|45:257|47:297,1,80,2|2,1:2|1:2,0:0:0:0:
202,330,25715,2,0,L|196:280,1,40,10|8,0:0|0:3,0:0:0:0:
224,215,26015,1,4,0:3:0:0:
301,234,26165,6,0,B|323:222|337:208|337:208|353:215|373:222,2,80,4|0|0,1:2|1:2|0:0,0:0:0:0:
224,215,26915,1,8,0:3:0:0:
197,290,27065,2,0,L|157:295,2,40,8|4|4,0:3|0:3|1:3,0:0:0:0:
285,334,27515,6,0,P|324:325|341:315,1,45,4|0,1:2|0:0,0:0:0:0:
391,246,27815,2,0,L|374:204,1,45,10|2,0:0|0:0,0:0:0:0:
308,130,28115,2,0,B|305:123|308:126|310:89|315:72,1,45,2|4,1:2|1:3,0:0:0:0:
398,111,28415,1,10,0:0:0:0:
308,130,28565,6,0,L|213:144,1,90.0000000000001,2|0,1:2|1:0,0:0:0:0:
182,235,29015,2,0,P|215:228|239:212,1,45,10|0,0:0|0:0,0:0:0:0:
323,224,29315,2,0,P|336:248|349:273,2,45,2|4|8,1:2|1:3|0:0,0:0:0:0:
148,60,29915,6,0,P|138:93|128:113,1,45,4|0,1:2|0:0,0:0:0:0:
66,162,30215,2,0,P|82:195|86:207,1,45,10|2,0:0|0:0,0:0:0:0:
166,240,30515,2,0,P|150:273|140:301,1,45,2|4,1:2|1:3,0:0:0:0:
207,348,30815,1,10,0:0:0:0:
272,281,30965,6,0,L|278:184,1,90.0000000000001,6|2,1:2|1:2,0:0:0:0:
235,111,31415,1,10,0:0:0:0:
322,87,31565,2,0,L|351:80,2,22.5,2|0|8,1:2|1:0|0:0,0:0:0:0:
235,111,31865,2,0,L|158:102,1,67.5000000000001,4|0,1:2|0:0,0:0:0:0:
129,78,32165,6,0,P|144:119|152:175,1,90.0000000000001,2|0,1:2|1:0,0:0:0:0:
228,211,32615,2,0,B|298:200|298:200|331:211,1,90.0000000000001,10|2,0:0|1:2,0:0:0:0:
392,254,33065,1,4,1:3:0:0:
434,174,33215,1,10,0:0:0:0:
406,259,33365,6,0,B|394:313|394:313|405:350,1,90.0000000000001,6|2,1:2|1:2,0:0:0:0:
315,372,33815,2,0,P|286:351|266:343,1,45,8|0,0:0|1:0,0:0:0:0:
204,294,34115,2,0,L|144:301,1,45,8|4,0:3|0:3,0:0:0:0:
119,217,34415,2,0,L|163:211,1,45,10|4,0:0|1:3,0:0:0:0:
221,141,34715,5,2,1:2:0:0:
221,141,34865,1,0,0:0:0:0:
294,192,35015,2,0,B|288:241|288:241|291:255|291:255|284:274|287:295,2,90.0000000000001,14|8|10,0:0|1:3|0:0,0:0:0:0:
329,108,35765,6,0,P|354:118|415:112,1,90.0000000000001,6|2,1:2|1:2,0:0:0:0:
503,94,36215,1,8,0:0:0:0:
493,192,36365,2,0,B|483:254|483:254|488:282,1,90.0000000000001,2|4,1:2|1:3,0:0:0:0:
399,300,36815,1,8,0:3:0:0:
310,316,36965,1,4,0:3:0:0:
221,334,37115,6,0,L|215:279,1,45,4|4,1:3|1:3,0:0:0:0:
134,127,37565,1,4,1:3:0:0:
219,153,37715,2,0,B|254:142|276:126|276:126|296:140|314:144,1,90.0000000000001,8|8,0:0|1:3,0:0:0:0:
372,191,38165,6,0,P|389:156|434:118,1,90.0000000000001,4|4,1:2|1:3,0:0:0:0:
465,203,38615,2,0,L|459:260,1,45,4|0,1:3|0:0,0:0:0:0:
410,322,38915,1,8,3:2:0:0:
336,270,39065,2,0,L|237:262,1,90.0000000000001,8|8,3:3|0:0,0:0:0:0:
155,261,39515,5,4,1:3:0:0:
149,352,39665,2,0,P|184:344|242:338,1,90.0000000000001,4|4,1:3|1:3,0:0:0:0:
327,345,40115,2,0,B|388:340|388:340|411:320,1,90.0000000000001,8|4,0:0|0:3,0:0:0:0:
447,239,40565,6,0,P|434:200|454:152,1,90.0000000000001,0|4,1:0|1:3,0:0:0:0:
403,79,41015,2,0,P|362:68|349:66,1,45,0|8,3:0|0:3,0:0:0:0:
288,124,41315,2,0,P|266:119|244:112,1,45,12|8,0:2|0:3,0:0:0:0:
154,115,41615,2,0,L|161:84,3,22.5,8|4|4|4,0:3|0:3|0:3|0:3,0:0:0:0:
169,49,41915,6,0,L|111:46,1,45,4|4,1:3|1:3,0:0:0:0:
40,206,42365,1,0,1:0:0:0:
76,288,42515,2,0,P|51:320|40:336,2,45,8|0|0,0:0|0:0|1:0,0:0:0:0:
159,253,42965,2,0,B|224:242|224:242|254:253,1,90.0000000000001,4|0,1:2|1:0,0:0:0:0:
318,195,43415,2,0,L|265:172,1,45,8|0,0:0|1:0,0:0:0:0:
321,98,43715,5,8,0:0:0:0:
429,67,43865,1,6,0:3:0:0:
429,67,44165,6,0,L|419:171,1,100,4|0,1:2|1:0,0:0:0:0:
361,247,44615,2,0,P|336:211|318:193,1,50,10|0,0:0|0:0,0:0:0:0:
275,133,44915,2,0,L|281:78,2,50,2|4|10,1:2|1:3|0:0,0:0:0:0:
194,192,45365,6,0,P|192:246|168:290,1,100,2|2,1:2|1:2,0:0:0:0:
249,348,45815,2,0,P|266:320|284:302,1,50,10|0,0:0|0:0,0:0:0:0:
361,247,46115,2,0,P|338:224|329:200,1,50,2|4,1:2|1:3,0:0:0:0:
275,133,46415,1,10,0:0:0:0:
275,133,46715,6,0,L|217:126,1,50,2|2,1:2|3:0,0:0:0:0:
144,67,47015,2,0,L|94:72,1,50,10|2,0:0|3:0,0:0:0:0:
59,166,47315,2,0,L|125:158,1,50,2|6,1:2|1:3,0:0:0:0:
139,255,47615,1,10,0:2:0:0:
238,226,47765,6,0,L|223:117,1,100,6|0,1:2|1:0,0:0:0:0:
291,65,48215,2,0,P|322:59|354:48,1,50,12|0,0:0|1:0,0:0:0:0:
410,156,48515,2,0,P|371:147|345:139,1,50,8|8,0:0|0:0,0:0:0:0:
347,243,48815,1,4,1:3:0:0:
446,239,48965,6,0,L|447:88,1,150,4|8,1:2|0:3,0:0:0:0:
446,89,50165,6,0,P|418:90|386:97,1,55,6|0,1:2|0:0,0:0:0:0:
284,119,50465,1,2,1:2:0:0:
361,196,50615,2,0,L|428:184,1,55,10|2,0:0|0:0,0:0:0:0:
404,295,50915,2,0,P|364:289|292:291,1,110,4|10,0:3|0:0,0:0:0:0:
197,239,51365,6,0,B|115:234|115:234|85:206,1,110,2|2,1:2|1:2,0:0:0:0:
84,104,51815,1,8,0:0:0:0:
184,56,51965,2,0,P|197:98|203:126,1,55,2|0,1:2|0:0,0:0:0:0:
302,148,52265,2,0,P|302:99|304:72,1,55,4|8,0:3|0:0,0:0:0:0:
404,25,52565,6,0,B|415:105|415:105|398:143,1,110,6|2,1:2|1:2,0:0:0:0:
413,241,53015,2,0,P|448:251|474:267,1,55.0000016784668,10|2,0:0|0:0,0:0:0:0:
428,364,53315,2,0,P|391:347|371:337,1,55.0000016784668,4|0,0:3|1:0,0:0:0:0:
268,354,53615,1,10,0:0:0:0:
198,268,53765,6,0,L|320:249,1,110,6|0,1:2|0:0,0:0:0:0:
332,144,54215,2,0,P|312:110|304:76,2,55,8|2|0,0:0|0:3|1:0,0:0:0:0:
111,132,54815,2,0,P|100:168|90:191,1,55,10|2,0:0|0:3,0:0:0:0:
60,289,55115,2,0,P|97:278|133:273,1,55,6|0,1:2|0:0,0:0:0:0:
222,336,55415,6,0,B|241:300|234:269|234:269|266:286|317:277,1,125,10|8,0:0|1:3,0:0:0:0:
409,125,56015,5,10,0:0:0:0:
312,72,56165,2,0,L|201:65,1,110,6|0,1:2|1:0,0:0:0:0:
115,134,56615,2,0,P|118:179|117:209,1,55,10|0,0:0|0:0,0:0:0:0:
207,253,56915,2,0,P|216:204|222:180,1,55,4|0,0:3|0:0,0:0:0:0:
316,149,57215,1,10,0:0:0:0:
316,149,57515,6,0,L|374:141,2,55,6|0|10,1:2|0:0|0:0,0:0:0:0:
217,198,57965,2,0,L|100:188,1,110,2|2,0:3|1:3,0:0:0:0:
8,236,58415,1,10,0:0:0:0:
67,328,58565,2,0,B|93:317|106:296|106:296|134:301|178:303,1,110,4|8,1:2|0:0,0:0:0:0:
262,351,59015,1,8,0:0:0:0:
354,266,59165,6,0,L|345:134,1,125,6|10,1:2|0:0,0:0:0:0:
447,68,59615,5,8,0:3:0:0:
447,68,59690,1,8,0:0:0:0:
447,68,59765,2,0,B|454:153|454:153|432:217,1,125,6|2,1:2|1:2,0:0:0:0:
345,141,60215,2,0,P|307:132|283:122,1,55,10|2,0:0|0:0,0:0:0:0:
182,133,60515,1,4,0:3:0:0:
127,37,60665,1,0,1:2:0:0:
236,31,60815,1,10,0:0:0:0:
182,133,60965,6,0,L|178:260,2,110,2|2|2,1:2|1:2|0:0,0:0:0:0:
360,77,61865,2,0,P|346:109|341:145,1,55,6|8,0:2|0:0,0:0:0:0:
296,228,62165,6,0,L|424:204,1,110,6|2,1:2|1:2,0:0:0:0:
463,300,62615,2,0,P|426:298|396:290,1,55,10|0,0:0|0:0,0:0:0:0:
307,338,62915,2,0,P|258:317|234:315,1,55,2|0,1:2|1:0,0:0:0:0:
185,232,63215,1,10,0:2:0:0:
296,228,63365,6,0,L|296:105,1,110,6|0,1:2|0:0,0:0:0:0:
211,46,63815,2,0,L|210:112,1,55,8|2,0:0|3:0,0:0:0:0:
104,134,64115,2,0,L|104:54,1,55,0|2,1:0|1:3,0:0:0:0:
211,46,64415,2,0,P|262:38|283:29,1,55.0000016784668,10|10,0:0|0:3,0:0:0:0:
366,80,64715,2,0,P|398:74|427:75,1,55.0000016784668,6|0,1:2|0:0,0:0:0:0:
410,184,65015,1,10,0:0:0:0:
291,223,65165,6,0,B|260:201|260:201|156:211,1,125,2|0,0:0|1:3,0:0:0:0:
73,255,65615,5,10,0:0:0:0:
161,320,65765,2,0,L|286:310,1,110,6|0,1:2|0:0,0:0:0:0:
370,264,66215,2,0,P|405:279|445:289,1,55,10|0,0:0|0:0,0:0:0:0:
414,170,66515,2,0,P|454:160|484:148,1,55,2|4,1:2|0:3,0:0:0:0:
356,91,66815,1,10,0:0:0:0:
356,91,67115,6,0,L|291:83,1,55,2|0,1:2|0:0,0:0:0:0:
201,132,67415,1,10,0:0:0:0:
287,199,67565,2,0,P|284:243|282:271,2,55.0000016784668,2|4|2,0:0|0:3|1:2,0:0:0:0:
201,132,68015,1,8,0:0:0:0:
96,97,68165,6,0,B|116:141|105:177|105:177|122:203,1,110,2|2,1:2|1:2,0:0:0:0:
200,274,68615,1,8,0:0:0:0:
287,199,68765,6,0,B|308:168|308:168|400:163,1,125,6|2,1:2|1:2,0:0:0:0:
473,277,69215,2,0,L|487:314,3,31.25,8|8|8|8,0:0|0:0|0:0|0:0,0:0:0:0:
455,335,69515,6,0,L|325:345,1,110,4|10,1:2|0:0,0:0:0:0:
279,254,69965,1,0,1:0:0:0:
188,315,70115,2,0,P|201:361|208:389,2,55,4|8|8,0:3|0:3|0:0,0:0:0:0:
112,234,70565,6,0,P|128:198|113:113,1,110,2|2,1:2|1:2,0:0:0:0:
212,66,71015,2,0,L|212:138,1,55,10|0,0:0|0:0,0:0:0:0:
313,165,71315,2,0,P|307:126|300:103,1,55,2|4,1:2|0:3,0:0:0:0:
233,197,71615,1,8,0:0:0:0:
316,268,71765,6,0,L|446:251,1,110,6|0,1:2|1:0,0:0:0:0:
437,363,72215,1,8,0:0:0:0:
327,371,72365,1,2,0:3:0:0:
226,326,72515,2,0,L|157:340,2,55,0|2|10,1:0|1:3|0:0,0:0:0:0:
344,140,73115,6,0,P|377:131|407:119,1,55,6|8,1:2|0:3,0:0:0:0:
336,31,73415,1,8,0:0:0:0:
250,99,73565,2,0,B|187:82|187:82|133:97,1,110,4|8,1:2|0:3,0:0:0:0:
71,177,74015,1,8,0:0:0:0:
171,221,74165,6,0,P|234:222|278:194,1,110,4|0,1:2|1:0,0:0:0:0:
373,152,74615,2,0,P|401:174|423:186,2,55,10|2|2,0:0|0:0|1:2,0:0:0:0:
292,77,75065,1,0,1:0:0:0:
194,127,75215,1,10,0:0:0:0:
292,77,75365,6,0,L|296:204,1,110,4|2,1:2|1:2,0:0:0:0:
351,282,75815,2,0,P|387:274|419:272,1,55,10|4,0:0|1:3,0:0:0:0:
360,373,76115,2,0,P|312:361|283:358,1,55,6|8,1:2|0:0,0:0:0:0:
200,377,76415,1,10,0:0:0:0:
200,377,76565,1,8,0:0:0:0:
118,313,76715,6,0,L|114:258,1,55,6|4,1:2|1:3,0:0:0:0:
179,93,77165,1,0,1:0:0:0:
270,132,77315,2,0,L|369:119,1,100,12|2,0:0|1:2,0:0:0:0:
477,288,77915,6,0,L|377:300,1,100,2|2,1:2|0:0,0:0:0:0:
293,246,78365,2,0,L|288:214,2,25,0|8|10,1:0|0:0|0:0,0:0:0:0:
216,310,78665,1,8,0:3:0:0:
128,261,78815,1,4,0:3:0:0:
78,347,78965,6,0,P|142:358|216:246,1,200,6|0,1:2|3:0,0:0:0:0:
256,192,80315,12,4,83915,1:2:0:0:
236,80,93365,6,0,P|230:161|228:201,1,100,4|0,1:2|1:0,0:0:0:0:
278,266,93815,1,8,0:0:0:0:
349,196,93965,2,0,P|376:188|400:178,2,50,0|0|4,0:0|1:0|0:3,0:0:0:0:
278,266,94415,1,8,0:0:0:0:
192,214,94565,6,0,L|70:202,1,100,0|0,1:0|1:0,0:0:0:0:
22,132,95015,1,8,0:0:0:0:
109,83,95165,2,0,B|134:64|134:64|160:80|210:83,1,100,0|0,1:0|0:0,0:0:0:0:
299,92,95615,2,0,P|311:66|322:40,1,50,8|0,0:0|1:0,0:0:0:0:
401,103,95915,6,0,L|410:162,1,50,8|0,0:0|1:1,0:0:0:0:
353,236,96215,2,0,L|350:285,1,50,8|0,0:0|1:0,0:0:0:0:
434,340,96515,2,0,L|483:345,1,50,8|0,0:0|1:0,0:0:0:0:
449,250,96815,1,8,1:3:0:0:
350,285,96965,6,0,B|326:276|326:276|302:285|302:285|279:272|233:278,1,100,4|4,1:2|1:3,0:0:0:0:
198,192,97415,2,0,P|160:184|129:176,1,50,4|4,1:3|1:3,0:0:0:0:
200,95,97715,2,0,P|236:85|262:81,1,50,8|8,0:3|0:3,0:0:0:0:
299,168,98015,1,8,0:3:0:0:
254,276,98165,6,0,L|105:285,1,150,4|2,1:2|0:0,0:0:0:0:
104,285,99365,6,0,P|95:224|89:170,1,110,6|2,1:2|1:2,0:0:0:0:
103,66,99815,1,10,0:0:0:0:
214,30,99965,1,2,0:0:0:0:
260,134,100115,2,0,P|302:135|338:128,1,55,4|0,0:3|1:0,0:0:0:0:
322,23,100415,1,10,0:0:0:0:
214,30,100565,6,0,B|138:39|138:39|102:52,1,110.000003356934,2|2,1:2|1:2,0:0:0:0:
33,124,101015,2,0,P|48:166|52:190,1,55,8|2,0:0|1:2,0:0:0:0:
111,267,101315,2,0,P|135:245|157:230,1,55,0|4,0:0|0:3,0:0:0:0:
263,230,101615,1,8,0:0:0:0:
276,339,101765,6,0,L|149:328,1,110,6|2,1:2|1:2,0:0:0:0:
55,326,102215,1,10,0:0:0:0:
24,224,102365,2,0,P|42:194|52:165,2,55,2|4|0,0:0|0:3|1:0,0:0:0:0:
136,240,102815,1,10,0:0:0:0:
136,240,102965,6,0,L|261:228,1,110,6|0,1:2|0:0,0:0:0:0:
338,169,103415,2,0,P|310:158|280:137,1,55,8|2,0:0|0:3,0:0:0:0:
382,85,103715,2,0,P|416:77|444:74,1,55,0|6,1:0|0:3,0:0:0:0:
480,175,104015,2,0,L|483:238,1,55,10|2,0:0|0:3,0:0:0:0:
418,312,104315,2,0,L|350:301,1,55,6|0,1:2|0:0,0:0:0:0:
224,232,104615,6,0,B|268:228|306:200|306:200|304:244,1,125,10|8,0:0|1:3,0:0:0:0:
139,358,105215,5,10,0:0:0:0:
64,277,105365,2,0,L|57:159,1,110,6|0,1:2|1:0,0:0:0:0:
159,115,105815,2,0,L|161:178,1,55,10|0,0:0|0:0,0:0:0:0:
264,209,106115,2,0,P|285:189|323:168,1,55,4|0,0:3|0:0,0:0:0:0:
412,204,106415,1,10,0:0:0:0:
426,95,106565,1,0,1:0:0:0:
412,204,106715,6,0,L|410:316,1,110,6|10,1:2|0:0,0:0:0:0:
317,373,107165,1,2,0:3:0:0:
243,290,107315,2,0,P|189:295|170:300,2,55,4|2|10,0:3|1:3|0:0,0:0:0:0:
304,197,107765,2,0,P|300:161|300:124,1,55,4|0,1:2|0:0,0:0:0:0:
395,87,108065,2,0,P|391:43|388:18,1,55,8|8,0:0|0:0,0:0:0:0:
264,26,108365,6,0,B|167:38|167:38|137:69,1,125,10|10,1:2|0:0,0:0:0:0:
108,166,108815,5,8,0:3:0:0:
108,166,108890,1,4,0:3:0:0:
108,166,108965,2,0,L|109:280,1,110,6|2,1:2|1:2,0:0:0:0:
197,343,109415,1,10,0:0:0:0:
263,255,109565,1,2,0:0:0:0:
349,323,109715,2,0,P|388:314|417:305,2,55,4|0|10,0:3|1:2|0:0,0:0:0:0:
263,255,110165,6,0,L|260:126,2,110,2|2|2,1:2|1:2|0:0,0:0:0:0:
63,314,111065,1,6,0:2:0:0:
133,229,111215,1,8,0:0:0:0:
208,309,111365,6,0,B|296:298|296:298|320:313,1,110,6|2,1:2|1:2,0:0:0:0:
421,287,111815,2,0,P|406:245|399:215,1,55,10|0,0:0|0:0,0:0:0:0:
329,152,112115,2,0,P|341:105|349:83,1,55,2|0,1:2|1:0,0:0:0:0:
442,147,112415,1,10,0:2:0:0:
329,152,112565,6,0,L|214:146,1,110.000003356934,6|0,1:2|0:0,0:0:0:0:
153,57,113015,2,0,B|113:54|113:54|87:66,2,55.0000016784668,8|2|0,0:0|3:0|1:0,0:0:0:0:
373,66,113615,2,0,P|408:61|434:52,1,55,10|10,0:0|0:3,0:0:0:0:
495,141,113915,2,0,P|466:185|456:204,1,55,6|0,1:2|0:0,0:0:0:0:
385,284,114215,6,0,B|365:269|355:250|355:250|316:269|259:252,1,125,10|4,0:0|1:3,0:0:0:0:
117,109,114815,5,10,0:0:0:0:
212,54,114965,2,0,L|225:179,1,110,6|0,1:2|0:0,0:0:0:0:
277,256,115415,2,0,P|322:246|347:245,1,55,10|8,0:0|0:3,0:0:0:0:
288,347,115715,2,0,P|261:354|234:357,1,55,2|4,1:2|0:3,0:0:0:0:
134,308,116015,2,0,L|105:314,3,27.5,10|0|0|0,0:0|0:0|1:0|1:0,0:0:0:0:
61,344,116315,6,0,L|47:221,1,110,2|10,1:2|0:0,0:0:0:0:
87,130,116765,1,2,0:0:0:0:
188,172,116915,2,0,P|222:159|252:152,2,55,4|2|8,0:3|1:2|0:0,0:0:0:0:
207,281,117365,2,0,P|276:257|322:245,1,110.000003356934,2|2,1:2|1:2,0:0:0:0:
412,294,117815,1,8,0:0:0:0:
296,342,117965,6,0,L|286:195,1,125,6|2,1:2|1:2,0:0:0:0:
327,115,118415,2,0,L|356:120,3,27.5,8|8|8|4,0:0|0:0|0:3|0:3,0:0:0:0:
401,104,118715,6,0,B|390:153|390:153|402:210,1,100,4|10,1:2|0:0,0:0:0:0:
219,288,119315,2,0,P|176:284|153:283,2,50,2|4|8,1:2|0:3|0:0,0:0:0:0:
309,330,119765,6,0,B|365:312|392:312|392:312|392:334,1,100,2|2,1:2|1:2,0:0:0:0:
470,264,120215,2,0,P|451:219|442:145,1,100,10|2,0:0|1:2,0:0:0:0:
450,68,120665,1,2,1:2:0:0:
352,46,120815,1,8,0:0:0:0:
286,121,120965,6,0,L|170:114,1,100,6|0,1:2|1:0,0:0:0:0:
159,211,121415,2,0,P|161:249|161:275,1,50,8|2,0:0|0:3,0:0:0:0:
261,265,121715,2,0,P|266:222|267:206,1,50,0|2,1:0|1:3,0:0:0:0:
286,121,122015,1,10,0:0:0:0:
286,121,122315,6,0,P|330:109|344:105,2,50,2|2|0,1:2|1:2|0:0,0:0:0:0:
192,82,122765,2,0,B|119:69|119:69|90:81,1,100,2|2,1:2|1:2,0:0:0:0:
72,176,123215,1,8,0:0:0:0:
160,222,123365,6,0,L|273:212,1,100,4|0,1:2|1:0,0:0:0:0:
352,249,123815,2,0,P|347:280|346:302,2,50,10|8|4,0:0|0:3|0:3,0:0:0:0:
450,215,124265,1,0,1:0:0:0:
450,215,124340,1,0,1:0:0:0:
450,215,124415,6,0,L|441:95,1,100,10|0,0:0|0:0,0:0:0:0:
380,37,124865,1,2,1:2:0:0:
300,97,125015,1,10,0:0:0:0:
210,52,125165,1,2,1:2:0:0:
140,123,125315,6,0,L|150:147,3,25,10|8|8|8,0:0|0:0|0:0|0:0,0:0:0:0:
131,193,125615,2,0,L|143:221,3,25,8|8|4|4,0:3|0:3|0:3|0:3,0:0:0:0:
119,262,125915,6,0,L|146:319,1,50,4|4,1:2|1:3,0:0:0:0:
340,297,126365,1,0,1:0:0:0:
264,231,126515,2,0,P|254:181|257:127,1,100,8|2,0:0|1:2,0:0:0:0:
317,52,126965,1,2,1:2:0:0:
385,125,127115,6,0,P|423:121|454:117,1,50,4|8,1:3|0:0,0:0:0:0:
414,218,127415,2,0,P|389:215|364:212,1,50,2|0,0:0|1:0,0:0:0:0:
264,231,127715,2,0,B|225:229|198:205|198:205|174:223,1,100,8|4,0:3|0:3,0:0:0:0:
98,286,128165,5,4,1:2:0:0:
98,286,129515,6,0,B|64:311|117:383|185:321|149:277|149:277|168:178|168:178|184:222|222:240,1,330,12|4,0:0|0:3,0:0:0:0:
277,310,130565,6,0,L|383:303,1,100,4|0,1:2|1:0,0:0:0:0:
421,212,131015,2,0,L|372:203,1,50,8|0,0:0|1:0,0:0:0:0:
305,128,131315,2,0,L|368:119,1,50,8|0,0:0|1:0,0:0:0:0:
324,24,131615,1,8,0:0:0:0:
231,60,131765,6,0,B|213:87|213:87|214:167,1,100,4|0,1:2|1:0,0:0:0:0:
200,253,132215,2,0,P|172:236|143:224,1,50,12|0,0:0|1:0,0:0:0:0:
106,315,132515,2,0,P|83:303|63:288,1,50,0|8,1:0|0:0,0:0:0:0:
75,189,132815,2,0,L|57:160,3,25,0|0|8|8,1:0|1:0|0:0|0:0,0:0:0:0:
31,127,133115,6,0,L|39:14,1,100,4|8,1:2|0:0,0:0:0:0:
137,20,133565,1,0,1:0:0:0:
218,78,133715,2,0,L|286:73,1,50,8|0,0:0|1:0,0:0:0:0:
380,115,134015,6,0,B|400:112|416:100|416:100|410:190,1,120,8|12,0:0|0:0,0:0:0:0:
224,252,134615,6,0,P|191:247|159:245,1,50,8|0,0:0|1:0,0:0:0:0:
98,311,134915,2,0,P|63:306|39:300,1,50,8|0,0:0|1:0,0:0:0:0:
27,191,135215,6,0,P|70:185|101:113,1,120,8|0,0:0|0:0,0:0:0:0:
297,74,135815,6,0,P|265:85|243:95,2,50,8|0|8,0:0|1:0|0:0,0:0:0:0:
442,165,136415,6,0,B|445:193|445:193|435:225|435:225|449:255|434:297,1,120,12|8,0:0|0:0,0:0:0:0:
241,320,137015,2,0,P|237:279|231:257,1,50,8|0,0:0|1:0,0:0:0:0:
134,259,137315,2,0,P|141:216|149:198,1,50,8|4,0:3|0:3,0:0:0:0:
236,173,137615,5,8,0:0:0:0:
134,259,137765,2,0,L|7:250,1,120,4|0,1:2|1:0,0:0:0:0:
30,151,138215,2,0,P|21:119|17:91,2,50,8|0|8,0:0|1:0|0:0,0:0:0:0:
127,125,138665,1,0,1:0:0:0:
236,173,138815,6,0,L|363:158,1,120,8|12,0:0|0:0,0:0:0:0:
450,334,139415,6,0,B|414:332|414:332|392:344,1,50,8|0,0:0|1:0,0:0:0:0:
302,325,139715,2,0,B|266:327|266:327|253:320,1,50,8|0,0:0|0:0,0:0:0:0:
172,231,140015,6,0,B|151:205|151:205|113:239|59:237,1,120,8|0,0:0|0:0,0:0:0:0:
153,54,140615,2,0,P|190:67|213:77,1,50,8|0,0:0|1:0,0:0:0:0:
285,118,140915,2,0,P|322:111|345:109,1,50,8|0,0:0|1:0,0:0:0:0:
408,177,141215,1,8,0:0:0:0:
323,241,141365,6,0,L|201:235,1,100,4|8,1:2|0:0,0:0:0:0:
167,152,141815,1,0,1:0:0:0:
260,122,141965,2,0,L|297:116,2,25,0|0|8,1:0|1:0|1:3,0:0:0:0:
167,152,142265,1,0,1:0:0:0:
85,94,142415,5,12,1:2:0:0:
85,94,142865,6,0,L|37:99,2,42.5000000000001,0|0|0,3:0|3:0|3:0,0:0:0:0:
165,67,143315,1,0,3:0:0:0:
237,110,143465,1,2,3:0:0:0:
342,243,143765,6,0,L|386:245,2,42.5000000000001,0|0|0,3:0|3:0|3:0,0:0:0:0:
267,282,144215,1,2,3:0:0:0:
195,239,144365,1,0,3:0:0:0:
