osu file format v14

[General]
AudioFilename: audio.mp3
AudioLeadIn: 0
PreviewTime: 20185
Countdown: 0
SampleSet: Normal
StackLeniency: 0.7
Mode: 0
LetterboxInBreaks: 0
WidescreenStoryboard: 0

[Editor]
Bookmarks: 5555,20739,32591,44443,56295,68147,79998,91850
DistanceSpacing: 4
BeatDivisor: 2
GridSize: 4
TimelineZoom: 1.3

[Metadata]
Title:We Are The Strongest
TitleUnicode:We Are The Strongest
Artist:UN. Owen Was Mashup?
ArtistUnicode:UN. Owen Was Mashup?
Creator:EmeraldStar82
Version:Strongest
Source:Soundcloud
Tags:Cirno's Perfect Math Class Cirno Meme Robbie Robby Rotten Lazytown Lazy Town Number One
BeatmapID:1173401
BeatmapSetID:554244

[Difficulty]
HPDrainRate:8
CircleSize:4
OverallDifficulty:7
ApproachRate:9.4
SliderMultiplier:1.4
SliderTickRate:2

[Events]
//Background and Video events
0,0,"why.jpg",0,0
//Break Periods
//Storyboard Layer 0 (Background)
//Storyboard Layer 1 (Fail)
//Storyboard Layer 2 (Pass)
//Storyboard Layer 3 (Foreground)
//Storyboard Sound Samples

[TimingPoints]
0,370.37037037037,4,1,0,100,1,0
20185,-100,4,1,0,25,0,0
20370,-100,4,1,0,50,0,0
20555,-100,4,1,0,75,0,0
20740,-100,4,1,0,100,0,0
44444,-66.6666666666667,4,1,0,100,0,0
68148,-50,4,1,0,100,0,1
93333,-50,4,1,0,100,0,0

[HitObjects]
116,92,5554,5,4,0:0:0:0:
352,112,5924,5,8,0:0:0:0:
260,192,6110,1,0,0:0:0:0:
368,244,6295,1,0,0:0:0:0:
272,312,6480,2,2,P|212:300|172:232,1,140,0|0,0:0|0:0,0:0:0:0:
228,132,7036,1,0,0:0:0:0:
412,284,7406,5,8,0:0:0:0:
316,356,7591,1,0,0:0:0:0:
244,260,7776,1,0,0:0:0:0:
168,352,7961,2,2,P|80:304|112:240,1,140
164,196,8517,1,0,0:0:0:0:
228,296,8702,1,0,0:0:0:0:
108,304,8887,1,8,0:0:0:0:
76,188,9073,1,0,0:0:0:0:
192,160,9258,1,0,0:0:0:0:
296,220,9443,2,2,B|336:276|336:276|424:224,1,140
468,140,9998,1,8,0:0:0:0:
154,331,10370,5,8,0:0:0:0:
256,19,10555,1,8,0:0:0:0:
357,331,10740,1,8,0:0:0:0:
91,138,10925,1,8,0:0:0:0:
420,138,11110,1,8,0:0:0:0:
48,268,11480,1,12,0:0:0:0:
280,312,11850,5,8,0:0:0:0:
392,184,12036,1,0,0:0:0:0:
276,60,12221,1,0,0:0:0:0:
108,68,12406,2,2,P|144:144|196:132,1,140
324,44,12961,1,0,0:0:0:0:
80,152,13332,5,8,0:0:0:0:
240,252,13517,1,0,0:0:0:0:
60,308,13702,1,0,0:0:0:0:
244,340,13888,2,2,B|176:320|176:320|176:248,1,140
332,156,14443,1,0,0:0:0:0:
144,140,14628,1,0,0:0:0:0:
312,264,14813,1,8,0:0:0:0:
164,112,14998,1,0,0:0:0:0:
188,320,15184,1,0,0:0:0:0:
372,216,15369,2,2,B|329:244|264:252|208:244,1,140
108,88,15924,1,0,0:0:0:0:
416,40,16295,5,8,0:0:0:0:
40,208,16481,1,8,0:0:0:0:
436,144,16666,1,8,0:0:0:0:
64,328,16851,1,8,0:0:0:0:
460,268,17037,1,8,0:0:0:0:
16,112,17407,1,12,0:0:0:0:
356,72,17776,5,0,2:2:0:0:
328,128,17961,1,0,2:2:0:0:
272,156,18147,1,0,2:2:0:0:
208,164,18332,1,0,2:2:0:0:
156,200,18517,1,0,2:2:0:0:
136,260,18702,1,0,2:2:0:0:
164,316,18887,1,0,2:2:0:0:
224,332,19073,1,0,2:2:0:0:
284,320,19258,5,0,2:2:0:0:
340,292,19443,1,0,2:2:0:0:
364,236,19628,1,0,2:2:0:0:
352,176,19813,1,0,2:2:0:0:
304,136,19998,1,0,2:2:0:0:
244,120,20184,1,0,0:0:0:0:
160,152,20369,1,0,0:0:0:0:
84,236,20554,1,0,0:0:0:0:
28,356,20739,6,2,P|116:292|140:236,1,140,10|10,0:0|0:0,0:0:0:0:
376,72,21295,1,0,0:0:0:0:
68,208,21481,1,8,0:0:0:0:
424,184,21665,1,0,0:0:0:0:
60,60,21851,1,8,0:0:0:0:
336,280,22036,1,0,0:0:0:0:
36,144,22221,2,2,B|128:176|217:154|320:188,1,280,8|0,0:0|0:0,0:0:0:0:
412,72,23147,5,0,0:0:0:0:
176,344,23332,1,0,0:0:0:0:
204,36,23517,1,0,0:0:0:0:
428,328,23702,2,10,P|352:312|312:248,1,140
348,136,24258,1,0,0:0:0:0:
100,40,24443,5,8,0:0:0:0:
396,336,24628,1,0,0:0:0:0:
52,216,24814,1,8,0:0:0:0:
432,152,24998,1,0,0:0:0:0:
156,348,25185,1,8,0:0:0:0:
324,88,25554,1,8,0:0:0:0:
116,176,25925,1,8,0:0:0:0:
384,188,26295,5,8,0:0:0:0:
136,280,26665,2,2,B|264:208|264:208|352:320,1,280
432,212,27591,1,0,0:0:0:0:
316,144,27776,1,0,0:0:0:0:
428,72,27961,1,0,0:0:0:0:
300,40,28147,5,8,0:0:0:0:
128,132,28332,1,0,0:0:0:0:
312,196,28517,1,0,0:0:0:0:
72,292,28702,5,0,0:0:0:0:
388,288,28887,1,8,0:0:0:0:
192,116,29073,1,0,0:0:0:0:
444,60,29258,6,2,P|340:68|296:116,1,140,2|10,0:0|0:0,0:0:0:0:
28,100,29813,1,0,0:0:0:0:
312,148,29998,1,0,0:0:0:0:
32,220,30184,1,0,0:0:0:0:
276,72,30369,5,8,0:0:0:0:
408,232,30554,1,0,0:0:0:0:
232,108,30739,1,0,0:0:0:0:
40,260,30924,1,0,0:0:0:0:
472,32,31111,6,2,P|380:48|356:100,1,140,10|2,0:0|0:0,0:0:0:0:
44,180,31665,1,0,0:0:0:0:
476,112,31851,2,0,P|388:136|364:212,1,140,8|0,0:0|0:0,0:0:0:0:
356,332,32406,1,0,0:0:0:0:
484,28,32591,6,10,B|441:29|376:68|372:148,1,140,8|8,0:0|0:0,0:0:0:0:
108,296,33147,1,0,0:0:0:0:
444,176,33333,1,8,0:0:0:0:
88,200,33517,1,0,0:0:0:0:
448,276,33703,1,8,0:0:0:0:
60,76,33888,1,0,0:0:0:0:
476,240,34074,2,2,B|384:208|384:208|336:260|288:256|192:196,1,280,10|2,0:0|0:0,0:0:0:0:
200,340,34999,5,0,0:0:0:0:
416,40,35184,1,0,0:0:0:0:
32,304,35369,1,0,0:0:0:0:
84,56,35555,2,10,P|160:72|200:136,1,140
400,272,36110,1,0,0:0:0:0:
112,348,36295,5,8,0:0:0:0:
116,48,36480,1,0,0:0:0:0:
460,168,36665,1,8,0:0:0:0:
80,232,36850,1,0,0:0:0:0:
356,36,37036,1,8,0:0:0:0:
188,296,37406,1,8,0:0:0:0:
396,208,37777,1,8,0:0:0:0:
128,196,38148,5,8,0:0:0:0:
376,104,38517,2,2,B|312:163|248:176|248:176|230:102|160:64,1,280
80,172,39443,1,0,0:0:0:0:
196,240,39628,1,0,0:0:0:0:
84,312,39813,1,0,0:0:0:0:
212,344,39999,5,8,0:0:0:0:
384,252,40184,1,0,0:0:0:0:
200,188,40369,1,0,0:0:0:0:
440,92,40554,5,0,0:0:0:0:
124,96,40739,1,8,0:0:0:0:
320,268,40925,1,0,0:0:0:0:
68,324,41111,6,2,P|172:316|216:268,1,140,2|10,0:0|0:0,0:0:0:0:
484,284,41665,1,0,0:0:0:0:
200,236,41850,1,0,0:0:0:0:
480,164,42036,1,0,0:0:0:0:
236,312,42221,5,8,0:0:0:0:
220,24,42406,1,0,0:0:0:0:
280,276,42591,1,0,0:0:0:0:
280,16,42776,1,0,0:0:0:0:
40,352,42962,6,2,P|132:336|156:284,1,140,10|2,0:0|0:0,0:0:0:0:
468,204,43517,1,0,0:0:0:0:
36,272,43703,2,0,P|124:248|148:172,1,140,8|0,0:0|0:0,0:0:0:0:
156,52,44258,1,0,0:0:0:0:
28,356,44443,6,10,B|92:320|92:320|144:236,1,140
376,72,44999,1,0,0:0:0:0:
68,208,45184,1,8,0:0:0:0:
424,184,45369,1,0,0:0:0:0:
60,60,45555,1,8,0:0:0:0:
336,280,45740,1,0,0:0:0:0:
36,144,45925,2,2,B|184:192|184:192|136:104|136:104|360:196,1,420.000016021729,10|2,0:0|0:0,0:0:0:0:
32,272,46851,5,0,0:0:0:0:
472,260,47036,1,0,0:0:0:0:
204,36,47221,1,0,0:0:0:0:
428,328,47407,2,10,B|408:244|332:208|216:252,1,210.000008010865
348,136,47962,1,0,0:0:0:0:
100,40,48147,5,8,0:0:0:0:
396,336,48332,1,0,0:0:0:0:
52,216,48517,1,8,0:0:0:0:
432,152,48702,1,0,0:0:0:0:
156,348,48888,1,8,0:0:0:0:
324,88,49259,1,8,0:0:0:0:
116,176,49628,1,8,0:0:0:0:
384,188,49999,5,8,0:0:0:0:
136,280,50369,2,2,B|160:204|224:168|252:256|252:256|328:176|408:216|368:352,1,420.000016021729
432,212,51295,1,0,0:0:0:0:
316,144,51480,1,0,0:0:0:0:
428,72,51665,1,0,0:0:0:0:
300,40,51851,5,8,0:0:0:0:
128,132,52036,1,0,0:0:0:0:
312,196,52221,1,0,0:0:0:0:
44,216,52406,5,0,0:0:0:0:
296,340,52591,1,8,0:0:0:0:
192,116,52777,1,0,0:0:0:0:
448,72,52962,6,2,P|424:152|300:128,1,210.000008010865,2|10,0:0|0:0,0:0:0:0:
28,100,53517,1,0,0:0:0:0:
312,148,53702,1,0,0:0:0:0:
32,220,53888,1,0,0:0:0:0:
276,72,54074,5,8,0:0:0:0:
460,344,54258,1,0,0:0:0:0:
232,108,54443,1,0,0:0:0:0:
20,360,54628,1,0,0:0:0:0:
476,44,54814,6,2,P|456:124|308:112,1,210.000008010865,10|2,0:0|0:0,0:0:0:0:
44,180,55369,1,0,0:0:0:0:
380,56,55554,2,0,B|284:40|204:124|292:232,1,210.000008010865,8|0,0:0|0:0,0:0:0:0:
56,344,56110,1,0,0:0:0:0:
472,340,56295,6,2,B|472:264|446:217|388:192|296:212,1,210.000008010865,10|10,0:0|0:0,0:0:0:0:
136,312,56851,1,0,0:0:0:0:
444,176,57036,1,8,0:0:0:0:
88,200,57221,1,0,0:0:0:0:
452,324,57406,1,8,0:0:0:0:
176,104,57592,1,0,0:0:0:0:
476,240,57777,2,2,B|408:244|408:244|360:200|360:200|288:224|288:224|276:152|276:152|204:176|204:176|180:128|180:128|168:88,1,420.000016021729,10|2,0:0|0:0,0:0:0:0:
100,312,58703,5,0,0:0:0:0:
336,40,58888,1,0,0:0:0:0:
308,348,59073,1,0,0:0:0:0:
84,56,59258,2,10,B|108:112|228:108|296:32,1,210.000008010865
164,248,59814,1,0,0:0:0:0:
412,344,60000,5,8,0:0:0:0:
116,48,60184,1,0,0:0:0:0:
460,168,60370,1,8,0:0:0:0:
80,232,60554,1,0,0:0:0:0:
356,36,60740,1,8,0:0:0:0:
188,296,61110,1,8,0:0:0:0:
396,208,61480,1,8,0:0:0:0:
128,196,61851,5,8,0:0:0:0:
376,104,62221,2,2,B|292:184|292:184|216:120|216:120|104:148|104:148|112:40,1,420.000016021729,10|2,0:0|0:0,0:0:0:0:
80,172,63147,1,0,0:0:0:0:
196,240,63332,1,0,0:0:0:0:
84,312,63517,1,0,0:0:0:0:
212,344,63703,5,8,0:0:0:0:
384,252,63888,1,0,0:0:0:0:
200,188,64073,1,0,0:0:0:0:
440,92,64258,5,0,0:0:0:0:
124,96,64444,1,8,0:0:0:0:
320,268,64629,1,0,0:0:0:0:
68,324,64814,6,2,B|156:316|156:316|240:376|240:252,1,210.000008010865,2|10,0:0|0:0,0:0:0:0:
484,284,65369,1,0,0:0:0:0:
200,236,65554,1,0,0:0:0:0:
480,164,65740,1,0,0:0:0:0:
256,344,65925,5,8,0:0:0:0:
100,28,66110,1,0,0:0:0:0:
256,344,66295,1,0,0:0:0:0:
420,32,66480,1,0,0:0:0:0:
140,340,66666,6,2,B|220:372|300:320|304:216,1,210.000008010865,10|2,0:0|0:0,0:0:0:0:
468,204,67221,1,0,0:0:0:0:
120,256,67407,2,0,B|208:280|268:200|276:112,1,210.000008010865,8|0,0:0|0:0,0:0:0:0:
156,52,67962,1,0,0:0:0:0:
28,356,68147,6,10,P|44:256|140:236,1,210.000008010865
376,72,68703,1,0,0:0:0:0:
68,208,68888,1,8,0:0:0:0:
424,184,69073,1,0,0:0:0:0:
60,60,69258,1,8,0:0:0:0:
336,280,69444,1,0,0:0:0:0:
28,144,69629,2,2,B|72:312|256:324|356:320|401:210|456:48,1,560,10|2,0:0|0:0,0:0:0:0:
44,32,70555,5,0,0:0:0:0:
176,344,70740,1,0,0:0:0:0:
324,24,70925,1,0,0:0:0:0:
428,328,71110,2,10,P|332:332|440:232,1,280
380,272,71666,1,0,0:0:0:0:
100,40,71851,5,8,0:0:0:0:
396,336,72036,1,0,0:0:0:0:
52,216,72221,1,8,0:0:0:0:
432,152,72406,1,0,0:0:0:0:
156,348,72592,1,8,0:0:0:0:
324,88,72962,1,8,0:0:0:0:
116,176,73332,1,8,0:0:0:0:
160,248,73424,1,0,0:0:0:0:
236,280,73517,1,0,0:0:0:0:
312,244,73610,1,0,0:0:0:0:
384,188,73703,5,8,0:0:0:0:
136,280,74074,2,2,B|136:28|248:24|424:48|388:392,1,560,10|2,0:0|0:0,0:0:0:0:
36,244,74999,1,0,0:0:0:0:
256,136,75184,1,0,0:0:0:0:
428,72,75369,1,0,0:0:0:0:
300,40,75555,5,8,0:0:0:0:
128,92,75740,1,0,0:0:0:0:
384,124,75925,1,0,0:0:0:0:
52,212,76110,5,0,0:0:0:0:
436,196,76295,1,8,0:0:0:0:
76,300,76481,1,0,0:0:0:0:
444,60,76666,6,2,P|448:196|296:116,1,280,2|10,0:0|0:0,0:0:0:0:
28,100,77221,1,0,0:0:0:0:
364,120,77406,1,0,0:0:0:0:
32,220,77592,1,0,0:0:0:0:
276,72,77777,5,8,0:0:0:0:
472,340,77962,1,0,0:0:0:0:
172,52,78147,1,0,0:0:0:0:
20,360,78332,1,0,0:0:0:0:
400,172,78518,6,2,P|308:188|408:288,1,280,10|2,0:0|0:0,0:0:0:0:
44,180,79073,1,0,0:0:0:0:
476,120,79258,1,8,0:0:0:0:
388,176,79350,1,0,0:0:0:0:
288,204,79443,1,0,0:0:0:0:
184,228,79536,1,0,0:0:0:0:
112,304,79628,1,8,0:0:0:0:
356,332,79814,1,0,0:0:0:0:
256,28,80000,6,10,P|168:92|276:180,1,280
136,312,80554,1,0,0:0:0:0:
444,176,80739,1,8,0:0:0:0:
88,200,80924,1,0,0:0:0:0:
452,324,81109,1,8,0:0:0:0:
176,104,81295,1,0,0:0:0:0:
36,144,81480,2,2,B|40:372|380:372|384:112,1,560,10|2,0:0|0:0,0:0:0:0:
100,312,82406,5,0,0:0:0:0:
336,40,82591,1,0,0:0:0:0:
308,348,82776,1,0,0:0:0:0:
84,56,82961,2,10,B|160:72|208:148|208:148|220:220|304:56,1,280
164,248,83517,1,0,0:0:0:0:
412,344,83702,5,8,0:0:0:0:
116,48,83887,1,0,0:0:0:0:
460,168,84074,1,8,0:0:0:0:
80,232,84257,1,0,0:0:0:0:
356,36,84443,1,8,0:0:0:0:
188,296,84814,1,8,0:0:0:0:
396,208,85183,1,8,0:0:0:0:
364,92,85276,1,0,0:0:0:0:
256,44,85369,1,0,0:0:0:0:
140,68,85461,1,0,0:0:0:0:
60,156,85554,1,8,0:0:0:0:
136,280,85925,6,2,B|256:32|256:32|352:320,1,560,10|2,0:0|0:0,0:0:0:0:
80,172,86850,1,0,0:0:0:0:
368,204,87035,1,0,0:0:0:0:
48,336,87220,1,0,0:0:0:0:
440,336,87406,5,8,0:0:0:0:
60,248,87591,1,0,0:0:0:0:
432,148,87776,1,0,0:0:0:0:
52,44,87961,5,0,0:0:0:0:
420,60,88146,1,8,0:0:0:0:
128,240,88332,1,0,0:0:0:0:
444,324,88517,6,2,P|276:316|164:352,1,280,2|10,0:0|0:0,0:0:0:0:
80,64,89072,1,0,0:0:0:0:
456,256,89257,1,0,0:0:0:0:
60,212,89443,1,0,0:0:0:0:
456,136,89628,5,8,0:0:0:0:
24,24,89813,1,0,0:0:0:0:
252,344,89998,1,0,0:0:0:0:
492,20,90183,1,0,0:0:0:0:
64,128,90369,6,2,P|208:104|320:8,1,280,10|2,0:0|0:0,0:0:0:0:
468,204,90924,1,0,0:0:0:0:
112,320,91111,2,0,P|200:296|348:156,1,280,8|0,0:0|0:0,0:0:0:0:
156,52,91665,1,0,0:0:0:0:
392,52,91850,6,2,P|288:84|108:192,1,280,10|2,0:0|0:0,0:0:0:0:
416,324,92406,1,0,0:0:0:0:
80,76,92591,2,0,P|184:40|368:124,1,280,8|0,0:0|0:0,0:0:0:0:
68,328,93147,1,0,0:0:0:0:
396,28,93332,1,8,0:0:0:0:
255,370,93517,1,8,0:0:0:0:
120,28,93702,1,8,0:0:0:0:
483,247,93887,1,8,0:0:0:0:
28,248,94073,1,8,0:0:0:0:
448,36,94443,5,12,0:0:0:0:
48,352,94813,5,12,0:0:0:0:
