osu file format v14

[General]
AudioFilename: audio.mp3
AudioLeadIn: 0
PreviewTime: 20185
Countdown: 0
SampleSet: Normal
StackLeniency: 0.7
Mode: 0
LetterboxInBreaks: 0
WidescreenStoryboard: 1

[Editor]
Bookmarks: 5555,20739,32591,44443,56295,68147,79998,91850
DistanceSpacing: 1.9
BeatDivisor: 2
GridSize: 4
TimelineZoom: 1.3

[Metadata]
Title:We Are The Strongest
TitleUnicode:We Are The Strongest
Artist:UN. Owen Was Mashup?
ArtistUnicode:UN. Owen Was Mashup?
Creator:EmeraldStar82
Version:Stronger
Source:Soundcloud
Tags:Cirno's Perfect Math Class Cirno Meme Robbie Robby Rotten Lazytown Lazy Town Number Oneo
BeatmapID:1173882
BeatmapSetID:554244

[Difficulty]
HPDrainRate:7
CircleSize:4
OverallDifficulty:6
ApproachRate:9
SliderMultiplier:1.4
SliderTickRate:1

[Events]
//Background and Video events
0,0,"why.jpg",0,0
//Break Periods
//Storyboard Layer 0 (Background)
//Storyboard Layer 1 (Fail)
//Storyboard Layer 2 (Pass)
//Storyboard Layer 3 (Foreground)
//Storyboard Sound Samples

[TimingPoints]
0,370.37037037037,4,1,0,100,1,0
20185,-100,4,1,0,25,0,0
20370,-100,4,1,0,50,0,0
20555,-100,4,1,0,75,0,0
20740,-100,4,1,0,100,0,0
44444,-66.6666666666667,4,1,0,100,0,0
68148,-50,4,1,0,100,0,0

[HitObjects]
248,40,5554,5,4,0:0:0:0:
124,128,5924,5,8,0:0:0:0:
244,188,6110,1,0,0:0:0:0:
360,248,6295,1,0,0:0:0:0:
252,328,6480,2,2,P|192:316|152:248,1,140
244,248,7036,1,0,0:0:0:0:
412,80,7406,5,8,0:0:0:0:
292,76,7591,1,0,0:0:0:0:
364,172,7776,1,0,0:0:0:0:
244,168,7961,2,2,P|168:96|204:52,1,140
36,88,8517,1,0,0:0:0:0:
68,216,8702,1,0,0:0:0:0:
180,288,8887,1,8,0:0:0:0:
312,296,9073,1,0,0:0:0:0:
436,252,9258,1,0,0:0:0:0:
472,124,9443,2,2,B|432:68|432:68|344:120,1,140
288,32,9998,1,8,0:0:0:0:
184,248,10369,5,8,0:0:0:0:
248,148,10554,1,8,0:0:0:0:
284,260,10739,1,8,0:0:0:0:
196,180,10924,1,8,0:0:0:0:
316,184,11110,1,8,0:0:0:0:
104,76,11480,1,12,0:0:0:0:
340,64,11850,5,8,0:0:0:0:
420,152,12036,1,0,0:0:0:0:
300,148,12221,1,0,0:0:0:0:
352,256,12406,2,2,P|424:256|440:320,1,140
324,44,12961,1,0,0:0:0:0:
80,152,13332,5,8,0:0:0:0:
188,200,13517,1,0,0:0:0:0:
88,264,13702,1,0,0:0:0:0:
204,284,13888,2,2,B|272:264|272:264|272:192,1,140
348,100,14443,1,0,0:0:0:0:
196,100,14628,1,0,0:0:0:0:
332,172,14813,1,8,0:0:0:0:
180,172,14998,1,0,0:0:0:0:
316,248,15184,1,0,0:0:0:0:
164,256,15369,2,2,B|272:272|168:312|288:360,1,140
252,192,15924,1,0,0:0:0:0:
260,48,16295,5,8,0:0:0:0:
116,180,16480,1,8,0:0:0:0:
304,128,16665,1,8,0:0:0:0:
168,268,16850,1,8,0:0:0:0:
352,196,17036,1,8,0:0:0:0:
56,72,17406,1,12,0:0:0:0:
296,64,17777,6,0,L|216:96,1,70,0|0,2:2|2:2,2:2:0:0:
112,248,18148,2,0,L|192:196,1,70,0|0,2:2|2:2,2:2:0:0:
364,252,18518,2,0,L|288:200,1,70,0|0,2:2|2:2,2:2:0:0:
152,336,18888,2,0,L|220:288,1,70,0|0,2:2|2:2,2:2:0:0:
284,64,19261,5,0,2:2:0:0:
340,92,19446,1,0,2:2:0:0:
364,148,19630,1,0,2:2:0:0:
352,208,19815,1,0,2:2:0:0:
304,248,20000,1,0,2:2:0:0:
244,264,20185,1,0,2:2:0:0:
160,232,20370,1,0,2:2:0:0:
84,148,20554,1,0,2:2:0:0:
280,128,20740,6,2,P|300:52|356:44,1,140,10|10,0:0|0:0,0:0:0:0:
376,124,21295,1,0,0:0:0:0:
196,200,21480,1,8,0:0:0:0:
296,32,21665,1,0,0:0:0:0:
380,208,21850,1,8,0:0:0:0:
216,96,22036,1,0,0:0:0:0:
36,144,22221,2,2,B|128:176|217:154|320:188,1,280,10|2,0:0|0:0,0:0:0:0:
412,72,23147,5,0,0:0:0:0:
260,196,23332,1,0,0:0:0:0:
356,24,23517,1,0,0:0:0:0:
196,140,23702,2,2,P|136:136|96:72,1,140,10|10,0:0|0:0,0:0:0:0:
348,136,24258,1,0,0:0:0:0:
172,52,24443,5,8,0:0:0:0:
312,188,24628,1,0,0:0:0:0:
116,188,24813,1,8,0:0:0:0:
280,80,24998,1,0,0:0:0:0:
216,268,25184,1,8,0:0:0:0:
368,120,25554,1,8,0:0:0:0:
128,92,25924,1,8,0:0:0:0:
320,312,26295,5,8,0:0:0:0:
136,280,26665,2,2,B|256:352|256:352|380:248,1,280
468,136,27591,1,0,0:0:0:0:
284,200,27776,1,0,0:0:0:0:
404,44,27961,1,0,0:0:0:0:
444,236,28147,5,8,0:0:0:0:
260,304,28332,1,0,0:0:0:0:
80,224,28517,1,0,0:0:0:0:
148,40,28702,5,0,0:0:0:0:
344,48,28887,1,8,0:0:0:0:
372,244,29073,1,0,0:0:0:0:
444,60,29258,6,2,P|340:68|296:116,1,140,2|10,0:0|0:0,0:0:0:0:
120,100,29813,1,0,0:0:0:0:
308,152,29998,1,0,0:0:0:0:
120,100,30184,1,0,0:0:0:0:
308,152,30369,5,8,0:0:0:0:
120,100,30554,1,0,0:0:0:0:
308,152,30739,1,0,0:0:0:0:
132,236,30924,1,0,0:0:0:0:
328,236,31111,6,2,P|312:268|212:304,1,140,10|2,0:0|0:0,0:0:0:0:
164,120,31665,1,0,0:0:0:0:
348,48,31850,2,0,P|352:104|236:148,1,140,8|0,0:0|0:0,0:0:0:0:
416,312,32406,1,0,0:0:0:0:
440,156,32592,6,2,B|412:228|328:276,1,140,10|10,0:0|0:0,0:0:0:0:
212,120,33147,1,0,0:0:0:0:
200,316,33332,1,8,0:0:0:0:
52,212,33517,1,0,0:0:0:0:
152,44,33702,1,8,0:0:0:0:
232,224,33888,1,0,0:0:0:0:
352,68,34074,2,2,B|280:68|280:68|216:108|156:68|156:68|80:68,1,280,10|2,0:0|0:0,0:0:0:0:
200,340,34999,5,0,0:0:0:0:
312,192,35184,1,0,0:0:0:0:
136,244,35369,1,0,0:0:0:0:
284,116,35554,2,2,P|360:132|400:196,1,140,10|10,0:0|0:0,0:0:0:0:
248,312,36110,1,0,0:0:0:0:
172,132,36295,5,8,0:0:0:0:
340,232,36480,1,0,0:0:0:0:
148,188,36665,1,8,0:0:0:0:
332,124,36850,1,0,0:0:0:0:
208,280,37036,1,8,0:0:0:0:
240,44,37406,1,8,0:0:0:0:
368,284,37776,1,8,0:0:0:0:
80,144,38147,5,8,0:0:0:0:
376,104,38518,2,2,B|332:154|332:154|272:176|272:176|256:176|256:176|230:102|230:102|156:100,1,280
80,172,39443,1,0,0:0:0:0:
196,240,39628,1,0,0:0:0:0:
84,312,39813,1,0,0:0:0:0:
212,344,39999,5,8,0:0:0:0:
392,268,40184,1,0,0:0:0:0:
208,200,40369,1,0,0:0:0:0:
396,140,40554,5,0,0:0:0:0:
208,84,40739,1,8,0:0:0:0:
400,40,40925,1,0,0:0:0:0:
68,324,41111,6,2,P|172:316|216:268,1,140,2|10,0:0|0:0,0:0:0:0:
392,268,41665,1,0,0:0:0:0:
252,132,41850,1,0,0:0:0:0:
64,68,42036,1,0,0:0:0:0:
72,264,42221,5,8,0:0:0:0:
256,328,42406,1,0,0:0:0:0:
452,324,42591,1,0,0:0:0:0:
288,220,42776,1,0,0:0:0:0:
124,112,42962,6,2,P|164:64|240:44,1,140,10|2,0:0|0:0,0:0:0:0:
272,236,43517,1,0,0:0:0:0:
432,348,43702,2,0,P|404:268|320:248,1,140,8|0,0:0|0:0,0:0:0:0:
192,140,44258,1,0,0:0:0:0:
152,332,44443,6,2,B|176:264|176:264|268:212,1,140,10|10,0:0|0:0,0:0:0:0:
324,100,44999,1,0,0:0:0:0:
136,168,45184,1,8,0:0:0:0:
328,220,45369,1,0,0:0:0:0:
216,56,45554,1,8,0:0:0:0:
228,348,45740,1,0,0:0:0:0:
372,208,45925,2,2,B|256:136|256:136|152:248|152:248|36:164,1,420.000016021729,10|2,0:0|0:0,0:0:0:0:
132,120,46851,5,0,0:0:0:0:
276,244,47036,1,0,0:0:0:0:
348,96,47221,1,0,0:0:0:0:
140,228,47407,2,2,B|160:312|236:348|352:304,1,210.000008010865,10|10,0:0|0:0,0:0:0:0:
360,132,47962,1,0,0:0:0:0:
188,84,48147,5,8,0:0:0:0:
320,240,48332,1,0,0:0:0:0:
112,164,48517,1,8,0:0:0:0:
320,100,48702,1,0,0:0:0:0:
176,276,48888,1,8,0:0:0:0:
212,64,49258,1,8,0:0:0:0:
212,64,49628,1,8,0:0:0:0:
304,104,49999,5,8,0:0:0:0:
100,200,50370,2,2,B|124:124|172:216|172:216|216:176|216:176|268:264|268:264|372:136|332:272,1,420.000016021729
432,176,51295,1,0,0:0:0:0:
264,48,51480,1,0,0:0:0:0:
68,124,51665,1,0,0:0:0:0:
56,336,51851,5,8,0:0:0:0:
88,128,52036,1,0,0:0:0:0:
280,40,52221,1,0,0:0:0:0:
436,180,52406,5,0,0:0:0:0:
264,300,52591,1,8,0:0:0:0:
436,180,52777,1,0,0:0:0:0:
276,48,52962,6,2,P|252:128|128:104,1,210.000008010865,2|10,0:0|0:0,0:0:0:0:
76,72,53517,1,0,0:0:0:0:
236,208,53702,1,0,0:0:0:0:
36,136,53888,1,0,0:0:0:0:
232,60,54073,5,8,0:0:0:0:
348,236,54258,1,0,0:0:0:0:
232,60,54443,1,0,0:0:0:0:
96,220,54628,1,0,0:0:0:0:
300,172,54814,6,2,P|280:252|132:240,1,210.000008010865,10|2,0:0|0:0,0:0:0:0:
116,68,55369,1,0,0:0:0:0:
160,272,55554,2,0,B|256:288|336:204|248:96,1,210.000008010865,8|0,0:0|0:0,0:0:0:0:
80,88,56110,1,0,0:0:0:0:
252,208,56295,6,2,B|252:284|278:331|336:356|428:336,1,210.000008010865,10|10,0:0|0:0,0:0:0:0:
172,292,56851,1,0,0:0:0:0:
376,240,57036,1,8,0:0:0:0:
176,176,57221,1,0,0:0:0:0:
372,104,57406,1,8,0:0:0:0:
168,56,57592,1,0,0:0:0:0:
320,204,57777,2,2,B|212:268|212:268|204:164|116:160|48:140|24:92|12:52,1,420.000016021729,10|2,0:0|0:0,0:0:0:0:
112,256,58703,5,0,0:0:0:0:
244,92,58888,1,0,0:0:0:0:
360,268,59073,1,0,0:0:0:0:
464,84,59258,2,2,B|416:36|388:96|388:96|352:144|292:92,1,210.000008010865,10|10,0:0|0:0,0:0:0:0:
148,248,59814,1,0,0:0:0:0:
316,124,59999,5,8,0:0:0:0:
108,156,60184,1,0,0:0:0:0:
304,228,60369,1,8,0:0:0:0:
80,232,60554,1,0,0:0:0:0:
232,84,60740,1,8,0:0:0:0:
188,296,61110,1,8,0:0:0:0:
392,288,61480,1,8,0:0:0:0:
196,52,61851,5,8,0:0:0:0:
376,104,62221,2,2,B|292:184|292:184|216:120|104:148|104:148|112:40,1,420.000016021729,10|2,0:0|0:0,0:0:0:0:
92,252,63147,1,0,0:0:0:0:
300,252,63332,1,0,0:0:0:0:
104,324,63517,1,0,0:0:0:0:
316,328,63703,5,8,0:0:0:0:
116,272,63888,1,0,0:0:0:0:
312,192,64073,1,0,0:0:0:0:
108,148,64258,5,0,0:0:0:0:
308,88,64443,1,8,0:0:0:0:
100,64,64629,1,0,0:0:0:0:
68,324,64814,6,2,B|156:316|156:316|240:376|240:252,1,210.000008010865,2|10,0:0|0:0,0:0:0:0:
484,284,65369,1,0,0:0:0:0:
300,188,65554,1,0,0:0:0:0:
480,164,65740,1,0,0:0:0:0:
300,60,65925,5,8,0:0:0:0:
508,52,66110,1,0,0:0:0:0:
312,124,66295,1,0,0:0:0:0:
104,100,66480,1,0,0:0:0:0:
116,312,66666,6,2,B|196:344|276:292|280:188,1,210.000008010865,10|2,0:0|0:0,0:0:0:0:
384,44,67221,1,0,0:0:0:0:
275,223,67406,2,0,B|363:247|423:167|431:79,1,210.000008010865,8|0,0:0|0:0,0:0:0:0:
220,68,67962,1,0,0:0:0:0:
240,276,68147,6,2,P|256:176|352:156,1,210.000008010865,10|10,0:0|0:0,0:0:0:0:
52,344,68703,1,0,0:0:0:0:
228,40,68888,1,8,0:0:0:0:
468,292,69073,1,0,0:0:0:0:
124,356,69258,1,8,0:0:0:0:
452,232,69444,1,0,0:0:0:0:
104,188,69629,2,2,B|148:20|332:8|432:12|477:122|296:348,1,560,10|2,0:0|0:0,0:0:0:0:
48,96,70555,5,0,0:0:0:0:
312,324,70740,1,0,0:0:0:0:
108,40,70925,1,0,0:0:0:0:
428,328,71110,2,2,P|332:332|440:232,1,280,10|10,0:0|0:0,0:0:0:0:
380,272,71666,1,0,0:0:0:0:
132,144,71851,5,8,0:0:0:0:
408,100,72036,1,0,0:0:0:0:
224,312,72221,1,8,0:0:0:0:
496,252,72406,1,0,0:0:0:0:
248,116,72592,1,8,0:0:0:0:
132,64,72962,1,8,0:0:0:0:
116,176,73332,1,8,0:0:0:0:
132,212,73424,1,0,0:0:0:0:
168,232,73517,1,0,0:0:0:0:
208,236,73610,1,0,0:0:0:0:
248,228,73703,5,8,0:0:0:0:
80,228,74073,2,2,B|80:-24|220:156|220:156|368:-4|332:340,1,560,10|2,0:0|0:0,0:0:0:0:
256,276,74999,1,0,0:0:0:0:
248,192,75184,1,0,0:0:0:0:
324,160,75369,1,0,0:0:0:0:
388,216,75555,5,8,0:0:0:0:
344,288,75740,1,0,0:0:0:0:
384,124,75925,1,0,0:0:0:0:
340,196,76110,5,0,0:0:0:0:
400,256,76295,1,8,0:0:0:0:
316,252,76481,1,0,0:0:0:0:
444,60,76666,6,2,P|448:196|296:116,1,280,2|10,0:0|0:0,0:0:0:0:
256,168,77221,1,0,0:0:0:0:
336,144,77406,1,0,0:0:0:0:
264,104,77592,1,0,0:0:0:0:
56,116,77777,5,8,0:0:0:0:
224,244,77962,1,0,0:0:0:0:
260,36,78147,1,0,0:0:0:0:
48,48,78333,1,0,0:0:0:0:
236,140,78518,6,2,P|144:156|244:256,1,280,10|2,0:0|0:0,0:0:0:0:
200,200,79073,1,0,0:0:0:0:
476,120,79258,1,8,0:0:0:0:
436,148,79350,1,0,0:0:0:0:
388,164,79443,1,0,0:0:0:0:
344,188,79536,1,0,0:0:0:0:
304,216,79628,1,8,0:0:0:0:
216,168,79814,1,0,0:0:0:0:
224,88,79998,6,2,P|136:152|244:240,1,280
392,84,80554,1,0,0:0:0:0:
328,300,80739,1,8,0:0:0:0:
284,80,80924,1,0,0:0:0:0:
184,280,81109,1,8,0:0:0:0:
176,104,81295,1,0,0:0:0:0:
36,144,81480,2,2,B|40:372|380:372|384:112,1,560,10|2,0:0|0:0,0:0:0:0:
196,244,82406,5,0,0:0:0:0:
352,84,82591,1,0,0:0:0:0:
388,304,82776,1,0,0:0:0:0:
256,124,82962,2,2,B|332:140|380:216|380:216|368:124|476:124,1,280,10|10,0:0|0:0,0:0:0:0:
232,216,83517,1,0,0:0:0:0:
444,292,83702,5,8,0:0:0:0:
296,124,83887,1,0,0:0:0:0:
504,204,84072,1,0,0:0:0:0:
304,308,84257,1,0,0:0:0:0:
428,120,84443,1,8,0:0:0:0:
188,296,84813,1,8,0:0:0:0:
396,208,85183,1,8,0:0:0:0:
368,152,85276,1,0,0:0:0:0:
308,132,85369,1,0,0:0:0:0:
248,152,85461,1,0,0:0:0:0:
216,208,85554,1,8,0:0:0:0:
136,280,85924,6,2,B|248:188|248:188|352:320,2,280,10|2|2,0:0|0:0|0:0,0:0:0:0:
80,172,86850,1,0,0:0:0:0:
288,200,87035,1,0,0:0:0:0:
288,48,87220,1,0,0:0:0:0:
460,168,87406,5,8,0:0:0:0:
256,128,87591,1,0,0:0:0:0:
456,64,87776,1,0,0:0:0:0:
404,268,87961,5,0,0:0:0:0:
208,340,88146,1,8,0:0:0:0:
116,152,88332,1,0,0:0:0:0:
324,180,88517,6,2,B|208:252|208:252|44:208,1,280,2|10,0:0|0:0,0:0:0:0:
80,64,89072,1,0,0:0:0:0:
288,100,89257,1,0,0:0:0:0:
236,304,89443,1,0,0:0:0:0:
408,184,89628,5,8,0:0:0:0:
216,104,89813,1,0,0:0:0:0:
352,264,89998,1,0,0:0:0:0:
408,64,90183,1,0,0:0:0:0:
212,144,90370,6,2,B|296:32|296:32|444:112,1,280,10|2,0:0|0:0,0:0:0:0:
432,308,90924,1,0,0:0:0:0:
112,320,91109,2,0,B|264:308|264:308|328:192,1,280,0|0,0:0|0:0,0:0:0:0:
192,36,91665,1,0,0:0:0:0:
392,52,91850,6,2,P|352:184|176:248,1,280,10|2,0:0|0:0,0:0:0:0:
444,244,92406,1,0,0:0:0:0:
320,92,92591,2,0,P|356:196|192:340,1,280,8|0,0:0|0:0,0:0:0:0:
116,180,93147,1,0,0:0:0:0:
304,88,93332,1,8,0:0:0:0:
200,268,93517,1,8,0:0:0:0:
188,60,93702,1,8,0:0:0:0:
316,224,93887,1,8,0:0:0:0:
104,224,94073,1,8,0:0:0:0:
376,172,94443,5,12,0:0:0:0:
188,216,94813,5,12,0:0:0:0:
