osu file format v14

[General]
AudioFilename: audio.mp3
AudioLeadIn: 0
PreviewTime: 29007
Countdown: 0
SampleSet: Soft
StackLeniency: 0.7
Mode: 0
LetterboxInBreaks: 0
WidescreenStoryboard: 0

[Editor]
Bookmarks: 249,870,7490,14111,29007,32318,48870,58801,73697,88180,92318,93145
DistanceSpacing: 1.6
BeatDivisor: 8
GridSize: 32
TimelineZoom: 3.699999

[Metadata]
Title:Teriskakpai
TitleUnicode:Терісқақпай
Artist:ULYTAU
ArtistUnicode:Ұлытау
Creator:Sieg
Version:Insane
Source:
Tags:cut version улытау терискакпай kazakh dombra violin folk rock instrumental wajinshu bakari riffy kittyadventure gokugohan12468
BeatmapID:1584089
BeatmapSetID:752470

[Difficulty]
HPDrainRate:7
CircleSize:4
OverallDifficulty:8
ApproachRate:9
SliderMultiplier:2
SliderTickRate:1

[Events]
//Background and Video events
0,0,"1.jpg",0,0
//Break Periods
//Storyboard Layer 0 (Background)
//Storyboard Layer 1 (Fail)
//Storyboard Layer 2 (Pass)
//Storyboard Layer 3 (Foreground)
//Storyboard Sound Samples

[TimingPoints]
870,413.793103448276,4,2,1,60,1,0
12456,-76.9230769230769,4,2,1,70,0,0
13076,-100,4,2,1,75,0,0
27352,-83.3333333333333,4,2,1,75,0,0
29007,-66.6666666666667,4,2,1,69,0,0
32318,-66.6666666666667,4,2,1,75,0,1
48870,-83.3333333333333,4,2,1,75,0,0
57973,-66.6666666666667,4,2,1,75,0,0
58801,-66.6666666666667,4,2,1,75,0,1
72973,-66.6666666666667,4,2,1,75,0,0
73594,-66.6666666666667,4,2,1,45,0,0
73694,-83.3333333333333,4,2,1,75,0,0
88180,413.793103448276,4,2,1,75,1,0
93145,-100,4,2,1,5,0,0

[Colours]
Combo1 : 241,207,12
Combo2 : 0,123,167
Combo3 : 163,16,23

[HitObjects]
306,109,249,6,0,P|319:85|358:64,2,50,0|0|8,0:0|0:0|0:0,0:0:0:0:
129,356,870,6,0,P|90:323|38:312,1,100,4|0,0:0|0:0,0:0:0:0:
327,295,1283,2,0,P|340:246|378:208,1,100,8|0,0:0|0:0,0:0:0:0:
105,245,1697,2,0,P|72:206|22:186,1,100,0|0,0:0|0:0,0:0:0:0:
285,191,2111,2,0,P|290:140|320:96,1,100,8|0,0:0|0:0,0:0:0:0:
100,133,2525,2,0,P|74:88|29:61,1,100,0|0,0:0|0:0,0:0:0:0:
226,94,2938,2,0,P|222:43|244:-4,1,100,8|0,0:0|0:0,0:0:0:0:
208,205,3352,2,0,P|203:245|177:214,1,100,0|0,0:0|0:0,0:0:0:0:
311,206,3766,5,8,0:0:0:0:
226,357,3973,1,0,0:0:0:0:
383,356,4180,6,0,P|421:323|473:312,1,100,0|0,0:0|0:0,0:0:0:0:
185,295,4594,2,0,P|171:246|133:208,1,100,8|0,0:0|0:0,0:0:0:0:
407,245,5007,2,0,P|439:206|489:186,1,100,0|0,0:0|0:0,0:0:0:0:
227,191,5421,2,0,P|221:140|191:96,1,100,8|0,0:0|0:0,0:0:0:0:
412,133,5835,2,0,P|437:88|482:61,1,100,0|0,0:0|0:0,0:0:0:0:
286,94,6249,2,0,P|289:43|267:-4,1,100,8|0,0:0|0:0,0:0:0:0:
304,205,6663,2,0,P|308:245|334:214,1,100
201,206,7076,5,8,0:0:0:0:
286,357,7283,1,0,0:0:0:0:
112,357,7490,6,0,P|59:345|10:337,1,100,4|0,0:0|0:0,0:0:0:0:
115,277,7801,1,0,0:0:0:0:
115,277,7904,2,0,L|190:288,1,50,8|0,0:0|0:0,0:0:0:0:
30,231,8111,2,0,B|-3:187|27:110|27:110|21:58|21:58|29:30,1,200,2|0,0:0|0:0,0:0:0:0:
278,60,8732,6,0,P|286:36|304:11,2,50,8|0|0,0:0|0:0|0:0,0:0:0:0:
340,150,9042,1,0,0:0:0:0:
340,150,9145,2,0,P|366:148|398:133,2,50
241,163,9456,1,0,0:0:0:0:
241,163,9559,2,0,P|213:138|193:130,2,50,8|0|0,0:0|0:0|0:0,0:0:0:0:
456,288,9973,6,0,L|518:276,1,50
418,368,10180,2,0,L|356:380,1,50
296,345,10387,1,8,0:0:0:0:
296,345,10490,1,0,0:0:0:0:
296,345,10594,1,0,0:0:0:0:
296,345,10697,1,0,0:0:0:0:
296,345,10801,6,0,P|272:287|286:243,1,100
349,204,11112,1,0,0:0:0:0:
349,204,11214,2,0,L|403:218,1,50,8|0,0:0|0:0,0:0:0:0:
482,231,11421,2,0,B|515:187|485:110|485:110|491:58|491:58|483:30,1,200,2|0,0:0|0:0,0:0:0:0:
173,23,12043,6,0,L|116:15,1,50,8|0,0:0|0:0,0:0:0:0:
66,81,12249,2,0,L|11:91,1,50,0|0,0:0|0:0,0:0:0:0:
143,113,12456,2,0,B|198:102|198:102|224:110|224:110|250:60|334:42|379:82,1,259.999988098145,4|0,0:0|0:0,0:0:0:0:
159,251,13076,6,0,P|133:245|100:224,1,50,8|8,0:0|0:0,0:0:0:0:
390,160,13387,2,0,P|413:148|457:140,1,50,8|8,0:0|0:0,0:0:0:0:
388,361,13697,1,8,0:0:0:0:
321,358,13800,1,8,0:0:0:0:
255,354,13903,1,8,0:0:0:0:
438,219,14111,1,4,0:0:0:0:
415,34,14318,6,0,P|475:18|535:25,1,100,2|8,0:1|0:0,0:0:0:0:
297,87,14732,2,0,P|242:57|182:51,1,100,2|0,0:0|0:0,0:0:0:0:
382,117,15145,1,0,0:0:0:0:
235,215,15352,1,8,0:0:0:0:
233,218,15456,1,0,0:0:0:0:
231,221,15559,2,0,P|256:247|236:211,1,100,0|0,0:0|0:0,0:0:0:0:
99,38,15973,2,0,P|39:22|-21:29,1,100,2|8,0:1|0:0,0:0:0:0:
217,91,16387,2,0,P|272:61|332:55,1,100,2|0,0:0|0:0,0:0:0:0:
132,121,16800,1,0,0:0:0:0:
55,301,17007,2,0,P|62:222|5:91,1,200,12|0,0:0|0:0,0:0:0:0:
142,259,17628,6,0,P|134:319|129:376,1,100,2|8,0:1|0:0,0:0:0:0:
251,185,18042,2,0,L|258:304,1,100,2|0,0:0|0:0,0:0:0:0:
145,175,18456,1,0,0:0:0:0:
272,51,18663,1,8,0:0:0:0:
270,48,18767,1,0,0:0:0:0:
268,45,18870,2,0,P|293:18|273:54,1,100,0|0,0:0|0:0,0:0:0:0:
389,260,19283,2,0,P|397:320|402:377,1,100,2|8,0:1|0:0,0:0:0:0:
456,196,19697,2,0,P|467:141|448:89,1,100,2|0,0:0|0:0,0:0:0:0:
316,23,20111,1,0,0:0:0:0:
179,127,20318,2,0,P|133:107|72:103,1,100,12|0,0:0|0:0,0:0:0:0:
180,255,20732,1,4,0:0:0:0:
367,175,20938,6,0,P|420:159|475:160,1,100,2|8,0:1|0:0,0:0:0:0:
279,260,21352,2,0,P|222:265|168:250,1,100,2|0,0:0|0:0,0:0:0:0:
29,180,21766,1,0,0:0:0:0:
122,324,21973,1,8,0:0:0:0:
124,327,22077,1,0,0:0:0:0:
126,330,22180,2,0,P|101:356|121:320,1,100,0|0,0:0|0:0,0:0:0:0:
195,163,22594,2,0,P|198:105|200:52,1,100,2|8,0:1|0:0,0:0:0:0:
29,180,23007,2,0,P|26:238|24:291,1,100,2|0,0:0|0:0,0:0:0:0:
105,109,23421,1,0,0:0:0:0:
87,358,23628,2,0,P|158:354|157:229,1,200,12|0,0:0|0:0,0:0:0:0:
315,143,24249,6,0,P|255:158|204:151,1,100,2|8,0:1|0:0,0:0:0:0:
418,207,24663,2,0,P|463:187|526:179,1,100,2|0,0:0|0:0,0:0:0:0:
355,278,25076,1,0,0:0:0:0:
184,252,25283,1,8,0:0:0:0:
150,260,25387,1,0,0:0:0:0:
116,268,25490,2,0,L|3:258,1,100
198,110,25904,6,0,P|186:51|161:19,1,100,2|8,0:1|0:0,0:0:0:0:
281,212,26318,2,0,P|290:158|329:112,1,100,2|0,0:0|0:0,0:0:0:0:
237,354,26732,2,0,P|238:334|250:316,2,33.3333333333333,0|0|0,0:0|0:0|0:0,0:0:0:0:
195,374,26938,2,0,P|186:320|147:274,1,100,12|0,0:0|0:0,0:0:0:0:
397,313,27352,6,0,P|421:290|454:279,1,59.9999981689454,12|8,0:0|0:0,0:0:0:0:
116,349,27663,2,0,P|87:339|48:342,1,59.9999981689454,8|8,0:0|0:0,0:0:0:0:
344,183,27973,2,0,P|347:155|368:129,1,59.9999981689454,8|8,0:0|0:0,0:0:0:0:
143,112,28283,2,0,P|138:85|113:47,1,59.9999981689454,8|8,0:0|0:0,0:0:0:0:
437,146,28594,2,0,P|414:74|314:77,1,179.999994506836,12|0,0:0|0:0,0:0:0:0:
366,130,29007,5,4,0:0:0:0:
180,327,29214,2,0,P|153:307|95:301,2,75.0000028610231,0|0|0,0:0|0:0|0:0,0:0:0:0:
445,365,29628,2,0,P|477:357|519:316,2,75.0000028610231,0|0|0,0:0|0:0|0:0,0:0:0:0:
218,259,30042,1,0,0:0:0:0:
447,286,30249,1,0,0:0:0:0:
284,147,30456,5,0,0:0:0:0:
285,87,30559,1,0,0:0:0:0:
324,42,30662,1,0,0:0:0:0:
344,229,30870,1,0,0:0:0:0:
380,180,30973,1,0,0:0:0:0:
439,167,31076,1,0,0:0:0:0:
249,226,31283,1,0,0:0:0:0:
200,190,31386,1,0,0:0:0:0:
187,131,31489,1,8,0:0:0:0:
170,283,31697,1,0,0:0:0:0:
110,280,31800,1,8,0:0:0:0:
64,242,31903,1,8,0:0:0:0:
271,146,32111,1,4,0:0:0:0:
139,35,32318,6,0,P|72:24|-9:45,1,150.000005722046,4|0,0:0|0:0,0:0:0:0:
194,95,32732,1,10,0:1:0:0:
364,35,32938,1,0,0:0:0:0:
364,35,33042,1,0,0:0:0:0:
364,35,33145,2,0,P|431:24|512:45,1,150.000005722046
318,95,33559,1,10,0:1:0:0:
149,201,33766,1,0,0:0:0:0:
306,317,33973,6,0,P|414:315|454:293,1,150.000005722046
505,238,34283,1,0,0:0:0:0:
508,241,34387,1,10,0:1:0:0:
266,235,34594,1,0,0:0:0:0:
266,235,34697,1,0,0:0:0:0:
266,235,34801,2,0,P|220:334|242:387,1,150.000005722046,0|0,0:0|0:0,0:0:0:0:
335,179,35214,1,10,0:1:0:0:
143,298,35421,1,0,0:0:0:0:
143,298,35524,1,0,0:0:0:0:
143,298,35628,6,0,P|44:344|-9:322,1,150.000005722046,0|0,0:0|0:0,0:0:0:0:
172,215,36042,1,10,0:1:0:0:
41,99,36249,1,0,0:0:0:0:
41,99,36352,1,0,0:0:0:0:
41,99,36456,2,0,P|63:183|50:256,1,150.000005722046
116,45,36870,1,10,0:1:0:0:
172,215,37076,1,0,0:0:0:0:
285,32,37283,6,0,P|259:106|275:189,1,150.000005722046
311,239,37594,1,0,0:0:0:0:
314,242,37697,1,10,0:1:0:0:
487,358,37904,1,0,0:0:0:0:
487,358,38007,1,0,0:0:0:0:
487,358,38111,2,0,P|510:273|488:198,1,150.000005722046,0|0,0:0|0:0,0:0:0:0:
384,54,38525,1,10,0:1:0:0:
415,253,38732,1,0,0:0:0:0:
496,42,38938,5,4,0:0:0:0:
440,48,39041,1,0,0:0:0:0:
384,54,39144,1,0,0:0:0:0:
328,61,39248,1,0,0:0:0:0:
272,67,39351,1,10,0:1:0:0:
74,37,39559,1,0,0:0:0:0:
251,141,39766,1,0,0:0:0:0:
29,95,39973,1,0,0:0:0:0:
223,208,40180,1,10,0:1:0:0:
31,168,40387,1,0,0:0:0:0:
225,281,40594,6,0,P|293:231|286:171,1,150.000005722046,0|0,0:0|0:0,0:0:0:0:
223,208,40904,1,0,0:0:0:0:
223,208,41007,1,10,0:1:0:0:
48,312,41214,1,0,0:0:0:0:
48,312,41318,1,0,0:0:0:0:
48,312,41421,2,0,P|22:230|33:161,1,150.000005722046
126,365,41835,1,10,0:1:0:0:
223,208,42042,1,0,0:0:0:0:
282,379,42249,5,4,0:0:0:0:
338,373,42352,1,0,0:0:0:0:
394,367,42455,1,0,0:0:0:0:
450,360,42559,1,0,0:0:0:0:
506,354,42662,1,10,0:1:0:0:
300,299,42870,1,0,0:0:0:0:
493,216,43077,1,0,0:0:0:0:
256,240,43284,1,0,0:0:0:0:
447,160,43491,1,10,0:1:0:0:
258,167,43698,1,0,0:0:0:0:
450,85,43905,6,0,P|518:135|513:195,1,150.000005722046,0|0,0:0|0:0,0:0:0:0:
449,162,44215,1,0,0:0:0:0:
449,162,44318,1,10,0:1:0:0:
184,112,44525,2,0,P|211:86|246:74,2,75.0000028610231,0|0|0,0:0|0:0|0:0,0:0:0:0:
139,317,44938,1,0,0:0:0:0:
353,362,45145,1,10,0:1:0:0:
283,175,45352,1,0,0:0:0:0:
76,246,45559,6,0,P|54:349|75:383,1,150.000005722046,4|0,0:0|0:0,0:0:0:0:
123,93,45973,2,0,P|132:56|125:20,2,75.0000028610231,10|0|0,0:1|0:0|0:0,0:0:0:0:
139,317,46387,5,4,0:0:0:0:
280,333,46594,1,0,0:0:0:0:
426,351,46801,1,10,0:1:0:0:
257,260,47007,1,0,0:0:0:0:
111,242,47214,1,0,0:0:0:0:
391,149,47421,6,0,P|438:144|477:116,2,75.0000028610231,0|0|10,0:0|0:0|0:1,0:0:0:0:
126,158,47835,2,0,P|79:163|40:191,2,75.0000028610231,0|0|0,0:0|0:0|0:0,0:0:0:0:
314,53,48249,5,0,0:0:0:0:
173,69,48456,1,10,0:1:0:0:
27,87,48663,1,0,0:0:0:0:
296,133,48870,6,0,P|363:120|393:63,1,119.999996337891,4|0,0:0|0:0,0:0:0:0:
173,69,49283,2,0,P|167:134|164:200,1,119.999996337891,8|0,0:0|0:0,0:0:0:0:
231,324,49697,1,0,0:0:0:0:
328,250,49904,1,0,0:0:0:0:
450,313,50111,1,8,0:0:0:0:
507,165,50318,1,0,0:0:0:0:
328,250,50525,6,0,P|336:318|340:370,1,119.999996337891,0|0,0:0|0:0,0:0:0:0:
403,182,50938,2,0,P|360:155|286:158,1,119.999996337891,8|0,0:0|0:0,0:0:0:0:
150,236,51352,2,0,P|118:238|79:224,2,59.9999981689454,0|0|0,0:0|0:0|0:0,0:0:0:0:
292,155,51766,1,8,0:0:0:0:
126,145,51973,1,0,0:0:0:0:
126,145,52076,1,0,0:0:0:0:
126,145,52180,6,0,P|58:152|3:158,1,119.999996337891,0|0,0:0|0:0,0:0:0:0:
102,56,52594,1,8,0:0:0:0:
232,117,52801,1,0,0:0:0:0:
344,32,53007,2,0,P|413:21|476:32,1,119.999996337891
512,89,53318,1,0,0:0:0:0:
512,89,53421,1,8,0:0:0:0:
377,208,53628,1,0,0:0:0:0:
377,208,53732,1,0,0:0:0:0:
377,208,53835,6,0,P|312:200|254:193,1,119.999996337891,0|0,0:0|0:0,0:0:0:0:
158,327,54249,2,0,P|223:317|293:310,1,119.999996337891,8|0,0:0|0:0,0:0:0:0:
169,224,54663,1,0,0:0:0:0:
3,295,54870,2,0,P|-8:326|-9:359,2,59.9999981689454,0|0|8,0:0|0:0|0:0,0:0:0:0:
121,156,55283,1,0,0:0:0:0:
121,156,55387,1,0,0:0:0:0:
121,156,55490,6,0,P|188:144|238:179,1,119.999996337891,0|0,0:0|0:0,0:0:0:0:
353,279,55904,2,0,P|456:262|494:257,1,119.999996337891,8|0,0:0|0:0,0:0:0:0:
512,332,56214,1,0,0:0:0:0:
512,332,56318,2,0,P|451:341|370:355,1,119.999996337891,0|0,0:0|0:0,0:0:0:0:
498,190,56732,1,8,0:0:0:0:
318,374,56938,5,0,0:0:0:0:
275,365,57042,1,0,0:0:0:0:
234,357,57144,1,0,0:0:0:0:
192,348,57248,1,0,0:0:0:0:
149,341,57351,1,0,0:0:0:0:
109,333,57455,1,0,0:0:0:0:
67,324,57558,1,12,0:0:0:0:
286,209,57766,1,0,0:0:0:0:
286,209,57870,1,0,0:0:0:0:
286,209,57973,6,0,P|322:196|265:177,1,150.000005722046,12|0,0:0|0:0,0:0:0:0:
85,60,58387,2,0,P|55:34|68:93,1,150.000005722046,12|0,0:0|0:0,0:0:0:0:
341,56,58801,6,0,P|427:64|499:76,1,150.000005722046,4|0,0:0|0:0,0:0:0:0:
292,121,59215,1,10,0:1:0:0:
241,306,59421,1,0,0:0:0:0:
234,336,59525,1,0,0:0:0:0:
227,367,59628,2,0,P|222:278|217:206,1,150.000005722046,0|0,0:0|0:0,0:0:0:0:
341,56,60042,1,10,0:1:0:0:
147,157,60249,1,0,0:0:0:0:
391,165,60456,6,0,P|476:158|509:103,1,150.000005722046,0|0,0:0|0:0,0:0:0:0:
429,94,60766,1,0,0:0:0:0:
432,97,60870,1,10,0:1:0:0:
185,84,61077,1,0,0:0:0:0:
185,84,61180,1,0,0:0:0:0:
185,84,61283,2,0,P|100:91|67:146,1,150.000005722046,0|0,0:0|0:0,0:0:0:0:
292,266,61697,1,10,0:1:0:0:
148,154,61904,1,0,0:0:0:0:
141,184,62008,1,0,0:0:0:0:
134,215,62111,6,0,P|129:126|124:54,1,150.000005722046,0|0,0:0|0:0,0:0:0:0:
191,292,62525,1,10,0:1:0:0:
369,173,62732,1,0,0:0:0:0:
369,173,62835,1,0,0:0:0:0:
369,173,62939,2,0,P|395:277|382:328,1,150.000005722046
316,105,63353,1,10,0:1:0:0:
296,279,63559,1,0,0:0:0:0:
242,63,63766,6,0,P|323:24|382:54,1,150.000005722046
428,101,64077,1,0,0:0:0:0:
431,104,64180,1,10,0:1:0:0:
177,113,64387,1,0,0:0:0:0:
202,130,64490,1,0,0:0:0:0:
226,147,64594,2,0,P|144:139|66:131,1,150.000005722046
242,63,65008,1,10,0:1:0:0:
43,205,65215,1,0,0:0:0:0:
217,359,65421,5,4,0:0:0:0:
223,303,65524,1,0,0:0:0:0:
229,247,65627,1,0,0:0:0:0:
236,191,65731,1,0,0:0:0:0:
242,135,65834,1,10,0:1:0:0:
92,260,66042,1,0,0:0:0:0:
175,67,66249,1,0,0:0:0:0:
150,305,66456,1,0,0:0:0:0:
100,93,66663,1,10,0:1:0:0:
26,294,66870,1,0,0:0:0:0:
24,89,67077,6,0,P|76:21|136:28,1,150.000005722046
100,93,67387,1,0,0:0:0:0:
100,93,67490,1,10,0:1:0:0:
361,70,67697,1,0,0:0:0:0:
336,87,67800,1,0,0:0:0:0:
312,104,67904,2,0,P|394:96|472:88,1,150.000005722046
295,25,68318,1,10,0:1:0:0:
512,158,68525,1,0,0:0:0:0:
287,328,68732,5,4,0:0:0:0:
293,272,68835,1,0,0:0:0:0:
299,216,68938,1,0,0:0:0:0:
306,160,69042,1,0,0:0:0:0:
312,104,69145,1,10,0:1:0:0:
365,308,69353,1,0,0:0:0:0:
448,115,69560,1,0,0:0:0:0:
423,353,69767,1,0,0:0:0:0:
506,160,69974,1,10,0:1:0:0:
496,351,70181,1,0,0:0:0:0:
384,151,70388,6,0,P|390:66|444:40,1,150.000005722046
449,117,70698,1,0,0:0:0:0:
449,117,70801,1,10,0:1:0:0:
281,342,71008,2,0,P|301:310|303:273,2,75.0000028610231
88,143,71421,1,0,0:0:0:0:
302,98,71628,1,10,0:1:0:0:
232,285,71835,1,0,0:0:0:0:
25,214,72042,6,0,P|3:111|24:77,1,150.000005722046,4|0,0:0|0:0,0:0:0:0:
85,28,72352,1,8,0:0:0:0:
135,25,72455,1,8,0:1:0:0:
185,22,72558,1,8,0:0:0:0:
235,20,72662,1,8,0:0:0:0:
285,17,72765,1,8,0:0:0:0:
335,14,72869,1,12,0:0:0:0:
283,255,73697,6,0,P|350:253|413:278,1,119.999996337891,4|2,0:0|0:1,0:0:0:0:
209,311,74111,1,8,0:0:0:0:
219,92,74318,2,0,P|280:84|341:54,1,119.999996337891,2|0,0:0|0:0,0:0:0:0:
165,157,74731,1,0,0:0:0:0:
403,154,74938,1,8,0:0:0:0:
402,157,75042,1,0,0:0:0:0:
402,161,75145,2,0,P|435:173|399:148,1,119.999996337891,0|0,0:0|0:0,0:0:0:0:
159,55,75559,6,0,P|99:39|19:52,1,119.999996337891,2|8,0:1|0:0,0:0:0:0:
121,272,75973,2,0,P|180:269|232:240,1,119.999996337891,2|0,0:0|0:0,0:0:0:0:
66,162,76386,1,0,0:0:0:0:
262,141,76593,2,0,P|331:216|272:335,1,239.999992675781,12|0,0:0|0:0,0:0:0:0:
119,251,77214,6,0,P|56:237|-4:238,1,119.999996337891,2|8,0:1|0:0,0:0:0:0:
161,340,77628,2,0,P|217:336|281:330,1,119.999996337891,2|0,0:0|0:0,0:0:0:0:
83,376,78042,1,0,0:0:0:0:
149,178,78249,1,8,0:0:0:0:
152,176,78353,1,0,0:0:0:0:
155,174,78456,2,0,P|214:149|280:165,1,119.999996337891
393,251,78870,6,0,P|456:237|516:238,1,119.999996337891,2|8,0:1|0:0,0:0:0:0:
351,340,79283,2,0,P|295:336|231:330,1,119.999996337891,2|0,0:0|0:0,0:0:0:0:
429,376,79697,1,0,0:0:0:0:
357,174,79904,2,0,P|298:149|232:165,1,119.999996337891,12|0,0:0|0:0,0:0:0:0:
402,249,80318,1,4,0:0:0:0:
180,210,80525,6,0,P|160:142|189:84,1,119.999996337891,2|8,0:1|0:0,0:0:0:0:
374,140,80938,2,0,P|407:201|393:264,1,119.999996337891,2|0,0:0|0:0,0:0:0:0:
289,75,81352,1,0,0:0:0:0:
180,210,81559,1,8,0:0:0:0:
182,213,81663,1,0,0:0:0:0:
184,216,81766,2,0,P|159:242|164:193,1,119.999996337891,0|0,0:0|0:0,0:0:0:0:
374,140,82180,6,0,P|443:135|503:133,1,119.999996337891,2|8,0:1|0:0,0:0:0:0:
329,33,82594,2,0,P|269:32|205:27,1,119.999996337891,2|0,0:0|0:0,0:0:0:0:
79,105,83007,1,0,0:0:0:0:
26,326,83214,2,0,P|17:220|84:102,1,239.999992675781,12|0,0:0|0:0,0:0:0:0:
113,322,83835,6,0,P|98:262|109:204,1,119.999996337891,2|8,0:1|0:0,0:0:0:0:
218,349,84249,2,0,P|189:293|187:234,1,119.999996337891,2|0,0:0|0:0,0:0:0:0:
314,336,84662,1,0,0:0:0:0:
462,209,84870,1,8,0:0:0:0:
463,205,84974,1,0,0:0:0:0:
465,202,85077,2,0,P|500:210|455:230,1,119.999996337891,0|0,0:0|0:0,0:0:0:0:
299,108,85490,6,0,P|311:49|357:3,1,119.999996337891,2|8,0:1|0:0,0:0:0:0:
226,210,85904,2,0,P|217:156|174:103,1,119.999996337891,2|0,0:0|0:0,0:0:0:0:
256,350,86318,2,0,P|255:330|240:308,2,39.9999987792969,0|0|0,0:0|0:0|0:0,0:0:0:0:
298,370,86525,2,0,P|307:316|344:262,1,119.999996337891,12|0,0:0|0:0,0:0:0:0:
117,313,86938,6,0,P|93:290|60:279,1,59.9999981689454,12|8,0:0|0:0,0:0:0:0:
219,83,87249,2,0,P|229:51|253:26,1,59.9999981689454,8|8,0:0|0:0,0:0:0:0:
343,262,87559,2,0,P|375:268|403:289,1,59.9999981689454,8|8,0:0|0:0,0:0:0:0:
125,134,87870,2,0,P|95:148|60:148,1,59.9999981689454,8|8,0:0|0:0,0:0:0:0:
390,157,88180,6,0,P|442:152|503:120,1,100,12|0,0:0|0:0,0:0:0:0:
370,26,88594,1,12,0:0:0:0:
273,136,88801,1,0,0:0:0:0:
180,66,89007,1,0,0:0:0:0:
55,135,89214,1,0,0:0:0:0:
49,167,89317,1,0,0:0:0:0:
43,200,89420,1,8,0:0:0:0:
146,232,89628,1,0,0:0:0:0:
140,264,89731,1,0,0:0:0:0:
134,297,89834,1,0,0:0:0:0:
230,171,90042,5,0,0:0:0:0:
348,267,90249,2,0,P|399:268|459:278,1,100,8|0,0:0|0:0,0:0:0:0:
275,352,90663,1,0,0:0:0:0:
230,171,90869,1,8,0:0:0:0:
255,138,90972,1,8,0:0:0:0:
293,122,91075,1,8,0:0:0:0:
334,127,91179,1,8,0:0:0:0:
367,151,91282,1,8,0:0:0:0:
385,189,91386,1,8,0:0:0:0:
382,230,91489,1,12,0:0:0:0:
146,232,91697,6,0,P|114:223|83:222,1,50,8|0,0:0|0:0,0:0:0:0:
219,290,91904,1,8,0:0:0:0:
216,108,92111,2,0,P|191:87|163:71,1,50,8|0,0:0|0:0,0:0:0:0:
256,192,92318,1,12,0:0:0:0:
256,192,92421,12,0,93145,0:0:0:0:
