osu file format v14

[General]
AudioFilename: audio.mp3
AudioLeadIn: 0
PreviewTime: 61014
Countdown: 0
SampleSet: Soft
StackLeniency: 0.7
Mode: 2
LetterboxInBreaks: 0
WidescreenStoryboard: 1

[Editor]
Bookmarks: 27445
DistanceSpacing: 1.2
BeatDivisor: 4
GridSize: 4
TimelineZoom: 2.999999

[Metadata]
Title:Kibou no Uta (TV Size)
TitleUnicode:希望の唄 (TV Size)
Artist:ULTRA TOWER
ArtistUnicode:ウルトラタワー
Creator:Ponchiwi
Version:Rain
Source:食戟のソーマ
Tags:Shokugeki No Soma opening rew0825 eINess
BeatmapID:1697867
BeatmapSetID:809126

[Difficulty]
HPDrainRate:6
CircleSize:4
OverallDifficulty:9
ApproachRate:9
SliderMultiplier:1.8
SliderTickRate:1

[Events]
//Background and Video events
0,0,"Shokugeki-no-Soma-Desktop-Backgrounds.jpg",0,0
//Break Periods
//Storyboard Layer 0 (Background)
//Storyboard Layer 1 (Fail)
//Storyboard Layer 2 (Pass)
//Storyboard Layer 3 (Foreground)
//Storyboard Sound Samples

[TimingPoints]
355,338.983050847458,4,2,2,40,1,0
1369,-125,4,2,2,40,0,0
13912,-111.111111111111,4,2,1,50,0,0
22022,338.983050847458,4,2,1,50,1,0
39659,338.983050847458,4,2,1,50,1,0
57297,338.983050847458,4,2,1,50,1,0
62720,-100,4,2,1,50,0,1
81697,338.983050847458,4,2,1,50,1,0
88476,-100,4,2,1,20,0,0

[Colours]
Combo1 : 106,106,106
Combo2 : 255,111,111
Combo3 : 159,249,253
Combo4 : 192,192,192

[HitObjects]
256,300,1371,6,0,P|276:228|352:208,1,144,0|2,0:0|0:0,0:0:0:0:
193,117,2049,1,0,0:0:0:0:
431,168,2388,2,0,P|427:100|350:76,1,144,2|0,0:0|0:0,0:0:0:0:
76,148,3066,6,0,P|107:269|257:292,1,288,2|2,0:0|0:0,0:0:0:0:
82,298,4083,1,2,0:0:0:0:
279,191,4422,6,0,P|270:122|207:95,1,144,2|0,0:0|0:0,0:0:0:0:
395,228,5100,2,0,P|387:296|312:323,1,144,2|2,0:0|0:0,0:0:0:0:
237,325,5609,1,0,0:0:0:0:
75,262,5778,6,0,P|98:128|229:90,1,288,2|2,0:0|0:0,0:0:0:0:
106,141,6795,1,2,0:0:0:0:
208,143,6965,1,0,0:0:0:0:
333,166,7134,6,0,P|332:228|254:266,1,144,2|0,0:0|0:0,0:0:0:0:
176,264,7643,1,0,0:0:0:0:
28,196,7812,2,0,P|41:126|124:100,1,144,2|2,0:0|0:0,0:0:0:0:
188,96,8321,1,0,0:0:0:0:
348,88,8490,6,0,P|462:158|454:299,1,288,2|2,0:0|0:0,0:0:0:0:
172,328,9507,1,2,0:0:0:0:
379,323,9846,1,2,0:0:0:0:
184,231,10185,1,0,0:0:0:0:
352,228,10524,1,2,0:0:0:0:
156,100,10863,6,0,L|156:252,1,144,2|2,0:0|0:0,0:0:0:0:
244,248,11371,1,0,0:0:0:0:
392,196,11541,2,0,P|380:116|312:100,1,144,0|2,0:0|0:0,0:0:0:0:
132,108,12219,2,0,L|132:180,1,72,2|0,0:0|0:0,0:0:0:0:
316,60,12558,6,0,P|380:96|368:172,1,144,2|0,0:0|0:0,0:0:0:0:
304,264,13066,1,0,0:0:0:0:
112,336,13236,2,0,P|52:288|80:208,1,144,2|2,0:0|0:0,0:0:0:0:
140,144,13744,1,0,0:0:0:0:
424,72,13914,5,6,0:0:0:0:
420,224,14083,1,0,0:0:0:0:
288,220,14253,1,2,0:0:0:0:
420,224,14422,1,0,0:0:0:0:
288,220,14592,2,0,L|204:220,1,80.9999975280763,2|0,0:0|0:0,0:0:0:0:
376,304,14931,2,0,L|464:304,1,80.9999975280763,2|0,0:0|0:0,0:0:0:0:
200,104,15270,6,0,L|112:104,1,80.9999975280763,6|0,0:0|0:0,0:0:0:0:
376,156,15609,1,2,0:0:0:0:
464,68,15778,1,0,0:0:0:0:
212,280,15948,2,0,L|96:280,1,80.9999975280763,2|0,0:0|0:0,0:0:0:0:
260,284,16287,1,0,0:0:0:0:
388,284,16456,1,0,0:0:0:0:
108,212,16626,5,6,0:0:0:0:
104,104,16795,1,0,0:0:0:0:
216,44,16965,1,2,0:0:0:0:
344,84,17134,1,0,0:0:0:0:
216,272,17304,1,2,0:0:0:0:
352,272,17473,1,0,0:0:0:0:
352,156,17643,1,2,0:0:0:0:
216,152,17812,1,0,0:0:0:0:
444,68,17982,6,2,L|356:68,1,80.9999975280763,6|0,0:0|0:0,0:0:0:0:
200,268,18321,2,0,L|200:148,1,80.9999975280763,2|0,0:0|0:0,0:0:0:0:
336,120,18660,2,0,L|428:120,1,80.9999975280763,2|0,0:0|0:0,0:0:0:0:
256,52,18999,2,0,L|160:52,1,80.9999975280763,2|0,0:0|0:0,0:0:0:0:
452,320,19338,5,6,0:0:0:0:
452,180,19507,1,0,0:0:0:0:
180,280,19677,1,8,0:0:0:0:
92,204,19846,1,2,0:0:0:0:
384,144,20016,1,8,0:0:0:0:
472,220,20185,1,2,0:0:0:0:
184,184,20355,1,8,0:0:0:0:
96,108,20524,1,2,0:0:0:0:
472,304,20693,5,12,0:0:0:0:
443,168,22022,6,0,L|332:170,2,90,6|0|8,0:0|0:0|0:0,0:0:0:0:
180,140,22530,2,0,L|180:256,1,90,6|0,0:0|0:0,0:0:0:0:
300,232,22869,1,8,0:0:0:0:
42,146,23038,5,6,0:0:0:0:
40,52,23208,1,0,0:0:0:0:
132,204,23377,1,8,0:0:0:0:
386,315,23547,2,0,L|282:312,2,90,6|0|8,0:0|0:0|0:0,0:0:0:0:
88,272,24055,6,0,L|199:272,1,90,6|0,0:0|0:0,0:0:0:0:
424,144,24394,2,0,L|333:144,1,90,6|0,0:0|0:0,0:0:0:0:
36,92,24733,6,0,L|36:216,1,90,6|0,0:0|0:0,0:0:0:0:
148,236,25072,1,8,0:0:0:0:
380,212,25242,2,0,B|380:316,1,90,6|0,0:0|0:0,0:0:0:0:
252,304,25581,1,8,0:0:0:0:
480,96,25750,6,0,B|480:204,1,90,6|0,0:0|0:0,0:0:0:0:
352,184,26089,1,8,0:0:0:0:
80,248,26259,2,0,L|185:248,2,90,6|0|8,0:0|0:0|0:0,0:0:0:0:
308,296,26767,6,0,L|408:296,1,90,6|0,0:0|0:0,0:0:0:0:
168,104,27106,2,0,L|180:200,1,90,12|8,0:0|0:0,0:0:0:0:
252,192,27360,1,0,0:0:0:0:
444,140,27445,6,0,P|448:240|364:280,1,180,6|8,0:0|0:0,0:0:0:0:
216,224,27954,2,0,L|212:344,1,90,0|2,0:0|0:0,0:0:0:0:
356,320,28293,1,2,0:0:0:0:
236,260,28462,1,8,0:0:0:0:
124,200,28632,1,0,0:0:0:0:
396,148,28801,6,0,L|420:56,1,90,6|0,0:0|0:0,0:0:0:0:
232,232,29140,2,0,L|140:208,2,90,8|2|0,0:0|0:0|0:0,0:0:0:0:
356,256,29649,1,2,0:0:0:0:
212,56,29818,2,0,L|216:160,1,90,8|0,0:0|0:0,0:0:0:0:
488,128,30157,6,0,B|316:40,1,180,6|8,0:0|0:0,0:0:0:0:
180,228,30666,2,0,L|260:272,1,90,0|2,0:0|0:0,0:0:0:0:
428,288,31005,2,0,L|432:184,1,90,2|8,0:0|0:0,0:0:0:0:
316,144,31344,1,0,0:0:0:0:
52,220,31513,6,0,P|60:312|156:324,1,180,6|8,0:0|0:0,0:0:0:0:
268,252,32022,1,0,0:0:0:0:
124,140,32191,2,0,L|143:50,1,90,2|2,0:0|0:0,0:0:0:0:
404,208,32530,2,0,L|416:116,1,90,8|0,0:0|0:0,0:0:0:0:
160,324,32869,6,0,P|92:308|84:208,1,180,6|8,0:0|0:0,0:0:0:0:
204,128,33377,2,0,L|284:180,1,90,0|2,0:0|0:0,0:0:0:0:
84,60,33716,2,0,L|100:152,1,90,2|8,0:0|0:0,0:0:0:0:
216,192,34055,1,0,0:0:0:0:
468,148,34225,6,0,P|464:248|368:292,1,180,6|8,0:0|0:0,0:0:0:0:
144,216,34733,2,0,P|64:240|72:332,1,180,2|2,0:0|0:0,0:0:0:0:
200,132,35242,2,0,L|200:40,1,90,8|0,0:0|0:0,0:0:0:0:
468,328,35581,6,0,B|468:132,1,180,6|8,0:0|0:0,0:0:0:0:
312,148,36089,1,0,0:0:0:0:
316,284,36259,1,2,0:0:0:0:
436,288,36428,1,2,0:0:0:0:
316,284,36598,1,8,0:0:0:0:
436,288,36767,1,0,0:0:0:0:
120,236,36937,6,0,P|128:136|196:108,1,180,6|8,0:0|0:0,0:0:0:0:
332,96,37445,2,0,L|428:72,2,90,2|0|2,0:0|0:0|0:0,0:0:0:0:
80,320,37954,2,0,L|80:224,1,90,8|0,0:0|0:0,0:0:0:0:
344,108,38293,6,0,P|432:148|424:252,1,180,6|8,0:0|0:0,0:0:0:0:
280,328,38801,2,0,L|280:232,1,90,0|2,0:0|0:0,0:0:0:0:
160,152,39140,1,2,0:0:0:0:
276,152,39310,1,8,0:0:0:0:
392,156,39479,1,0,0:0:0:0:
144,340,39659,6,0,P|70:295|63:209,1,180,6|8,0:0|0:0,0:0:0:0:
220,176,40167,2,0,L|224:76,1,90,2|0,0:0|0:0,0:0:0:0:
92,88,40506,1,2,0:0:0:0:
336,168,40675,2,0,L|340:72,1,90,8|0,0:0|0:0,0:0:0:0:
44,336,41014,6,0,P|48:252|160:228,1,180,6|8,0:0|0:0,0:0:0:0:
272,220,41523,1,0,0:0:0:0:
272,116,41692,1,2,0:0:0:0:
184,48,41862,1,2,0:0:0:0:
72,72,42031,1,8,0:0:0:0:
184,48,42201,1,0,0:0:0:0:
424,328,42370,6,0,P|416:244|324:216,1,180,6|8,0:0|0:0,0:0:0:0:
212,216,42879,1,2,0:0:0:0:
336,144,43048,2,0,L|336:48,1,90,0|2,0:0|0:0,0:0:0:0:
204,56,43387,1,8,0:0:0:0:
336,54,43557,1,0,0:0:0:0:
108,104,43726,6,0,L|108:200,1,90,6|0,0:0|0:0,0:0:0:0:
344,192,44065,2,0,L|444:192,1,90,8|0,0:0|0:0,0:0:0:0:
308,328,44404,2,2,L|204:328,1,90,2|2,0:0|0:0,0:0:0:0:
464,156,44743,2,0,L|465:58,1,90,8|0,0:0|0:0,0:0:0:0:
168,336,45082,6,0,P|100:264|148:172,1,180,6|8,0:0|0:0,0:0:0:0:
304,176,45591,2,0,P|300:116|168:84,1,180,2|2,0:0|0:0,0:0:0:0:
72,140,46099,1,8,0:0:0:0:
196,140,46269,1,0,0:0:0:0:
433,184,46438,6,0,P|429:276|341:296,1,180,6|8,0:0|0:0,0:0:0:0:
460,236,46947,1,0,0:0:0:0:
356,196,47116,1,2,0:0:0:0:
252,144,47286,1,2,0:0:0:0:
392,180,47455,2,0,L|400:72,1,90,8|0,0:0|0:0,0:0:0:0:
108,328,47794,6,0,L|108:144,1,180,6|8,0:0|0:0,0:0:0:0:
228,160,48303,1,2,0:0:0:0:
104,80,48472,2,0,L|204:80,1,90,0|2,0:0|0:0,0:0:0:0:
44,156,48811,2,0,L|140:156,1,90,8|0,0:0|0:0,0:0:0:0:
392,208,49150,6,0,B|392:300,1,90,6|0,0:0|0:0,0:0:0:0:
140,292,49489,2,0,L|44:292,2,90,8|0|2,0:0|0:0|0:0,0:0:0:0:
372,144,49997,2,0,L|464:144,2,90,2|8|0,0:0|0:0|0:0,0:0:0:0:
116,158,50506,6,0,P|137:258|218:281,1,180,6|8,0:0|0:0,0:0:0:0:
335,278,51014,1,2,0:0:0:0:
201,282,51184,2,0,L|202:178,1,90,0|2,0:0|0:0,0:0:0:0:
480,240,51523,2,0,B|392:276,1,90,8|0,0:0|0:0,0:0:0:0:
168,336,51862,6,0,P|96:284|116:196,1,180,6|8,0:0|0:0,0:0:0:0:
240,84,52370,2,0,L|240:176,1,90,0|2,0:0|0:0,0:0:0:0:
364,176,52709,1,2,0:0:0:0:
112,224,52879,1,8,0:0:0:0:
112,324,53048,1,0,0:0:0:0:
360,336,53218,6,0,P|359:250|281:214,1,180,6|8,0:0|0:0,0:0:0:0:
164,216,53726,1,2,0:0:0:0:
336,52,53896,2,0,L|496:158,1,180,0|8,0:0|0:0,0:0:0:0:
416,284,54404,1,0,0:0:0:0:
156,352,54574,6,0,L|16:228,1,180,6|8,0:0|0:0,0:0:0:0:
120,80,55082,1,0,0:0:0:0:
360,80,55252,2,2,L|456:80,1,90
208,220,55591,2,0,L|118:220,1,90,8|0,0:0|0:0,0:0:0:0:
380,44,55930,6,0,P|458:81|464:167,1,180,6|8,0:0|0:0,0:0:0:0:
340,164,56438,1,0,0:0:0:0:
464,166,56608,1,2,0:0:0:0:
340,164,56777,1,2,0:0:0:0:
84,240,56947,1,8,0:0:0:0:
196,244,57116,1,0,0:0:0:0:
440,152,57286,5,6,0:0:0:0:
456,252,57466,1,0,0:0:0:0:
360,304,57635,1,8,0:0:0:0:
64,128,57974,1,2,0:0:0:0:
176,128,58144,1,2,0:0:0:0:
64,128,58313,1,8,0:0:0:0:
356,248,58652,6,0,P|344:168|260:124,1,180,6|8,0:0|0:0,0:0:0:0:
112,252,59161,1,0,0:0:0:0:
104,152,59330,1,2,0:0:0:0:
188,100,59500,1,2,0:0:0:0:
448,200,59669,2,0,L|440:304,1,90,8|0,0:0|0:0,0:0:0:0:
176,300,60008,5,6,0:0:0:0:
72,276,60178,1,0,0:0:0:0:
244,132,60347,1,8,0:0:0:0:
352,144,60517,1,2,0:0:0:0:
176,328,60686,5,2,0:0:0:0:
60,292,60856,1,2,0:0:0:0:
328,208,61025,1,8,0:0:0:0:
452,244,61195,1,8,0:0:0:0:
100,228,61364,5,4,0:1:0:0:
464,248,62381,1,8,0:0:0:0:
56,168,62720,6,0,P|64:84|152:59,1,180,6|8,0:0|0:0,0:0:0:0:
288,60,63229,1,0,0:0:0:0:
288,220,63398,1,2,0:0:0:0:
156,296,63568,1,2,0:0:0:0:
432,112,63737,2,0,L|432:208,1,90,8|0,0:0|0:0,0:0:0:0:
144,124,64076,6,0,L|48:124,1,90,6|0,0:0|0:0,0:0:0:0:
288,168,64415,2,0,L|400:168,1,90,8|0,0:0|0:0,0:0:0:0:
260,256,64754,1,2,0:0:0:0:
144,252,64924,1,2,0:0:0:0:
384,316,65093,2,0,L|488:316,1,90,8|0,0:0|0:0,0:0:0:0:
216,84,65432,6,0,P|140:108|137:200,1,180,6|8,0:0|0:0,0:0:0:0:
268,272,65941,2,0,L|156:272,1,90,0|2,0:0|0:0,0:0:0:0:
288,272,66280,1,2,0:0:0:0:
60,160,66449,2,0,L|60:64,1,90,8|0,0:0|0:0,0:0:0:0:
344,272,66788,6,0,P|352:204|252:152,1,180,6|8,0:0|0:0,0:0:0:0:
132,84,67297,1,0,0:0:0:0:
244,76,67466,2,2,L|350:81,1,90,2|2,0:0|0:0,0:0:0:0:
48,256,67805,2,0,L|144:260,1,90,8|0,0:0|0:0,0:0:0:0:
388,68,68144,6,0,P|452:136|416:232,1,180,6|8,0:0|0:0,0:0:0:0:
276,208,68652,1,0,0:0:0:0:
172,204,68822,1,2,0:0:0:0:
176,312,68991,1,2,0:0:0:0:
412,140,69161,1,8,0:0:0:0:
416,260,69330,1,0,0:0:0:0:
152,244,69500,6,0,L|32:256,1,90,6|0,0:0|0:0,0:0:0:0:
304,152,69839,2,0,L|408:140,1,90,8|0,0:0|0:0,0:0:0:0:
108,224,70178,2,0,L|124:320,1,90,2|2,0:0|0:0,0:0:0:0:
240,124,70517,1,8,0:0:0:0:
120,128,70686,1,0,0:0:0:0:
356,80,70856,6,0,L|356:176,1,90,6|0,0:0|0:0,0:0:0:0:
36,232,71195,2,0,P|48:146|128:112,1,180,8|2,0:0|0:0,0:0:0:0:
272,312,71703,1,2,0:0:0:0:
272,312,71873,1,8,0:0:0:0:
155,307,72042,1,0,0:0:0:0:
392,152,72212,6,0,P|464:192|448:312,1,180,6|8,0:0|0:0,0:0:0:0:
336,284,72720,1,0,0:0:0:0:
472,128,72890,2,0,L|364:128,1,90,2|2,0:0|0:0,0:0:0:0:
260,128,73229,1,8,0:0:0:0:
382,128,73398,1,0,0:0:0:0:
136,204,73568,6,0,L|40:204,1,90,6|0,0:0|0:0,0:0:0:0:
319,203,73907,2,0,L|414:201,1,90,8|0,0:0|0:0,0:0:0:0:
152,112,74246,2,2,L|264:112,1,90,2|2,0:0|0:0,0:0:0:0:
472,88,74585,2,0,L|474:193,1,90,8|0,0:0|0:0,0:0:0:0:
192,48,74924,6,0,P|112:72|104:160,1,180,6|8,0:0|0:0,0:0:0:0:
176,244,75432,1,0,0:0:0:0:
344,64,75602,2,0,L|448:64,1,90,2|2,0:0|0:0,0:0:0:0:
192,316,75941,2,0,L|100:316,1,90,8|0,0:0|0:0,0:0:0:0:
368,320,76280,6,0,P|384:236|280:216,1,180,6|8,0:0|0:0,0:0:0:0:
144,64,76788,2,0,L|36:64,2,90,0|2|2,0:0|0:0|0:0,0:0:0:0:
376,120,77297,2,0,L|376:220,1,90,8|0,0:0|0:0,0:0:0:0:
60,288,77635,6,0,L|244:300,1,180,6|8,0:0|0:0,0:0:0:0:
384,196,78144,1,0,0:0:0:0:
280,192,78313,1,2,0:0:0:0:
184,184,78483,1,2,0:0:0:0:
484,212,78652,2,0,L|488:123,1,90,8|0,0:0|0:0,0:0:0:0:
260,76,78991,6,0,L|252:172,1,90,6|0,0:0|0:0,0:0:0:0:
24,232,79330,2,0,P|36:300|140:308,1,180,8|2,0:0|0:0,0:0:0:0:
252,308,79839,1,2,0:0:0:0:
112,120,80008,2,0,L|224:112,1,90,8|0,0:0|0:0,0:0:0:0:
480,232,80347,6,0,L|476:340,1,90,6|0,0:0|0:0,0:0:0:0:
352,320,80686,1,8,0:0:0:0:
64,164,80856,2,0,L|180:164,2,90,0|2|2,0:0|0:0|0:0,0:0:0:0:
292,96,81364,1,8,0:0:0:0:
396,96,81534,1,8,0:0:0:0:
132,348,81697,6,0,L|98:255,1,90,6|0,0:0|0:0,0:0:0:0:
328,252,82035,1,8,0:0:0:0:
84,76,82205,2,0,L|20:152,1,90,6|0,0:0|0:0,0:0:0:0:
140,188,82544,1,8,0:0:0:0:
368,212,82713,5,6,0:0:0:0:
232,208,82883,1,0,0:0:0:0:
232,68,83052,1,8,0:0:0:0:
480,236,83222,1,6,0:0:0:0:
480,128,83391,1,0,0:0:0:0:
360,128,83561,1,8,0:0:0:0:
80,120,83730,6,0,L|188:132,1,90,6|0,0:0|0:0,0:0:0:0:
416,140,84069,2,0,L|432:48,1,90,6|0,0:0|0:0,0:0:0:0:
168,120,84408,5,6,0:0:0:0:
396,228,84578,2,0,L|356:320,1,90,0|8,0:0|0:0,0:0:0:0:
128,232,84917,1,6,0:0:0:0:
356,120,85086,2,0,L|452:88,1,90,0|8,0:0|0:0,0:0:0:0:
152,312,85425,5,6,0:0:0:0:
256,192,85595,12,0,88476,0:0:0:0:
