osu file format v14

[General]
AudioFilename: audio.mp3
AudioLeadIn: 0
PreviewTime: 61014
Countdown: 0
SampleSet: Soft
StackLeniency: 0.7
Mode: 2
LetterboxInBreaks: 0
WidescreenStoryboard: 1

[Editor]
Bookmarks: 27445
DistanceSpacing: 1.4
BeatDivisor: 4
GridSize: 16
TimelineZoom: 2.999999

[Metadata]
Title:Kibou no Uta (TV Size)
TitleUnicode:希望の唄 (TV Size)
Artist:ULTRA TOWER
ArtistUnicode:ウルトラタワー
Creator:Ponchiwi
Version:Cup
Source:食戟のソーマ
Tags:Shokugeki No Soma opening rew0825 eINess
BeatmapID:1697864
BeatmapSetID:809126

[Difficulty]
HPDrainRate:3
CircleSize:2
OverallDifficulty:6
ApproachRate:6
SliderMultiplier:1.2
SliderTickRate:1

[Events]
//Background and Video events
0,0,"Shokugeki-no-Soma-Desktop-Backgrounds.jpg",0,0
//Break Periods
//Storyboard Layer 0 (Background)
//Storyboard Layer 1 (Fail)
//Storyboard Layer 2 (Pass)
//Storyboard Layer 3 (Foreground)
//Storyboard Sound Samples

[TimingPoints]
355,338.983050847458,4,2,2,40,1,0
1369,-125,4,2,2,40,0,0
13912,-111.111111111111,4,2,1,50,0,0
22022,338.983050847458,4,2,1,50,1,0
39659,338.983050847458,4,2,1,50,1,0
57297,338.983050847458,4,2,1,50,1,0
62720,-100,4,2,1,50,0,1
81697,338.983050847458,4,2,1,50,1,0
88476,-100,4,2,1,20,0,0

[Colours]
Combo1 : 106,106,106
Combo2 : 255,111,111
Combo3 : 159,249,253
Combo4 : 192,192,192

[HitObjects]
216,224,1371,5,0,0:0:0:0:
72,228,1710,2,0,P|72:124|144:100,1,192,2|2,0:0|0:0,0:0:0:0:
256,100,2727,1,0,0:0:0:0:
408,144,3066,6,0,P|382:290|252:328,1,288,2|2,0:0|0:0,0:0:0:0:
368,212,4422,2,0,P|360:124|260:80,1,192,2|2,0:0|0:0,0:0:0:0:
61,327,5778,6,0,P|64:192|204:172,1,288,2|2,0:0|0:0,0:0:0:0:
336,248,7134,2,0,P|424:188|416:100,1,192,2|2,0:0|0:0,0:0:0:0:
208,320,8490,6,0,P|77:299|83:168,1,288,2|2,0:0|0:0,0:0:0:0:
239,171,9846,2,0,P|262:126|232:96,1,96,2|0,0:0|0:0,0:0:0:0:
84,72,10524,1,2,0:0:0:0:
238,296,10863,6,0,P|236:220|141:170,1,192,2|0,0:0|0:0,0:0:0:0:
332,60,12219,1,2,0:0:0:0:
456,152,12558,6,0,P|464:228|360:284,1,192,2|2,0:0|0:0,0:0:0:0:
256,288,13575,1,2,0:0:0:0:
88,88,13914,6,0,L|204:88,2,107.999996704102,6|2|2,0:0|0:0|0:0,0:0:0:0:
252,228,14931,1,2,0:0:0:0:
112,196,15270,6,0,L|112:312,1,107.999996704102,6|2,0:0|0:0,0:0:0:0:
264,168,15948,2,0,L|264:56,1,107.999996704102,2|0,0:0|0:0,0:0:0:0:
440,184,16626,6,0,P|456:264|340:308,1,215.999993408203,6|2,0:0|0:0,0:0:0:0:
244,224,17643,1,2,0:0:0:0:
112,112,17982,6,0,L|224:112,1,107.999996704102,6|2,0:0|0:0,0:0:0:0:
380,176,18660,2,0,L|268:176,1,107.999996704102,2|2,0:0|0:0,0:0:0:0:
96,208,19338,6,0,P|84:120|200:88,1,215.999993408203,6|8,0:0|0:0,0:0:0:0:
352,168,20355,2,0,L|352:280,1,107.999996704102,8|12,0:0|0:0,0:0:0:0:
172,264,22022,6,0,P|84:252|68:160,1,180,6|6,0:0|0:0,0:0:0:0:
300,96,23038,2,0,P|387:158|393:228,1,180,6|6,0:0|0:0,0:0:0:0:
175,222,24055,2,0,P|182:282|239:306,1,120,6|6,0:0|0:0,0:0:0:0:
423,206,24733,6,0,P|421:135|338:73,1,180,6|6,0:0|0:0,0:0:0:0:
116,215,25750,2,0,P|127:312|215:326,1,180,6|6,0:0|0:0,0:0:0:0:
406,68,26767,2,0,L|407:209,1,120,6|12,0:0|0:0,0:0:0:0:
226,73,27445,6,0,P|118:112|95:225,1,240,6|2,0:0|0:0,0:0:0:0:
208,231,28462,1,8,0:0:0:0:
376,320,28801,6,0,L|236:320,1,120,6|8,0:0|0:0,0:0:0:0:
104,244,29479,2,0,P|112:176|176:156,1,120,0|8,0:0|0:0,0:0:0:0:
340,96,30157,6,0,P|444:136|456:268,1,240,6|2,0:0|0:0,0:0:0:0:
372,320,31174,1,8,0:0:0:0:
200,324,31513,6,0,P|90:297|82:185,1,240,6|2,0:0|0:0,0:0:0:0:
216,176,32530,1,8,0:0:0:0:
376,100,32869,6,0,L|192:56,2,180,6|0|8,0:0|0:0|0:0,0:0:0:0:
248,248,34225,2,0,L|432:296,2,180,6|2|8,0:0|0:0|0:0,0:0:0:0:
84,152,35581,6,0,P|64:184|264:272,1,360,6|8,0:0|0:0,0:0:0:0:
148,136,36937,2,0,P|240:124|296:52,2,180,6|2|8,0:0|0:0|0:0,0:0:0:0:
316,312,38293,6,0,P|316:224|180:180,1,240,6|2,0:0|0:0,0:0:0:0:
336,188,39310,1,8,0:0:0:0:
168,304,39659,6,0,L|168:180,1,120,6|8,0:0|0:0,0:0:0:0:
352,188,40336,2,0,L|352:316,1,120,0|8,0:0|0:0,0:0:0:0:
176,296,41014,6,0,L|20:192,2,180,6|0|8,0:0|0:0|0:0,0:0:0:0:
336,188,42370,2,0,P|248:60|168:200,1,360,6|8,0:0|0:0,0:0:0:0:
300,292,43726,5,6,0:0:0:0:
144,292,44065,2,0,P|76:216|152:124,1,240,8|8,0:0|0:0,0:0:0:0:
300,184,45082,2,0,L|460:88,2,180,6|2|8,0:0|0:0|0:0,0:0:0:0:
120,216,46438,6,0,L|120:344,1,120,6|8,0:0|0:0,0:0:0:0:
272,200,47116,2,0,L|272:64,1,120,2|8,0:0|0:0,0:0:0:0:
448,200,47794,6,0,P|455:309|347:330,1,240,6|0,0:0|0:0,0:0:0:0:
240,240,48811,1,8,0:0:0:0:
60,248,49150,6,0,P|56:120|253:116,1,360,6|8,0:0|0:0,0:0:0:0:
376,248,50506,5,6,0:0:0:0:
236,244,50845,1,8,0:0:0:0:
376,248,51184,1,0,0:0:0:0:
376,248,51523,1,8,0:0:0:0:
185,62,51862,6,0,P|75:93|54:209,1,240,6|2,0:0|0:0,0:0:0:0:
117,331,52879,1,8,0:0:0:0:
276,216,53218,6,0,L|392:268,1,120,6|8,0:0|0:0,0:0:0:0:
248,312,53896,2,0,L|136:264,1,120,0|8,0:0|0:0,0:0:0:0:
304,120,54574,6,0,P|408:160|404:296,1,240,6|2,0:0|0:0,0:0:0:0:
300,336,55591,1,8,0:0:0:0:
132,332,55930,6,0,L|132:204,1,120,6|8,0:0|0:0,0:0:0:0:
296,172,56608,2,0,L|296:44,1,120,2|8,0:0|0:0,0:0:0:0:
104,164,57297,6,0,P|132:296|332:272,1,360,6|8,0:0|0:0,0:0:0:0:
204,116,58652,2,0,L|325:116,1,120,6|8,0:0|0:0,0:0:0:0:
476,114,59330,1,2,0:0:0:0:
323,119,59669,1,8,0:0:0:0:
458,272,60008,6,0,P|441:174|309:121,1,240,6|2,0:0|0:0,0:0:0:0:
190,114,61025,1,8,0:0:0:0:
57,114,61364,5,4,0:1:0:0:
326,107,62381,1,8,0:0:0:0:
176,104,62720,6,0,P|192:208|332:220,1,240,6|2,0:0|0:0,0:0:0:0:
184,336,63737,1,8,0:0:0:0:
352,172,64076,6,0,L|352:52,1,120,6|8,0:0|0:0,0:0:0:0:
180,152,64754,2,0,L|180:276,1,120,2|8,0:0|0:0,0:0:0:0:
368,276,65432,6,0,P|379:173|260:120,1,240,6|2,0:0|0:0,0:0:0:0:
420,56,66449,1,8,0:0:0:0:
272,244,66788,5,6,0:0:0:0:
140,240,67127,1,8,0:0:0:0:
272,244,67466,1,2,0:0:0:0:
408,248,67805,1,8,0:0:0:0:
243,104,68144,6,0,P|152:147|146:274,1,240,6|2,0:0|0:0,0:0:0:0:
296,281,69161,1,8,0:0:0:0:
146,274,69500,2,0,L|22:274,2,120,6|8|2,0:0|0:0|0:0,0:0:0:0:
314,72,70517,6,0,P|426:137|413:254,1,240,8|8,0:0|0:0,0:0:0:0:
328,335,71534,1,2,0:0:0:0:
172,184,71873,6,0,L|184:60,1,120,8|6,0:0|0:0,0:0:0:0:
68,268,72551,1,8,0:0:0:0:
240,212,72890,2,0,L|228:332,1,120,2|8,0:0|0:0,0:0:0:0:
72,196,73568,6,0,P|82:84|192:62,1,240,6|2,0:0|0:0,0:0:0:0:
320,64,74585,1,8,0:0:0:0:
176,180,74924,6,0,P|128:228|140:284,1,120,6|8,0:0|0:0,0:0:0:0:
316,320,75602,2,0,P|356:280|348:212,1,120,2|8,0:0|0:0,0:0:0:0:
180,120,76280,6,0,P|92:164|112:288,1,240,6|2,0:0|0:0,0:0:0:0:
240,304,77297,1,8,0:0:0:0:
400,192,77635,6,0,L|400:320,1,120,6|8,0:0|0:0,0:0:0:0:
224,64,78313,2,0,L|224:184,1,120,2|8,0:0|0:0,0:0:0:0:
400,312,78991,6,0,P|401:217|276:161,1,240,6|2,0:0|0:0,0:0:0:0:
140,156,80008,1,8,0:0:0:0:
306,111,80347,6,0,L|430:115,1,120,6|8,0:0|0:0,0:0:0:0:
241,198,81025,2,0,L|240:318,1,120,2|8,0:0|0:0,0:0:0:0:
436,140,81697,6,0,L|260:96,1,180,6|6,0:0|0:0,0:0:0:0:
52,220,82713,2,0,L|232:268,1,180,6|6,0:0|0:0,0:0:0:0:
388,180,83730,6,0,L|372:320,1,120,6|6,0:0|0:0,0:0:0:0:
204,296,84408,1,6,0:0:0:0:
416,308,84917,1,6,0:0:0:0:
164,296,85425,5,6,0:0:0:0:
256,192,85764,12,0,88476,0:0:0:0:
