osu file format v14

[General]
AudioFilename: audio.mp3
AudioLeadIn: 0
PreviewTime: 61014
Countdown: 0
SampleSet: Soft
StackLeniency: 0.7
Mode: 0
LetterboxInBreaks: 0
WidescreenStoryboard: 1

[Editor]
Bookmarks: 27445,81697
DistanceSpacing: 1
BeatDivisor: 4
GridSize: 32
TimelineZoom: 1.2

[Metadata]
Title:Kibou no Uta (TV Size)
TitleUnicode:希望の唄 (TV Size)
Artist:ULTRA TOWER
ArtistUnicode:ULTRA TOWER
Creator:Cayssa
Version:bigfrog's Normal
Source:食戟のソーマ
Tags:wolf3211 bigfrog SirMirai Anime Japanese op opening 1 Food Wars shokugeki no soma nakiri erina yukihira souma
BeatmapID:2336370
BeatmapSetID:1116303

[Difficulty]
HPDrainRate:3.5
CircleSize:3.2
OverallDifficulty:4
ApproachRate:5.5
SliderMultiplier:1.25
SliderTickRate:1

[Events]
//Background and Video events
0,0,"Rough Diamonds.jpg",0,0
Video,0,"Shokugeki.mp4"
//Break Periods
//Storyboard Layer 0 (Background)
//Storyboard Layer 1 (Fail)
//Storyboard Layer 2 (Pass)
//Storyboard Layer 3 (Foreground)
//Storyboard Layer 4 (Overlay)
//Storyboard Sound Samples

[TimingPoints]
435,338.983050847458,4,2,1,35,1,0
1451,-125,4,2,1,35,0,0
3146,-125,4,2,1,60,0,0
13994,-111.111111111111,4,2,1,60,0,0
19587,-111.111111111111,4,2,1,40,0,0
20096,-111.111111111111,4,2,1,50,0,0
20435,-111.111111111111,4,2,1,60,0,0
22104,338.983050847458,4,2,1,70,1,0
22104,-100,4,2,1,70,0,0
27527,-111.111111111111,4,2,1,50,0,0
49137,-111.111111111111,4,2,1,5,0,0
49232,338.983050847458,4,2,1,50,1,0
49232,-111.111111111111,4,2,1,50,0,0
61446,338.983050847458,4,2,1,50,1,0
61446,-111.111111111111,4,2,1,50,0,0
62801,-100,4,2,1,70,0,1
75259,-100,4,2,1,5,0,1
75344,-100,4,2,1,70,0,1
81779,338.983050847458,4,2,1,50,1,0
88897,-100,4,2,1,5,0,0

[Colours]
Combo1 : 251,179,224
Combo2 : 255,213,128
Combo3 : 240,135,100
Combo4 : 176,140,236

[HitObjects]
106,319,1451,5,2,0:0:0:0:
176,247,1790,2,0,P|184:189|173:126,1,100,2|2,0:0|0:0,0:0:0:0:
91,99,2468,2,0,P|84:152|92:205,1,100,2|2,0:0|0:0,0:0:0:0:
179,148,3146,2,0,P|282:131|395:154,1,200,2|0,0:0|0:0,0:0:0:0:
449,214,4163,1,2,0:0:0:0:
508,294,4502,5,2,0:0:0:0:
433,358,4841,1,2,0:0:0:0:
373,279,5180,2,0,P|291:266|229:296,1,150,2|0,0:0|0:0,0:0:0:0:
209,338,5858,2,0,P|103:331|58:238,1,200,2|0,0:0|0:0,0:0:0:0:
130,187,6875,1,2,0:0:0:0:
44,134,7214,6,0,P|83:106|152:89,1,100,2|2,0:0|0:0,0:0:0:0:
227,122,7892,2,0,P|292:114|361:54,1,150,2|0,0:0|0:0,0:0:0:0:
394,29,8570,2,0,L|437:237,1,200,2|0,0:0|0:0,0:0:0:0:
512,289,9587,1,2,0:0:0:0:
456,370,9926,5,2,0:0:0:0:
378,309,10265,2,0,L|263:315,1,100,2|2,0:0|0:0,0:0:0:0:
193,367,10943,2,0,B|95:361|95:361|48:334,1,150,2|2,0:0|0:0,0:0:0:0:
37,286,11621,2,0,L|53:177,1,100,2|0,0:0|0:0,0:0:0:0:
17,92,12299,1,2,0:0:0:0:
115,108,12638,6,0,L|228:128,1,100,2|2,0:0|0:0,0:0:0:0:
249,219,13316,2,0,L|346:190,1,100,2|2,0:0|0:0,0:0:0:0:
435,257,13994,6,0,P|444:150|343:80,1,224.999993133545,2|0,3:2|3:2,0:0:0:0:
248,102,15011,1,2,3:2:0:0:
146,52,15350,2,0,P|141:137|156:170,1,112.499996566773,2|2,3:2|3:2,0:0:0:0:
250,212,16028,2,0,P|259:271|240:328,1,112.499996566773,2|0,3:2|3:2,0:0:0:0:
144,366,16706,6,0,P|108:257|158:153,1,224.999993133545,2|0,3:2|3:2,0:0:0:0:
250,212,17723,1,2,3:2:0:0:
334,137,18062,2,0,L|451:127,1,112.499996566773,2|2,3:2|3:2,0:0:0:0:
409,20,18740,2,0,L|288:31,1,112.499996566773,2|0,3:2|3:2,0:0:0:0:
188,63,19418,6,0,P|183:114|215:173,1,112.499996566773,6|8,0:0|0:0,0:0:0:0:
240,276,20096,2,0,L|178:271,1,56.2499982833863,8|8,0:0|0:0,0:0:0:0:
127,271,20435,2,0,L|67:280,1,56.2499982833863,10|8,0:0|0:0,0:0:0:0:
24,309,20773,5,6,0:0:0:0:
24,309,22104,6,0,L|60:185,1,125,12|0,0:0|3:2,0:0:0:0:
121,196,22612,2,0,L|85:72,1,125,12|0,0:0|3:2,0:0:0:0:
80,13,23120,1,12,0:0:0:0:
204,2,23459,1,0,3:2:0:0:
204,2,23629,2,0,P|251:13|313:68,1,125,12|0,0:0|3:2,0:0:0:0:
343,113,24137,2,0,P|390:79|464:70,1,125,8|8,0:0|0:0,0:0:0:0:
493,188,24815,6,0,L|447:329,1,125,12|0,0:0|3:2,0:0:0:0:
391,295,25324,2,0,L|261:348,1,125,12|0,0:0|3:0,0:0:0:0:
220,312,25832,1,12,0:0:0:0:
259,193,26171,1,0,3:2:0:0:
259,193,26341,2,0,P|243:137|189:86,1,125,12|0,0:0|3:2,0:0:0:0:
134,88,26849,2,0,P|94:126|73:199,1,125,12|8,0:0|0:0,0:0:0:0:
99,300,27527,6,0,L|218:291,1,112.499996566773,6|8,3:2|0:0,0:0:0:0:
319,260,28205,2,0,L|375:265,1,56.2499982833863,0|2,3:2|3:2,0:0:0:0:
417,302,28544,1,8,0:0:0:0:
491,218,28883,1,2,3:2:0:0:
453,111,29222,2,0,L|392:107,1,56.2499982833863,10|0,0:0|3:2,0:0:0:0:
344,85,29561,2,0,L|287:88,2,56.2499982833863,2|0|10,0:0|3:1|0:0,0:0:0:0:
323,196,30239,6,0,P|266:196|209:175,1,112.499996566773,6|10,3:2|0:0,0:0:0:0:
117,236,30917,2,0,P|101:205|100:174,1,56.2499982833863,0|2,3:2|0:0,0:0:0:0:
107,128,31256,1,8,0:0:0:0:
48,32,31595,1,2,3:2:0:0:
158,33,31934,2,0,L|220:47,1,56.2499982833863,10|2,0:0|3:2,0:0:0:0:
269,46,32273,2,0,L|343:34,2,56.2499982833863,0|0|10,0:0|3:2|0:0,0:0:0:0:
217,146,32951,6,0,P|272:153|329:145,1,112.499996566773,6|10,3:2|0:0,0:0:0:0:
422,83,33629,1,2,3:2:0:0:
500,163,33968,2,0,L|492:228,1,56.2499982833863,8|0,0:0|0:0,0:0:0:0:
436,231,34307,2,0,L|424:354,1,112.499996566773,2|10,3:2|0:0,0:0:0:0:
371,361,34815,1,2,3:2:0:0:
275,306,35154,1,2,3:2:0:0:
275,306,35324,2,0,L|281:246,1,56.2499982833863,8|0,0:0|0:0,0:0:0:0:
285,194,35663,6,0,P|232:191|169:224,1,112.499996566773,6|10,3:2|0:0,0:0:0:0:
114,309,36341,2,0,P|89:286|78:246,1,56.2499982833863,2|0,3:2|3:2,0:0:0:0:
55,215,36680,1,8,2:0:0:0:
7,113,37019,2,0,L|125:115,1,112.499996566773,2|8,3:2|0:0,0:0:0:0:
170,91,37527,1,2,3:2:0:0:
230,186,37866,2,0,L|295:187,1,56.2499982833863,2|8,3:2|0:0,0:0:0:0:
326,81,38375,6,0,P|381:66|425:32,1,112.499996566773,6|10,3:2|0:0,0:0:0:0:
508,106,39053,1,0,3:2:0:0:
438,194,39392,2,0,P|402:187|373:175,1,56.2499982833863,8|0,0:0|0:0,0:0:0:0:
327,183,39731,2,0,L|335:297,1,112.499996566773,2|10,3:2|0:0,0:0:0:0:
236,352,40409,2,0,L|229:237,1,112.499996566773,2|10,0:0|0:0,0:0:0:0:
142,168,41087,6,0,P|79:163|19:183,1,112.499996566773,6|10,3:2|0:0,0:0:0:0:
19,288,41765,2,0,P|52:286|82:278,1,56.2499982833863,0|2,3:2|3:2,0:0:0:0:
130,281,42104,1,8,0:0:0:0:
142,168,42442,2,0,L|134:49,1,112.499996566773,2|8,3:2|0:0,0:0:0:0:
24,30,43120,2,0,L|26:103,2,56.2499982833863,2|2|8,0:0|3:2|0:0,0:0:0:0:
134,55,43798,6,0,P|181:55|245:21,1,112.499996566773,6|8,3:2|0:0,0:0:0:0:
349,48,44476,2,0,P|351:81|344:117,1,56.2499982833863,0|0,3:2|3:2,0:0:0:0:
319,152,44815,1,10,0:0:0:0:
413,222,45154,2,0,P|424:280|409:338,1,112.499996566773,2|10,3:2|0:0,0:0:0:0:
357,347,45663,2,0,P|302:329|246:340,1,112.499996566773,2|2,3:2|3:2,0:0:0:0:
199,364,46171,1,8,0:0:0:0:
110,294,46510,6,0,L|105:160,1,112.499996566773,6|8,3:2|0:0,0:0:0:0:
109,68,47188,2,0,L|40:81,2,56.2499982833863,0|0|10,3:2|3:2|0:0,0:0:0:0:
205,126,47866,2,0,L|319:145,1,112.499996566773,2|8,3:2|0:0,0:0:0:0:
415,198,48544,2,0,P|414:96|401:74,1,112.499996566773,2|10,0:0|0:0,0:0:0:0:
311,34,49232,5,6,0:0:0:0:
195,34,49570,2,0,L|126:39,1,56.2499982833863,10|2,0:0|0:0,0:0:0:0:
96,75,49909,2,0,L|83:134,2,56.2499982833863,0|2|8,3:2|3:2|0:0,0:0:0:0:
187,140,50587,2,0,L|163:251,1,112.499996566773,2|10,3:2|0:0,0:0:0:0:
115,281,51096,1,0,3:2:0:0:
115,281,51265,2,0,L|101:348,2,56.2499982833863,2|0|8,0:0|3:2|0:0,0:0:0:0:
213,335,51943,6,0,P|241:333|322:296,1,112.499996566773,2|10,3:2|0:0,0:0:0:0:
389,212,52621,2,0,L|428:256,1,56.2499982833863,0|2,3:2|3:2,0:0:0:0:
430,310,52960,1,8,0:0:0:0:
317,299,53299,2,0,P|287:261|275:190,1,112.499996566773,2|8,3:2|0:0,0:0:0:0:
292,145,53808,1,0,3:2:0:0:
292,145,53977,2,0,L|342:101,2,56.2499982833863,2|0|8,0:0|3:2|0:0,0:0:0:0:
179,135,54655,5,2,3:2:0:0:
100,54,54994,1,10,0:0:0:0:
100,54,55164,2,0,P|72:98|73:168,1,112.499996566773,2|2,0:0|3:2,0:0:0:0:
90,209,55672,1,8,0:0:0:0:
74,320,56011,2,0,P|126:306|200:327,1,112.499996566773,2|10,3:2|0:0,0:0:0:0:
288,355,56689,2,0,P|314:341|339:315,1,56.2499982833863,2|0,0:0|3:2,0:0:0:0:
354,270,57028,1,10,0:0:0:0:
306,169,57367,6,0,P|248:115|238:67,1,112.499996566773,6|8,3:2|0:0,0:0:0:0:
350,65,58045,2,0,L|421:67,2,56.2499982833863,0|0|8,3:2|3:2|0:0,0:0:0:0:
239,85,58723,1,2,3:2:0:0:
141,28,59062,1,10,0:0:0:0:
37,72,59401,2,0,L|37:133,2,56.2499982833863,2|0|10,3:2|3:2|0:0,0:0:0:0:
141,28,60079,6,0,L|138:145,1,112.499996566773,4|8,3:2|0:0,0:0:0:0:
128,252,60757,2,0,L|185:243,1,56.2499982833863,2|2,3:2|3:2,0:0:0:0:
215,289,61096,2,0,L|270:298,1,56.2499982833863,10|2,3:2|3:2,0:0:0:0:
314,339,61446,5,6,0:0:0:0:
420,302,61784,1,2,0:0:0:0:
397,191,62123,2,0,P|397:137|433:83,1,112.499996566773,2|4,0:0|0:3,0:0:0:0:
305,115,62801,6,0,P|233:101|186:61,1,125,4|8,3:2|0:0,0:0:0:0:
75,28,63479,1,0,3:2:0:0:
32,145,63818,2,0,L|34:212,1,62.5,10|0,0:0|0:0,0:0:0:0:
89,236,64157,2,0,B|148:224|148:224|222:238,1,125,2|8,3:2|0:0,0:0:0:0:
218,361,64835,2,0,L|152:350,2,62.5,2|0|8,3:2|3:2|0:0,0:0:0:0:
342,347,65513,6,0,P|377:282|373:224,1,125,6|8,3:2|0:0,0:0:0:0:
291,134,66191,2,0,P|284:103|289:60,1,62.5,0|0,3:2|3:2,0:0:0:0:
331,29,66530,1,10,0:0:0:0:
421,114,66869,1,2,3:2:0:0:
375,232,67208,1,10,0:0:0:0:
291,134,67547,2,0,P|261:133|213:147,2,62.5,2|0|8,3:2|3:2|0:0,0:0:0:0:
268,257,68225,6,0,P|208:262|150:234,1,125,6|8,3:2|0:0,0:0:0:0:
78,132,68903,1,0,3:2:0:0:
20,242,69242,2,0,L|41:303,1,62.5,10|0,0:0|0:0,0:0:0:0:
93,333,69581,2,0,P|149:359|210:355,1,125,2|10,3:2|0:0,0:0:0:0:
285,254,70259,1,2,3:2:0:0:
225,144,70598,2,0,L|286:134,1,62.5,10|0,0:0|3:2,0:0:0:0:
349,135,70937,6,0,P|385:163|412:236,1,125,6|10,3:2|0:0,0:0:0:0:
366,350,71615,2,0,L|429:359,2,62.5,0|0|10,0:0|3:2|0:0,0:0:0:0:
285,254,72293,2,0,L|160:272,1,125,2|10,3:2|0:0,0:0:0:0:
63,350,72971,1,2,3:2:0:0:
23,231,73310,2,0,L|21:162,1,62.5,10|0,0:0|0:0,0:0:0:0:
68,127,73649,6,0,P|112:145|201:130,1,125,6|8,3:2|0:0,0:0:0:0:
271,43,74327,1,0,3:2:0:0:
304,163,74666,2,0,P|295:194|275:222,1,62.5,10|0,0:0|0:0,0:0:0:0:
262,279,75005,2,0,P|320:298|382:290,1,125,2|10,3:2|0:0,0:0:0:0:
499,333,75683,2,0,P|506:303|502:269,1,62.5,2|0,3:2|3:2,0:0:0:0:
478,214,76022,1,8,0:0:0:0:
498,90,76361,6,0,L|360:108,1,125,6|8,3:2|0:0,0:0:0:0:
270,35,77039,1,0,3:2:0:0:
176,117,77378,2,0,L|113:110,1,62.5,10|0,0:0|0:0,0:0:0:0:
76,59,77717,1,2,3:2:0:0:
12,166,78056,1,8,0:0:0:0:
118,231,78395,2,0,P|137:282|117:364,1,125,2|10,3:2|0:0,0:0:0:0:
239,299,79073,6,0,P|296:288|363:308,1,125,6|8,3:2|0:0,0:0:0:0:
467,369,79751,1,0,3:2:0:0:
497,247,80090,1,10,0:0:0:0:
391,179,80429,2,0,L|357:41,1,125,2|10,3:2|0:0,0:0:0:0:
312,17,80937,2,0,L|180:31,1,125,2|2,0:0|3:2,0:0:0:0:
156,85,81446,1,8,0:0:0:0:
46,29,81779,6,0,B|26:82|26:82|49:146,1,125,12|0,0:0|3:2,0:0:0:0:
106,172,82287,2,0,B|125:226|125:226|102:290,1,125,12|0,0:0|3:2,0:0:0:0:
75,346,82795,1,12,0:0:0:0:
199,358,83134,1,0,3:2:0:0:
199,358,83304,2,0,L|240:240,1,125,12|0,0:0|3:2,0:0:0:0:
299,219,83812,2,0,L|245:97,1,125,8|8,0:0|0:0,0:0:0:0:
364,56,84490,6,0,P|390:104|456:137,1,125,12|0,0:0|3:2,0:0:0:0:
460,198,84999,2,0,P|406:229|379:284,1,125,12|0,0:0|3:2,0:0:0:0:
398,344,85507,1,12,0:0:0:0:
256,192,85677,12,0,88897,0:0:0:0:
